  0
SECTION
  2
HEADER
  9
$ACADVER
  1
AC1014
  9
$ACADMAINTVER
 70
     9
  9
$DWGCODEPAGE
  3
ANSI_1252
  9
$INSBASE
 10
20.91842175499281
 20
-13.08058194422785
 30
0.0
  9
$EXTMIN
 10
12.37967312707154
 20
-14.45950267686515
 30
0.0
  9
$EXTMAX
 10
31.6837957396227
 20
-5.808404265281788
 30
0.0
  9
$LIMMIN
 10
0.0
 20
0.0
  9
$LIMMAX
 10
36.0
 20
36.0
  9
$ORTHOMODE
 70
     1
  9
$REGENMODE
 70
     1
  9
$FILLMODE
 70
     1
  9
$QTEXTMODE
 70
     0
  9
$MIRRTEXT
 70
     1
  9
$DRAGMODE
 70
     0
  9
$LTSCALE
 40
1.0
  9
$OSMODE
 70
    37
  9
$ATTMODE
 70
     1
  9
$TEXTSIZE
 40
0.2
  9
$TRACEWID
 40
0.05
  9
$TEXTSTYLE
  7
STANDARD
  9
$CLAYER
  8
ADPDIM
  9
$CELTYPE
  6
BYLAYER
  9
$CECOLOR
 62
   256
  9
$CELTSCALE
 40
1.0
  9
$DELOBJ
 70
     1
  9
$DISPSILH
 70
     0
  9
$DIMSCALE
 40
1.0
  9
$DIMASZ
 40
0.125
  9
$DIMEXO
 40
0.0625
  9
$DIMDLI
 40
0.38
  9
$DIMRND
 40
0.0
  9
$DIMDLE
 40
0.0
  9
$DIMEXE
 40
0.18
  9
$DIMTP
 40
0.0
  9
$DIMTM
 40
0.0
  9
$DIMTXT
 40
0.125
  9
$DIMCEN
 40
0.1875
  9
$DIMTSZ
 40
0.125
  9
$DIMTOL
 70
     0
  9
$DIMLIM
 70
     0
  9
$DIMTIH
 70
     0
  9
$DIMTOH
 70
     0
  9
$DIMSE1
 70
     0
  9
$DIMSE2
 70
     0
  9
$DIMTAD
 70
     0
  9
$DIMZIN
 70
     3
  9
$DIMBLK
  1

  9
$DIMASO
 70
     1
  9
$DIMSHO
 70
     1
  9
$DIMPOST
  1

  9
$DIMAPOST
  1

  9
$DIMALT
 70
     0
  9
$DIMALTD
 70
     1
  9
$DIMALTF
 40
25.4
  9
$DIMLFAC
 40
1.0
  9
$DIMTOFL
 70
     0
  9
$DIMTVP
 40
0.0
  9
$DIMTIX
 70
     0
  9
$DIMSOXD
 70
     0
  9
$DIMSAH
 70
     0
  9
$DIMBLK1
  1

  9
$DIMBLK2
  1

  9
$DIMSTYLE
  2
STANDARD
  9
$DIMCLRD
 70
     0
  9
$DIMCLRE
 70
     0
  9
$DIMCLRT
 70
     0
  9
$DIMTFAC
 40
1.0
  9
$DIMGAP
 40
0.125
  9
$DIMJUST
 70
     0
  9
$DIMSD1
 70
     0
  9
$DIMSD2
 70
     0
  9
$DIMTOLJ
 70
     1
  9
$DIMTZIN
 70
     0
  9
$DIMALTZ
 70
     0
  9
$DIMALTTZ
 70
     0
  9
$DIMFIT
 70
     3
  9
$DIMUPT
 70
     0
  9
$DIMUNIT
 70
     2
  9
$DIMDEC
 70
     4
  9
$DIMTDEC
 70
     4
  9
$DIMALTU
 70
     2
  9
$DIMALTTD
 70
     2
  9
$DIMTXSTY
  7
STANDARD
  9
$DIMAUNIT
 70
     0
  9
$LUNITS
 70
     5
  9
$LUPREC
 70
     4
  9
$SKETCHINC
 40
0.1
  9
$FILLETRAD
 40
0.01
  9
$AUNITS
 70
     0
  9
$AUPREC
 70
     0
  9
$MENU
  1
acad
  9
$ELEVATION
 40
0.0
  9
$PELEVATION
 40
0.0
  9
$THICKNESS
 40
0.0
  9
$LIMCHECK
 70
     0
  9
$BLIPMODE
 70
     0
  9
$CHAMFERA
 40
0.0
  9
$CHAMFERB
 40
0.0
  9
$CHAMFERC
 40
0.0
  9
$CHAMFERD
 40
0.0
  9
$SKPOLY
 70
     0
  9
$TDCREATE
 40
2450332.687498067
  9
$TDUPDATE
 40
2452297.078806956
  9
$TDINDWG
 40
0.0379510995
  9
$TDUSRTIMER
 40
0.0379510995
  9
$USRTIMER
 70
     1
  9
$ANGBASE
 50
0.0
  9
$ANGDIR
 70
     0
  9
$PDMODE
 70
     0
  9
$PDSIZE
 40
0.0
  9
$PLINEWID
 40
0.0
  9
$COORDS
 70
     2
  9
$SPLFRAME
 70
     0
  9
$SPLINETYPE
 70
     6
  9
$SPLINESEGS
 70
     8
  9
$ATTDIA
 70
     0
  9
$ATTREQ
 70
     1
  9
$HANDLING
 70
 22529
  9
$HANDSEED
  5
240
  9
$SURFTAB1
 70
     6
  9
$SURFTAB2
 70
     6
  9
$SURFTYPE
 70
     6
  9
$SURFU
 70
     6
  9
$SURFV
 70
     6
  9
$UCSNAME
  2

  9
$UCSORG
 10
0.0
 20
0.0
 30
0.0
  9
$UCSXDIR
 10
1.0
 20
0.0
 30
0.0
  9
$UCSYDIR
 10
0.0
 20
1.0
 30
0.0
  9
$PUCSNAME
  2

  9
$PUCSORG
 10
0.0
 20
0.0
 30
0.0
  9
$PUCSXDIR
 10
1.0
 20
0.0
 30
0.0
  9
$PUCSYDIR
 10
0.0
 20
1.0
 30
0.0
  9
$USERI1
 70
     0
  9
$USERI2
 70
     0
  9
$USERI3
 70
     0
  9
$USERI4
 70
     0
  9
$USERI5
 70
     0
  9
$USERR1
 40
0.0
  9
$USERR2
 40
0.0
  9
$USERR3
 40
0.0
  9
$USERR4
 40
0.0
  9
$USERR5
 40
0.0
  9
$WORLDVIEW
 70
     1
  9
$SHADEDGE
 70
     3
  9
$SHADEDIF
 70
    70
  9
$TILEMODE
 70
     1
  9
$MAXACTVP
 70
    15
  9
$PINSBASE
 10
0.0
 20
0.0
 30
0.0
  9
$PLIMCHECK
 70
     0
  9
$PEXTMIN
 10
1.000000000000000E+20
 20
1.000000000000000E+20
 30
1.000000000000000E+20
  9
$PEXTMAX
 10
-1.000000000000000E+20
 20
-1.000000000000000E+20
 30
-1.000000000000000E+20
  9
$PLIMMIN
 10
0.0
 20
0.0
  9
$PLIMMAX
 10
12.0
 20
9.0
  9
$UNITMODE
 70
     0
  9
$VISRETAIN
 70
     0
  9
$PLINEGEN
 70
     0
  9
$PSLTSCALE
 70
     1
  9
$TREEDEPTH
 70
  3020
  9
$PICKSTYLE
 70
     1
  9
$CMLSTYLE
  2
STANDARD
  9
$CMLJUST
 70
     0
  9
$CMLSCALE
 40
1.0
  9
$PROXYGRAPHICS
 70
     1
  9
$MEASUREMENT
 70
     0
  0
ENDSEC
  0
SECTION
  2
CLASSES
  0
CLASS
  1
ACDBDICTIONARYWDFLT
  2
AcDbDictionaryWithDefault
  3
AutoCAD 2000
 90
        0
280
     0
281
     0
  0
CLASS
  1
ACDBPLACEHOLDER
  2
AcDbPlaceHolder
  3
AutoCAD 2000
 90
        0
280
     0
281
     0
  0
CLASS
  1
LAYOUT
  2
AcDbLayout
  3
AutoCAD 2000
 90
        0
280
     0
281
     0
  0
CLASS
  1
DICTIONARYVAR
  2
AcDbDictionaryVar
  3
AutoCAD 2000
 90
        0
280
     0
281
     0
  0
CLASS
  1
LONG_TRANSACTION
  2
AcDbLongTransaction
  3
AutoCAD 2000
 90
        0
280
     0
281
     0
  0
CLASS
  1
LWPOLYLINE
  2
AcDbPolyline
  3
AutoCAD 2000
 90
        0
280
     0
281
     1
  0
CLASS
  1
HATCH
  2
AcDbHatch
  3
AutoCAD 2000
 90
        0
280
     0
281
     1
  0
CLASS
  1
XRECORD
  2
AcDbXrecord
  3
AutoCAD 2000
 90
        0
280
     0
281
     0
  0
CLASS
  1
LONG_TRANSACTION
  2
AcDbLongTransaction
  3
AutoCAD 2000
 90
        0
280
     0
281
     0
  0
CLASS
  1
LWPOLYLINE
  2
AcDbPolyline
  3
AutoCAD 2000
 90
        0
280
     0
281
     1
  0
CLASS
  1
HATCH
  2
AcDbHatch
  3
AutoCAD 2000
 90
        0
280
     0
281
     1
  0
CLASS
  1
XRECORD
  2
AcDbXrecord
  3
AutoCAD 2000
 90
        0
280
     0
281
     0
  0
CLASS
  1
LONG_TRANSACTION
  2
AcDbLongTransaction
  3
AutoCAD 2000
 90
        0
280
     0
281
     0
  0
CLASS
  1
LWPOLYLINE
  2
AcDbPolyline
  3
AutoCAD 2000
 90
        0
280
     0
281
     1
  0
CLASS
  1
HATCH
  2
AcDbHatch
  3
AutoCAD 2000
 90
        0
280
     0
281
     1
  0
CLASS
  1
XRECORD
  2
AcDbXrecord
  3
AutoCAD 2000
 90
        0
280
     0
281
     0
  0
CLASS
  1
LONG_TRANSACTION
  2
AcDbLongTransaction
  3
AutoCAD 2000
 90
        0
280
     0
281
     0
  0
CLASS
  1
LWPOLYLINE
  2
AcDbPolyline
  3
AutoCAD 2000
 90
        0
280
     0
281
     1
  0
CLASS
  1
HATCH
  2
AcDbHatch
  3
AutoCAD 2000
 90
        0
280
     0
281
     1
  0
CLASS
  1
XRECORD
  2
AcDbXrecord
  3
AutoCAD 2000
 90
        0
280
     0
281
     0
  0
CLASS
  1
LONG_TRANSACTION
  2
AcDbLongTransaction
  3
AutoCAD 2000
 90
        0
280
     0
281
     0
  0
CLASS
  1
LWPOLYLINE
  2
AcDbPolyline
  3
AutoCAD 2000
 90
        0
280
     0
281
     1
  0
CLASS
  1
HATCH
  2
AcDbHatch
  3
AutoCAD 2000
 90
        0
280
     0
281
     1
  0
CLASS
  1
XRECORD
  2
AcDbXrecord
  3
AutoCAD 2000
 90
        0
280
     0
281
     0
  0
ENDSEC
  0
SECTION
  2
TABLES
  0
TABLE
  2
VPORT
  5
8
330
0
100
AcDbSymbolTable
 70
     2
  0
VPORT
  5
21D
330
8
100
AcDbSymbolTableRecord
100
AcDbViewportTableRecord
  2
*ACTIVE
 70
     0
 10
0.0
 20
0.0
 11
1.0
 21
1.0
 12
22.04756597021766
 22
-10.13398061948326
 13
0.0
 23
0.0
 14
0.5740882589684922
 24
0.5740882589684922
 15
0.5
 25
0.5
 16
0.0
 26
0.0
 36
1.0
 17
0.0
 27
0.0
 37
0.0
 40
12.373267104851
 41
1.570528967254408
 42
50.0
 43
0.0
 44
0.0
 50
0.0
 51
0.0
 71
     0
 72
   100
 73
     1
 74
     1
 75
     0
 76
     0
 77
     0
 78
     0
  0
ENDTAB
  0
TABLE
  2
LTYPE
  5
5
330
0
100
AcDbSymbolTable
 70
     3
  0
LTYPE
  5
12
330
5
100
AcDbSymbolTableRecord
100
AcDbLinetypeTableRecord
  2
BYBLOCK
 70
     0
  3

 72
    65
 73
     0
 40
0.0
  0
LTYPE
  5
13
330
5
100
AcDbSymbolTableRecord
100
AcDbLinetypeTableRecord
  2
BYLAYER
 70
     0
  3

 72
    65
 73
     0
 40
0.0
  0
LTYPE
  5
14
330
5
100
AcDbSymbolTableRecord
100
AcDbLinetypeTableRecord
  2
CONTINUOUS
 70
     0
  3
Solid line
 72
    65
 73
     0
 40
0.0
  0
LTYPE
  5
40
330
5
100
AcDbSymbolTableRecord
100
AcDbLinetypeTableRecord
  2
CENTER2
 70
     0
  3
___ _ ___ _ ___ _ ___ _ ___ _ ___ _ ___ _ ___ _
 72
    65
 73
     4
 40
1.125
 49
0.75
 74
     0
 49
-0.125
 74
     0
 49
0.125
 74
     0
 49
-0.125
 74
     0
  0
LTYPE
  5
4F
330
5
100
AcDbSymbolTableRecord
100
AcDbLinetypeTableRecord
  2
HIDDEN2
 70
     0
  3
_ _ _ _ _ _ _ _ _ _ _ _ _ _ _ _ _ _ _ _ _ _ _ _
 72
    65
 73
     2
 40
0.1875
 49
0.125
 74
     0
 49
-0.0625
 74
     0
  0
ENDTAB
  0
TABLE
  2
LAYER
  5
2
330
0
100
AcDbSymbolTable
 70
     6
  0
LAYER
  5
F
330
2
100
AcDbSymbolTableRecord
100
AcDbLayerTableRecord
  2
0
 70
     0
 62
     7
  6
CONTINUOUS
  0
LAYER
  5
50
330
2
100
AcDbSymbolTableRecord
100
AcDbLayerTableRecord
  2
ADP2DETAIL
 70
     0
 62
     5
  6
CONTINUOUS
  0
LAYER
  5
51
330
2
100
AcDbSymbolTableRecord
100
AcDbLayerTableRecord
  2
ADPDIM
 70
     0
 62
     3
  6
CONTINUOUS
  0
LAYER
  5
53
330
2
100
AcDbSymbolTableRecord
100
AcDbLayerTableRecord
  2
ADP1DETAIL
 70
     0
 62
     7
  6
CONTINUOUS
  0
LAYER
  5
54
330
2
100
AcDbSymbolTableRecord
100
AcDbLayerTableRecord
  2
ADP3DETAIL
 70
     0
 62
     1
  6
CONTINUOUS
  0
LAYER
  5
55
330
2
100
AcDbSymbolTableRecord
100
AcDbLayerTableRecord
  2
DEFPOINTS
 70
     0
 62
     7
  6
CONTINUOUS
  0
ENDTAB
  0
TABLE
  2
STYLE
  5
3
330
0
100
AcDbSymbolTable
 70
     2
  0
STYLE
  5
10
330
3
100
AcDbSymbolTableRecord
100
AcDbTextStyleTableRecord
  2
STANDARD
 70
     0
 40
0.0
 41
1.0
 50
0.0
 71
     0
 42
0.2
  3
txt
  4

  0
STYLE
  5
D9
330
3
100
AcDbSymbolTableRecord
100
AcDbTextStyleTableRecord
  2
ARIAL_WIDE
 70
     0
 40
0.0
 41
1.25
 50
0.0
 71
     0
 42
0.2
  3
ARIAL.TTF
  4

1001
ACAD
1000
Arial
1071
       34
  0
ENDTAB
  0
TABLE
  2
VIEW
  5
6
330
0
100
AcDbSymbolTable
 70
     0
  0
ENDTAB
  0
TABLE
  2
UCS
  5
7
330
0
100
AcDbSymbolTable
 70
     0
  0
ENDTAB
  0
TABLE
  2
APPID
  5
9
330
0
100
AcDbSymbolTable
 70
     1
  0
APPID
  5
11
330
9
100
AcDbSymbolTableRecord
100
AcDbRegAppTableRecord
  2
ACAD
 70
     0
  0
ENDTAB
  0
TABLE
  2
DIMSTYLE
  5
A
330
0
100
AcDbSymbolTable
 70
     1
  0
DIMSTYLE
105
CD
330
A
100
AcDbSymbolTableRecord
100
AcDbDimStyleTableRecord
  2
STANDARD
 70
     0
  3

  4

  5

  6

  7

 40
1.0
 41
0.18
 42
0.0625
 43
0.38
 44
0.18
 45
0.0
 46
0.0
 47
0.0
 48
0.0
140
0.18
141
0.09
142
0.0
143
25.4
144
1.0
145
0.0
146
1.0
147
0.09
 71
     0
 72
     0
 73
     1
 74
     1
 75
     0
 76
     0
 77
     0
 78
     0
170
     0
171
     2
172
     0
173
     0
174
     0
175
     0
176
     0
177
     0
178
     0
270
     2
271
     4
272
     4
273
     2
274
     2
340
10
275
     0
280
     0
281
     0
282
     0
283
     1
284
     0
285
     0
286
     0
287
     3
288
     0
  0
ENDTAB
  0
TABLE
  2
BLOCK_RECORD
  5
1
330
0
100
AcDbSymbolTable
 70
     6
  0
BLOCK_RECORD
  5
18
102
{ACAD_XDICTIONARY
360
12E
102
}
330
1
100
AcDbSymbolTableRecord
100
AcDbBlockTableRecord
  2
*MODEL_SPACE
  0
BLOCK_RECORD
  5
15
102
{ACAD_XDICTIONARY
360
12C
102
}
330
1
100
AcDbSymbolTableRecord
100
AcDbBlockTableRecord
  2
*PAPER_SPACE
  0
BLOCK_RECORD
  5
36
330
1
100
AcDbSymbolTableRecord
100
AcDbBlockTableRecord
  2
*D0
  0
BLOCK_RECORD
  5
37
330
1
100
AcDbSymbolTableRecord
100
AcDbBlockTableRecord
  2
*D1
  0
BLOCK_RECORD
  5
38
330
1
100
AcDbSymbolTableRecord
100
AcDbBlockTableRecord
  2
*D2
  0
BLOCK_RECORD
  5
39
330
1
100
AcDbSymbolTableRecord
100
AcDbBlockTableRecord
  2
*D3
  0
BLOCK_RECORD
  5
3A
330
1
100
AcDbSymbolTableRecord
100
AcDbBlockTableRecord
  2
*D4
  0
BLOCK_RECORD
  5
3B
330
1
100
AcDbSymbolTableRecord
100
AcDbBlockTableRecord
  2
*D5
  0
ENDTAB
  0
ENDSEC
  0
SECTION
  2
BLOCKS
  0
BLOCK
  5
58
330
18
100
AcDbEntity
  8
0
100
AcDbBlockBegin
  2
*MODEL_SPACE
 70
     0
 10
0.0
 20
0.0
 30
0.0
  3
*MODEL_SPACE
  1

  0
ENDBLK
  5
59
330
18
100
AcDbEntity
  8
0
100
AcDbBlockEnd
  0
BLOCK
  5
56
330
15
100
AcDbEntity
 67
     1
  8
0
100
AcDbBlockBegin
  2
*PAPER_SPACE
 70
     0
 10
0.0
 20
0.0
 30
0.0
  3
*PAPER_SPACE
  1

  0
ENDBLK
  5
57
330
15
100
AcDbEntity
 67
     1
  8
0
100
AcDbBlockEnd
  0
BLOCK
  5
5B
330
36
100
AcDbEntity
  8
0
100
AcDbBlockBegin
  2
*D0
 70
     1
 10
0.0
 20
0.0
 30
0.0
  3
*D0
  1
AVE_RENDER
  0
LINE
  5
5C
330
36
100
AcDbEntity
  8
0
  6
BYBLOCK
 62
     0
100
AcDbLine
 10
19.73092175499281
 20
-11.47308194422785
 30
0.0
 11
19.73092175499281
 21
-13.71975892778034
 31
0.0
  0
LINE
  5
5D
330
36
100
AcDbEntity
  8
0
  6
BYBLOCK
 62
     0
100
AcDbLine
 10
22.17047089366577
 20
-12.82308194422785
 30
0.0
 11
22.17047089366577
 21
-13.71975892778034
 31
0.0
  0
LINE
  5
5E
330
36
100
AcDbEntity
  8
0
  6
BYBLOCK
 62
     0
100
AcDbLine
 10
19.73092175499281
 20
-13.53975892778034
 30
0.0
 11
20.49236299099596
 21
-13.53975892778034
 31
0.0
  0
LINE
  5
5F
330
36
100
AcDbEntity
  8
0
  6
BYBLOCK
 62
     0
100
AcDbLine
 10
22.17047089366577
 20
-13.53975892778034
 30
0.0
 11
21.40902965766262
 21
-13.53975892778034
 31
0.0
  0
LINE
  5
60
330
36
100
AcDbEntity
  8
0
  6
BYBLOCK
 62
     0
100
AcDbLine
 10
19.60592175499281
 20
-13.66475892778034
 30
0.0
 11
19.85592175499281
 21
-13.41475892778034
 31
0.0
  0
LINE
  5
61
330
36
100
AcDbEntity
  8
0
  6
BYBLOCK
 62
     0
100
AcDbLine
 10
22.04547089366577
 20
-13.66475892778034
 30
0.0
 11
22.29547089366577
 21
-13.41475892778034
 31
0.0
  0
TEXT
  5
62
330
36
100
AcDbEntity
  8
0
  6
BYBLOCK
 62
     0
100
AcDbText
 10
20.61736299099595
 20
-13.60225892778034
 30
0.0
 40
0.125
  1
2 7/16
 72
     1
 11
20.95069632432929
 21
-13.53975892778034
 31
0.0
100
AcDbText
 73
     2
  0
POINT
  5
63
330
36
100
AcDbEntity
  8
DEFPOINTS
  6
BYBLOCK
 62
     0
100
AcDbPoint
 10
19.73092175499281
 20
-11.41058194422785
 30
0.0
  0
POINT
  5
64
330
36
100
AcDbEntity
  8
DEFPOINTS
  6
BYBLOCK
 62
     0
100
AcDbPoint
 10
22.17047089366577
 20
-12.76058194422785
 30
0.0
  0
POINT
  5
65
330
36
100
AcDbEntity
  8
DEFPOINTS
  6
BYBLOCK
 62
     0
100
AcDbPoint
 10
22.17047089366577
 20
-13.53975892778034
 30
0.0
  0
ENDBLK
  5
66
330
36
100
AcDbEntity
  8
0
100
AcDbBlockEnd
  0
BLOCK
  5
67
330
37
100
AcDbEntity
  8
0
100
AcDbBlockBegin
  2
*D1
 70
     1
 10
0.0
 20
0.0
 30
0.0
  3
*D1
  1
AVE_RENDER
  0
LINE
  5
68
330
37
100
AcDbEntity
  8
0
  6
BYBLOCK
 62
     0
100
AcDbLine
 10
19.66842175499281
 20
-10.58058194422785
 30
0.0
 11
19.12352222214302
 21
-10.58058194422785
 31
0.0
  0
LINE
  5
69
330
37
100
AcDbEntity
  8
0
  6
BYBLOCK
 62
     0
100
AcDbLine
 10
20.91842175499281
 20
-13.08058194422785
 30
0.0
 11
19.12352222214302
 21
-13.08058194422785
 31
0.0
  0
LINE
  5
6A
330
37
100
AcDbEntity
  8
0
  6
BYBLOCK
 62
     0
100
AcDbLine
 10
19.30352222214302
 20
-10.58058194422785
 30
0.0
 11
19.30352222214302
 21
-11.43474861089451
 31
0.0
  0
LINE
  5
6B
330
37
100
AcDbEntity
  8
0
  6
BYBLOCK
 62
     0
100
AcDbLine
 10
19.30352222214302
 20
-13.08058194422785
 30
0.0
 11
19.30352222214302
 21
-12.22641527756118
 31
0.0
  0
LINE
  5
6C
330
37
100
AcDbEntity
  8
0
  6
BYBLOCK
 62
     0
100
AcDbLine
 10
19.42852222214302
 20
-10.70558194422785
 30
0.0
 11
19.17852222214302
 21
-10.45558194422785
 31
0.0
  0
LINE
  5
6D
330
37
100
AcDbEntity
  8
0
  6
BYBLOCK
 62
     0
100
AcDbLine
 10
19.42852222214302
 20
-13.20558194422785
 30
0.0
 11
19.17852222214302
 21
-12.95558194422785
 31
0.0
  0
TEXT
  5
6E
330
37
100
AcDbEntity
  8
0
  6
BYBLOCK
 62
     0
100
AcDbText
 10
19.36602222214302
 20
-12.10141527756118
 30
0.0
 40
0.125
  1
2 1/2
 50
90.0
 72
     1
 11
19.30352222214302
 21
-11.83058194422785
 31
0.0
100
AcDbText
 73
     2
  0
POINT
  5
6F
330
37
100
AcDbEntity
  8
DEFPOINTS
  6
BYBLOCK
 62
     0
100
AcDbPoint
 10
19.73092175499281
 20
-10.58058194422785
 30
0.0
  0
POINT
  5
70
330
37
100
AcDbEntity
  8
DEFPOINTS
  6
BYBLOCK
 62
     0
100
AcDbPoint
 10
20.98092175499281
 20
-13.08058194422785
 30
0.0
  0
POINT
  5
71
330
37
100
AcDbEntity
  8
DEFPOINTS
  6
BYBLOCK
 62
     0
100
AcDbPoint
 10
19.30352222214302
 20
-13.08058194422785
 30
0.0
  0
ENDBLK
  5
72
330
37
100
AcDbEntity
  8
0
100
AcDbBlockEnd
  0
BLOCK
  5
73
330
38
100
AcDbEntity
  8
0
100
AcDbBlockBegin
  2
*D2
 70
     1
 10
0.0
 20
0.0
 30
0.0
  3
*D2
  1
AVE_RENDER
  0
LINE
  5
74
330
38
100
AcDbEntity
  8
0
  6
BYBLOCK
 62
     0
100
AcDbLine
 10
22.17047089366577
 20
-12.82308194422785
 30
0.0
 11
22.17047089366577
 21
-13.71975892778034
 31
0.0
  0
LINE
  5
75
330
38
100
AcDbEntity
  8
0
  6
BYBLOCK
 62
     0
100
AcDbLine
 10
23.74842175499281
 20
-13.53081351608819
 30
0.0
 11
23.74842175499281
 21
-13.71975892778034
 31
0.0
  0
LINE
  5
76
330
38
100
AcDbEntity
  8
0
  6
BYBLOCK
 62
     0
100
AcDbLine
 10
22.17047089366577
 20
-13.53975892778034
 30
0.0
 11
22.52194632432929
 21
-13.53975892778034
 31
0.0
  0
LINE
  5
77
330
38
100
AcDbEntity
  8
0
  6
BYBLOCK
 62
     0
100
AcDbLine
 10
23.74842175499281
 20
-13.53975892778034
 30
0.0
 11
23.39694632432929
 21
-13.53975892778034
 31
0.0
  0
LINE
  5
78
330
38
100
AcDbEntity
  8
0
  6
BYBLOCK
 62
     0
100
AcDbLine
 10
22.04547089366577
 20
-13.66475892778034
 30
0.0
 11
22.29547089366577
 21
-13.41475892778034
 31
0.0
  0
LINE
  5
79
330
38
100
AcDbEntity
  8
0
  6
BYBLOCK
 62
     0
100
AcDbLine
 10
23.62342175499281
 20
-13.66475892778034
 30
0.0
 11
23.87342175499281
 21
-13.41475892778034
 31
0.0
  0
TEXT
  5
7A
330
38
100
AcDbEntity
  8
0
  6
BYBLOCK
 62
     0
100
AcDbText
 10
22.64694632432929
 20
-13.60225892778034
 30
0.0
 40
0.125
  1
1 9/16
 72
     1
 11
22.95944632432929
 21
-13.53975892778034
 31
0.0
100
AcDbText
 73
     2
  0
POINT
  5
7B
330
38
100
AcDbEntity
  8
DEFPOINTS
  6
BYBLOCK
 62
     0
100
AcDbPoint
 10
22.17047089366577
 20
-12.76058194422785
 30
0.0
  0
POINT
  5
7C
330
38
100
AcDbEntity
  8
DEFPOINTS
  6
BYBLOCK
 62
     0
100
AcDbPoint
 10
23.74842175499281
 20
-13.46831351608819
 30
0.0
  0
POINT
  5
7D
330
38
100
AcDbEntity
  8
DEFPOINTS
  6
BYBLOCK
 62
     0
100
AcDbPoint
 10
23.74842175499281
 20
-13.53975892778034
 30
0.0
  0
ENDBLK
  5
7E
330
38
100
AcDbEntity
  8
0
100
AcDbBlockEnd
  0
BLOCK
  5
7F
330
39
100
AcDbEntity
  8
0
100
AcDbBlockBegin
  2
*D3
 70
     1
 10
0.0
 20
0.0
 30
0.0
  3
*D3
  1
AVE_RENDER
  0
LINE
  5
80
330
39
100
AcDbEntity
  8
0
  6
BYBLOCK
 62
     0
100
AcDbLine
 10
23.5840482336523
 20
-9.015270326954741
 30
0.0
 11
23.84330233440383
 21
-9.404828032036466
 31
0.0
  0
LINE
  5
81
330
39
100
AcDbEntity
  8
0
  6
BYBLOCK
 62
     0
100
AcDbLine
 10
23.4107322821806
 20
-8.980462555330307
 30
0.0
 11
23.75736418512401
 21
-9.050078098579177
 31
0.0
  0
LINE
  5
82
330
39
100
AcDbEntity
  8
0
  6
BYBLOCK
 62
     0
100
AcDbLine
 10
22.42699097472144
 20
-7.558404265281786
 30
0.0
 11
22.80199097472144
 21
-7.558404265281786
 31
0.0
  0
LINE
  5
83
330
39
100
AcDbEntity
  8
0
  6
BYBLOCK
 62
     0
100
AcDbLine
 10
22.61449097472144
 20
-7.745904265281786
 30
0.0
 11
22.61449097472144
 21
-7.370904265281786
 31
0.0
  0
TEXT
  5
84
330
39
100
AcDbEntity
  8
0
  6
BYBLOCK
 62
     0
100
AcDbText
 10
23.86052549355342
 20
-9.543516938546348
 30
0.0
 40
0.125
  1
%%c3 1/2
 50
303.6441167114387
 72
     1
 11
24.09723399745715
 21
-9.786388191046048
 31
0.0
100
AcDbText
 73
     2
  0
POINT
  5
85
330
39
100
AcDbEntity
  8
DEFPOINTS
  6
BYBLOCK
 62
     0
100
AcDbPoint
 10
23.5840482336523
 20
-9.015270326954741
 30
0.0
  0
POINT
  5
86
330
39
100
AcDbEntity
  8
DEFPOINTS
  6
BYBLOCK
 62
     0
100
AcDbPoint
 10
21.64493371579057
 20
-6.101538203608829
 30
0.0
  0
ENDBLK
  5
87
330
39
100
AcDbEntity
  8
0
100
AcDbBlockEnd
  0
BLOCK
  5
88
330
3A
100
AcDbEntity
  8
0
100
AcDbBlockBegin
  2
*D4
 70
     1
 10
0.0
 20
0.0
 30
0.0
  3
*D4
  1
AVE_RENDER
  0
LINE
  5
89
330
3A
100
AcDbEntity
  8
0
  6
BYBLOCK
 62
     0
100
AcDbLine
 10
19.66842175499281
 20
-6.728404265281787
 30
0.0
 11
19.10186205492503
 21
-6.728404265281787
 31
0.0
  0
LINE
  5
8A
330
3A
100
AcDbEntity
  8
0
  6
BYBLOCK
 62
     0
100
AcDbLine
 10
19.66842175499281
 20
-8.388404265281788
 30
0.0
 11
19.10186205492503
 21
-8.388404265281788
 31
0.0
  0
LINE
  5
8B
330
3A
100
AcDbEntity
  8
0
  6
BYBLOCK
 62
     0
100
AcDbLine
 10
19.28186205492503
 20
-6.728404265281787
 30
0.0
 11
19.28186205492503
 21
-7.100070931948454
 31
0.0
  0
LINE
  5
8C
330
3A
100
AcDbEntity
  8
0
  6
BYBLOCK
 62
     0
100
AcDbLine
 10
19.28186205492503
 20
-8.388404265281788
 30
0.0
 11
19.28186205492503
 21
-8.016737598615122
 31
0.0
  0
LINE
  5
8D
330
3A
100
AcDbEntity
  8
0
  6
BYBLOCK
 62
     0
100
AcDbLine
 10
19.40686205492503
 20
-6.853404265281787
 30
0.0
 11
19.15686205492503
 21
-6.603404265281787
 31
0.0
  0
LINE
  5
8E
330
3A
100
AcDbEntity
  8
0
  6
BYBLOCK
 62
     0
100
AcDbLine
 10
19.40686205492503
 20
-8.513404265281788
 30
0.0
 11
19.15686205492503
 21
-8.263404265281788
 31
0.0
  0
TEXT
  5
8F
330
3A
100
AcDbEntity
  8
0
  6
BYBLOCK
 62
     0
100
AcDbText
 10
19.34436205492503
 20
-7.891737598615121
 30
0.0
 40
0.125
  1
1 11/16
 50
90.0
 72
     1
 11
19.28186205492503
 21
-7.558404265281787
 31
0.0
100
AcDbText
 73
     2
  0
POINT
  5
90
330
3A
100
AcDbEntity
  8
DEFPOINTS
  6
BYBLOCK
 62
     0
100
AcDbPoint
 10
19.73092175499281
 20
-6.728404265281787
 30
0.0
  0
POINT
  5
91
330
3A
100
AcDbEntity
  8
DEFPOINTS
  6
BYBLOCK
 62
     0
100
AcDbPoint
 10
19.73092175499281
 20
-8.388404265281788
 30
0.0
  0
POINT
  5
92
330
3A
100
AcDbEntity
  8
DEFPOINTS
  6
BYBLOCK
 62
     0
100
AcDbPoint
 10
19.28186205492503
 20
-8.388404265281788
 30
0.0
  0
ENDBLK
  5
93
330
3A
100
AcDbEntity
  8
0
100
AcDbBlockEnd
  0
BLOCK
  5
94
330
3B
100
AcDbEntity
  8
0
100
AcDbBlockBegin
  2
*D5
 70
     1
 10
0.0
 20
0.0
 30
0.0
  3
*D5
  1
AVE_RENDER
  0
LINE
  5
95
330
3B
100
AcDbEntity
  8
0
  6
BYBLOCK
 62
     0
100
AcDbLine
 10
23.91784830918473
 20
-7.697210117603061
 30
0.0
 11
24.52691391862415
 21
-8.257619535803355
 31
0.0
  0
LINE
  5
96
330
3B
100
AcDbEntity
  8
0
  6
BYBLOCK
 62
     0
100
AcDbLine
 10
23.74122441480391
 20
-7.704558582323797
 30
0.0
 11
24.09447220356555
 21
-7.689861652882325
 31
0.0
  0
LINE
  5
97
330
3B
100
AcDbEntity
  8
0
  6
BYBLOCK
 62
     0
100
AcDbLine
 10
23.57949097472145
 20
-7.558404265281791
 30
0.0
 11
23.95449097472145
 21
-7.558404265281791
 31
0.0
  0
LINE
  5
98
330
3B
100
AcDbEntity
  8
0
  6
BYBLOCK
 62
     0
100
AcDbLine
 10
23.76699097472145
 20
-7.745904265281791
 30
0.0
 11
23.76699097472145
 21
-7.370904265281791
 31
0.0
  0
TEXT
  5
99
330
3B
100
AcDbEntity
  8
0
  6
BYBLOCK
 62
     0
100
AcDbText
 10
24.5765812407599
 20
-8.388250340408788
 30
0.0
 40
0.125
  1
%%c7/16
 50
317.3824258412739
 72
     1
 11
24.81820348720161
 21
-8.525638966098492
 31
0.0
100
AcDbText
 73
     2
  0
POINT
  5
9A
330
3B
100
AcDbEntity
  8
DEFPOINTS
  6
BYBLOCK
 62
     0
100
AcDbPoint
 10
23.91784830918473
 20
-7.697210117603061
 30
0.0
  0
POINT
  5
9B
330
3B
100
AcDbEntity
  8
DEFPOINTS
  6
BYBLOCK
 62
     0
100
AcDbPoint
 10
23.61613364025817
 20
-7.419598412960518
 30
0.0
  0
ENDBLK
  5
9C
330
3B
100
AcDbEntity
  8
0
100
AcDbBlockEnd
  0
ENDSEC
  0
SECTION
  2
ENTITIES
  0
ARC
  5
9D
330
18
100
AcDbEntity
  8
ADP1DETAIL
100
AcDbCircle
 10
19.73092175499281
 20
-13.03558194422785
 30
0.0
 40
3.285
100
AcDbArc
 50
5.178256861608653
 51
90.0
  0
ARC
  5
9E
330
18
100
AcDbEntity
  8
ADP1DETAIL
100
AcDbCircle
 10
19.73092175499281
 20
-13.03558194422785
 30
0.0
 40
1.625
100
AcDbArc
 50
9.74309737680776
 51
90.0
  0
DIMENSION
  5
9F
330
18
100
AcDbEntity
  8
ADPDIM
100
AcDbDimension
  2
*D1
 10
19.30352222214302
 20
-13.08058194422785
 30
0.0
 11
19.30352222214302
 21
-11.83058194422785
 31
0.0
100
AcDbAlignedDimension
 13
19.73092175499281
 23
-10.58058194422785
 33
0.0
 14
20.98092175499281
 24
-13.08058194422785
 34
0.0
 50
90.0
100
AcDbRotatedDimension
  0
ARC
  5
A0
330
18
100
AcDbEntity
  8
ADP2DETAIL
  6
HIDDEN2
100
AcDbCircle
 10
19.73092175499281
 20
-13.03558194422785
 30
0.0
 40
1.765
100
AcDbArc
 50
6.506414502673134
 51
90.0
  0
ARC
  5
A1
330
18
100
AcDbEntity
  8
ADP2DETAIL
  6
HIDDEN2
100
AcDbCircle
 10
19.73092175499281
 20
-13.03558194422785
 30
0.0
 40
3.145
100
AcDbArc
 50
3.646071096172394
 51
90.0
  0
ARC
  5
A2
330
18
100
AcDbEntity
  8
ADP3DETAIL
  6
CENTER2
100
AcDbCircle
 10
19.73092175499281
 20
-13.03558194422785
 30
0.0
 40
2.455
100
AcDbArc
 50
6.431559128801168
 51
90.0
  0
DIMENSION
  5
A3
330
18
100
AcDbEntity
  8
ADPDIM
100
AcDbDimension
  2
*D0
 10
22.17047089366577
 20
-13.53975892778034
 30
0.0
 11
20.95069632432929
 21
-13.53975892778034
 31
0.0
100
AcDbAlignedDimension
 13
19.73092175499281
 23
-11.41058194422785
 33
0.0
 14
22.17047089366577
 24
-12.76058194422785
 34
0.0
100
AcDbRotatedDimension
  0
LINE
  5
A4
330
18
100
AcDbEntity
  8
ADP1DETAIL
100
AcDbLine
 10
24.19592175499281
 20
-12.70058194422785
 30
0.0
 11
20.99592175499281
 21
-12.70058194422785
 31
0.0
  0
LINE
  5
A5
330
18
100
AcDbEntity
  8
ADP1DETAIL
100
AcDbLine
 10
20.98092175499281
 20
-13.08058194422785
 30
0.0
 11
24.21092175499281
 21
-13.08058194422785
 31
0.0
  0
LINE
  5
A6
330
18
100
AcDbEntity
  8
ADP2DETAIL
  6
HIDDEN2
100
AcDbLine
 10
24.16092175499281
 20
-12.83558194422785
 30
0.0
 11
21.03092175499281
 21
-12.83558194422785
 31
0.0
  0
DIMENSION
  5
A7
330
18
100
AcDbEntity
  8
ADPDIM
100
AcDbDimension
  2
*D2
 10
23.74842175499281
 20
-13.53975892778034
 30
0.0
 11
22.95944632432929
 21
-13.53975892778034
 31
0.0
100
AcDbAlignedDimension
 13
22.17047089366577
 23
-12.76058194422785
 33
0.0
 14
23.74842175499281
 24
-13.46831351608819
 34
0.0
100
AcDbRotatedDimension
  0
LINE
  5
A8
330
18
100
AcDbEntity
  8
ADP1DETAIL
100
AcDbLine
 10
20.84592175499281
 20
-12.85058194422785
 30
0.0
 11
20.84592175499281
 21
-13.08058194422785
 31
0.0
  0
LINE
  5
A9
330
18
100
AcDbEntity
  8
ADP1DETAIL
100
AcDbLine
 10
20.84592175499281
 20
-13.08058194422785
 30
0.0
 11
20.98092175499281
 21
-13.08058194422785
 31
0.0
  0
ARC
  5
AA
330
18
100
AcDbEntity
  8
ADP1DETAIL
100
AcDbCircle
 10
20.99592175499281
 20
-12.85058194422785
 30
0.0
 40
0.15
100
AcDbArc
 50
90.0
 51
180.0
  0
LINE
  5
AB
330
18
100
AcDbEntity
  8
ADP2DETAIL
  6
HIDDEN2
100
AcDbLine
 10
20.98092175499281
 20
-12.88558194422785
 30
0.0
 11
20.98092175499281
 21
-13.08058194422785
 31
0.0
  0
ARC
  5
AC
330
18
100
AcDbEntity
  8
ADP2DETAIL
  6
HIDDEN2
100
AcDbCircle
 10
21.03092175499281
 20
-12.88558194422785
 30
0.0
 40
0.05
100
AcDbArc
 50
90.0
 51
180.0
  0
LINE
  5
AD
330
18
100
AcDbEntity
  8
ADP1DETAIL
100
AcDbLine
 10
21.34592175499281
 20
-12.80916506996249
 30
0.0
 11
21.34592175499281
 21
-12.83558194422785
 31
0.0
  0
LINE
  5
AE
330
18
100
AcDbEntity
  8
ADP3DETAIL
  6
CENTER2
100
AcDbLine
 10
23.74842175499281
 20
-12.29162913349413
 30
0.0
 11
23.74842175499281
 21
-12.61455004411509
 31
0.0
  0
ARC
  5
AF
330
18
100
AcDbEntity
  8
ADP1DETAIL
100
AcDbCircle
 10
19.73092175499281
 20
-13.03558194422785
 30
0.0
 40
3.285
100
AcDbArc
 50
3.49048616198898
 51
4.116078269464379
  0
LINE
  5
B0
330
18
100
AcDbEntity
  8
ADP2DETAIL
  6
HIDDEN2
100
AcDbLine
 10
23.53842175499281
 20
-12.80238405860892
 30
0.0
 11
23.53842175499281
 21
-12.83558194422785
 31
0.0
  0
LINE
  5
B1
330
18
100
AcDbEntity
  8
ADP2DETAIL
  6
HIDDEN2
100
AcDbLine
 10
23.53842175499281
 20
-12.70058194422785
 30
0.0
 11
23.53842175499281
 21
-12.74090288900324
 31
0.0
  0
LINE
  5
B2
330
18
100
AcDbEntity
  8
ADP2DETAIL
  6
HIDDEN2
100
AcDbLine
 10
23.95842175499281
 20
-12.8057745642857
 30
0.0
 11
23.95842175499281
 21
-12.83558194422785
 31
0.0
  0
LINE
  5
B3
330
18
100
AcDbEntity
  8
ADP2DETAIL
  6
HIDDEN2
100
AcDbLine
 10
23.95842175499281
 20
-12.70058194422785
 30
0.0
 11
23.95842175499281
 21
-12.7476839003568
 31
0.0
  0
LINE
  5
B4
330
18
100
AcDbEntity
  8
ADP3DETAIL
  6
CENTER2
100
AcDbLine
 10
23.74842175499281
 20
-13.17443554820801
 30
0.0
 11
23.74842175499281
 21
-13.46831351608819
 31
0.0
  0
LINE
  5
B5
330
18
100
AcDbEntity
  8
ADP3DETAIL
  6
CENTER2
100
AcDbLine
 10
23.74842175499281
 20
-12.77503397948286
 30
0.0
 11
23.74842175499281
 21
-13.01056110716345
 31
0.0
  0
LINE
  5
B6
330
18
100
AcDbEntity
  8
ADP1DETAIL
100
AcDbLine
 10
24.34592175499281
 20
-13.08058194422785
 30
0.0
 11
24.34592175499281
 21
-12.85058194422785
 31
0.0
  0
LINE
  5
B7
330
18
100
AcDbEntity
  8
ADP1DETAIL
100
AcDbLine
 10
24.21092175499281
 20
-13.08058194422785
 30
0.0
 11
24.34592175499281
 21
-13.08058194422785
 31
0.0
  0
ARC
  5
B8
330
18
100
AcDbEntity
  8
ADP1DETAIL
100
AcDbCircle
 10
24.19592175499281
 20
-12.85058194422785
 30
0.0
 40
0.15
100
AcDbArc
 50
0.0
 51
90.0
  0
LINE
  5
B9
330
18
100
AcDbEntity
  8
ADP2DETAIL
  6
HIDDEN2
100
AcDbLine
 10
24.21092175499281
 20
-13.08058194422785
 30
0.0
 11
24.21092175499281
 21
-12.88558194422785
 31
0.0
  0
ARC
  5
BA
330
18
100
AcDbEntity
  8
ADP2DETAIL
  6
HIDDEN2
100
AcDbCircle
 10
24.16092175499281
 20
-12.88558194422785
 30
0.0
 40
0.05
100
AcDbArc
 50
0.0
 51
90.0
  0
LINE
  5
BB
330
18
100
AcDbEntity
  8
ADP1DETAIL
100
AcDbLine
 10
22.20449097472144
 20
-6.728404265281788
 30
0.0
 11
19.73092175499281
 21
-6.728404265281787
 31
0.0
  0
LINE
  5
BC
330
18
100
AcDbEntity
  8
ADP1DETAIL
100
AcDbLine
 10
22.20449097472144
 20
-8.388404265281788
 30
0.0
 11
19.73092175499281
 21
-8.388404265281788
 31
0.0
  0
LINE
  5
BD
330
18
100
AcDbEntity
  8
ADP2DETAIL
  6
HIDDEN2
100
AcDbLine
 10
22.20449097472144
 20
-8.248404265281788
 30
0.0
 11
19.73092175499281
 21
-8.248404265281788
 31
0.0
  0
LINE
  5
BE
330
18
100
AcDbEntity
  8
ADP2DETAIL
  6
HIDDEN2
100
AcDbLine
 10
22.20449097472144
 20
-6.868404265281789
 30
0.0
 11
19.73092175499281
 21
-6.868404265281789
 31
0.0
  0
LINE
  5
BF
330
18
100
AcDbEntity
  8
ADP3DETAIL
  6
CENTER2
100
AcDbLine
 10
22.20449097472144
 20
-7.558404265281788
 30
0.0
 11
19.73092175499281
 21
-7.558404265281788
 31
0.0
  0
LINE
  5
C0
330
18
100
AcDbEntity
  8
ADP1DETAIL
100
AcDbLine
 10
19.73092175499281
 20
-8.388404265281788
 30
0.0
 11
19.73092175499281
 21
-6.728404265281787
 31
0.0
  0
DIMENSION
  5
C1
330
18
100
AcDbEntity
  8
ADPDIM
100
AcDbDimension
  2
*D4
 10
19.28186205492503
 20
-8.388404265281788
 30
0.0
 11
19.28186205492503
 21
-7.558404265281787
 31
0.0
100
AcDbAlignedDimension
 13
19.73092175499281
 23
-6.728404265281787
 33
0.0
 14
19.73092175499281
 24
-8.388404265281788
 34
0.0
 50
90.0
100
AcDbRotatedDimension
  0
LINE
  5
C2
330
18
100
AcDbEntity
  8
ADP1DETAIL
100
AcDbLine
 10
19.73092175499281
 20
-11.41058194422785
 30
0.0
 11
19.73092175499281
 21
-9.750581944227851
 31
0.0
  0
ARC
  5
C3
330
18
100
AcDbEntity
  8
ADP2DETAIL
  6
HIDDEN2
100
AcDbCircle
 10
22.20449097472144
 20
-7.558404265281788
 30
0.0
 40
0.84
100
AcDbArc
 50
98.84972505885484
 51
255.1041405295153
  0
ARC
  5
C4
330
18
100
AcDbEntity
  8
ADP2DETAIL
  6
HIDDEN2
100
AcDbCircle
 10
22.61449097472144
 20
-7.558404265281788
 30
0.0
 40
1.75
100
AcDbArc
 50
153.4477377993527
 51
206.9003452274264
  0
ARC
  5
C5
330
18
100
AcDbEntity
  8
ADP2DETAIL
  6
HIDDEN2
100
AcDbCircle
 10
22.61449097472144
 20
-7.558404265281788
 30
0.0
 40
1.615
100
AcDbArc
 50
149.0739123782131
 51
210.9260876217868
  0
ARC
  5
C6
330
18
100
AcDbEntity
  8
ADP1DETAIL
100
AcDbCircle
 10
22.20449097472144
 20
-7.558404265281788
 30
0.0
 40
0.84
100
AcDbArc
 50
261.1502749411451
 51
98.84972505885484
  0
ARC
  5
C7
330
18
100
AcDbEntity
  8
ADP1DETAIL
100
AcDbCircle
 10
22.61449097472144
 20
-7.558404265281788
 30
0.0
 40
1.75
100
AcDbArc
 50
208.3361317892823
 51
152.0539406897884
  0
CIRCLE
  5
C8
330
18
100
AcDbEntity
  8
ADP2DETAIL
  6
HIDDEN2
100
AcDbCircle
 10
22.20449097472144
 20
-7.558404265281788
 30
0.0
 40
0.6999999999999993
  0
DIMENSION
  5
C9
330
18
100
AcDbEntity
  8
ADPDIM
100
AcDbDimension
  2
*D3
 10
21.64493371579057
 20
-6.101538203608829
 30
0.0
 11
24.09723399745715
 21
-9.786388191046048
 31
0.0
 70
     3
100
AcDbDiametricDimension
 15
23.5840482336523
 25
-9.015270326954741
 35
0.0
 40
0.4679400542217149
  0
ARC
  5
CA
330
18
100
AcDbEntity
  8
ADP2DETAIL
  6
HIDDEN2
100
AcDbCircle
 10
22.61449097472144
 20
-7.558404265281788
 30
0.0
 40
1.615
100
AcDbArc
 50
210.9260876217868
 51
149.0739123782131
  0
DIMENSION
  5
CB
330
18
100
AcDbEntity
  8
ADPDIM
100
AcDbDimension
  2
*D5
 10
23.61613364025817
 20
-7.419598412960518
 30
0.0
 11
24.81820348720161
 21
-8.525638966098492
 31
0.0
 70
     3
100
AcDbDiametricDimension
 15
23.91784830918473
 25
-7.697210117603061
 35
0.0
 40
0.8276591282704524
  0
CIRCLE
  5
CC
330
18
100
AcDbEntity
  8
ADP1DETAIL
100
AcDbCircle
 10
23.76699097472144
 20
-7.558404265281788
 30
0.0
 40
0.205
  0
TEXT
  5
DA
330
18
100
AcDbEntity
  8
ADPDIM
100
AcDbText
 10
12.37967312707154
 20
-14.40399449132627
 30
0.0
 40
0.1875
  1
J U L I U S  B L U M  &  C O . ,  I N C .      ( 8 0 0 )  5 2 6 - 6 2 9 3        W W W . J U L I U S B L U M . C O M        P A R T  N o .  9 8 3
 41
1.25
  7
ARIAL_WIDE
 72
     1
 11
22.03173443334712
 21
-14.21649449132627
 31
0.0
100
AcDbText
 73
     3
  0
ENDSEC
  0
SECTION
  2
OBJECTS
  0
DICTIONARY
  5
C
330
0
100
AcDbDictionary
  3
ACAD_GROUP
350
D
  3
ACAD_LAYOUT
350
D3
  3
ACAD_MLINESTYLE
350
E
  3
ACAD_PLOTSETTINGS
350
D4
  3
ACAD_PLOTSTYLENAME
350
D1
  3
ACDBHEADERROUNDTRIPXREC
350
21E
  3
ACDBVARIABLEDICTIONARY
350
134
  0
DICTIONARY
  5
12E
330
18
100
AcDbDictionary
280
     1
  3
ACAD_LAYOUTSELFREF
360
23F
  0
DICTIONARY
  5
12C
330
15
100
AcDbDictionary
280
     1
  3
ACAD_LAYOUTSELFREF
360
23E
  0
DICTIONARY
  5
D
102
{ACAD_REACTORS
330
C
102
}
330
C
100
AcDbDictionary
  0
DICTIONARY
  5
D3
102
{ACAD_REACTORS
330
C
102
}
330
C
100
AcDbDictionary
  0
DICTIONARY
  5
E
102
{ACAD_REACTORS
330
C
102
}
330
C
100
AcDbDictionary
  3
STANDARD
350
1B
  0
DICTIONARY
  5
D4
102
{ACAD_REACTORS
330
C
102
}
330
C
100
AcDbDictionary
  0
ACDBDICTIONARYWDFLT
  5
D1
102
{ACAD_REACTORS
330
C
102
}
330
C
100
AcDbDictionary
281
     1
  3
Normal
350
D2
100
AcDbDictionaryWithDefault
340
D2
  0
DICTIONARY
  5
21E
102
{ACAD_REACTORS
330
C
102
}
330
C
100
AcDbDictionary
  3
CEPSNTYPE
350
228
  3
FINGERPRINTGUID
350
229
  3
HYPERLINKBASE
350
221
  3
INSUNITS
350
227
  3
LAYOUTDICT
350
223
  3
LWETCUNION
350
226
  3
PLOTSETDICT
350
224
  3
PLOTSTYLNAMDICT
350
225
  3
PSVPSCALE
350
22B
  3
PUCSBASE
350
22E
  3
PUCSORGBACK
350
234
  3
PUCSORGBOTTOM
350
230
  3
PUCSORGFRONT
350
233
  3
PUCSORGLEFT
350
231
  3
PUCSORGRIGHT
350
232
  3
PUCSORGTOP
350
22F
  3
PUCSORTHOREF
350
22C
  3
PUCSORTHOVIEW
350
22D
  3
STYLESHEET
350
222
  3
TSTACKALIGN
350
21F
  3
TSTACKSIZE
350
220
  3
UCSBASE
350
237
  3
UCSORGBACK
350
23D
  3
UCSORGBOTTOM
350
239
  3
UCSORGFRONT
350
23C
  3
UCSORGLEFT
350
23A
  3
UCSORGRIGHT
350
23B
  3
UCSORGTOP
350
238
  3
UCSORTHOREF
350
235
  3
UCSORTHOVIEW
350
236
  3
VERSIONGUID
350
22A
  0
DICTIONARY
  5
134
102
{ACAD_REACTORS
330
C
102
}
330
C
100
AcDbDictionary
  3
DIMASSOC
350
135
  0
XRECORD
  5
23F
102
{ACAD_REACTORS
330
12E
102
}
330
12E
100
AcDbXrecord
340
18
  0
XRECORD
  5
23E
102
{ACAD_REACTORS
330
12C
102
}
330
12C
100
AcDbXrecord
340
15
  0
MLINESTYLE
  5
1B
102
{ACAD_REACTORS
330
E
102
}
330
E
100
AcDbMlineStyle
  2
STANDARD
 70
     0
  3

 62
     0
 51
90.0
 52
90.0
 71
     2
 49
0.5
 62
   256
  6
BYLAYER
 49
-0.5
 62
   256
  6
BYLAYER
  0
ACDBPLACEHOLDER
  5
D2
102
{ACAD_REACTORS
330
D1
102
}
330
D1
100
AcDbPlaceHolder
280
     0
  0
XRECORD
  5
228
102
{ACAD_REACTORS
330
21E
102
}
330
21E
100
AcDbXrecord
 90
        0
  0
XRECORD
  5
229
102
{ACAD_REACTORS
330
21E
102
}
330
21E
100
AcDbXrecord
  1
{9D2FEBC4-81A1-4511-849A-8EC29A5DA44D}
  0
XRECORD
  5
221
102
{ACAD_REACTORS
330
21E
102
}
330
21E
100
AcDbXrecord
  1

  0
XRECORD
  5
227
102
{ACAD_REACTORS
330
21E
102
}
330
21E
100
AcDbXrecord
 90
        0
  0
XRECORD
  5
223
102
{ACAD_REACTORS
330
21E
102
}
330
21E
100
AcDbXrecord
340
D3
  0
XRECORD
  5
226
102
{ACAD_REACTORS
330
21E
102
}
330
21E
100
AcDbXrecord
 90
    14877
  0
XRECORD
  5
224
102
{ACAD_REACTORS
330
21E
102
}
330
21E
100
AcDbXrecord
340
D4
  0
XRECORD
  5
225
102
{ACAD_REACTORS
330
21E
102
}
330
21E
100
AcDbXrecord
340
D1
  0
XRECORD
  5
22B
102
{ACAD_REACTORS
330
21E
102
}
330
21E
100
AcDbXrecord
 40
0.0
  0
XRECORD
  5
22E
102
{ACAD_REACTORS
330
21E
102
}
330
21E
100
AcDbXrecord
340
0
  0
XRECORD
  5
234
102
{ACAD_REACTORS
330
21E
102
}
330
21E
100
AcDbXrecord
 10
0.0
 20
0.0
 30
0.0
  0
XRECORD
  5
230
102
{ACAD_REACTORS
330
21E
102
}
330
21E
100
AcDbXrecord
 10
0.0
 20
0.0
 30
0.0
  0
XRECORD
  5
233
102
{ACAD_REACTORS
330
21E
102
}
330
21E
100
AcDbXrecord
 10
0.0
 20
0.0
 30
0.0
  0
XRECORD
  5
231
102
{ACAD_REACTORS
330
21E
102
}
330
21E
100
AcDbXrecord
 10
0.0
 20
0.0
 30
0.0
  0
XRECORD
  5
232
102
{ACAD_REACTORS
330
21E
102
}
330
21E
100
AcDbXrecord
 10
0.0
 20
0.0
 30
0.0
  0
XRECORD
  5
22F
102
{ACAD_REACTORS
330
21E
102
}
330
21E
100
AcDbXrecord
 10
0.0
 20
0.0
 30
0.0
  0
XRECORD
  5
22C
102
{ACAD_REACTORS
330
21E
102
}
330
21E
100
AcDbXrecord
340
0
  0
XRECORD
  5
22D
102
{ACAD_REACTORS
330
21E
102
}
330
21E
100
AcDbXrecord
 70
     0
  0
XRECORD
  5
222
102
{ACAD_REACTORS
330
21E
102
}
330
21E
100
AcDbXrecord
  1

  0
XRECORD
  5
21F
102
{ACAD_REACTORS
330
21E
102
}
330
21E
100
AcDbXrecord
 90
        1
  0
XRECORD
  5
220
102
{ACAD_REACTORS
330
21E
102
}
330
21E
100
AcDbXrecord
 90
       70
  0
XRECORD
  5
237
102
{ACAD_REACTORS
330
21E
102
}
330
21E
100
AcDbXrecord
340
0
  0
XRECORD
  5
23D
102
{ACAD_REACTORS
330
21E
102
}
330
21E
100
AcDbXrecord
 10
0.0
 20
0.0
 30
0.0
  0
XRECORD
  5
239
102
{ACAD_REACTORS
330
21E
102
}
330
21E
100
AcDbXrecord
 10
0.0
 20
0.0
 30
0.0
  0
XRECORD
  5
23C
102
{ACAD_REACTORS
330
21E
102
}
330
21E
100
AcDbXrecord
 10
0.0
 20
0.0
 30
0.0
  0
XRECORD
  5
23A
102
{ACAD_REACTORS
330
21E
102
}
330
21E
100
AcDbXrecord
 10
0.0
 20
0.0
 30
0.0
  0
XRECORD
  5
23B
102
{ACAD_REACTORS
330
21E
102
}
330
21E
100
AcDbXrecord
 10
0.0
 20
0.0
 30
0.0
  0
XRECORD
  5
238
102
{ACAD_REACTORS
330
21E
102
}
330
21E
100
AcDbXrecord
 10
0.0
 20
0.0
 30
0.0
  0
XRECORD
  5
235
102
{ACAD_REACTORS
330
21E
102
}
330
21E
100
AcDbXrecord
340
0
  0
XRECORD
  5
236
102
{ACAD_REACTORS
330
21E
102
}
330
21E
100
AcDbXrecord
 70
     0
  0
XRECORD
  5
22A
102
{ACAD_REACTORS
330
21E
102
}
330
21E
100
AcDbXrecord
  1
{2707E814-3D3F-4116-9BF6-133C43509E69}
  0
DICTIONARYVAR
  5
135
102
{ACAD_REACTORS
330
134
102
}
330
134
100
DictionaryVariables
280
     0
  1
1
  0
ENDSEC
  0
EOF
