  0
SECTION
  2
HEADER
  9
$ACADVER
  1
AC1014
  9
$ACADMAINTVER
 70
     9
  9
$DWGCODEPAGE
  3
ANSI_1252
  9
$INSBASE
 10
0.0
 20
0.0
 30
0.0
  9
$EXTMIN
 10
-3.175674574527553
 20
-2.863309513937586
 30
0.0
  9
$EXTMAX
 10
22.56315557554066
 20
7.413187191360284
 30
0.0
  9
$LIMMIN
 10
-1.466105226147261
 20
-2.981655773263364
  9
$LIMMAX
 10
19.88621793203973
 20
12.05762250960879
  9
$ORTHOMODE
 70
     1
  9
$REGENMODE
 70
     1
  9
$FILLMODE
 70
     1
  9
$QTEXTMODE
 70
     0
  9
$MIRRTEXT
 70
     1
  9
$DRAGMODE
 70
     0
  9
$LTSCALE
 40
1.0
  9
$OSMODE
 70
    37
  9
$ATTMODE
 70
     1
  9
$TEXTSIZE
 40
0.2
  9
$TRACEWID
 40
0.05
  9
$TEXTSTYLE
  7
STANDARD
  9
$CLAYER
  8
ADPDIM
  9
$CELTYPE
  6
BYLAYER
  9
$CECOLOR
 62
   256
  9
$CELTSCALE
 40
1.0
  9
$DELOBJ
 70
     1
  9
$DISPSILH
 70
     0
  9
$DIMSCALE
 40
1.0
  9
$DIMASZ
 40
0.18
  9
$DIMEXO
 40
0.063
  9
$DIMDLI
 40
0.38
  9
$DIMRND
 40
0.0
  9
$DIMDLE
 40
0.0
  9
$DIMEXE
 40
0.18
  9
$DIMTP
 40
0.0
  9
$DIMTM
 40
0.0
  9
$DIMTXT
 40
0.18
  9
$DIMCEN
 40
0.09
  9
$DIMTSZ
 40
0.0
  9
$DIMTOL
 70
     0
  9
$DIMLIM
 70
     0
  9
$DIMTIH
 70
     1
  9
$DIMTOH
 70
     1
  9
$DIMSE1
 70
     0
  9
$DIMSE2
 70
     0
  9
$DIMTAD
 70
     0
  9
$DIMZIN
 70
     2
  9
$DIMBLK
  1

  9
$DIMASO
 70
     1
  9
$DIMSHO
 70
     1
  9
$DIMPOST
  1

  9
$DIMAPOST
  1

  9
$DIMALT
 70
     0
  9
$DIMALTD
 70
     2
  9
$DIMALTF
 40
25.4
  9
$DIMLFAC
 40
1.0
  9
$DIMTOFL
 70
     0
  9
$DIMTVP
 40
0.0
  9
$DIMTIX
 70
     0
  9
$DIMSOXD
 70
     0
  9
$DIMSAH
 70
     1
  9
$DIMBLK1
  1
OBLIQUE
  9
$DIMBLK2
  1
OBLIQUE
  9
$DIMSTYLE
  2
STANDARD
  9
$DIMCLRD
 70
     0
  9
$DIMCLRE
 70
     0
  9
$DIMCLRT
 70
     0
  9
$DIMTFAC
 40
1.0
  9
$DIMGAP
 40
0.09
  9
$DIMJUST
 70
     0
  9
$DIMSD1
 70
     0
  9
$DIMSD2
 70
     0
  9
$DIMTOLJ
 70
     1
  9
$DIMTZIN
 70
     0
  9
$DIMALTZ
 70
     0
  9
$DIMALTTZ
 70
     0
  9
$DIMFIT
 70
     3
  9
$DIMUPT
 70
     0
  9
$DIMUNIT
 70
     7
  9
$DIMDEC
 70
     3
  9
$DIMTDEC
 70
     4
  9
$DIMALTU
 70
     2
  9
$DIMALTTD
 70
     2
  9
$DIMTXSTY
  7
STANDARD
  9
$DIMAUNIT
 70
     0
  9
$LUNITS
 70
     2
  9
$LUPREC
 70
     3
  9
$SKETCHINC
 40
0.1
  9
$FILLETRAD
 40
0.01
  9
$AUNITS
 70
     0
  9
$AUPREC
 70
     0
  9
$MENU
  1
acad
  9
$ELEVATION
 40
0.0
  9
$PELEVATION
 40
0.0
  9
$THICKNESS
 40
0.0
  9
$LIMCHECK
 70
     0
  9
$BLIPMODE
 70
     0
  9
$CHAMFERA
 40
0.0
  9
$CHAMFERB
 40
0.0
  9
$CHAMFERC
 40
0.0
  9
$CHAMFERD
 40
0.0
  9
$SKPOLY
 70
     0
  9
$TDCREATE
 40
2450140.714522951
  9
$TDUPDATE
 40
2452297.078742940
  9
$TDINDWG
 40
0.4983599769
  9
$TDUSRTIMER
 40
0.4983599769
  9
$USRTIMER
 70
     1
  9
$ANGBASE
 50
0.0
  9
$ANGDIR
 70
     0
  9
$PDMODE
 70
     2
  9
$PDSIZE
 40
0.125
  9
$PLINEWID
 40
0.0
  9
$COORDS
 70
     2
  9
$SPLFRAME
 70
     0
  9
$SPLINETYPE
 70
     6
  9
$SPLINESEGS
 70
     8
  9
$ATTDIA
 70
     0
  9
$ATTREQ
 70
     1
  9
$HANDLING
 70
 22529
  9
$HANDSEED
  5
492F
  9
$SURFTAB1
 70
     6
  9
$SURFTAB2
 70
     6
  9
$SURFTYPE
 70
     6
  9
$SURFU
 70
     6
  9
$SURFV
 70
     6
  9
$UCSNAME
  2

  9
$UCSORG
 10
0.0
 20
0.0
 30
0.0
  9
$UCSXDIR
 10
1.0
 20
0.0
 30
0.0
  9
$UCSYDIR
 10
0.0
 20
1.0
 30
0.0
  9
$PUCSNAME
  2

  9
$PUCSORG
 10
0.0
 20
0.0
 30
0.0
  9
$PUCSXDIR
 10
1.0
 20
0.0
 30
0.0
  9
$PUCSYDIR
 10
0.0
 20
1.0
 30
0.0
  9
$USERI1
 70
     0
  9
$USERI2
 70
     0
  9
$USERI3
 70
     0
  9
$USERI4
 70
     0
  9
$USERI5
 70
     0
  9
$USERR1
 40
0.0
  9
$USERR2
 40
0.0
  9
$USERR3
 40
0.0
  9
$USERR4
 40
0.0
  9
$USERR5
 40
0.0
  9
$WORLDVIEW
 70
     1
  9
$SHADEDGE
 70
     3
  9
$SHADEDIF
 70
    70
  9
$TILEMODE
 70
     1
  9
$MAXACTVP
 70
    15
  9
$PINSBASE
 10
0.0
 20
0.0
 30
0.0
  9
$PLIMCHECK
 70
     0
  9
$PEXTMIN
 10
1.000000000000000E+20
 20
1.000000000000000E+20
 30
1.000000000000000E+20
  9
$PEXTMAX
 10
-1.000000000000000E+20
 20
-1.000000000000000E+20
 30
-1.000000000000000E+20
  9
$PLIMMIN
 10
0.0
 20
0.0
  9
$PLIMMAX
 10
12.0
 20
9.0
  9
$UNITMODE
 70
     0
  9
$VISRETAIN
 70
     0
  9
$PLINEGEN
 70
     0
  9
$PSLTSCALE
 70
     1
  9
$TREEDEPTH
 70
  3020
  9
$PICKSTYLE
 70
     1
  9
$CMLSTYLE
  2
STANDARD
  9
$CMLJUST
 70
     0
  9
$CMLSCALE
 40
1.0
  9
$PROXYGRAPHICS
 70
     1
  9
$MEASUREMENT
 70
     0
  0
ENDSEC
  0
SECTION
  2
CLASSES
  0
CLASS
  1
ACDBDICTIONARYWDFLT
  2
AcDbDictionaryWithDefault
  3
AutoCAD 2000
 90
        0
280
     0
281
     0
  0
CLASS
  1
ACDBPLACEHOLDER
  2
AcDbPlaceHolder
  3
AutoCAD 2000
 90
        0
280
     0
281
     0
  0
CLASS
  1
LAYOUT
  2
AcDbLayout
  3
AutoCAD 2000
 90
        0
280
     0
281
     0
  0
CLASS
  1
DICTIONARYVAR
  2
AcDbDictionaryVar
  3
AutoCAD 2000
 90
        0
280
     0
281
     0
  0
CLASS
  1
LONG_TRANSACTION
  2
AcDbLongTransaction
  3
AutoCAD 2000
 90
        0
280
     0
281
     0
  0
CLASS
  1
LWPOLYLINE
  2
AcDbPolyline
  3
AutoCAD 2000
 90
        0
280
     0
281
     1
  0
CLASS
  1
HATCH
  2
AcDbHatch
  3
AutoCAD 2000
 90
        0
280
     0
281
     1
  0
CLASS
  1
XRECORD
  2
AcDbXrecord
  3
AutoCAD 2000
 90
        0
280
     0
281
     0
  0
CLASS
  1
LONG_TRANSACTION
  2
AcDbLongTransaction
  3
AutoCAD 2000
 90
        0
280
     0
281
     0
  0
CLASS
  1
LWPOLYLINE
  2
AcDbPolyline
  3
AutoCAD 2000
 90
        0
280
     0
281
     1
  0
CLASS
  1
HATCH
  2
AcDbHatch
  3
AutoCAD 2000
 90
        0
280
     0
281
     1
  0
CLASS
  1
XRECORD
  2
AcDbXrecord
  3
AutoCAD 2000
 90
        0
280
     0
281
     0
  0
CLASS
  1
LONG_TRANSACTION
  2
AcDbLongTransaction
  3
AutoCAD 2000
 90
        0
280
     0
281
     0
  0
CLASS
  1
LWPOLYLINE
  2
AcDbPolyline
  3
AutoCAD 2000
 90
        0
280
     0
281
     1
  0
CLASS
  1
HATCH
  2
AcDbHatch
  3
AutoCAD 2000
 90
        0
280
     0
281
     1
  0
CLASS
  1
XRECORD
  2
AcDbXrecord
  3
AutoCAD 2000
 90
        0
280
     0
281
     0
  0
CLASS
  1
LONG_TRANSACTION
  2
AcDbLongTransaction
  3
AutoCAD 2000
 90
        0
280
     0
281
     0
  0
CLASS
  1
LWPOLYLINE
  2
AcDbPolyline
  3
AutoCAD 2000
 90
        0
280
     0
281
     1
  0
CLASS
  1
HATCH
  2
AcDbHatch
  3
AutoCAD 2000
 90
        0
280
     0
281
     1
  0
CLASS
  1
XRECORD
  2
AcDbXrecord
  3
AutoCAD 2000
 90
        0
280
     0
281
     0
  0
CLASS
  1
LONG_TRANSACTION
  2
AcDbLongTransaction
  3
AutoCAD 2000
 90
        0
280
     0
281
     0
  0
CLASS
  1
LWPOLYLINE
  2
AcDbPolyline
  3
AutoCAD 2000
 90
        0
280
     0
281
     1
  0
CLASS
  1
HATCH
  2
AcDbHatch
  3
AutoCAD 2000
 90
        0
280
     0
281
     1
  0
CLASS
  1
XRECORD
  2
AcDbXrecord
  3
AutoCAD 2000
 90
        0
280
     0
281
     0
  0
CLASS
  1
LONG_TRANSACTION
  2
AcDbLongTransaction
  3
AutoCAD 2000
 90
        0
280
     0
281
     0
  0
CLASS
  1
LWPOLYLINE
  2
AcDbPolyline
  3
AutoCAD 2000
 90
        0
280
     0
281
     1
  0
CLASS
  1
HATCH
  2
AcDbHatch
  3
AutoCAD 2000
 90
        0
280
     0
281
     1
  0
CLASS
  1
XRECORD
  2
AcDbXrecord
  3
AutoCAD 2000
 90
        0
280
     0
281
     0
  0
ENDSEC
  0
SECTION
  2
TABLES
  0
TABLE
  2
VPORT
  5
44E7
330
0
100
AcDbSymbolTable
 70
     2
  0
VPORT
  5
48D7
330
44E7
100
AcDbSymbolTableRecord
100
AcDbViewportTableRecord
  2
*ACTIVE
 70
     0
 10
0.0
 20
0.0
 11
1.0
 21
1.0
 12
9.714886759359359
 22
2.275257987300904
 13
0.0
 23
0.0
 14
0.5740882589684922
 24
0.5740882589684922
 15
0.5
 25
0.5
 16
0.0
 26
0.0
 36
1.0
 17
0.0
 27
0.0
 37
0.0
 40
16.49508108079596
 41
1.570528967254408
 42
50.0
 43
0.0
 44
0.0
 50
0.0
 51
0.0
 71
     0
 72
   100
 73
     1
 74
     1
 75
     0
 76
     0
 77
     0
 78
     0
  0
ENDTAB
  0
TABLE
  2
LTYPE
  5
44E4
330
0
100
AcDbSymbolTable
 70
     1
  0
LTYPE
  5
44F1
330
44E4
100
AcDbSymbolTableRecord
100
AcDbLinetypeTableRecord
  2
BYBLOCK
 70
     0
  3

 72
    65
 73
     0
 40
0.0
  0
LTYPE
  5
44F2
330
44E4
100
AcDbSymbolTableRecord
100
AcDbLinetypeTableRecord
  2
BYLAYER
 70
     0
  3

 72
    65
 73
     0
 40
0.0
  0
LTYPE
  5
44F3
330
44E4
100
AcDbSymbolTableRecord
100
AcDbLinetypeTableRecord
  2
CONTINUOUS
 70
     0
  3
Solid line
 72
    65
 73
     0
 40
0.0
  0
ENDTAB
  0
TABLE
  2
LAYER
  5
44E1
330
0
100
AcDbSymbolTable
 70
     4
  0
LAYER
  5
44EE
330
44E1
100
AcDbSymbolTableRecord
100
AcDbLayerTableRecord
  2
0
 70
     0
 62
     7
  6
CONTINUOUS
  0
LAYER
  5
4540
330
44E1
100
AcDbSymbolTableRecord
100
AcDbLayerTableRecord
  2
ADPDIM
 70
     0
 62
     3
  6
CONTINUOUS
  0
LAYER
  5
4542
330
44E1
100
AcDbSymbolTableRecord
100
AcDbLayerTableRecord
  2
DEFPOINTS
 70
     0
 62
     7
  6
CONTINUOUS
  0
LAYER
  5
4543
330
44E1
100
AcDbSymbolTableRecord
100
AcDbLayerTableRecord
  2
ADP1DETAIL
 70
     0
 62
     7
  6
CONTINUOUS
  0
ENDTAB
  0
TABLE
  2
STYLE
  5
44E2
330
0
100
AcDbSymbolTable
 70
     2
  0
STYLE
  5
44EF
330
44E2
100
AcDbSymbolTableRecord
100
AcDbTextStyleTableRecord
  2
STANDARD
 70
     0
 40
0.0
 41
1.0
 50
0.0
 71
     0
 42
0.2
  3
txt
  4

  0
STYLE
  5
45BC
330
44E2
100
AcDbSymbolTableRecord
100
AcDbTextStyleTableRecord
  2
ARIAL_WIDE
 70
     0
 40
0.0
 41
1.25
 50
0.0
 71
     0
 42
0.2
  3
ARIAL.TTF
  4

1001
ACAD
1000
Arial
1071
       34
  0
ENDTAB
  0
TABLE
  2
VIEW
  5
44E5
330
0
100
AcDbSymbolTable
 70
     0
  0
ENDTAB
  0
TABLE
  2
UCS
  5
44E6
330
0
100
AcDbSymbolTable
 70
     0
  0
ENDTAB
  0
TABLE
  2
APPID
  5
44E8
330
0
100
AcDbSymbolTable
 70
     2
  0
APPID
  5
44F0
330
44E8
100
AcDbSymbolTableRecord
100
AcDbRegAppTableRecord
  2
ACAD
 70
     0
  0
APPID
  5
453D
330
44E8
100
AcDbSymbolTableRecord
100
AcDbRegAppTableRecord
  2
AME_SOL
 70
     0
  0
ENDTAB
  0
TABLE
  2
DIMSTYLE
  5
44E9
330
0
100
AcDbSymbolTable
 70
     1
  0
DIMSTYLE
105
4548
102
{ACAD_REACTORS
330
FFA
330
4370
330
437B
330
438E
330
4422
330
44DC
102
}
330
44E9
100
AcDbSymbolTableRecord
100
AcDbDimStyleTableRecord
  2
STANDARD
 70
     0
  3

  4

  5

  6

  7

 40
1.0
 41
0.18
 42
0.0625
 43
0.38
 44
0.18
 45
0.0
 46
0.0
 47
0.0
 48
0.0
140
0.18
141
0.09
142
0.0
143
25.4
144
1.0
145
0.0
146
1.0
147
0.09
 71
     0
 72
     0
 73
     1
 74
     1
 75
     0
 76
     0
 77
     0
 78
     0
170
     0
171
     2
172
     0
173
     0
174
     0
175
     0
176
     0
177
     0
178
     0
270
     2
271
     4
272
     4
273
     2
274
     2
340
44EF
275
     0
280
     0
281
     0
282
     0
283
     1
284
     0
285
     0
286
     0
287
     3
288
     0
  0
ENDTAB
  0
TABLE
  2
BLOCK_RECORD
  5
44E0
330
0
100
AcDbSymbolTable
 70
     9
  0
BLOCK_RECORD
  5
44F7
102
{ACAD_XDICTIONARY
360
467B
102
}
330
44E0
100
AcDbSymbolTableRecord
100
AcDbBlockTableRecord
  2
*MODEL_SPACE
  0
BLOCK_RECORD
  5
44F4
102
{ACAD_XDICTIONARY
360
4679
102
}
330
44E0
100
AcDbSymbolTableRecord
100
AcDbBlockTableRecord
  2
*PAPER_SPACE
  0
BLOCK_RECORD
  5
44FC
330
44E0
100
AcDbSymbolTableRecord
100
AcDbBlockTableRecord
  2
AME_NIL
  0
BLOCK_RECORD
  5
44FD
330
44E0
100
AcDbSymbolTableRecord
100
AcDbBlockTableRecord
  2
AME_SOL
  0
BLOCK_RECORD
  5
454D
330
44E0
100
AcDbSymbolTableRecord
100
AcDbBlockTableRecord
  2
_OBLIQUE
  0
BLOCK_RECORD
  5
4551
330
44E0
100
AcDbSymbolTableRecord
100
AcDbBlockTableRecord
  2
*D3
  0
BLOCK_RECORD
  5
456A
330
44E0
100
AcDbSymbolTableRecord
100
AcDbBlockTableRecord
  2
*D4
  0
BLOCK_RECORD
  5
4583
330
44E0
100
AcDbSymbolTableRecord
100
AcDbBlockTableRecord
  2
*D5
  0
BLOCK_RECORD
  5
4590
330
44E0
100
AcDbSymbolTableRecord
100
AcDbBlockTableRecord
  2
*D6
  0
BLOCK_RECORD
  5
459D
330
44E0
100
AcDbSymbolTableRecord
100
AcDbBlockTableRecord
  2
*D7
  0
BLOCK_RECORD
  5
45A6
330
44E0
100
AcDbSymbolTableRecord
100
AcDbBlockTableRecord
  2
*D8
  0
ENDTAB
  0
ENDSEC
  0
SECTION
  2
BLOCKS
  0
BLOCK
  5
4546
330
44F7
100
AcDbEntity
  8
0
100
AcDbBlockBegin
  2
*MODEL_SPACE
 70
     0
 10
0.0
 20
0.0
 30
0.0
  3
*MODEL_SPACE
  1

  0
ENDBLK
  5
4547
330
44F7
100
AcDbEntity
  8
0
100
AcDbBlockEnd
  0
BLOCK
  5
4544
330
44F4
100
AcDbEntity
 67
     1
  8
0
100
AcDbBlockBegin
  2
*PAPER_SPACE
 70
     0
 10
0.0
 20
0.0
 30
0.0
  3
*PAPER_SPACE
  1

  0
ENDBLK
  5
4545
330
44F4
100
AcDbEntity
 67
     1
  8
0
100
AcDbBlockEnd
  0
BLOCK
  5
CD
330
44FC
100
AcDbEntity
  8
0
100
AcDbBlockBegin
  2
AME_NIL
 70
     0
 10
0.0
 20
0.0
 30
0.0
  3
AME_NIL
  1
AME_NIL
  0
ENDBLK
  5
CE
330
44FC
100
AcDbEntity
  8
0
100
AcDbBlockEnd
  0
BLOCK
  5
D0
330
44FD
100
AcDbEntity
  8
0
100
AcDbBlockBegin
  2
AME_SOL
 70
     0
 10
0.0
 20
0.0
 30
0.0
  3
AME_SOL
  1
AME_SOL
  0
ENDBLK
  5
D1
330
44FD
100
AcDbEntity
  8
0
100
AcDbBlockEnd
  0
BLOCK
  5
454E
330
454D
100
AcDbEntity
  8
0
100
AcDbBlockBegin
  2
_OBLIQUE
 70
     0
 10
0.0
 20
0.0
 30
0.0
  3
_OBLIQUE
  1
AME_NIL
  0
LINE
  5
454F
330
454D
100
AcDbEntity
  8
0
  6
BYBLOCK
 62
     0
100
AcDbLine
 10
-0.5
 20
-0.5
 30
0.0
 11
0.5
 21
0.5
 31
0.0
  0
ENDBLK
  5
4550
330
454D
100
AcDbEntity
  8
0
100
AcDbBlockEnd
  0
BLOCK
  5
4577
330
4551
100
AcDbEntity
  8
0
100
AcDbBlockBegin
  2
*D3
 70
     1
 10
0.0
 20
0.0
 30
0.0
  3
*D3
  1
AME_NIL
  0
LINE
  5
4903
330
4551
100
AcDbEntity
  8
ADPDIM
 62
     0
100
AcDbLine
 10
18.689864420901
 20
5.457336092510701
 30
0.0
 11
19.48271655736929
 21
5.457336092510701
 31
0.0
  0
LINE
  5
4904
330
4551
100
AcDbEntity
  8
ADPDIM
 62
     0
100
AcDbLine
 10
18.689864420901
 20
0.4573360925107002
 30
0.0
 11
19.48271655736929
 21
0.4573360925107
 31
0.0
  0
LINE
  5
4905
330
4551
100
AcDbEntity
  8
ADPDIM
 62
     0
100
AcDbLine
 10
19.30271655736929
 20
5.457336092510701
 30
0.0
 11
19.30271655736929
 21
3.1373360925107
 31
0.0
  0
LINE
  5
4906
330
4551
100
AcDbEntity
  8
ADPDIM
 62
     0
100
AcDbLine
 10
19.30271655736929
 20
0.4573360925107
 30
0.0
 11
19.30271655736929
 21
2.7773360925107
 31
0.0
  0
INSERT
  5
4907
330
4551
100
AcDbEntity
  8
ADPDIM
 62
     0
100
AcDbBlockReference
  2
_OBLIQUE
 10
19.30271655736929
 20
5.457336092510701
 30
0.0
 41
0.18
 42
0.18
 43
0.18
 50
90.0
  0
INSERT
  5
4908
330
4551
100
AcDbEntity
  8
ADPDIM
 62
     0
100
AcDbBlockReference
  2
_OBLIQUE
 10
19.30271655736929
 20
0.4573360925107
 30
0.0
 41
0.18
 42
0.18
 43
0.18
 50
270.0
  0
MTEXT
  5
4909
330
4551
100
AcDbEntity
  8
ADPDIM
 62
     0
100
AcDbMText
 10
19.30271655736929
 20
2.957336092510703
 30
0.0
 40
0.18
 41
0.0
 71
     5
 72
     1
  1
\A1;5
  0
POINT
  5
490A
330
4551
100
AcDbEntity
  8
DEFPOINTS
 62
     0
100
AcDbPoint
 10
18.626864420901
 20
5.457336092510701
 30
0.0
  0
POINT
  5
490B
330
4551
100
AcDbEntity
  8
DEFPOINTS
 62
     0
100
AcDbPoint
 10
18.626864420901
 20
0.4573360925107002
 30
0.0
  0
POINT
  5
490C
330
4551
100
AcDbEntity
  8
DEFPOINTS
 62
     0
100
AcDbPoint
 10
19.30271655736929
 20
0.4573360925107
 30
0.0
  0
ENDBLK
  5
4582
330
4551
100
AcDbEntity
  8
0
100
AcDbBlockEnd
  0
BLOCK
  5
456B
330
456A
100
AcDbEntity
  8
0
100
AcDbBlockBegin
  2
*D4
 70
     1
 10
0.0
 20
0.0
 30
0.0
  3
*D4
  1
AME_NIL
  0
LINE
  5
4917
330
456A
100
AcDbEntity
  8
ADPDIM
 62
     0
100
AcDbLine
 10
18.126864420901
 20
0.3943360925107002
 30
0.0
 11
18.126864420901
 21
-0.0733050757472393
 31
0.0
  0
LINE
  5
4918
330
456A
100
AcDbEntity
  8
ADPDIM
 62
     0
100
AcDbLine
 10
18.626864420901
 20
0.3943360925107002
 30
0.0
 11
18.626864420901
 21
-0.0733050757472393
 31
0.0
  0
LINE
  5
4919
330
456A
100
AcDbEntity
  8
ADPDIM
 62
     0
100
AcDbLine
 10
18.126864420901
 20
0.1066949242527606
 30
0.0
 11
18.626864420901
 21
0.1066949242527606
 31
0.0
  0
LINE
  5
491A
330
456A
100
AcDbEntity
  8
ADPDIM
 62
     0
100
AcDbLine
 10
18.626864420901
 20
0.1066949242527606
 30
0.0
 11
18.806864420901
 21
0.1066949242527606
 31
0.0
  0
INSERT
  5
491B
330
456A
100
AcDbEntity
  8
ADPDIM
 62
     0
100
AcDbBlockReference
  2
_OBLIQUE
 10
18.126864420901
 20
0.1066949242527606
 30
0.0
 41
0.18
 42
0.18
 43
0.18
 50
180.0
  0
INSERT
  5
491C
330
456A
100
AcDbEntity
  8
ADPDIM
 62
     0
100
AcDbBlockReference
  2
_OBLIQUE
 10
18.626864420901
 20
0.1066949242527606
 30
0.0
 41
0.18
 42
0.18
 43
0.18
  0
MTEXT
  5
491D
330
456A
100
AcDbEntity
  8
ADPDIM
 62
     0
100
AcDbMText
 10
19.106864420901
 20
0.1066949242527606
 30
0.0
 40
0.18
 41
0.0
 71
     5
 72
     1
  1
\A1;1/2
  0
POINT
  5
491E
330
456A
100
AcDbEntity
  8
DEFPOINTS
 62
     0
100
AcDbPoint
 10
18.126864420901
 20
0.4573360925107002
 30
0.0
  0
POINT
  5
491F
330
456A
100
AcDbEntity
  8
DEFPOINTS
 62
     0
100
AcDbPoint
 10
18.626864420901
 20
0.4573360925107002
 30
0.0
  0
POINT
  5
4920
330
456A
100
AcDbEntity
  8
DEFPOINTS
 62
     0
100
AcDbPoint
 10
18.626864420901
 20
0.1066949242527606
 30
0.0
  0
ENDBLK
  5
4576
330
456A
100
AcDbEntity
  8
0
100
AcDbBlockEnd
  0
BLOCK
  5
4584
330
4583
100
AcDbEntity
  8
0
100
AcDbBlockBegin
  2
*D5
 70
     1
 10
0.0
 20
0.0
 30
0.0
  3
*D5
  1
AME_NIL
  0
LINE
  5
48F9
330
4583
100
AcDbEntity
  8
ADPDIM
 62
     0
100
AcDbLine
 10
-0.0045911947839665
 20
5.505654500253023
 30
0.0
 11
-0.0045911947839664
 21
6.091821796262506
 31
0.0
  0
LINE
  5
48FA
330
4583
100
AcDbEntity
  8
ADPDIM
 62
     0
100
AcDbLine
 10
16.99540880521603
 20
5.505654500253023
 30
0.0
 11
16.99540880521603
 21
6.091821796262506
 31
0.0
  0
LINE
  5
48FB
330
4583
100
AcDbEntity
  8
ADPDIM
 62
     0
100
AcDbLine
 10
-0.0045911947839664
 20
5.911821796262506
 30
0.0
 11
8.285408805216032
 21
5.911821796262506
 31
0.0
  0
LINE
  5
48FC
330
4583
100
AcDbEntity
  8
ADPDIM
 62
     0
100
AcDbLine
 10
16.99540880521603
 20
5.911821796262506
 30
0.0
 11
8.705408805216034
 21
5.911821796262506
 31
0.0
  0
INSERT
  5
48FD
330
4583
100
AcDbEntity
  8
ADPDIM
 62
     0
100
AcDbBlockReference
  2
_OBLIQUE
 10
-0.0045911947839664
 20
5.911821796262506
 30
0.0
 41
0.18
 42
0.18
 43
0.18
 50
180.0
  0
INSERT
  5
48FE
330
4583
100
AcDbEntity
  8
ADPDIM
 62
     0
100
AcDbBlockReference
  2
_OBLIQUE
 10
16.99540880521603
 20
5.911821796262506
 30
0.0
 41
0.18
 42
0.18
 43
0.18
  0
MTEXT
  5
48FF
330
4583
100
AcDbEntity
  8
ADPDIM
 62
     0
100
AcDbMText
 10
8.495408805216033
 20
5.911821796262506
 30
0.0
 40
0.18
 41
0.0
 71
     5
 72
     1
  1
\A1;17
  0
POINT
  5
4900
330
4583
100
AcDbEntity
  8
DEFPOINTS
 62
     0
100
AcDbPoint
 10
-0.0045911947839665
 20
5.442654500253023
 30
0.0
  0
POINT
  5
4901
330
4583
100
AcDbEntity
  8
DEFPOINTS
 62
     0
100
AcDbPoint
 10
16.99540880521603
 20
5.442654500253023
 30
0.0
  0
POINT
  5
4902
330
4583
100
AcDbEntity
  8
DEFPOINTS
 62
     0
100
AcDbPoint
 10
16.99540880521603
 20
5.911821796262506
 30
0.0
  0
ENDBLK
  5
458F
330
4583
100
AcDbEntity
  8
0
100
AcDbBlockEnd
  0
BLOCK
  5
4591
330
4590
100
AcDbEntity
  8
0
100
AcDbBlockBegin
  2
*D6
 70
     1
 10
0.0
 20
0.0
 30
0.0
  3
*D6
  1
AME_NIL
  0
LINE
  5
490D
330
4590
100
AcDbEntity
  8
ADPDIM
 62
     0
100
AcDbLine
 10
8.245408805216033
 20
0.3796545002530231
 30
0.0
 11
8.245408805216033
 21
-0.0001727343916616
 31
0.0
  0
LINE
  5
490E
330
4590
100
AcDbEntity
  8
ADPDIM
 62
     0
100
AcDbLine
 10
8.745408805216033
 20
0.3796545002530231
 30
0.0
 11
8.745408805216033
 21
-0.0001727343916616
 31
0.0
  0
LINE
  5
490F
330
4590
100
AcDbEntity
  8
ADPDIM
 62
     0
100
AcDbLine
 10
8.245408805216033
 20
0.1798272656083384
 30
0.0
 11
8.745408805216033
 21
0.1798272656083384
 31
0.0
  0
LINE
  5
4910
330
4590
100
AcDbEntity
  8
ADPDIM
 62
     0
100
AcDbLine
 10
8.745408805216033
 20
0.1798272656083384
 30
0.0
 11
8.925408805216033
 21
0.1798272656083384
 31
0.0
  0
INSERT
  5
4911
330
4590
100
AcDbEntity
  8
ADPDIM
 62
     0
100
AcDbBlockReference
  2
_OBLIQUE
 10
8.245408805216033
 20
0.1798272656083384
 30
0.0
 41
0.18
 42
0.18
 43
0.18
 50
180.0
  0
INSERT
  5
4912
330
4590
100
AcDbEntity
  8
ADPDIM
 62
     0
100
AcDbBlockReference
  2
_OBLIQUE
 10
8.745408805216033
 20
0.1798272656083384
 30
0.0
 41
0.18
 42
0.18
 43
0.18
  0
MTEXT
  5
4913
330
4590
100
AcDbEntity
  8
ADPDIM
 62
     0
100
AcDbMText
 10
9.225408805216034
 20
0.1798272656083384
 30
0.0
 40
0.18
 41
0.0
 71
     5
 72
     1
  1
\A1;1/2
  0
POINT
  5
4914
330
4590
100
AcDbEntity
  8
DEFPOINTS
 62
     0
100
AcDbPoint
 10
8.245408805216033
 20
0.4426545002530231
 30
0.0
  0
POINT
  5
4915
330
4590
100
AcDbEntity
  8
DEFPOINTS
 62
     0
100
AcDbPoint
 10
8.745408805216033
 20
0.4426545002530231
 30
0.0
  0
POINT
  5
4916
330
4590
100
AcDbEntity
  8
DEFPOINTS
 62
     0
100
AcDbPoint
 10
8.745408805216033
 20
0.1798272656083384
 30
0.0
  0
ENDBLK
  5
459C
330
4590
100
AcDbEntity
  8
0
100
AcDbBlockEnd
  0
BLOCK
  5
459E
330
459D
100
AcDbEntity
  8
0
100
AcDbBlockBegin
  2
*D7
 70
     1
 10
0.0
 20
0.0
 30
0.0
  3
*D7
  1
AME_NIL
  0
LINE
  5
4927
330
459D
100
AcDbEntity
  8
ADPDIM
 62
     0
100
AcDbLine
 10
8.729192880116222
 20
3.443688947373553
 30
0.0
 11
8.909192880116226
 21
3.443688947373553
 31
0.0
  0
LINE
  5
4928
330
459D
100
AcDbEntity
  8
ADPDIM
 62
     0
100
AcDbLine
 10
8.909192880116226
 20
3.443688947373553
 30
0.0
 11
10.01429075968885
 21
4.685338102521594
 31
0.0
  0
MTEXT
  5
4929
330
459D
100
AcDbEntity
  8
ADPDIM
 62
     0
100
AcDbMText
 10
8.129192880116221
 20
3.443688947373551
 30
0.0
 40
0.18
 41
0.0
 71
     5
 72
     1
  1
\A1;R2 3/8
  0
INSERT
  5
492A
330
459D
100
AcDbEntity
  8
ADPDIM
 62
     0
100
AcDbBlockReference
  2
_OBLIQUE
 10
10.01429075968885
 20
4.685338102521594
 30
0.0
 41
0.18
 42
0.18
 43
0.18
 50
48.33014153202697
  0
POINT
  5
492B
330
459D
100
AcDbEntity
  8
DEFPOINTS
 62
     0
100
AcDbPoint
 10
10.01429075968885
 20
4.685338102521594
 30
0.0
  0
POINT
  5
492C
330
459D
100
AcDbEntity
  8
DEFPOINTS
 62
     0
100
AcDbPoint
 10
8.435301746023345
 20
2.911241517010076
 30
0.0
  0
ENDBLK
  5
45A5
330
459D
100
AcDbEntity
  8
0
100
AcDbBlockEnd
  0
BLOCK
  5
45A7
330
45A6
100
AcDbEntity
  8
0
100
AcDbBlockBegin
  2
*D8
 70
     1
 10
0.0
 20
0.0
 30
0.0
  3
*D8
  1
AME_NIL
  0
LINE
  5
4921
330
45A6
100
AcDbEntity
  8
ADPDIM
 62
     0
100
AcDbLine
 10
8.708159565445674
 20
2.28883453542926
 30
0.0
 11
8.888159565445675
 21
2.288834535429259
 31
0.0
  0
LINE
  5
4922
330
45A6
100
AcDbEntity
  8
ADPDIM
 62
     0
100
AcDbLine
 10
8.888159565445675
 20
2.288834535429259
 30
0.0
 11
9.538439429982293
 21
1.395091046169635
 31
0.0
  0
MTEXT
  5
4923
330
45A6
100
AcDbEntity
  8
ADPDIM
 62
     0
100
AcDbMText
 10
8.138159565445675
 20
2.288834535429259
 30
0.0
 40
0.18
 41
0.0
 71
     5
 72
     1
  1
\A1;R1 7/8
  0
INSERT
  5
4924
330
45A6
100
AcDbEntity
  8
ADPDIM
 62
     0
100
AcDbBlockReference
  2
_OBLIQUE
 10
9.538439429982293
 20
1.395091046169635
 30
0.0
 41
0.18
 42
0.18
 43
0.18
 50
306.0393047991015
  0
POINT
  5
4925
330
45A6
100
AcDbEntity
  8
DEFPOINTS
 62
     0
100
AcDbPoint
 10
9.538439429982293
 20
1.395091046169635
 30
0.0
  0
POINT
  5
4926
330
45A6
100
AcDbEntity
  8
DEFPOINTS
 62
     0
100
AcDbPoint
 10
8.435301746023345
 20
2.911241517010076
 30
0.0
  0
ENDBLK
  5
45AE
330
45A6
100
AcDbEntity
  8
0
100
AcDbBlockEnd
  0
ENDSEC
  0
SECTION
  2
ENTITIES
  0
INSERT
  5
CF
330
44F7
100
AcDbEntity
  8
ADP1DETAIL
100
AcDbBlockReference
  2
AME_NIL
 10
0.0
 20
0.0
 30
0.0
  0
INSERT
  5
D2
330
44F7
100
AcDbEntity
  8
ADP1DETAIL
100
AcDbBlockReference
  2
AME_SOL
 10
0.0
 20
0.0
 30
0.0
1001
AME_SOL
1000
R2.1
1000
AME2
1000
sq cm
1070
     3
1070
     0
1070
     3
1000
wire
1040
45.0
1000
U
1040
1.0
1000
cm
1000
gm
1000
MILD_STEEL
1070
    25
1000
CSG
1070
     1
1070
     3
1070
     3
1070
     3
1070
     0
1000
cu cm
1070
     1
1070
     0
1005
CF
  0
ARC
  5
E46
330
44F7
100
AcDbEntity
  8
ADP1DETAIL
100
AcDbCircle
 10
8.495408805216033
 20
2.942654500253023
 30
0.0
 40
2.375
100
AcDbArc
 50
206.5253520166097
 51
263.9576715809459
  0
ARC
  5
E47
330
44F7
100
AcDbEntity
  8
ADP1DETAIL
100
AcDbCircle
 10
8.495408805216033
 20
2.942654500253023
 30
0.0
 40
2.375
100
AcDbArc
 50
96.04232841905412
 51
153.4746479833902
  0
ARC
  5
E48
330
44F7
100
AcDbEntity
  8
ADP1DETAIL
100
AcDbCircle
 10
-0.0045911947839656
 20
2.942654500253023
 30
0.0
 40
2.375
100
AcDbArc
 50
276.042328419054
 51
333.4746479833903
  0
ARC
  5
E49
330
44F7
100
AcDbEntity
  8
ADP1DETAIL
100
AcDbCircle
 10
-0.0045911947839656
 20
2.942654500253023
 30
0.0
 40
2.375
100
AcDbArc
 50
26.52535201660969
 51
83.9576715809459
  0
ARC
  5
E4A
330
44F7
100
AcDbEntity
  8
ADP1DETAIL
100
AcDbCircle
 10
-0.0045911947839656
 20
2.942654500253023
 30
0.0
 40
1.875
100
AcDbArc
 50
270.0
 51
90.00000000000003
  0
LINE
  5
E4B
330
44F7
100
AcDbEntity
  8
ADP1DETAIL
100
AcDbLine
 10
-0.0045911947839665
 20
0.4426545002530231
 30
0.0
 11
-0.0045911947839656
 21
1.067654500253023
 31
0.0
  0
LINE
  5
E4C
330
44F7
100
AcDbEntity
  8
ADP1DETAIL
100
AcDbLine
 10
0.2454088052160344
 20
0.4426545002530231
 30
0.0
 11
-0.0045911947839665
 21
0.4426545002530231
 31
0.0
  0
LINE
  5
E4D
330
44F7
100
AcDbEntity
  8
ADP1DETAIL
100
AcDbLine
 10
0.2454088052160344
 20
0.5808490467916246
 30
0.0
 11
0.2454088052160344
 21
0.4426545002530231
 31
0.0
  0
LINE
  5
E4E
330
44F7
100
AcDbEntity
  8
ADP1DETAIL
100
AcDbLine
 10
-0.0045911947839665
 20
4.817654500253023
 30
0.0
 11
-0.0045911947839665
 21
5.442654500253023
 31
0.0
  0
LINE
  5
E4F
330
44F7
100
AcDbEntity
  8
ADP1DETAIL
100
AcDbLine
 10
-0.0045911947839665
 20
5.442654500253023
 30
0.0
 11
0.2454088052160335
 21
5.442654500253023
 31
0.0
  0
LINE
  5
E50
330
44F7
100
AcDbEntity
  8
ADP1DETAIL
100
AcDbLine
 10
0.2454088052160335
 20
5.442654500253023
 30
0.0
 11
0.2454088052160335
 21
5.30445995371442
 31
0.0
  0
CIRCLE
  5
E51
330
44F7
100
AcDbEntity
  8
ADP1DETAIL
100
AcDbCircle
 10
4.245408805216034
 20
2.942654500253023
 30
0.0
 40
1.875
  0
ARC
  5
E52
330
44F7
100
AcDbEntity
  8
ADP1DETAIL
100
AcDbCircle
 10
4.245408805216034
 20
2.942654500253023
 30
0.0
 40
2.375
100
AcDbArc
 50
206.5253520166097
 51
263.9576715809459
  0
ARC
  5
E53
330
44F7
100
AcDbEntity
  8
ADP1DETAIL
100
AcDbCircle
 10
4.245408805216034
 20
2.942654500253023
 30
0.0
 40
2.375
100
AcDbArc
 50
276.042328419054
 51
333.4746479833903
  0
LINE
  5
E54
330
44F7
100
AcDbEntity
  8
ADP1DETAIL
100
AcDbLine
 10
4.495408805216034
 20
0.4426545002530231
 30
0.0
 11
3.995408805216034
 21
0.4426545002530231
 31
0.0
  0
LINE
  5
E55
330
44F7
100
AcDbEntity
  8
ADP1DETAIL
100
AcDbLine
 10
3.995408805216034
 20
0.4426545002530231
 30
0.0
 11
3.995408805216034
 21
0.5808490467916246
 31
0.0
  0
LINE
  5
E56
330
44F7
100
AcDbEntity
  8
ADP1DETAIL
100
AcDbLine
 10
4.495408805216034
 20
0.5808490467916246
 30
0.0
 11
4.495408805216034
 21
0.4426545002530231
 31
0.0
  0
ARC
  5
E57
330
44F7
100
AcDbEntity
  8
ADP1DETAIL
100
AcDbCircle
 10
4.245408805216034
 20
2.942654500253023
 30
0.0
 40
2.375
100
AcDbArc
 50
96.04232841905412
 51
153.4746479833902
  0
ARC
  5
E58
330
44F7
100
AcDbEntity
  8
ADP1DETAIL
100
AcDbCircle
 10
4.245408805216034
 20
2.942654500253023
 30
0.0
 40
2.375
100
AcDbArc
 50
26.52535201660968
 51
83.9576715809459
  0
LINE
  5
E59
330
44F7
100
AcDbEntity
  8
ADP1DETAIL
100
AcDbLine
 10
3.995408805216034
 20
5.442654500253023
 30
0.0
 11
4.495408805216034
 21
5.442654500253023
 31
0.0
  0
LINE
  5
E5A
330
44F7
100
AcDbEntity
  8
ADP1DETAIL
100
AcDbLine
 10
3.995408805216034
 20
5.30445995371442
 30
0.0
 11
3.995408805216034
 21
5.442654500253023
 31
0.0
  0
LINE
  5
E5B
330
44F7
100
AcDbEntity
  8
ADP1DETAIL
100
AcDbLine
 10
4.495408805216034
 20
5.442654500253023
 30
0.0
 11
4.495408805216034
 21
5.30445995371442
 31
0.0
  0
ARC
  5
E5C
330
44F7
100
AcDbEntity
  8
ADP1DETAIL
100
AcDbCircle
 10
12.74540880521603
 20
2.942654500253023
 30
0.0
 40
2.375
100
AcDbArc
 50
206.5253520166097
 51
263.9576715809459
  0
ARC
  5
E5D
330
44F7
100
AcDbEntity
  8
ADP1DETAIL
100
AcDbCircle
 10
12.74540880521603
 20
2.942654500253023
 30
0.0
 40
2.375
100
AcDbArc
 50
96.04232841905412
 51
153.4746479833902
  0
CIRCLE
  5
E5E
330
44F7
100
AcDbEntity
  8
ADP1DETAIL
100
AcDbCircle
 10
12.74540880521603
 20
2.942654500253023
 30
0.0
 40
1.875
  0
CIRCLE
  5
E5F
330
44F7
100
AcDbEntity
  8
ADP1DETAIL
100
AcDbCircle
 10
8.495408805216033
 20
2.942654500253023
 30
0.0
 40
1.875
  0
ARC
  5
E60
330
44F7
100
AcDbEntity
  8
ADP1DETAIL
100
AcDbCircle
 10
8.495408805216033
 20
2.942654500253023
 30
0.0
 40
2.375
100
AcDbArc
 50
276.042328419054
 51
333.4746479833903
  0
LINE
  5
E61
330
44F7
100
AcDbEntity
  8
ADP1DETAIL
100
AcDbLine
 10
8.745408805216033
 20
0.4426545002530231
 30
0.0
 11
8.245408805216033
 21
0.4426545002530231
 31
0.0
  0
LINE
  5
E62
330
44F7
100
AcDbEntity
  8
ADP1DETAIL
100
AcDbLine
 10
8.245408805216033
 20
0.4426545002530231
 30
0.0
 11
8.245408805216033
 21
0.5808490467916246
 31
0.0
  0
LINE
  5
E63
330
44F7
100
AcDbEntity
  8
ADP1DETAIL
100
AcDbLine
 10
8.745408805216033
 20
0.5808490467916246
 30
0.0
 11
8.745408805216033
 21
0.4426545002530231
 31
0.0
  0
ARC
  5
E64
330
44F7
100
AcDbEntity
  8
ADP1DETAIL
100
AcDbCircle
 10
8.495408805216033
 20
2.942654500253023
 30
0.0
 40
2.375
100
AcDbArc
 50
26.52535201660968
 51
83.9576715809459
  0
LINE
  5
E65
330
44F7
100
AcDbEntity
  8
ADP1DETAIL
100
AcDbLine
 10
8.245408805216033
 20
5.442654500253023
 30
0.0
 11
8.745408805216033
 21
5.442654500253023
 31
0.0
  0
LINE
  5
E66
330
44F7
100
AcDbEntity
  8
ADP1DETAIL
100
AcDbLine
 10
8.245408805216033
 20
5.30445995371442
 30
0.0
 11
8.245408805216033
 21
5.442654500253023
 31
0.0
  0
LINE
  5
E67
330
44F7
100
AcDbEntity
  8
ADP1DETAIL
100
AcDbLine
 10
8.745408805216033
 20
5.442654500253023
 30
0.0
 11
8.745408805216033
 21
5.30445995371442
 31
0.0
  0
ARC
  5
E68
330
44F7
100
AcDbEntity
  8
ADP1DETAIL
100
AcDbCircle
 10
16.99540880521603
 20
2.94265450025302
 30
0.0
 40
1.875
100
AcDbArc
 50
90.0
 51
270.0
  0
ARC
  5
E69
330
44F7
100
AcDbEntity
  8
ADP1DETAIL
100
AcDbCircle
 10
16.99540880521603
 20
2.94265450025302
 30
0.0
 40
2.375
100
AcDbArc
 50
206.5253520166097
 51
263.9576715809459
  0
ARC
  5
E6A
330
44F7
100
AcDbEntity
  8
ADP1DETAIL
100
AcDbCircle
 10
12.74540880521603
 20
2.942654500253023
 30
0.0
 40
2.375
100
AcDbArc
 50
276.042328419054
 51
333.4746479833903
  0
LINE
  5
E6B
330
44F7
100
AcDbEntity
  8
ADP1DETAIL
100
AcDbLine
 10
12.99540880521603
 20
0.4426545002530231
 30
0.0
 11
12.49540880521603
 21
0.4426545002530231
 31
0.0
  0
LINE
  5
E6C
330
44F7
100
AcDbEntity
  8
ADP1DETAIL
100
AcDbLine
 10
12.49540880521603
 20
0.4426545002530231
 30
0.0
 11
12.49540880521603
 21
0.5808490467916246
 31
0.0
  0
LINE
  5
E6D
330
44F7
100
AcDbEntity
  8
ADP1DETAIL
100
AcDbLine
 10
12.99540880521603
 20
0.5808490467916246
 30
0.0
 11
12.99540880521603
 21
0.4426545002530231
 31
0.0
  0
LINE
  5
E6E
330
44F7
100
AcDbEntity
  8
ADP1DETAIL
100
AcDbLine
 10
16.99540880521603
 20
0.4426545002530231
 30
0.0
 11
16.99540880521603
 21
1.067654500253023
 31
0.0
  0
LINE
  5
E6F
330
44F7
100
AcDbEntity
  8
ADP1DETAIL
100
AcDbLine
 10
16.99540880521603
 20
0.4426545002530231
 30
0.0
 11
16.74540880521603
 21
0.4426545002530231
 31
0.0
  0
LINE
  5
E70
330
44F7
100
AcDbEntity
  8
ADP1DETAIL
100
AcDbLine
 10
16.74540880521603
 20
0.4426545002530231
 30
0.0
 11
16.74540880521603
 21
0.5808490467916237
 31
0.0
  0
ARC
  5
E71
330
44F7
100
AcDbEntity
  8
ADP1DETAIL
100
AcDbCircle
 10
16.99540880521603
 20
2.94265450025302
 30
0.0
 40
2.375
100
AcDbArc
 50
96.04232841905412
 51
153.4746479833902
  0
ARC
  5
E72
330
44F7
100
AcDbEntity
  8
ADP1DETAIL
100
AcDbCircle
 10
12.74540880521603
 20
2.942654500253023
 30
0.0
 40
2.375
100
AcDbArc
 50
26.52535201660968
 51
83.9576715809459
  0
LINE
  5
E73
330
44F7
100
AcDbEntity
  8
ADP1DETAIL
100
AcDbLine
 10
12.49540880521603
 20
5.442654500253023
 30
0.0
 11
12.99540880521603
 21
5.442654500253023
 31
0.0
  0
LINE
  5
E74
330
44F7
100
AcDbEntity
  8
ADP1DETAIL
100
AcDbLine
 10
12.49540880521603
 20
5.30445995371442
 30
0.0
 11
12.49540880521603
 21
5.442654500253023
 31
0.0
  0
LINE
  5
E75
330
44F7
100
AcDbEntity
  8
ADP1DETAIL
100
AcDbLine
 10
12.99540880521603
 20
5.442654500253023
 30
0.0
 11
12.99540880521603
 21
5.30445995371442
 31
0.0
  0
LINE
  5
E76
330
44F7
100
AcDbEntity
  8
ADP1DETAIL
100
AcDbLine
 10
16.99540880521603
 20
4.817654500253023
 30
0.0
 11
16.99540880521603
 21
5.442654500253023
 31
0.0
  0
LINE
  5
E77
330
44F7
100
AcDbEntity
  8
ADP1DETAIL
100
AcDbLine
 10
16.74540880521603
 20
5.442654500253023
 30
0.0
 11
16.99540880521603
 21
5.442654500253023
 31
0.0
  0
LINE
  5
E78
330
44F7
100
AcDbEntity
  8
ADP1DETAIL
100
AcDbLine
 10
16.74540880521603
 20
5.30445995371442
 30
0.0
 11
16.74540880521603
 21
5.442654500253023
 31
0.0
  0
DIMENSION
  5
FFA
330
44F7
100
AcDbEntity
  8
ADPDIM
100
AcDbDimension
  2
*D5
 10
16.99540880521603
 20
5.911821796262506
 30
0.0
 11
8.495408805216033
 21
5.911821796262506
 31
0.0
 70
    32
  3
STANDARD
100
AcDbAlignedDimension
 13
-0.0045911947839665
 23
5.442654500253023
 33
0.0
 14
16.99540880521603
 24
5.442654500253023
 34
0.0
100
AcDbRotatedDimension
1001
ACAD
1000
DSTYLE
1002
{
1070
   270
1070
     7
1070
   270
1070
     7
1070
   270
1070
     7
1070
   270
1070
     7
1070
   270
1070
     7
1070
   270
1070
     7
1070
    42
1040
0.063
1070
    78
1070
     2
1070
   173
1070
     1
1070
   271
1070
     3
1070
   276
1070
     2
1070
   277
1070
     5
1070
     6
1000
OBLIQUE
1070
     7
1000
OBLIQUE
1002
}
  0
LWPOLYLINE
  5
10E2
330
44F7
100
AcDbEntity
  8
ADP1DETAIL
100
AcDbPolyline
 90
        4
 70
     1
 43
0.0
 10
-0.0045911947839656
 20
-1.031192862887081
 10
-0.0045911947839656
 20
-0.5311928628870817
 10
16.99540880521603
 20
-0.5311928628870817
 10
16.99540880521603
 20
-1.031192862887081
  0
LWPOLYLINE
  5
110B
330
44F7
100
AcDbEntity
  8
ADP1DETAIL
100
AcDbPolyline
 90
        2
 70
     0
 43
0.0
 10
2.125
 20
7.413187191360284
 10
2.125
 20
7.413187191360284
  0
LWPOLYLINE
  5
1115
330
44F7
100
AcDbEntity
  8
ADP1DETAIL
100
AcDbPolyline
 90
        2
 70
     0
 43
0.0
 10
4.0
 20
5.71102012849542
 10
4.0
 20
5.71102012849542
  0
LWPOLYLINE
  5
112E
330
44F7
100
AcDbEntity
  8
ADP1DETAIL
100
AcDbPolyline
 90
        2
 70
     0
 43
0.0
 10
4.506139226211837
 20
-1.031192862887081
 10
4.506139226211837
 20
-0.5311928628870817
  0
LWPOLYLINE
  5
1132
330
44F7
100
AcDbEntity
  8
ADP1DETAIL
100
AcDbPolyline
 90
        2
 70
     0
 43
0.0
 10
3.995408805216034
 20
-0.5311928628870817
 10
3.995408805216034
 20
-1.031192862887081
  0
LWPOLYLINE
  5
1145
330
44F7
100
AcDbEntity
  8
ADP1DETAIL
100
AcDbPolyline
 90
        2
 70
     0
 43
0.0
 10
2.120408805216034
 20
-0.5311928628870817
 10
2.120408805216034
 20
-1.031192862887081
  0
LWPOLYLINE
  5
1163
330
44F7
100
AcDbEntity
  8
ADP1DETAIL
100
AcDbPolyline
 90
        2
 70
     0
 43
0.0
 10
6.379072966236262
 20
-1.031192862887081
 10
6.379072966236261
 20
-0.5311928628870817
  0
LWPOLYLINE
  5
117E
330
44F7
100
AcDbEntity
  8
ADP1DETAIL
100
AcDbPolyline
 90
        2
 70
     0
 43
0.0
 10
0.2454088052160332
 20
-0.5311928628870817
 10
0.2454088052160332
 20
-1.031192862887082
  0
LWPOLYLINE
  5
118A
330
44F7
100
AcDbEntity
  8
ADP1DETAIL
100
AcDbPolyline
 90
        2
 70
     0
 43
0.0
 10
8.248101047407748
 20
-0.5311928628870817
 10
8.248101047407748
 20
-1.031192862887081
  0
LWPOLYLINE
  5
118E
330
44F7
100
AcDbEntity
  8
ADP1DETAIL
100
AcDbPolyline
 90
        2
 70
     0
 43
0.0
 10
8.758831468403553
 20
-1.031192862887081
 10
8.758831468403553
 20
-0.5311928628870817
  0
LWPOLYLINE
  5
1196
330
44F7
100
AcDbEntity
  8
ADP1DETAIL
100
AcDbPolyline
 90
        2
 70
     0
 43
0.0
 10
10.62259307085277
 20
-1.031192862887081
 10
10.62259307085277
 20
-0.5311928628870817
  0
LWPOLYLINE
  5
119E
330
44F7
100
AcDbEntity
  8
ADP1DETAIL
100
AcDbPolyline
 90
        2
 70
     0
 43
0.0
 10
12.48202468979957
 20
-0.5311928628870817
 10
12.48202468979957
 20
-1.031192862887081
  0
LWPOLYLINE
  5
11A2
330
44F7
100
AcDbEntity
  8
ADP1DETAIL
100
AcDbPolyline
 90
        2
 70
     0
 43
0.0
 10
12.99275511079537
 20
-1.031192862887081
 10
12.99275511079537
 20
-0.5311928628870817
  0
LWPOLYLINE
  5
11AA
330
44F7
100
AcDbEntity
  8
ADP1DETAIL
100
AcDbPolyline
 90
        2
 70
     0
 43
0.0
 10
14.87810060830422
 20
-1.031192862887081
 10
14.87810060830422
 20
-0.5311928628870817
  0
LWPOLYLINE
  5
11B2
330
44F7
100
AcDbEntity
  8
ADP1DETAIL
100
AcDbPolyline
 90
        2
 70
     0
 43
0.0
 10
16.74802344443336
 20
-0.5311928628870817
 10
16.74802344443336
 20
-1.031192862887081
  0
LINE
  5
436E
330
44F7
100
AcDbEntity
  8
ADP1DETAIL
100
AcDbLine
 10
18.626864420901
 20
5.457336092510701
 30
0.0
 11
18.626864420901
 21
0.4573360925107002
 31
0.0
  0
LINE
  5
436F
330
44F7
100
AcDbEntity
  8
ADP1DETAIL
100
AcDbLine
 10
18.126864420901
 20
0.4573360925107002
 30
0.0
 11
18.126864420901
 21
5.457336092510701
 31
0.0
  0
DIMENSION
  5
4370
330
44F7
100
AcDbEntity
  8
ADPDIM
100
AcDbDimension
  2
*D3
 10
19.30271655736929
 20
0.4573360925107
 30
0.0
 11
19.30271655736929
 21
2.957336092510703
 31
0.0
 70
    32
  3
STANDARD
100
AcDbAlignedDimension
 13
18.626864420901
 23
5.457336092510701
 33
0.0
 14
18.626864420901
 24
0.4573360925107002
 34
0.0
 50
90.0
100
AcDbRotatedDimension
1001
ACAD
1000
DSTYLE
1002
{
1070
   270
1070
     7
1070
   270
1070
     7
1070
   270
1070
     7
1070
   270
1070
     7
1070
   270
1070
     7
1070
   270
1070
     7
1070
    42
1040
0.063
1070
    78
1070
     2
1070
   173
1070
     1
1070
   271
1070
     3
1070
   276
1070
     2
1070
   277
1070
     5
1070
     6
1000
OBLIQUE
1070
     7
1000
OBLIQUE
1002
}
  0
LINE
  5
4373
330
44F7
100
AcDbEntity
  8
ADP1DETAIL
100
AcDbLine
 10
18.62686442090099
 20
0.5943744745965552
 30
0.0
 11
18.12686442090099
 21
0.5943744745965552
 31
0.0
  0
LINE
  5
4374
330
44F7
100
AcDbEntity
  8
ADP1DETAIL
100
AcDbLine
 10
18.62686442090099
 20
1.0823360925107
 30
0.0
 11
18.12686442090099
 21
1.0823360925107
 31
0.0
  0
LINE
  5
4375
330
44F7
100
AcDbEntity
  8
ADP1DETAIL
100
AcDbLine
 10
18.62686442090099
 20
1.0823360925107
 30
0.0
 11
18.12686442090099
 21
1.0823360925107
 31
0.0
  0
LINE
  5
4376
330
44F7
100
AcDbEntity
  8
ADP1DETAIL
100
AcDbLine
 10
18.626864420901
 20
0.4573360925107002
 30
0.0
 11
18.126864420901
 21
0.4573360925107002
 31
0.0
  0
LINE
  5
4377
330
44F7
100
AcDbEntity
  8
ADP1DETAIL
100
AcDbLine
 10
18.62686442090099
 20
1.894534726121733
 30
0.0
 11
18.12686442090099
 21
1.894534726121733
 31
0.0
  0
DIMENSION
  5
437B
330
44F7
100
AcDbEntity
  8
ADPDIM
100
AcDbDimension
  2
*D6
 10
8.745408805216033
 20
0.1798272656083384
 30
0.0
 11
9.225408805216034
 21
0.1798272656083384
 31
0.0
 70
    32
  3
STANDARD
100
AcDbAlignedDimension
 13
8.245408805216033
 23
0.4426545002530231
 33
0.0
 14
8.745408805216033
 24
0.4426545002530231
 34
0.0
100
AcDbRotatedDimension
1001
ACAD
1000
DSTYLE
1002
{
1070
   270
1070
     7
1070
   270
1070
     7
1070
   270
1070
     7
1070
   270
1070
     7
1070
   270
1070
     7
1070
   270
1070
     7
1070
    42
1040
0.063
1070
    78
1070
     2
1070
   173
1070
     1
1070
   271
1070
     3
1070
   276
1070
     2
1070
   277
1070
     5
1070
     6
1000
OBLIQUE
1070
     7
1000
OBLIQUE
1002
}
  0
LINE
  5
4381
330
44F7
100
AcDbEntity
  8
ADP1DETAIL
100
AcDbLine
 10
18.62686442090099
 20
4.007295157966783
 30
0.0
 11
18.12686442090099
 21
4.007295157966783
 31
0.0
  0
LINE
  5
4382
330
44F7
100
AcDbEntity
  8
ADP1DETAIL
100
AcDbLine
 10
18.62686442090099
 20
4.832336092510697
 30
0.0
 11
18.12686442090099
 21
4.832336092510697
 31
0.0
  0
LINE
  5
4383
330
44F7
100
AcDbEntity
  8
ADP1DETAIL
100
AcDbLine
 10
18.62686442090099
 20
5.307455409491961
 30
0.0
 11
18.12686442090099
 21
5.307455409491961
 31
0.0
  0
LINE
  5
4384
330
44F7
100
AcDbEntity
  8
ADP1DETAIL
100
AcDbLine
 10
18.126864420901
 20
5.457336092510701
 30
0.0
 11
18.626864420901
 21
5.457336092510701
 31
0.0
  0
DIMENSION
  5
438E
330
44F7
100
AcDbEntity
  8
ADPDIM
100
AcDbDimension
  2
*D4
 10
18.626864420901
 20
0.1066949242527606
 30
0.0
 11
19.106864420901
 21
0.1066949242527606
 31
0.0
 70
    32
  3
STANDARD
100
AcDbAlignedDimension
 13
18.126864420901
 23
0.4573360925107002
 33
0.0
 14
18.626864420901
 24
0.4573360925107002
 34
0.0
100
AcDbRotatedDimension
1001
ACAD
1000
DSTYLE
1002
{
1070
   270
1070
     7
1070
   270
1070
     7
1070
   270
1070
     7
1070
   270
1070
     7
1070
   270
1070
     7
1070
   270
1070
     7
1070
    42
1040
0.063
1070
    78
1070
     2
1070
   173
1070
     1
1070
   271
1070
     3
1070
   276
1070
     2
1070
   277
1070
     5
1070
     6
1000
OBLIQUE
1070
     7
1000
OBLIQUE
1002
}
  0
DIMENSION
  5
4422
330
44F7
100
AcDbEntity
  8
ADPDIM
100
AcDbDimension
  2
*D8
 10
8.435301746023345
 20
2.911241517010076
 30
0.0
 11
8.138159565445675
 21
2.288834535429259
 31
0.0
 70
   164
  3
STANDARD
100
AcDbRadialDimension
 15
9.538439429982293
 25
1.395091046169635
 35
0.0
 40
0.0
1001
ACAD
1000
DSTYLE
1002
{
1070
   270
1070
     7
1070
   270
1070
     7
1070
   270
1070
     7
1070
   270
1070
     7
1070
   270
1070
     7
1070
   270
1070
     7
1070
    42
1040
0.063
1070
    78
1070
     2
1070
   173
1070
     1
1070
   271
1070
     3
1070
   276
1070
     2
1070
   277
1070
     5
1070
     6
1000
OBLIQUE
1070
     7
1000
OBLIQUE
1002
}
  0
DIMENSION
  5
44DC
330
44F7
100
AcDbEntity
  8
ADPDIM
100
AcDbDimension
  2
*D7
 10
8.435301746023345
 20
2.911241517010076
 30
0.0
 11
8.129192880116221
 21
3.443688947373551
 31
0.0
 70
   164
  3
STANDARD
100
AcDbRadialDimension
 15
10.01429075968885
 25
4.685338102521594
 35
0.0
 40
0.0
1001
ACAD
1000
DSTYLE
1002
{
1070
   270
1070
     7
1070
   270
1070
     7
1070
   270
1070
     7
1070
   270
1070
     7
1070
   270
1070
     7
1070
   270
1070
     7
1070
    42
1040
0.063
1070
    78
1070
     2
1070
   173
1070
     1
1070
   271
1070
     3
1070
   276
1070
     2
1070
   277
1070
     5
1070
     6
1000
OBLIQUE
1070
     7
1000
OBLIQUE
1002
}
  0
POINT
  5
44DD
330
44F7
100
AcDbEntity
  8
ADP1DETAIL
100
AcDbPoint
 10
8.445768425565654
 20
2.917443886063292
 30
0.0
  0
POINT
  5
44DE
330
44F7
100
AcDbEntity
  8
ADP1DETAIL
100
AcDbPoint
 10
8.445768425565654
 20
2.917443886063292
 30
0.0
  0
TEXT
  5
45BD
330
44F7
100
AcDbEntity
  8
ADPDIM
100
AcDbText
 10
-3.175674574527553
 20
-2.789298599885745
 30
0.0
 40
0.25
  1
J U L I U S  B L U M  &  C O . ,  I N C .      ( 8 0 0 )  5 2 6 - 6 2 9 3        W W W . J U L I U S B L U M . C O M        P A R T  N o .  9 7 2
 41
1.25
  7
ARIAL_WIDE
 72
     1
 11
9.693740500506553
 21
-2.539298599885745
 31
0.0
100
AcDbText
 73
     3
  0
ENDSEC
  0
SECTION
  2
OBJECTS
  0
DICTIONARY
  5
44EB
330
0
100
AcDbDictionary
  3
ACAD_GROUP
350
44EC
  3
ACAD_LAYOUT
350
45B4
  3
ACAD_MLINESTYLE
350
44ED
  3
ACAD_PLOTSETTINGS
350
45B5
  3
ACAD_PLOTSTYLENAME
350
45B2
  3
ACDBHEADERROUNDTRIPXREC
350
48D8
  3
ACDBVARIABLEDICTIONARY
350
4681
  0
DICTIONARY
  5
467B
330
44F7
100
AcDbDictionary
280
     1
  3
ACAD_LAYOUTSELFREF
360
492E
  0
DICTIONARY
  5
4679
330
44F4
100
AcDbDictionary
280
     1
  3
ACAD_LAYOUTSELFREF
360
492D
  0
DICTIONARY
  5
44EC
102
{ACAD_REACTORS
330
44EB
102
}
330
44EB
100
AcDbDictionary
  0
DICTIONARY
  5
45B4
102
{ACAD_REACTORS
330
44EB
102
}
330
44EB
100
AcDbDictionary
  0
DICTIONARY
  5
44ED
102
{ACAD_REACTORS
330
44EB
102
}
330
44EB
100
AcDbDictionary
  3
STANDARD
350
44FA
  0
DICTIONARY
  5
45B5
102
{ACAD_REACTORS
330
44EB
102
}
330
44EB
100
AcDbDictionary
  0
ACDBDICTIONARYWDFLT
  5
45B2
102
{ACAD_REACTORS
330
44EB
102
}
330
44EB
100
AcDbDictionary
281
     1
  3
Normal
350
45B3
100
AcDbDictionaryWithDefault
340
45B3
  0
DICTIONARY
  5
48D8
102
{ACAD_REACTORS
330
44EB
102
}
330
44EB
100
AcDbDictionary
  3
CEPSNTYPE
350
48E2
  3
DIMSTYLEDATA
350
48E6
  3
FINGERPRINTGUID
350
48E3
  3
HYPERLINKBASE
350
48DB
  3
INSUNITS
350
48E1
  3
LAYOUTDICT
350
48DD
  3
LWETCUNION
350
48E0
  3
PLOTSETDICT
350
48DE
  3
PLOTSTYLNAMDICT
350
48DF
  3
PSVPSCALE
350
48E5
  3
PUCSBASE
350
48E9
  3
PUCSORGBACK
350
48EF
  3
PUCSORGBOTTOM
350
48EB
  3
PUCSORGFRONT
350
48EE
  3
PUCSORGLEFT
350
48EC
  3
PUCSORGRIGHT
350
48ED
  3
PUCSORGTOP
350
48EA
  3
PUCSORTHOREF
350
48E7
  3
PUCSORTHOVIEW
350
48E8
  3
STYLESHEET
350
48DC
  3
TSTACKALIGN
350
48D9
  3
TSTACKSIZE
350
48DA
  3
UCSBASE
350
48F2
  3
UCSORGBACK
350
48F8
  3
UCSORGBOTTOM
350
48F4
  3
UCSORGFRONT
350
48F7
  3
UCSORGLEFT
350
48F5
  3
UCSORGRIGHT
350
48F6
  3
UCSORGTOP
350
48F3
  3
UCSORTHOREF
350
48F0
  3
UCSORTHOVIEW
350
48F1
  3
VERSIONGUID
350
48E4
  0
DICTIONARY
  5
4681
102
{ACAD_REACTORS
330
44EB
102
}
330
44EB
100
AcDbDictionary
  3
DIMASSOC
350
4682
  0
XRECORD
  5
492E
102
{ACAD_REACTORS
330
467B
102
}
330
467B
100
AcDbXrecord
340
44F7
  0
XRECORD
  5
492D
102
{ACAD_REACTORS
330
4679
102
}
330
4679
100
AcDbXrecord
340
44F4
  0
MLINESTYLE
  5
44FA
102
{ACAD_REACTORS
330
44ED
102
}
330
44ED
100
AcDbMlineStyle
  2
STANDARD
 70
     0
  3

 62
     0
 51
90.0
 52
90.0
 71
     2
 49
0.5
 62
   256
  6
BYLAYER
 49
-0.5
 62
   256
  6
BYLAYER
  0
ACDBPLACEHOLDER
  5
45B3
102
{ACAD_REACTORS
330
45B2
102
}
330
45B2
100
AcDbPlaceHolder
280
     0
  0
XRECORD
  5
48E2
102
{ACAD_REACTORS
330
48D8
102
}
330
48D8
100
AcDbXrecord
 90
        0
  0
XRECORD
  5
48E6
102
{ACAD_REACTORS
330
48D8
102
}
330
48D8
100
AcDbXrecord
1000
DSTYLE
1002
{
1070
   276
 70
     2
1070
   277
 70
     5
1070
   341
340
454D
1070
   343
340
454D
1070
   344
340
454D
1002
}
  0
XRECORD
  5
48E3
102
{ACAD_REACTORS
330
48D8
102
}
330
48D8
100
AcDbXrecord
  1
{CC014C1D-C3FF-46E4-B792-1AD679208E3F}
  0
XRECORD
  5
48DB
102
{ACAD_REACTORS
330
48D8
102
}
330
48D8
100
AcDbXrecord
  1

  0
XRECORD
  5
48E1
102
{ACAD_REACTORS
330
48D8
102
}
330
48D8
100
AcDbXrecord
 90
        0
  0
XRECORD
  5
48DD
102
{ACAD_REACTORS
330
48D8
102
}
330
48D8
100
AcDbXrecord
340
45B4
  0
XRECORD
  5
48E0
102
{ACAD_REACTORS
330
48D8
102
}
330
48D8
100
AcDbXrecord
 90
    14877
  0
XRECORD
  5
48DE
102
{ACAD_REACTORS
330
48D8
102
}
330
48D8
100
AcDbXrecord
340
45B5
  0
XRECORD
  5
48DF
102
{ACAD_REACTORS
330
48D8
102
}
330
48D8
100
AcDbXrecord
340
45B2
  0
XRECORD
  5
48E5
102
{ACAD_REACTORS
330
48D8
102
}
330
48D8
100
AcDbXrecord
 40
0.0
  0
XRECORD
  5
48E9
102
{ACAD_REACTORS
330
48D8
102
}
330
48D8
100
AcDbXrecord
340
0
  0
XRECORD
  5
48EF
102
{ACAD_REACTORS
330
48D8
102
}
330
48D8
100
AcDbXrecord
 10
0.0
 20
0.0
 30
0.0
  0
XRECORD
  5
48EB
102
{ACAD_REACTORS
330
48D8
102
}
330
48D8
100
AcDbXrecord
 10
0.0
 20
0.0
 30
0.0
  0
XRECORD
  5
48EE
102
{ACAD_REACTORS
330
48D8
102
}
330
48D8
100
AcDbXrecord
 10
0.0
 20
0.0
 30
0.0
  0
XRECORD
  5
48EC
102
{ACAD_REACTORS
330
48D8
102
}
330
48D8
100
AcDbXrecord
 10
0.0
 20
0.0
 30
0.0
  0
XRECORD
  5
48ED
102
{ACAD_REACTORS
330
48D8
102
}
330
48D8
100
AcDbXrecord
 10
0.0
 20
0.0
 30
0.0
  0
XRECORD
  5
48EA
102
{ACAD_REACTORS
330
48D8
102
}
330
48D8
100
AcDbXrecord
 10
0.0
 20
0.0
 30
0.0
  0
XRECORD
  5
48E7
102
{ACAD_REACTORS
330
48D8
102
}
330
48D8
100
AcDbXrecord
340
0
  0
XRECORD
  5
48E8
102
{ACAD_REACTORS
330
48D8
102
}
330
48D8
100
AcDbXrecord
 70
     0
  0
XRECORD
  5
48DC
102
{ACAD_REACTORS
330
48D8
102
}
330
48D8
100
AcDbXrecord
  1

  0
XRECORD
  5
48D9
102
{ACAD_REACTORS
330
48D8
102
}
330
48D8
100
AcDbXrecord
 90
        1
  0
XRECORD
  5
48DA
102
{ACAD_REACTORS
330
48D8
102
}
330
48D8
100
AcDbXrecord
 90
       70
  0
XRECORD
  5
48F2
102
{ACAD_REACTORS
330
48D8
102
}
330
48D8
100
AcDbXrecord
340
0
  0
XRECORD
  5
48F8
102
{ACAD_REACTORS
330
48D8
102
}
330
48D8
100
AcDbXrecord
 10
0.0
 20
0.0
 30
0.0
  0
XRECORD
  5
48F4
102
{ACAD_REACTORS
330
48D8
102
}
330
48D8
100
AcDbXrecord
 10
0.0
 20
0.0
 30
0.0
  0
XRECORD
  5
48F7
102
{ACAD_REACTORS
330
48D8
102
}
330
48D8
100
AcDbXrecord
 10
0.0
 20
0.0
 30
0.0
  0
XRECORD
  5
48F5
102
{ACAD_REACTORS
330
48D8
102
}
330
48D8
100
AcDbXrecord
 10
0.0
 20
0.0
 30
0.0
  0
XRECORD
  5
48F6
102
{ACAD_REACTORS
330
48D8
102
}
330
48D8
100
AcDbXrecord
 10
0.0
 20
0.0
 30
0.0
  0
XRECORD
  5
48F3
102
{ACAD_REACTORS
330
48D8
102
}
330
48D8
100
AcDbXrecord
 10
0.0
 20
0.0
 30
0.0
  0
XRECORD
  5
48F0
102
{ACAD_REACTORS
330
48D8
102
}
330
48D8
100
AcDbXrecord
340
0
  0
XRECORD
  5
48F1
102
{ACAD_REACTORS
330
48D8
102
}
330
48D8
100
AcDbXrecord
 70
     0
  0
XRECORD
  5
48E4
102
{ACAD_REACTORS
330
48D8
102
}
330
48D8
100
AcDbXrecord
  1
{8C13CC14-93B9-4735-858F-1B149E1C9B32}
  0
DICTIONARYVAR
  5
4682
102
{ACAD_REACTORS
330
4681
102
}
330
4681
100
DictionaryVariables
280
     0
  1
1
  0
ENDSEC
  0
EOF
