  0
SECTION
  2
HEADER
  9
$ACADVER
  1
AC1014
  9
$ACADMAINTVER
 70
     9
  9
$DWGCODEPAGE
  3
ANSI_1252
  9
$INSBASE
 10
0.0
 20
0.0
 30
0.0
  9
$EXTMIN
 10
-3.537517700626143
 20
-3.990915467054199
 30
0.0
  9
$EXTMAX
 10
22.29808939350755
 20
7.413187191360284
 30
0.0
  9
$LIMMIN
 10
-1.466105226147261
 20
-2.981655773263364
  9
$LIMMAX
 10
19.88621793203973
 20
12.05762250960879
  9
$ORTHOMODE
 70
     1
  9
$REGENMODE
 70
     1
  9
$FILLMODE
 70
     1
  9
$QTEXTMODE
 70
     0
  9
$MIRRTEXT
 70
     1
  9
$DRAGMODE
 70
     0
  9
$LTSCALE
 40
1.0
  9
$OSMODE
 70
    37
  9
$ATTMODE
 70
     1
  9
$TEXTSIZE
 40
0.2
  9
$TRACEWID
 40
0.05
  9
$TEXTSTYLE
  7
STANDARD
  9
$CLAYER
  8
ADP1DETAIL
  9
$CELTYPE
  6
BYLAYER
  9
$CECOLOR
 62
   256
  9
$CELTSCALE
 40
1.0
  9
$DELOBJ
 70
     1
  9
$DISPSILH
 70
     0
  9
$DIMSCALE
 40
1.0
  9
$DIMASZ
 40
0.18
  9
$DIMEXO
 40
0.063
  9
$DIMDLI
 40
0.38
  9
$DIMRND
 40
0.0
  9
$DIMDLE
 40
0.0
  9
$DIMEXE
 40
0.18
  9
$DIMTP
 40
0.0
  9
$DIMTM
 40
0.0
  9
$DIMTXT
 40
0.18
  9
$DIMCEN
 40
0.09
  9
$DIMTSZ
 40
0.0
  9
$DIMTOL
 70
     0
  9
$DIMLIM
 70
     0
  9
$DIMTIH
 70
     1
  9
$DIMTOH
 70
     1
  9
$DIMSE1
 70
     0
  9
$DIMSE2
 70
     0
  9
$DIMTAD
 70
     0
  9
$DIMZIN
 70
     2
  9
$DIMBLK
  1

  9
$DIMASO
 70
     1
  9
$DIMSHO
 70
     1
  9
$DIMPOST
  1

  9
$DIMAPOST
  1

  9
$DIMALT
 70
     0
  9
$DIMALTD
 70
     2
  9
$DIMALTF
 40
25.4
  9
$DIMLFAC
 40
1.0
  9
$DIMTOFL
 70
     0
  9
$DIMTVP
 40
0.0
  9
$DIMTIX
 70
     0
  9
$DIMSOXD
 70
     0
  9
$DIMSAH
 70
     1
  9
$DIMBLK1
  1
OBLIQUE
  9
$DIMBLK2
  1
OBLIQUE
  9
$DIMSTYLE
  2
STANDARD
  9
$DIMCLRD
 70
     0
  9
$DIMCLRE
 70
     0
  9
$DIMCLRT
 70
     0
  9
$DIMTFAC
 40
1.0
  9
$DIMGAP
 40
0.09
  9
$DIMJUST
 70
     0
  9
$DIMSD1
 70
     0
  9
$DIMSD2
 70
     0
  9
$DIMTOLJ
 70
     1
  9
$DIMTZIN
 70
     0
  9
$DIMALTZ
 70
     0
  9
$DIMALTTZ
 70
     0
  9
$DIMFIT
 70
     3
  9
$DIMUPT
 70
     0
  9
$DIMUNIT
 70
     7
  9
$DIMDEC
 70
     3
  9
$DIMTDEC
 70
     4
  9
$DIMALTU
 70
     2
  9
$DIMALTTD
 70
     2
  9
$DIMTXSTY
  7
STANDARD
  9
$DIMAUNIT
 70
     0
  9
$LUNITS
 70
     2
  9
$LUPREC
 70
     3
  9
$SKETCHINC
 40
0.1
  9
$FILLETRAD
 40
0.01
  9
$AUNITS
 70
     0
  9
$AUPREC
 70
     0
  9
$MENU
  1
acad
  9
$ELEVATION
 40
0.0
  9
$PELEVATION
 40
0.0
  9
$THICKNESS
 40
0.0
  9
$LIMCHECK
 70
     0
  9
$BLIPMODE
 70
     0
  9
$CHAMFERA
 40
0.0
  9
$CHAMFERB
 40
0.0
  9
$CHAMFERC
 40
0.0
  9
$CHAMFERD
 40
0.0
  9
$SKPOLY
 70
     0
  9
$TDCREATE
 40
2450140.714522951
  9
$TDUPDATE
 40
2452297.078716180
  9
$TDINDWG
 40
0.4953791898
  9
$TDUSRTIMER
 40
0.4953791898
  9
$USRTIMER
 70
     1
  9
$ANGBASE
 50
0.0
  9
$ANGDIR
 70
     0
  9
$PDMODE
 70
     0
  9
$PDSIZE
 40
0.0
  9
$PLINEWID
 40
0.0
  9
$COORDS
 70
     2
  9
$SPLFRAME
 70
     0
  9
$SPLINETYPE
 70
     6
  9
$SPLINESEGS
 70
     8
  9
$ATTDIA
 70
     0
  9
$ATTREQ
 70
     1
  9
$HANDLING
 70
 22529
  9
$HANDSEED
  5
4A75
  9
$SURFTAB1
 70
     6
  9
$SURFTAB2
 70
     6
  9
$SURFTYPE
 70
     6
  9
$SURFU
 70
     6
  9
$SURFV
 70
     6
  9
$UCSNAME
  2

  9
$UCSORG
 10
0.0
 20
0.0
 30
0.0
  9
$UCSXDIR
 10
1.0
 20
0.0
 30
0.0
  9
$UCSYDIR
 10
0.0
 20
1.0
 30
0.0
  9
$PUCSNAME
  2

  9
$PUCSORG
 10
0.0
 20
0.0
 30
0.0
  9
$PUCSXDIR
 10
1.0
 20
0.0
 30
0.0
  9
$PUCSYDIR
 10
0.0
 20
1.0
 30
0.0
  9
$USERI1
 70
     0
  9
$USERI2
 70
     0
  9
$USERI3
 70
     0
  9
$USERI4
 70
     0
  9
$USERI5
 70
     0
  9
$USERR1
 40
0.0
  9
$USERR2
 40
0.0
  9
$USERR3
 40
0.0
  9
$USERR4
 40
0.0
  9
$USERR5
 40
0.0
  9
$WORLDVIEW
 70
     1
  9
$SHADEDGE
 70
     3
  9
$SHADEDIF
 70
    70
  9
$TILEMODE
 70
     1
  9
$MAXACTVP
 70
    15
  9
$PINSBASE
 10
0.0
 20
0.0
 30
0.0
  9
$PLIMCHECK
 70
     0
  9
$PEXTMIN
 10
1.000000000000000E+20
 20
1.000000000000000E+20
 30
1.000000000000000E+20
  9
$PEXTMAX
 10
-1.000000000000000E+20
 20
-1.000000000000000E+20
 30
-1.000000000000000E+20
  9
$PLIMMIN
 10
0.0
 20
0.0
  9
$PLIMMAX
 10
12.0
 20
9.0
  9
$UNITMODE
 70
     0
  9
$VISRETAIN
 70
     0
  9
$PLINEGEN
 70
     0
  9
$PSLTSCALE
 70
     1
  9
$TREEDEPTH
 70
  3020
  9
$PICKSTYLE
 70
     1
  9
$CMLSTYLE
  2
STANDARD
  9
$CMLJUST
 70
     0
  9
$CMLSCALE
 40
1.0
  9
$PROXYGRAPHICS
 70
     1
  9
$MEASUREMENT
 70
     0
  0
ENDSEC
  0
SECTION
  2
CLASSES
  0
CLASS
  1
ACDBDICTIONARYWDFLT
  2
AcDbDictionaryWithDefault
  3
AutoCAD 2000
 90
        0
280
     0
281
     0
  0
CLASS
  1
ACDBPLACEHOLDER
  2
AcDbPlaceHolder
  3
AutoCAD 2000
 90
        0
280
     0
281
     0
  0
CLASS
  1
LAYOUT
  2
AcDbLayout
  3
AutoCAD 2000
 90
        0
280
     0
281
     0
  0
CLASS
  1
DICTIONARYVAR
  2
AcDbDictionaryVar
  3
AutoCAD 2000
 90
        0
280
     0
281
     0
  0
CLASS
  1
LONG_TRANSACTION
  2
AcDbLongTransaction
  3
AutoCAD 2000
 90
        0
280
     0
281
     0
  0
CLASS
  1
LWPOLYLINE
  2
AcDbPolyline
  3
AutoCAD 2000
 90
        0
280
     0
281
     1
  0
CLASS
  1
HATCH
  2
AcDbHatch
  3
AutoCAD 2000
 90
        0
280
     0
281
     1
  0
CLASS
  1
XRECORD
  2
AcDbXrecord
  3
AutoCAD 2000
 90
        0
280
     0
281
     0
  0
CLASS
  1
LONG_TRANSACTION
  2
AcDbLongTransaction
  3
AutoCAD 2000
 90
        0
280
     0
281
     0
  0
CLASS
  1
LWPOLYLINE
  2
AcDbPolyline
  3
AutoCAD 2000
 90
        0
280
     0
281
     1
  0
CLASS
  1
HATCH
  2
AcDbHatch
  3
AutoCAD 2000
 90
        0
280
     0
281
     1
  0
CLASS
  1
XRECORD
  2
AcDbXrecord
  3
AutoCAD 2000
 90
        0
280
     0
281
     0
  0
CLASS
  1
LONG_TRANSACTION
  2
AcDbLongTransaction
  3
AutoCAD 2000
 90
        0
280
     0
281
     0
  0
CLASS
  1
LWPOLYLINE
  2
AcDbPolyline
  3
AutoCAD 2000
 90
        0
280
     0
281
     1
  0
CLASS
  1
HATCH
  2
AcDbHatch
  3
AutoCAD 2000
 90
        0
280
     0
281
     1
  0
CLASS
  1
XRECORD
  2
AcDbXrecord
  3
AutoCAD 2000
 90
        0
280
     0
281
     0
  0
CLASS
  1
LONG_TRANSACTION
  2
AcDbLongTransaction
  3
AutoCAD 2000
 90
        0
280
     0
281
     0
  0
CLASS
  1
LWPOLYLINE
  2
AcDbPolyline
  3
AutoCAD 2000
 90
        0
280
     0
281
     1
  0
CLASS
  1
HATCH
  2
AcDbHatch
  3
AutoCAD 2000
 90
        0
280
     0
281
     1
  0
CLASS
  1
XRECORD
  2
AcDbXrecord
  3
AutoCAD 2000
 90
        0
280
     0
281
     0
  0
CLASS
  1
LONG_TRANSACTION
  2
AcDbLongTransaction
  3
AutoCAD 2000
 90
        0
280
     0
281
     0
  0
CLASS
  1
LWPOLYLINE
  2
AcDbPolyline
  3
AutoCAD 2000
 90
        0
280
     0
281
     1
  0
CLASS
  1
HATCH
  2
AcDbHatch
  3
AutoCAD 2000
 90
        0
280
     0
281
     1
  0
CLASS
  1
XRECORD
  2
AcDbXrecord
  3
AutoCAD 2000
 90
        0
280
     0
281
     0
  0
ENDSEC
  0
SECTION
  2
TABLES
  0
TABLE
  2
VPORT
  5
4336
330
0
100
AcDbSymbolTable
 70
     2
  0
VPORT
  5
49DE
330
4336
100
AcDbSymbolTableRecord
100
AcDbViewportTableRecord
  2
*ACTIVE
 70
     0
 10
0.0
 20
0.0
 11
1.0
 21
1.0
 12
9.400531550407151
 22
1.711267203636245
 13
0.0
 23
0.0
 14
0.5740882589684922
 24
0.5740882589684922
 15
0.5
 25
0.5
 16
0.0
 26
0.0
 36
1.0
 17
0.0
 27
0.0
 37
0.0
 40
16.55711997983865
 41
1.570528967254408
 42
50.0
 43
0.0
 44
0.0
 50
0.0
 51
0.0
 71
     0
 72
   100
 73
     1
 74
     1
 75
     0
 76
     0
 77
     0
 78
     0
  0
ENDTAB
  0
TABLE
  2
LTYPE
  5
4333
330
0
100
AcDbSymbolTable
 70
     2
  0
LTYPE
  5
4340
330
4333
100
AcDbSymbolTableRecord
100
AcDbLinetypeTableRecord
  2
BYBLOCK
 70
     0
  3

 72
    65
 73
     0
 40
0.0
  0
LTYPE
  5
4341
330
4333
100
AcDbSymbolTableRecord
100
AcDbLinetypeTableRecord
  2
BYLAYER
 70
     0
  3

 72
    65
 73
     0
 40
0.0
  0
LTYPE
  5
4342
330
4333
100
AcDbSymbolTableRecord
100
AcDbLinetypeTableRecord
  2
CONTINUOUS
 70
     0
  3
Solid line
 72
    65
 73
     0
 40
0.0
  0
LTYPE
  5
4382
330
4333
100
AcDbSymbolTableRecord
100
AcDbLinetypeTableRecord
  2
HIDDEN2
 70
     0
  3
_ _ _ _ _ _ _ _ _ _ _ _ _ _ _ _ _ _ _ _ _ _ _ _
 72
    65
 73
     2
 40
0.1875
 49
0.125
 74
     0
 49
-0.0625
 74
     0
  0
ENDTAB
  0
TABLE
  2
LAYER
  5
4330
330
0
100
AcDbSymbolTable
 70
     5
  0
LAYER
  5
433D
330
4330
100
AcDbSymbolTableRecord
100
AcDbLayerTableRecord
  2
0
 70
     0
 62
     7
  6
CONTINUOUS
  0
LAYER
  5
438B
330
4330
100
AcDbSymbolTableRecord
100
AcDbLayerTableRecord
  2
ADP2DETAIL
 70
     0
 62
     5
  6
CONTINUOUS
  0
LAYER
  5
438C
330
4330
100
AcDbSymbolTableRecord
100
AcDbLayerTableRecord
  2
ADPDIM
 70
     0
 62
     3
  6
CONTINUOUS
  0
LAYER
  5
438E
330
4330
100
AcDbSymbolTableRecord
100
AcDbLayerTableRecord
  2
DEFPOINTS
 70
     0
 62
     7
  6
CONTINUOUS
  0
LAYER
  5
438F
330
4330
100
AcDbSymbolTableRecord
100
AcDbLayerTableRecord
  2
ADP1DETAIL
 70
     0
 62
     7
  6
CONTINUOUS
  0
ENDTAB
  0
TABLE
  2
STYLE
  5
4331
330
0
100
AcDbSymbolTable
 70
     2
  0
STYLE
  5
433E
330
4331
100
AcDbSymbolTableRecord
100
AcDbTextStyleTableRecord
  2
STANDARD
 70
     0
 40
0.0
 41
1.0
 50
0.0
 71
     0
 42
0.2
  3
txt
  4

  0
STYLE
  5
456E
330
4331
100
AcDbSymbolTableRecord
100
AcDbTextStyleTableRecord
  2
ARIAL_WIDE
 70
     0
 40
0.0
 41
1.25
 50
0.0
 71
     0
 42
0.2
  3
ARIAL.TTF
  4

1001
ACAD
1000
Arial
1071
       34
  0
ENDTAB
  0
TABLE
  2
VIEW
  5
4334
330
0
100
AcDbSymbolTable
 70
     0
  0
ENDTAB
  0
TABLE
  2
UCS
  5
4335
330
0
100
AcDbSymbolTable
 70
     0
  0
ENDTAB
  0
TABLE
  2
APPID
  5
4337
330
0
100
AcDbSymbolTable
 70
     2
  0
APPID
  5
433F
330
4337
100
AcDbSymbolTableRecord
100
AcDbRegAppTableRecord
  2
ACAD
 70
     0
  0
APPID
  5
4389
330
4337
100
AcDbSymbolTableRecord
100
AcDbRegAppTableRecord
  2
AME_SOL
 70
     0
  0
ENDTAB
  0
TABLE
  2
DIMSTYLE
  5
4338
330
0
100
AcDbSymbolTable
 70
     1
  0
DIMSTYLE
105
4394
102
{ACAD_REACTORS
330
1E0
330
256
330
BF0
330
10C7
330
428B
330
428C
330
428F
330
429D
330
42AA
330
4307
330
4308
330
4313
102
}
330
4338
100
AcDbSymbolTableRecord
100
AcDbDimStyleTableRecord
  2
STANDARD
 70
     0
  3

  4

  5

  6

  7

 40
1.0
 41
0.18
 42
0.0625
 43
0.38
 44
0.18
 45
0.0
 46
0.0
 47
0.0
 48
0.0
140
0.18
141
0.09
142
0.0
143
25.4
144
1.0
145
0.0
146
1.0
147
0.09
 71
     0
 72
     0
 73
     1
 74
     1
 75
     0
 76
     0
 77
     0
 78
     0
170
     0
171
     2
172
     0
173
     0
174
     0
175
     0
176
     0
177
     0
178
     0
270
     2
271
     4
272
     4
273
     2
274
     2
340
433E
275
     0
280
     0
281
     0
282
     0
283
     1
284
     0
285
     0
286
     0
287
     3
288
     0
  0
ENDTAB
  0
TABLE
  2
BLOCK_RECORD
  5
432F
330
0
100
AcDbSymbolTable
 70
    15
  0
BLOCK_RECORD
  5
4346
102
{ACAD_XDICTIONARY
360
46AB
102
}
330
432F
100
AcDbSymbolTableRecord
100
AcDbBlockTableRecord
  2
*MODEL_SPACE
  0
BLOCK_RECORD
  5
4343
102
{ACAD_XDICTIONARY
360
46A9
102
}
330
432F
100
AcDbSymbolTableRecord
100
AcDbBlockTableRecord
  2
*PAPER_SPACE
  0
BLOCK_RECORD
  5
434B
330
432F
100
AcDbSymbolTableRecord
100
AcDbBlockTableRecord
  2
AME_NIL
  0
BLOCK_RECORD
  5
434C
330
432F
100
AcDbSymbolTableRecord
100
AcDbBlockTableRecord
  2
AME_SOL
  0
BLOCK_RECORD
  5
439A
330
432F
100
AcDbSymbolTableRecord
100
AcDbBlockTableRecord
  2
_OBLIQUE
  0
BLOCK_RECORD
  5
44CA
330
432F
100
AcDbSymbolTableRecord
100
AcDbBlockTableRecord
  2
*D3
  0
BLOCK_RECORD
  5
44D7
330
432F
100
AcDbSymbolTableRecord
100
AcDbBlockTableRecord
  2
*D4
  0
BLOCK_RECORD
  5
44E4
330
432F
100
AcDbSymbolTableRecord
100
AcDbBlockTableRecord
  2
*D5
  0
BLOCK_RECORD
  5
44F1
330
432F
100
AcDbSymbolTableRecord
100
AcDbBlockTableRecord
  2
*D6
  0
BLOCK_RECORD
  5
44FF
330
432F
100
AcDbSymbolTableRecord
100
AcDbBlockTableRecord
  2
*D7
  0
BLOCK_RECORD
  5
4508
330
432F
100
AcDbSymbolTableRecord
100
AcDbBlockTableRecord
  2
*D8
  0
BLOCK_RECORD
  5
4515
330
432F
100
AcDbSymbolTableRecord
100
AcDbBlockTableRecord
  2
*D9
  0
BLOCK_RECORD
  5
451F
330
432F
100
AcDbSymbolTableRecord
100
AcDbBlockTableRecord
  2
*D10
  0
BLOCK_RECORD
  5
452C
330
432F
100
AcDbSymbolTableRecord
100
AcDbBlockTableRecord
  2
*D11
  0
BLOCK_RECORD
  5
4539
330
432F
100
AcDbSymbolTableRecord
100
AcDbBlockTableRecord
  2
*D12
  0
BLOCK_RECORD
  5
4546
330
432F
100
AcDbSymbolTableRecord
100
AcDbBlockTableRecord
  2
*D13
  0
BLOCK_RECORD
  5
4553
330
432F
100
AcDbSymbolTableRecord
100
AcDbBlockTableRecord
  2
*D14
  0
ENDTAB
  0
ENDSEC
  0
SECTION
  2
BLOCKS
  0
BLOCK
  5
4392
330
4346
100
AcDbEntity
  8
0
100
AcDbBlockBegin
  2
*MODEL_SPACE
 70
     0
 10
0.0
 20
0.0
 30
0.0
  3
*MODEL_SPACE
  1

  0
ENDBLK
  5
4393
330
4346
100
AcDbEntity
  8
0
100
AcDbBlockEnd
  0
BLOCK
  5
4390
330
4343
100
AcDbEntity
 67
     1
  8
0
100
AcDbBlockBegin
  2
*PAPER_SPACE
 70
     0
 10
0.0
 20
0.0
 30
0.0
  3
*PAPER_SPACE
  1

  0
ENDBLK
  5
4391
330
4343
100
AcDbEntity
 67
     1
  8
0
100
AcDbBlockEnd
  0
BLOCK
  5
CD
330
434B
100
AcDbEntity
  8
0
100
AcDbBlockBegin
  2
AME_NIL
 70
     0
 10
0.0
 20
0.0
 30
0.0
  3
AME_NIL
  1
AME_NIL
  0
ENDBLK
  5
CE
330
434B
100
AcDbEntity
  8
0
100
AcDbBlockEnd
  0
BLOCK
  5
D0
330
434C
100
AcDbEntity
  8
0
100
AcDbBlockBegin
  2
AME_SOL
 70
     0
 10
0.0
 20
0.0
 30
0.0
  3
AME_SOL
  1
AME_SOL
  0
ENDBLK
  5
D1
330
434C
100
AcDbEntity
  8
0
100
AcDbBlockEnd
  0
BLOCK
  5
439B
330
439A
100
AcDbEntity
  8
0
100
AcDbBlockBegin
  2
_OBLIQUE
 70
     0
 10
0.0
 20
0.0
 30
0.0
  3
_OBLIQUE
  1
*U
  0
LINE
  5
439C
330
439A
100
AcDbEntity
  8
0
  6
BYBLOCK
 62
     0
100
AcDbLine
 10
-0.5
 20
-0.5
 30
0.0
 11
0.5
 21
0.5
 31
0.0
  0
ENDBLK
  5
439D
330
439A
100
AcDbEntity
  8
0
100
AcDbBlockEnd
  0
BLOCK
  5
44CB
330
44CA
100
AcDbEntity
  8
0
100
AcDbBlockBegin
  2
*D3
 70
     1
 10
0.0
 20
0.0
 30
0.0
  3
*D3
  1

  0
LINE
  5
4A69
330
44CA
100
AcDbEntity
  8
ADPDIM
 62
     0
100
AcDbLine
 10
18.08558607731406
 20
2.562999999999998
 30
0.0
 11
18.08558607731406
 21
2.9656899355392
 31
0.0
  0
LINE
  5
4A6A
330
44CA
100
AcDbEntity
  8
ADPDIM
 62
     0
100
AcDbLine
 10
18.58558607731406
 20
2.562999999999998
 30
0.0
 11
18.58558607731406
 21
2.9656899355392
 31
0.0
  0
LINE
  5
4A6B
330
44CA
100
AcDbEntity
  8
ADPDIM
 62
     0
100
AcDbLine
 10
18.08558607731406
 20
2.785689935539199
 30
0.0
 11
18.58558607731406
 21
2.785689935539199
 31
0.0
  0
LINE
  5
4A6C
330
44CA
100
AcDbEntity
  8
ADPDIM
 62
     0
100
AcDbLine
 10
18.58558607731406
 20
2.785689935539199
 30
0.0
 11
18.76558607731406
 21
2.785689935539199
 31
0.0
  0
INSERT
  5
4A6D
330
44CA
100
AcDbEntity
  8
ADPDIM
 62
     0
100
AcDbBlockReference
  2
_OBLIQUE
 10
18.08558607731406
 20
2.785689935539199
 30
0.0
 41
0.18
 42
0.18
 43
0.18
 50
180.0
  0
INSERT
  5
4A6E
330
44CA
100
AcDbEntity
  8
ADPDIM
 62
     0
100
AcDbBlockReference
  2
_OBLIQUE
 10
18.58558607731406
 20
2.785689935539199
 30
0.0
 41
0.18
 42
0.18
 43
0.18
  0
MTEXT
  5
4A6F
330
44CA
100
AcDbEntity
  8
ADPDIM
 62
     0
100
AcDbMText
 10
19.06558607731406
 20
2.785689935539199
 30
0.0
 40
0.18
 41
0.0
 71
     5
 72
     1
  1
\A1;1/2
  0
POINT
  5
4A70
330
44CA
100
AcDbEntity
  8
DEFPOINTS
 62
     0
100
AcDbPoint
 10
18.08558607731406
 20
2.499999999999998
 30
0.0
  0
POINT
  5
4A71
330
44CA
100
AcDbEntity
  8
DEFPOINTS
 62
     0
100
AcDbPoint
 10
18.58558607731406
 20
2.499999999999998
 30
0.0
  0
POINT
  5
4A72
330
44CA
100
AcDbEntity
  8
DEFPOINTS
 62
     0
100
AcDbPoint
 10
18.58558607731406
 20
2.785689935539199
 30
0.0
  0
ENDBLK
  5
44D6
330
44CA
100
AcDbEntity
  8
0
100
AcDbBlockEnd
  0
BLOCK
  5
44D8
330
44D7
100
AcDbEntity
  8
0
100
AcDbBlockBegin
  2
*D4
 70
     1
 10
0.0
 20
0.0
 30
0.0
  3
*D4
  1
*U
  0
LINE
  5
4A5F
330
44D7
100
AcDbEntity
  8
ADPDIM
 62
     0
100
AcDbLine
 10
17.83558607731406
 20
-0.5630000000000022
 30
0.0
 11
17.83558607731406
 21
-1.462556307388114
 31
0.0
  0
LINE
  5
4A60
330
44D7
100
AcDbEntity
  8
ADPDIM
 62
     0
100
AcDbLine
 10
18.83558607731406
 20
-0.5630000000000022
 30
0.0
 11
18.83558607731406
 21
-1.462556307388114
 31
0.0
  0
LINE
  5
4A61
330
44D7
100
AcDbEntity
  8
ADPDIM
 62
     0
100
AcDbLine
 10
17.83558607731406
 20
-1.282556307388114
 30
0.0
 11
18.21558607731406
 21
-1.282556307388114
 31
0.0
  0
LINE
  5
4A62
330
44D7
100
AcDbEntity
  8
ADPDIM
 62
     0
100
AcDbLine
 10
18.83558607731406
 20
-1.282556307388114
 30
0.0
 11
18.45558607731406
 21
-1.282556307388114
 31
0.0
  0
INSERT
  5
4A63
330
44D7
100
AcDbEntity
  8
ADPDIM
 62
     0
100
AcDbBlockReference
  2
_OBLIQUE
 10
17.83558607731406
 20
-1.282556307388114
 30
0.0
 41
0.18
 42
0.18
 43
0.18
 50
180.0
  0
INSERT
  5
4A64
330
44D7
100
AcDbEntity
  8
ADPDIM
 62
     0
100
AcDbBlockReference
  2
_OBLIQUE
 10
18.83558607731406
 20
-1.282556307388114
 30
0.0
 41
0.18
 42
0.18
 43
0.18
  0
MTEXT
  5
4A65
330
44D7
100
AcDbEntity
  8
ADPDIM
 62
     0
100
AcDbMText
 10
18.33558607731406
 20
-1.282556307388114
 30
0.0
 40
0.18
 41
0.0
 71
     5
 72
     1
  1
\A1;1
  0
POINT
  5
4A66
330
44D7
100
AcDbEntity
  8
DEFPOINTS
 62
     0
100
AcDbPoint
 10
17.83558607731406
 20
-0.5000000000000023
 30
0.0
  0
POINT
  5
4A67
330
44D7
100
AcDbEntity
  8
DEFPOINTS
 62
     0
100
AcDbPoint
 10
18.83558607731406
 20
-0.5000000000000023
 30
0.0
  0
POINT
  5
4A68
330
44D7
100
AcDbEntity
  8
DEFPOINTS
 62
     0
100
AcDbPoint
 10
18.83558607731406
 20
-1.282556307388114
 30
0.0
  0
ENDBLK
  5
44E3
330
44D7
100
AcDbEntity
  8
0
100
AcDbBlockEnd
  0
BLOCK
  5
44E5
330
44E4
100
AcDbEntity
  8
0
100
AcDbBlockBegin
  2
*D5
 70
     1
 10
0.0
 20
0.0
 30
0.0
  3
*D5
  1
*U
  0
LINE
  5
4A55
330
44E4
100
AcDbEntity
  8
ADPDIM
 62
     0
100
AcDbLine
 10
18.0574062021587
 20
-0.5630000000000022
 30
0.0
 11
18.0574062021587
 21
-1.018126058805054
 31
0.0
  0
LINE
  5
4A56
330
44E4
100
AcDbEntity
  8
ADPDIM
 62
     0
100
AcDbLine
 10
18.6194062021587
 20
-0.5630000000000022
 30
0.0
 11
18.6194062021587
 21
-1.018126058805054
 31
0.0
  0
LINE
  5
4A57
330
44E4
100
AcDbEntity
  8
ADPDIM
 62
     0
100
AcDbLine
 10
18.0574062021587
 20
-0.8381260588050544
 30
0.0
 11
18.6194062021587
 21
-0.8381260588050544
 31
0.0
  0
LINE
  5
4A58
330
44E4
100
AcDbEntity
  8
ADPDIM
 62
     0
100
AcDbLine
 10
18.6194062021587
 20
-0.8381260588050544
 30
0.0
 11
18.7994062021587
 21
-0.8381260588050544
 31
0.0
  0
INSERT
  5
4A59
330
44E4
100
AcDbEntity
  8
ADPDIM
 62
     0
100
AcDbBlockReference
  2
_OBLIQUE
 10
18.0574062021587
 20
-0.8381260588050544
 30
0.0
 41
0.18
 42
0.18
 43
0.18
 50
180.0
  0
INSERT
  5
4A5A
330
44E4
100
AcDbEntity
  8
ADPDIM
 62
     0
100
AcDbBlockReference
  2
_OBLIQUE
 10
18.6194062021587
 20
-0.8381260588050544
 30
0.0
 41
0.18
 42
0.18
 43
0.18
  0
MTEXT
  5
4A5B
330
44E4
100
AcDbEntity
  8
ADPDIM
 62
     0
100
AcDbMText
 10
19.0994062021587
 20
-0.8381260588050544
 30
0.0
 40
0.18
 41
0.0
 71
     5
 72
     1
  1
\A1;1/2
  0
POINT
  5
4A5C
330
44E4
100
AcDbEntity
  8
DEFPOINTS
 62
     0
100
AcDbPoint
 10
18.0574062021587
 20
-0.5000000000000023
 30
0.0
  0
POINT
  5
4A5D
330
44E4
100
AcDbEntity
  8
DEFPOINTS
 62
     0
100
AcDbPoint
 10
18.6194062021587
 20
-0.5000000000000023
 30
0.0
  0
POINT
  5
4A5E
330
44E4
100
AcDbEntity
  8
DEFPOINTS
 62
     0
100
AcDbPoint
 10
18.6194062021587
 20
-0.8381260588050544
 30
0.0
  0
ENDBLK
  5
44F0
330
44E4
100
AcDbEntity
  8
0
100
AcDbBlockEnd
  0
BLOCK
  5
44F2
330
44F1
100
AcDbEntity
  8
0
100
AcDbBlockBegin
  2
*D6
 70
     1
 10
0.0
 20
0.0
 30
0.0
  3
*D6
  1
*U
  0
LINE
  5
4A4A
330
44F1
100
AcDbEntity
  8
ADPDIM
 62
     0
100
AcDbLine
 10
10.2708838890658
 20
-0.2500000000000018
 30
0.0
 11
9.474222239595535
 21
-0.2500000000000015
 31
0.0
  0
LINE
  5
4A4B
330
44F1
100
AcDbEntity
  8
ADPDIM
 62
     0
100
AcDbLine
 10
10.2708838890658
 20
-0.5000000000000009
 30
0.0
 11
9.474222239595535
 21
-0.5000000000000007
 31
0.0
  0
LINE
  5
4A4C
330
44F1
100
AcDbEntity
  8
ADPDIM
 62
     0
100
AcDbLine
 10
9.654222239595535
 20
-0.2500000000000016
 30
0.0
 11
9.654222239595535
 21
-0.5000000000000007
 31
0.0
  0
LINE
  5
4A4D
330
44F1
100
AcDbEntity
  8
ADPDIM
 62
     0
100
AcDbLine
 10
9.654222239595535
 20
-0.5000000000000007
 30
0.0
 11
9.654222239595535
 21
-0.6800000000000007
 31
0.0
  0
LINE
  5
4A4E
330
44F1
100
AcDbEntity
  8
ADPDIM
 62
     0
100
AcDbLine
 10
9.654222239595535
 20
-0.6800000000000007
 30
0.0
 11
9.474222239595535
 21
-0.6800000000000007
 31
0.0
  0
INSERT
  5
4A4F
330
44F1
100
AcDbEntity
  8
ADPDIM
 62
     0
100
AcDbBlockReference
  2
_OBLIQUE
 10
9.654222239595535
 20
-0.2500000000000016
 30
0.0
 41
0.18
 42
0.18
 43
0.18
 50
90.0
  0
INSERT
  5
4A50
330
44F1
100
AcDbEntity
  8
ADPDIM
 62
     0
100
AcDbBlockReference
  2
_OBLIQUE
 10
9.654222239595535
 20
-0.5000000000000007
 30
0.0
 41
0.18
 42
0.18
 43
0.18
 50
270.0
  0
MTEXT
  5
4A51
330
44F1
100
AcDbEntity
  8
ADPDIM
 62
     0
100
AcDbMText
 10
9.174222239595534
 20
-0.6799999999999992
 30
0.0
 40
0.18
 41
0.0
 71
     5
 72
     1
  1
\A1;1/4
  0
POINT
  5
4A52
330
44F1
100
AcDbEntity
  8
DEFPOINTS
 62
     0
100
AcDbPoint
 10
10.3338838890658
 20
-0.2500000000000018
 30
0.0
  0
POINT
  5
4A53
330
44F1
100
AcDbEntity
  8
DEFPOINTS
 62
     0
100
AcDbPoint
 10
10.3338838890658
 20
-0.5000000000000009
 30
0.0
  0
POINT
  5
4A54
330
44F1
100
AcDbEntity
  8
DEFPOINTS
 62
     0
100
AcDbPoint
 10
9.654222239595535
 20
-0.5000000000000007
 30
0.0
  0
ENDBLK
  5
44FE
330
44F1
100
AcDbEntity
  8
0
100
AcDbBlockEnd
  0
BLOCK
  5
4500
330
44FF
100
AcDbEntity
  8
0
100
AcDbBlockBegin
  2
*D7
 70
     1
 10
0.0
 20
0.0
 30
0.0
  3
*D7
  1
*U
  0
LINE
  5
4A44
330
44FF
100
AcDbEntity
  8
ADPDIM
 62
     0
100
AcDbLine
 10
8.897026547318223
 20
1.146190280001329
 30
0.0
 11
9.077026547318226
 21
1.14619028000133
 31
0.0
  0
LINE
  5
4A45
330
44FF
100
AcDbEntity
  8
ADPDIM
 62
     0
100
AcDbLine
 10
9.077026547318226
 20
1.14619028000133
 30
0.0
 11
9.343693430398337
 21
1.672679048623619
 31
0.0
  0
MTEXT
  5
4A46
330
44FF
100
AcDbEntity
  8
ADPDIM
 62
     0
100
AcDbMText
 10
8.327026547318224
 20
1.146190280001329
 30
0.0
 40
0.18
 41
0.0
 71
     5
 72
     1
  1
\A1;R1 7/8
  0
INSERT
  5
4A47
330
44FF
100
AcDbEntity
  8
ADPDIM
 62
     0
100
AcDbBlockReference
  2
_OBLIQUE
 10
9.343693430398337
 20
1.672679048623619
 30
0.0
 41
0.18
 42
0.18
 43
0.18
 50
63.13775819608828
  0
POINT
  5
4A48
330
44FF
100
AcDbEntity
  8
DEFPOINTS
 62
     0
100
AcDbPoint
 10
9.343693430398337
 20
1.672679048623619
 30
0.0
  0
POINT
  5
4A49
330
44FF
100
AcDbEntity
  8
DEFPOINTS
 62
     0
100
AcDbPoint
 10
8.49648046998309
 20
-0.0000000000000022
 30
0.0
  0
ENDBLK
  5
4507
330
44FF
100
AcDbEntity
  8
0
100
AcDbBlockEnd
  0
BLOCK
  5
4509
330
4508
100
AcDbEntity
  8
0
100
AcDbBlockBegin
  2
*D8
 70
     1
 10
0.0
 20
0.0
 30
0.0
  3
*D8
  1
*U
  0
LINE
  5
4A3A
330
4508
100
AcDbEntity
  8
ADPDIM
 62
     0
100
AcDbLine
 10
-0.0630000000000009
 20
2.5625
 30
0.0
 11
-0.7480874771041859
 21
2.5625
 31
0.0
  0
LINE
  5
4A3B
330
4508
100
AcDbEntity
  8
ADPDIM
 62
     0
100
AcDbLine
 10
1.561999999999999
 20
-0.4375000000000009
 30
0.0
 11
-0.7480874771041869
 21
-0.4375000000000002
 31
0.0
  0
LINE
  5
4A3C
330
4508
100
AcDbEntity
  8
ADPDIM
 62
     0
100
AcDbLine
 10
-0.5680874771041859
 20
2.5625
 30
0.0
 11
-0.5680874771041863
 21
1.242499999999999
 31
0.0
  0
LINE
  5
4A3D
330
4508
100
AcDbEntity
  8
ADPDIM
 62
     0
100
AcDbLine
 10
-0.5680874771041866
 20
-0.4375000000000004
 30
0.0
 11
-0.5680874771041863
 21
0.8824999999999999
 31
0.0
  0
INSERT
  5
4A3E
330
4508
100
AcDbEntity
  8
ADPDIM
 62
     0
100
AcDbBlockReference
  2
_OBLIQUE
 10
-0.5680874771041859
 20
2.5625
 30
0.0
 41
0.18
 42
0.18
 43
0.18
 50
90.0
  0
INSERT
  5
4A3F
330
4508
100
AcDbEntity
  8
ADPDIM
 62
     0
100
AcDbBlockReference
  2
_OBLIQUE
 10
-0.5680874771041866
 20
-0.4375000000000004
 30
0.0
 41
0.18
 42
0.18
 43
0.18
 50
270.0
  0
MTEXT
  5
4A40
330
4508
100
AcDbEntity
  8
ADPDIM
 62
     0
100
AcDbMText
 10
-0.5680874771041865
 20
1.062499999999999
 30
0.0
 40
0.18
 41
0.0
 71
     5
 72
     1
  1
\A1;3
  0
POINT
  5
4A41
330
4508
100
AcDbEntity
  8
DEFPOINTS
 62
     0
100
AcDbPoint
 10
-0.0000000000000009
 20
2.5625
 30
0.0
  0
POINT
  5
4A42
330
4508
100
AcDbEntity
  8
DEFPOINTS
 62
     0
100
AcDbPoint
 10
1.624999999999999
 20
-0.4375000000000009
 30
0.0
  0
POINT
  5
4A43
330
4508
100
AcDbEntity
  8
DEFPOINTS
 62
     0
100
AcDbPoint
 10
-0.5680874771041866
 20
-0.4375000000000004
 30
0.0
  0
ENDBLK
  5
4514
330
4508
100
AcDbEntity
  8
0
100
AcDbBlockEnd
  0
BLOCK
  5
4516
330
4515
100
AcDbEntity
  8
0
100
AcDbBlockBegin
  2
*D9
 70
     1
 10
0.0
 20
0.0
 30
0.0
  3
*D9
  1
*U
  0
LINE
  5
4A32
330
4515
100
AcDbEntity
  8
ADPDIM
 62
     0
100
AcDbLine
 10
6.924784450049116
 20
2.354444135693164
 30
0.0
 11
7.104784450049116
 21
2.354444135693164
 31
0.0
  0
LINE
  5
4A33
330
4515
100
AcDbEntity
  8
ADPDIM
 62
     0
100
AcDbLine
 10
7.104784450049116
 20
2.354444135693164
 30
0.0
 11
7.287969300936221
 21
2.044535584011431
 31
0.0
  0
MTEXT
  5
4A34
330
4515
100
AcDbEntity
  8
ADPDIM
 62
     0
100
AcDbMText
 10
6.324784450049115
 20
2.354444135693164
 30
0.0
 40
0.18
 41
0.0
 71
     5
 72
     1
  1
\A1;R2 3/8
  0
INSERT
  5
4A35
330
4515
100
AcDbEntity
  8
ADPDIM
 62
     0
100
AcDbBlockReference
  2
_OBLIQUE
 10
7.287969300936221
 20
2.044535584011431
 30
0.0
 41
0.18
 42
0.18
 43
0.18
 50
300.5870466922509
  0
LINE
  5
4A36
330
4515
100
AcDbEntity
  8
ADPDIM
 62
     0
100
AcDbLine
 10
8.40648046998309
 20
-0.0000000000000036
 30
0.0
 11
8.58648046998309
 21
-0.000000000000004
 31
0.0
  0
LINE
  5
4A37
330
4515
100
AcDbEntity
  8
ADPDIM
 62
     0
100
AcDbLine
 10
8.49648046998309
 20
-0.0900000000000025
 30
0.0
 11
8.49648046998309
 21
0.0899999999999963
 31
0.0
  0
POINT
  5
4A38
330
4515
100
AcDbEntity
  8
DEFPOINTS
 62
     0
100
AcDbPoint
 10
7.287969300936221
 20
2.044535584011431
 30
0.0
  0
POINT
  5
4A39
330
4515
100
AcDbEntity
  8
DEFPOINTS
 62
     0
100
AcDbPoint
 10
8.49648046998309
 20
-0.0000000000000031
 30
0.0
  0
ENDBLK
  5
451E
330
4515
100
AcDbEntity
  8
0
100
AcDbBlockEnd
  0
BLOCK
  5
4520
330
451F
100
AcDbEntity
  8
0
100
AcDbBlockBegin
  2
*D10
 70
     1
 10
0.0
 20
0.0
 30
0.0
  3
*D10
  1
*U
  0
LINE
  5
4A28
330
451F
100
AcDbEntity
  8
ADPDIM
 62
     0
100
AcDbLine
 10
6.100968223773973
 20
-0.5630000000000017
 30
0.0
 11
6.100968223773973
 21
-1.041365090901793
 31
0.0
  0
LINE
  5
4A29
330
451F
100
AcDbEntity
  8
ADPDIM
 62
     0
100
AcDbLine
 10
6.662968223773972
 20
-0.5630000000000017
 30
0.0
 11
6.662968223773972
 21
-1.041365090901793
 31
0.0
  0
LINE
  5
4A2A
330
451F
100
AcDbEntity
  8
ADPDIM
 62
     0
100
AcDbLine
 10
6.100968223773973
 20
-0.8613650909017938
 30
0.0
 11
6.662968223773972
 21
-0.8613650909017938
 31
0.0
  0
LINE
  5
4A2B
330
451F
100
AcDbEntity
  8
ADPDIM
 62
     0
100
AcDbLine
 10
6.662968223773972
 20
-0.8613650909017938
 30
0.0
 11
6.842968223773973
 21
-0.8613650909017938
 31
0.0
  0
INSERT
  5
4A2C
330
451F
100
AcDbEntity
  8
ADPDIM
 62
     0
100
AcDbBlockReference
  2
_OBLIQUE
 10
6.100968223773973
 20
-0.8613650909017938
 30
0.0
 41
0.18
 42
0.18
 43
0.18
 50
180.0
  0
INSERT
  5
4A2D
330
451F
100
AcDbEntity
  8
ADPDIM
 62
     0
100
AcDbBlockReference
  2
_OBLIQUE
 10
6.662968223773972
 20
-0.8613650909017938
 30
0.0
 41
0.18
 42
0.18
 43
0.18
  0
MTEXT
  5
4A2E
330
451F
100
AcDbEntity
  8
ADPDIM
 62
     0
100
AcDbMText
 10
7.142968223773973
 20
-0.8613650909017938
 30
0.0
 40
0.18
 41
0.0
 71
     5
 72
     1
  1
\A1;1/2
  0
POINT
  5
4A2F
330
451F
100
AcDbEntity
  8
DEFPOINTS
 62
     0
100
AcDbPoint
 10
6.100968223773973
 20
-0.5000000000000018
 30
0.0
  0
POINT
  5
4A30
330
451F
100
AcDbEntity
  8
DEFPOINTS
 62
     0
100
AcDbPoint
 10
6.662968223773972
 20
-0.5000000000000018
 30
0.0
  0
POINT
  5
4A31
330
451F
100
AcDbEntity
  8
DEFPOINTS
 62
     0
100
AcDbPoint
 10
6.662968223773972
 20
-0.8613650909017938
 30
0.0
  0
ENDBLK
  5
452B
330
451F
100
AcDbEntity
  8
0
100
AcDbBlockEnd
  0
BLOCK
  5
452D
330
452C
100
AcDbEntity
  8
0
100
AcDbBlockBegin
  2
*D11
 70
     1
 10
0.0
 20
0.0
 30
0.0
  3
*D11
  1
*U
  0
LINE
  5
4A1E
330
452C
100
AcDbEntity
  8
ADPDIM
 62
     0
100
AcDbLine
 10
-0.0000000000000009
 20
2.562999999999999
 30
0.0
 11
-0.0000000000000008
 21
3.218256882448139
 31
0.0
  0
LINE
  5
4A1F
330
452C
100
AcDbEntity
  8
ADPDIM
 62
     0
100
AcDbLine
 10
17.0
 20
2.562999999999999
 30
0.0
 11
17.0
 21
3.218256882448139
 31
0.0
  0
LINE
  5
4A20
330
452C
100
AcDbEntity
  8
ADPDIM
 62
     0
100
AcDbLine
 10
-0.0000000000000008
 20
3.038256882448139
 30
0.0
 11
8.289999999999999
 21
3.038256882448139
 31
0.0
  0
LINE
  5
4A21
330
452C
100
AcDbEntity
  8
ADPDIM
 62
     0
100
AcDbLine
 10
17.0
 20
3.038256882448139
 30
0.0
 11
8.71
 21
3.038256882448139
 31
0.0
  0
INSERT
  5
4A22
330
452C
100
AcDbEntity
  8
ADPDIM
 62
     0
100
AcDbBlockReference
  2
_OBLIQUE
 10
-0.0000000000000008
 20
3.038256882448139
 30
0.0
 41
0.18
 42
0.18
 43
0.18
 50
180.0
  0
INSERT
  5
4A23
330
452C
100
AcDbEntity
  8
ADPDIM
 62
     0
100
AcDbBlockReference
  2
_OBLIQUE
 10
17.0
 20
3.038256882448139
 30
0.0
 41
0.18
 42
0.18
 43
0.18
  0
MTEXT
  5
4A24
330
452C
100
AcDbEntity
  8
ADPDIM
 62
     0
100
AcDbMText
 10
8.5
 20
3.038256882448139
 30
0.0
 40
0.18
 41
0.0
 71
     5
 72
     1
  1
\A1;17
  0
POINT
  5
4A25
330
452C
100
AcDbEntity
  8
DEFPOINTS
 62
     0
100
AcDbPoint
 10
-0.0000000000000009
 20
2.499999999999999
 30
0.0
  0
POINT
  5
4A26
330
452C
100
AcDbEntity
  8
DEFPOINTS
 62
     0
100
AcDbPoint
 10
17.0
 20
2.499999999999999
 30
0.0
  0
POINT
  5
4A27
330
452C
100
AcDbEntity
  8
DEFPOINTS
 62
     0
100
AcDbPoint
 10
17.0
 20
3.038256882448139
 30
0.0
  0
ENDBLK
  5
4538
330
452C
100
AcDbEntity
  8
0
100
AcDbBlockEnd
  0
BLOCK
  5
453A
330
4539
100
AcDbEntity
  8
0
100
AcDbBlockBegin
  2
*D12
 70
     1
 10
0.0
 20
0.0
 30
0.0
  3
*D12
  1
*U
  0
LINE
  5
4A14
330
4539
100
AcDbEntity
  8
ADPDIM
 62
     0
100
AcDbLine
 10
12.5
 20
2.562999999999999
 30
0.0
 11
12.5
 21
2.917969673766022
 31
0.0
  0
LINE
  5
4A15
330
4539
100
AcDbEntity
  8
ADPDIM
 62
     0
100
AcDbLine
 10
13.0
 20
2.562999999999999
 30
0.0
 11
13.0
 21
2.917969673766022
 31
0.0
  0
LINE
  5
4A16
330
4539
100
AcDbEntity
  8
ADPDIM
 62
     0
100
AcDbLine
 10
12.5
 20
2.737969673766022
 30
0.0
 11
13.0
 21
2.737969673766022
 31
0.0
  0
LINE
  5
4A17
330
4539
100
AcDbEntity
  8
ADPDIM
 62
     0
100
AcDbLine
 10
13.0
 20
2.737969673766022
 30
0.0
 11
13.18
 21
2.737969673766022
 31
0.0
  0
INSERT
  5
4A18
330
4539
100
AcDbEntity
  8
ADPDIM
 62
     0
100
AcDbBlockReference
  2
_OBLIQUE
 10
12.5
 20
2.737969673766022
 30
0.0
 41
0.18
 42
0.18
 43
0.18
 50
180.0
  0
INSERT
  5
4A19
330
4539
100
AcDbEntity
  8
ADPDIM
 62
     0
100
AcDbBlockReference
  2
_OBLIQUE
 10
13.0
 20
2.737969673766022
 30
0.0
 41
0.18
 42
0.18
 43
0.18
  0
MTEXT
  5
4A1A
330
4539
100
AcDbEntity
  8
ADPDIM
 62
     0
100
AcDbMText
 10
13.48
 20
2.737969673766022
 30
0.0
 40
0.18
 41
0.0
 71
     5
 72
     1
  1
\A1;1/2
  0
POINT
  5
4A1B
330
4539
100
AcDbEntity
  8
DEFPOINTS
 62
     0
100
AcDbPoint
 10
12.5
 20
2.499999999999999
 30
0.0
  0
POINT
  5
4A1C
330
4539
100
AcDbEntity
  8
DEFPOINTS
 62
     0
100
AcDbPoint
 10
13.0
 20
2.499999999999999
 30
0.0
  0
POINT
  5
4A1D
330
4539
100
AcDbEntity
  8
DEFPOINTS
 62
     0
100
AcDbPoint
 10
13.0
 20
2.737969673766022
 30
0.0
  0
ENDBLK
  5
4545
330
4539
100
AcDbEntity
  8
0
100
AcDbBlockEnd
  0
BLOCK
  5
4547
330
4546
100
AcDbEntity
  8
0
100
AcDbBlockBegin
  2
*D13
 70
     1
 10
0.0
 20
0.0
 30
0.0
  3
*D13
  1
*U
  0
LINE
  5
4A0A
330
4546
100
AcDbEntity
  8
ADPDIM
 62
     0
100
AcDbLine
 10
15.438
 20
-0.0000000000000021
 30
0.0
 11
16.05317338165337
 21
-0.0000000000000023
 31
0.0
  0
LINE
  5
4A0B
330
4546
100
AcDbEntity
  8
ADPDIM
 62
     0
100
AcDbLine
 10
15.438
 20
-0.5000000000000022
 30
0.0
 11
16.05317338165337
 21
-0.5000000000000023
 31
0.0
  0
LINE
  5
4A0C
330
4546
100
AcDbEntity
  8
ADPDIM
 62
     0
100
AcDbLine
 10
15.87317338165337
 20
-0.0000000000000023
 30
0.0
 11
15.87317338165337
 21
0.1799999999999977
 31
0.0
  0
LINE
  5
4A0D
330
4546
100
AcDbEntity
  8
ADPDIM
 62
     0
100
AcDbLine
 10
15.87317338165337
 20
-0.5000000000000023
 30
0.0
 11
15.87317338165337
 21
-0.6800000000000023
 31
0.0
  0
INSERT
  5
4A0E
330
4546
100
AcDbEntity
  8
ADPDIM
 62
     0
100
AcDbBlockReference
  2
_OBLIQUE
 10
15.87317338165337
 20
-0.0000000000000023
 30
0.0
 41
0.18
 42
0.18
 43
0.18
 50
270.0
  0
INSERT
  5
4A0F
330
4546
100
AcDbEntity
  8
ADPDIM
 62
     0
100
AcDbBlockReference
  2
_OBLIQUE
 10
15.87317338165337
 20
-0.5000000000000023
 30
0.0
 41
0.18
 42
0.18
 43
0.18
 50
90.0
  0
MTEXT
  5
4A10
330
4546
100
AcDbEntity
  8
ADPDIM
 62
     0
100
AcDbMText
 10
15.87317338165337
 20
-0.2499999999999997
 30
0.0
 40
0.18
 41
0.0
 71
     5
 72
     1
  1
\A1;1/2
  0
POINT
  5
4A11
330
4546
100
AcDbEntity
  8
DEFPOINTS
 62
     0
100
AcDbPoint
 10
15.375
 20
-0.0000000000000021
 30
0.0
  0
POINT
  5
4A12
330
4546
100
AcDbEntity
  8
DEFPOINTS
 62
     0
100
AcDbPoint
 10
15.375
 20
-0.5000000000000022
 30
0.0
  0
POINT
  5
4A13
330
4546
100
AcDbEntity
  8
DEFPOINTS
 62
     0
100
AcDbPoint
 10
15.87317338165337
 20
-0.5000000000000023
 30
0.0
  0
ENDBLK
  5
4552
330
4546
100
AcDbEntity
  8
0
100
AcDbBlockEnd
  0
BLOCK
  5
4554
330
4553
100
AcDbEntity
  8
0
100
AcDbBlockBegin
  2
*D14
 70
     1
 10
0.0
 20
0.0
 30
0.0
  3
*D14
  1
*U
  0
LINE
  5
4A00
330
4553
100
AcDbEntity
  8
ADPDIM
 62
     0
100
AcDbLine
 10
10.12499999999999
 20
-0.5630000000000022
 30
0.0
 11
10.12499999999999
 21
-1.0839238969394
 31
0.0
  0
LINE
  5
4A01
330
4553
100
AcDbEntity
  8
ADPDIM
 62
     0
100
AcDbLine
 10
11.125
 20
-0.5630000000000022
 30
0.0
 11
11.125
 21
-1.0839238969394
 31
0.0
  0
LINE
  5
4A02
330
4553
100
AcDbEntity
  8
ADPDIM
 62
     0
100
AcDbLine
 10
10.12499999999999
 20
-0.9039238969394
 30
0.0
 11
10.505
 21
-0.9039238969394
 31
0.0
  0
LINE
  5
4A03
330
4553
100
AcDbEntity
  8
ADPDIM
 62
     0
100
AcDbLine
 10
11.125
 20
-0.9039238969394
 30
0.0
 11
10.745
 21
-0.9039238969394
 31
0.0
  0
INSERT
  5
4A04
330
4553
100
AcDbEntity
  8
ADPDIM
 62
     0
100
AcDbBlockReference
  2
_OBLIQUE
 10
10.12499999999999
 20
-0.9039238969394
 30
0.0
 41
0.18
 42
0.18
 43
0.18
 50
180.0
  0
INSERT
  5
4A05
330
4553
100
AcDbEntity
  8
ADPDIM
 62
     0
100
AcDbBlockReference
  2
_OBLIQUE
 10
11.125
 20
-0.9039238969394
 30
0.0
 41
0.18
 42
0.18
 43
0.18
  0
MTEXT
  5
4A06
330
4553
100
AcDbEntity
  8
ADPDIM
 62
     0
100
AcDbMText
 10
10.625
 20
-0.9039238969394
 30
0.0
 40
0.18
 41
0.0
 71
     5
 72
     1
  1
\A1;1
  0
POINT
  5
4A07
330
4553
100
AcDbEntity
  8
DEFPOINTS
 62
     0
100
AcDbPoint
 10
10.12499999999999
 20
-0.5000000000000022
 30
0.0
  0
POINT
  5
4A08
330
4553
100
AcDbEntity
  8
DEFPOINTS
 62
     0
100
AcDbPoint
 10
11.125
 20
-0.5000000000000022
 30
0.0
  0
POINT
  5
4A09
330
4553
100
AcDbEntity
  8
DEFPOINTS
 62
     0
100
AcDbPoint
 10
11.125
 20
-0.9039238969394
 30
0.0
  0
ENDBLK
  5
455F
330
4553
100
AcDbEntity
  8
0
100
AcDbBlockEnd
  0
ENDSEC
  0
SECTION
  2
ENTITIES
  0
ARC
  5
1
330
4346
100
AcDbEntity
  8
ADP1DETAIL
100
AcDbCircle
 10
0.0
 20
0.0
 30
0.0
 40
1.875
100
AcDbArc
 50
359.9999999999999
 51
90.00000000000003
  0
ARC
  5
4
330
4346
100
AcDbEntity
  8
ADP1DETAIL
100
AcDbCircle
 10
4.25
 20
-0.0000000000000003
 30
0.0
 40
1.875
100
AcDbArc
 50
0.0
 51
180.0
  0
ARC
  5
5
330
4346
100
AcDbEntity
  8
ADP1DETAIL
100
AcDbCircle
 10
8.5
 20
-0.0000000000000006
 30
0.0
 40
1.875
100
AcDbArc
 50
0.0
 51
180.0
  0
ARC
  5
8
330
4346
100
AcDbEntity
  8
ADP1DETAIL
100
AcDbCircle
 10
12.75
 20
-0.0000000000000009
 30
0.0
 40
1.875
100
AcDbArc
 50
0.0
 51
180.0
  0
ARC
  5
9
330
4346
100
AcDbEntity
  8
ADP1DETAIL
100
AcDbCircle
 10
17.0
 20
-0.0000000000000012
 30
0.0
 40
1.875
100
AcDbArc
 50
90.0
 51
180.0
  0
ARC
  5
A
330
4346
100
AcDbEntity
  8
ADP1DETAIL
100
AcDbCircle
 10
17.0
 20
-0.0000000000000012
 30
0.0
 40
2.375
100
AcDbArc
 50
96.04232841905412
 51
153.4746479833902
  0
ARC
  5
B
330
4346
100
AcDbEntity
  8
ADP1DETAIL
100
AcDbCircle
 10
0.0
 20
0.0
 30
0.0
 40
2.375
100
AcDbArc
 50
26.52535201660969
 51
83.9576715809459
  0
ARC
  5
C
330
4346
100
AcDbEntity
  8
ADP1DETAIL
100
AcDbCircle
 10
4.25
 20
-0.0000000000000003
 30
0.0
 40
2.375
100
AcDbArc
 50
26.52535201660968
 51
83.9576715809459
  0
ARC
  5
D
330
4346
100
AcDbEntity
  8
ADP1DETAIL
100
AcDbCircle
 10
8.5
 20
-0.0000000000000006
 30
0.0
 40
2.375
100
AcDbArc
 50
26.52535201660968
 51
83.9576715809459
  0
ARC
  5
F
330
4346
100
AcDbEntity
  8
ADP1DETAIL
100
AcDbCircle
 10
12.75
 20
-0.0000000000000009
 30
0.0
 40
2.375
100
AcDbArc
 50
26.52535201660968
 51
83.9576715809459
  0
LINE
  5
16
330
4346
100
AcDbEntity
  8
ADP1DETAIL
100
AcDbLine
 10
4.0
 20
2.361805453461397
 30
0.0
 11
4.0
 21
2.499999999999999
 31
0.0
  0
LINE
  5
17
330
4346
100
AcDbEntity
  8
ADP1DETAIL
100
AcDbLine
 10
4.0
 20
2.499999999999999
 30
0.0
 11
4.5
 21
2.499999999999999
 31
0.0
  0
LINE
  5
18
330
4346
100
AcDbEntity
  8
ADP1DETAIL
100
AcDbLine
 10
4.5
 20
2.499999999999999
 30
0.0
 11
4.5
 21
2.361805453461397
 31
0.0
  0
LINE
  5
1A
330
4346
100
AcDbEntity
  8
ADP1DETAIL
100
AcDbLine
 10
-0.0000000000000009
 20
2.499999999999999
 30
0.0
 11
0.2499999999999991
 21
2.499999999999999
 31
0.0
  0
LINE
  5
1D
330
4346
100
AcDbEntity
  8
ADP1DETAIL
100
AcDbLine
 10
0.2499999999999991
 20
2.499999999999999
 30
0.0
 11
0.2499999999999991
 21
2.361805453461398
 31
0.0
  0
LINE
  5
1E
330
4346
100
AcDbEntity
  8
ADP1DETAIL
100
AcDbLine
 10
8.25
 20
2.499999999999999
 30
0.0
 11
8.75
 21
2.499999999999999
 31
0.0
  0
LINE
  5
20
330
4346
100
AcDbEntity
  8
ADP1DETAIL
100
AcDbLine
 10
8.25
 20
2.361805453461397
 30
0.0
 11
8.25
 21
2.499999999999999
 31
0.0
  0
LINE
  5
21
330
4346
100
AcDbEntity
  8
ADP1DETAIL
100
AcDbLine
 10
8.75
 20
2.499999999999999
 30
0.0
 11
8.75
 21
2.361805453461397
 31
0.0
  0
LINE
  5
23
330
4346
100
AcDbEntity
  8
ADP1DETAIL
100
AcDbLine
 10
12.5
 20
2.499999999999999
 30
0.0
 11
13.0
 21
2.499999999999999
 31
0.0
  0
LINE
  5
24
330
4346
100
AcDbEntity
  8
ADP1DETAIL
100
AcDbLine
 10
12.5
 20
2.361805453461397
 30
0.0
 11
12.5
 21
2.499999999999999
 31
0.0
  0
LINE
  5
25
330
4346
100
AcDbEntity
  8
ADP1DETAIL
100
AcDbLine
 10
13.0
 20
2.499999999999999
 30
0.0
 11
13.0
 21
2.361805453461397
 31
0.0
  0
LINE
  5
26
330
4346
100
AcDbEntity
  8
ADP1DETAIL
100
AcDbLine
 10
16.75
 20
2.499999999999999
 30
0.0
 11
17.0
 21
2.499999999999999
 31
0.0
  0
LINE
  5
28
330
4346
100
AcDbEntity
  8
ADP1DETAIL
100
AcDbLine
 10
16.75
 20
2.361805453461396
 30
0.0
 11
16.75
 21
2.499999999999999
 31
0.0
  0
LINE
  5
3C
330
4346
100
AcDbEntity
  8
ADP1DETAIL
100
AcDbLine
 10
-0.0000000000000007
 20
1.875
 30
0.0
 11
-0.0000000000000009
 21
2.499999999999999
 31
0.0
  0
LINE
  5
3D
330
4346
100
AcDbEntity
  8
ADP1DETAIL
100
AcDbLine
 10
17.0
 20
1.875
 30
0.0
 11
17.0
 21
2.499999999999999
 31
0.0
  0
ARC
  5
41
330
4346
100
AcDbEntity
  8
ADP1DETAIL
100
AcDbCircle
 10
4.25
 20
-0.0000000000000003
 30
0.0
 40
2.375
100
AcDbArc
 50
96.04232841905412
 51
153.4746479833902
  0
ARC
  5
42
330
4346
100
AcDbEntity
  8
ADP1DETAIL
100
AcDbCircle
 10
8.5
 20
-0.0000000000000006
 30
0.0
 40
2.375
100
AcDbArc
 50
96.04232841905412
 51
153.4746479833902
  0
ARC
  5
43
330
4346
100
AcDbEntity
  8
ADP1DETAIL
100
AcDbCircle
 10
12.75
 20
-0.0000000000000009
 30
0.0
 40
2.375
100
AcDbArc
 50
96.04232841905412
 51
153.4746479833902
  0
LWPOLYLINE
  5
80
330
4346
100
AcDbEntity
  8
ADP1DETAIL
100
AcDbPolyline
 90
        4
 70
     1
 43
0.0
 10
1.625
 20
-0.5000000000000022
 10
1.625
 20
-0.0000000000000021
 10
2.625
 20
-0.0000000000000021
 10
2.625
 20
-0.5000000000000022
  0
LWPOLYLINE
  5
86
330
4346
100
AcDbEntity
  8
ADP1DETAIL
100
AcDbPolyline
 90
        4
 70
     1
 43
0.0
 10
5.875
 20
-0.5000000000000022
 10
5.875
 20
-0.0000000000000021
 10
6.875
 20
-0.0000000000000021
 10
6.875
 20
-0.5000000000000022
  0
LWPOLYLINE
  5
8C
330
4346
100
AcDbEntity
  8
ADP1DETAIL
100
AcDbPolyline
 90
        4
 70
     1
 43
0.0
 10
10.12499999999999
 20
-0.5000000000000022
 10
10.12499999999999
 20
-0.0000000000000021
 10
11.125
 20
-0.0000000000000021
 10
11.125
 20
-0.5000000000000022
  0
LWPOLYLINE
  5
92
330
4346
100
AcDbEntity
  8
ADP1DETAIL
100
AcDbPolyline
 90
        4
 70
     1
 43
0.0
 10
14.375
 20
-0.5000000000000022
 10
14.375
 20
-0.0000000000000021
 10
15.375
 20
-0.0000000000000021
 10
15.375
 20
-0.5000000000000022
  0
INSERT
  5
CF
330
4346
100
AcDbEntity
  8
ADP1DETAIL
100
AcDbBlockReference
  2
AME_NIL
 10
0.0
 20
0.0
 30
0.0
  0
INSERT
  5
D2
330
4346
100
AcDbEntity
  8
ADP1DETAIL
100
AcDbBlockReference
  2
AME_SOL
 10
0.0
 20
0.0
 30
0.0
1001
AME_SOL
1000
R2.1
1000
AME2
1000
sq cm
1070
     3
1070
     0
1070
     3
1000
wire
1040
45.0
1000
U
1040
1.0
1000
cm
1000
gm
1000
MILD_STEEL
1070
    25
1000
CSG
1070
     1
1070
     3
1070
     3
1070
     3
1070
     0
1000
cu cm
1070
     1
1070
     0
1005
CF
  0
DIMENSION
  5
1E0
330
4346
100
AcDbEntity
  8
ADPDIM
100
AcDbDimension
  2
*D14
 10
11.125
 20
-0.9039238969394
 30
0.0
 11
10.625
 21
-0.9039238969394
 31
0.0
 70
    32
  3
STANDARD
100
AcDbAlignedDimension
 13
10.12499999999999
 23
-0.5000000000000022
 33
0.0
 14
11.125
 24
-0.5000000000000022
 34
0.0
100
AcDbRotatedDimension
1001
ACAD
1000
DSTYLE
1002
{
1070
   270
1070
     7
1070
   270
1070
     7
1070
   270
1070
     7
1070
   270
1070
     7
1070
   270
1070
     7
1070
    42
1040
0.063
1070
    78
1070
     2
1070
   173
1070
     1
1070
   271
1070
     3
1070
   276
1070
     2
1070
   277
1070
     5
1070
     6
1000
OBLIQUE
1070
     7
1000
OBLIQUE
1002
}
  0
DIMENSION
  5
256
330
4346
100
AcDbEntity
  8
ADPDIM
100
AcDbDimension
  2
*D13
 10
15.87317338165337
 20
-0.5000000000000023
 30
0.0
 11
15.87317338165337
 21
-0.2499999999999997
 31
0.0
 70
    32
  3
STANDARD
100
AcDbAlignedDimension
 13
15.375
 23
-0.0000000000000021
 33
0.0
 14
15.375
 24
-0.5000000000000022
 34
0.0
 50
90.0
100
AcDbRotatedDimension
1001
ACAD
1000
DSTYLE
1002
{
1070
   270
1070
     7
1070
   270
1070
     7
1070
   270
1070
     7
1070
   270
1070
     7
1070
   270
1070
     7
1070
    42
1040
0.063
1070
    78
1070
     2
1070
   173
1070
     1
1070
   271
1070
     3
1070
   276
1070
     2
1070
   277
1070
     5
1070
     6
1000
OBLIQUE
1070
     7
1000
OBLIQUE
1002
}
  0
LINE
  5
906
330
4346
100
AcDbEntity
  8
ADP2DETAIL
  6
HIDDEN2
100
AcDbLine
 10
1.83803198799513
 20
-0.5000000000000022
 30
0.0
 11
1.83803198799513
 21
-0.2500000000000021
 31
0.0
  0
LINE
  5
907
330
4346
100
AcDbEntity
  8
ADP2DETAIL
  6
HIDDEN2
100
AcDbLine
 10
1.83803198799513
 20
-0.2500000000000021
 30
0.0
 11
2.400031987995129
 21
-0.2500000000000021
 31
0.0
  0
LINE
  5
908
330
4346
100
AcDbEntity
  8
ADP2DETAIL
  6
HIDDEN2
100
AcDbLine
 10
2.400031987995129
 20
-0.2500000000000021
 30
0.0
 11
2.400031987995129
 21
-0.5000000000000022
 31
0.0
  0
LINE
  5
916
330
4346
100
AcDbEntity
  8
ADP2DETAIL
  6
HIDDEN2
100
AcDbLine
 10
6.100968223773973
 20
-0.2500000000000021
 30
0.0
 11
6.662968223773972
 21
-0.2500000000000021
 31
0.0
  0
LINE
  5
917
330
4346
100
AcDbEntity
  8
ADP2DETAIL
  6
HIDDEN2
100
AcDbLine
 10
6.100968223773973
 20
-0.5000000000000022
 30
0.0
 11
6.100968223773973
 21
-0.2500000000000021
 31
0.0
  0
LINE
  5
918
330
4346
100
AcDbEntity
  8
ADP2DETAIL
  6
HIDDEN2
100
AcDbLine
 10
6.662968223773972
 20
-0.2500000000000021
 30
0.0
 11
6.662968223773972
 21
-0.5000000000000022
 31
0.0
  0
LINE
  5
919
330
4346
100
AcDbEntity
  8
ADP2DETAIL
  6
HIDDEN2
100
AcDbLine
 10
10.3338838890658
 20
-0.2500000000000021
 30
0.0
 11
10.8958838890658
 21
-0.2500000000000021
 31
0.0
  0
LINE
  5
91A
330
4346
100
AcDbEntity
  8
ADP2DETAIL
  6
HIDDEN2
100
AcDbLine
 10
10.3338838890658
 20
-0.5000000000000022
 30
0.0
 11
10.3338838890658
 21
-0.2500000000000021
 31
0.0
  0
LINE
  5
91B
330
4346
100
AcDbEntity
  8
ADP2DETAIL
  6
HIDDEN2
100
AcDbLine
 10
10.8958838890658
 20
-0.2500000000000021
 30
0.0
 11
10.8958838890658
 21
-0.5000000000000022
 31
0.0
  0
LINE
  5
91C
330
4346
100
AcDbEntity
  8
ADP2DETAIL
  6
HIDDEN2
100
AcDbLine
 10
14.59682012484464
 20
-0.2500000000000021
 30
0.0
 11
15.15882012484464
 21
-0.2500000000000021
 31
0.0
  0
LINE
  5
91D
330
4346
100
AcDbEntity
  8
ADP2DETAIL
  6
HIDDEN2
100
AcDbLine
 10
14.59682012484464
 20
-0.5000000000000022
 30
0.0
 11
14.59682012484464
 21
-0.2500000000000021
 31
0.0
  0
LINE
  5
91E
330
4346
100
AcDbEntity
  8
ADP2DETAIL
  6
HIDDEN2
100
AcDbLine
 10
15.15882012484464
 20
-0.2500000000000021
 30
0.0
 11
15.15882012484464
 21
-0.5000000000000022
 31
0.0
  0
DIMENSION
  5
BF0
330
4346
100
AcDbEntity
  8
ADPDIM
100
AcDbDimension
  2
*D12
 10
13.0
 20
2.737969673766022
 30
0.0
 11
13.48
 21
2.737969673766022
 31
0.0
 70
    32
  3
STANDARD
100
AcDbAlignedDimension
 13
12.5
 23
2.499999999999999
 33
0.0
 14
13.0
 24
2.499999999999999
 34
0.0
100
AcDbRotatedDimension
1001
ACAD
1000
DSTYLE
1002
{
1070
   270
1070
     7
1070
   270
1070
     7
1070
   270
1070
     7
1070
   270
1070
     7
1070
   270
1070
     7
1070
    42
1040
0.063
1070
    78
1070
     2
1070
   173
1070
     1
1070
   271
1070
     3
1070
   276
1070
     2
1070
   277
1070
     5
1070
     6
1000
OBLIQUE
1070
     7
1000
OBLIQUE
1002
}
  0
DIMENSION
  5
10C7
330
4346
100
AcDbEntity
  8
ADPDIM
100
AcDbDimension
  2
*D11
 10
17.0
 20
3.038256882448139
 30
0.0
 11
8.5
 21
3.038256882448139
 31
0.0
 70
    32
  3
STANDARD
100
AcDbAlignedDimension
 13
-0.0000000000000009
 23
2.499999999999999
 33
0.0
 14
17.0
 24
2.499999999999999
 34
0.0
100
AcDbRotatedDimension
1001
ACAD
1000
DSTYLE
1002
{
1070
   270
1070
     7
1070
   270
1070
     7
1070
   270
1070
     7
1070
   270
1070
     7
1070
   270
1070
     7
1070
    42
1040
0.063
1070
    78
1070
     2
1070
   173
1070
     1
1070
   271
1070
     3
1070
   276
1070
     2
1070
   277
1070
     5
1070
     6
1000
OBLIQUE
1070
     7
1000
OBLIQUE
1002
}
  0
LWPOLYLINE
  5
110B
330
4346
100
AcDbEntity
  8
0
100
AcDbPolyline
 90
        2
 70
     0
 43
0.0
 10
2.125
 20
7.413187191360284
 10
2.125
 20
7.413187191360284
  0
LWPOLYLINE
  5
1115
330
4346
100
AcDbEntity
  8
0
100
AcDbPolyline
 90
        2
 70
     0
 43
0.0
 10
4.0
 20
5.71102012849542
 10
4.0
 20
5.71102012849542
  0
LINE
  5
1257
330
4346
100
AcDbEntity
  8
ADP1DETAIL
100
AcDbLine
 10
2.625
 20
-1.120136359419542
 30
0.0
 11
2.625
 21
-2.120136359419542
 31
0.0
  0
LINE
  5
1258
330
4346
100
AcDbEntity
  8
ADP1DETAIL
100
AcDbLine
 10
1.625
 20
-2.120136359419542
 30
0.0
 11
1.625
 21
-1.120136359419542
 31
0.0
  0
LINE
  5
1259
330
4346
100
AcDbEntity
  8
ADP1DETAIL
100
AcDbLine
 10
1.844000000000001
 20
-1.347052575011292
 30
0.0
 11
2.405999999999998
 21
-1.347052575011292
 31
0.0
  0
LINE
  5
125A
330
4346
100
AcDbEntity
  8
ADP1DETAIL
100
AcDbLine
 10
2.405999999999998
 20
-1.909052575011292
 30
0.0
 11
1.844000000000001
 21
-1.909052575011292
 31
0.0
  0
LINE
  5
125B
330
4346
100
AcDbEntity
  8
ADP1DETAIL
100
AcDbLine
 10
2.625
 20
-2.120136359419542
 30
0.0
 11
1.625
 21
-2.120136359419542
 31
0.0
  0
LINE
  5
125C
330
4346
100
AcDbEntity
  8
ADP1DETAIL
100
AcDbLine
 10
1.844000000000001
 20
-1.909052575011292
 30
0.0
 11
1.844000000000001
 21
-1.347052575011292
 31
0.0
  0
LINE
  5
125D
330
4346
100
AcDbEntity
  8
ADP1DETAIL
100
AcDbLine
 10
2.405999999999998
 20
-1.347052575011292
 30
0.0
 11
2.405999999999998
 21
-1.909052575011292
 31
0.0
  0
LINE
  5
125E
330
4346
100
AcDbEntity
  8
ADP1DETAIL
100
AcDbLine
 10
1.625
 20
-1.120136359419542
 30
0.0
 11
2.625
 21
-1.120136359419542
 31
0.0
  0
LWPOLYLINE
  5
126A
330
4346
100
AcDbEntity
  8
ADP1DETAIL
100
AcDbPolyline
 90
        3
 70
     0
 43
0.0
 10
0.0
 20
-1.878052575011293
 10
0.0
 20
-1.378052575011293
 10
1.625
 20
-1.378052575011293
  0
LWPOLYLINE
  5
127B
330
4346
100
AcDbEntity
  8
ADP1DETAIL
100
AcDbPolyline
 90
        2
 70
     0
 43
0.0
 10
1.625
 20
-1.878052575011293
 10
0.0
 20
-1.878052575011293
  0
LWPOLYLINE
  5
1281
330
4346
100
AcDbEntity
  8
ADP1DETAIL
100
AcDbPolyline
 90
        2
 70
     0
 43
0.0
 10
2.625
 20
-1.378052575011293
 10
5.868857476928368
 20
-1.378052575011293
  0
LWPOLYLINE
  5
1291
330
4346
100
AcDbEntity
  8
ADP1DETAIL
100
AcDbPolyline
 90
        2
 70
     0
 43
0.0
 10
5.868857476928368
 20
-1.878052575011293
 10
2.625
 20
-1.878052575011293
  0
LWPOLYLINE
  5
1297
330
4346
100
AcDbEntity
  8
ADP1DETAIL
100
AcDbPolyline
 90
        2
 70
     0
 43
0.0
 10
6.900230436165442
 20
-1.378052575011293
 10
10.13019345134894
 20
-1.378052575011293
  0
LWPOLYLINE
  5
12A7
330
4346
100
AcDbEntity
  8
ADP1DETAIL
100
AcDbPolyline
 90
        2
 70
     0
 43
0.0
 10
10.13019345134894
 20
-1.878052575011293
 10
6.900230436165442
 20
-1.878052575011293
  0
LINE
  5
12C7
330
4346
100
AcDbEntity
  8
ADP1DETAIL
100
AcDbLine
 10
5.875
 20
-1.120136359419542
 30
0.0
 11
6.875
 21
-1.120136359419542
 31
0.0
  0
LINE
  5
12CA
330
4346
100
AcDbEntity
  8
ADP1DETAIL
100
AcDbLine
 10
6.875
 20
-2.120136359419542
 30
0.0
 11
5.875
 21
-2.120136359419542
 31
0.0
  0
LINE
  5
12CB
330
4346
100
AcDbEntity
  8
ADP1DETAIL
100
AcDbLine
 10
5.875
 20
-2.120136359419542
 30
0.0
 11
5.875
 21
-1.120136359419542
 31
0.0
  0
LINE
  5
12CC
330
4346
100
AcDbEntity
  8
ADP1DETAIL
100
AcDbLine
 10
6.655999999999998
 20
-1.909052575011292
 30
0.0
 11
6.094000000000001
 21
-1.909052575011292
 31
0.0
  0
LINE
  5
12CD
330
4346
100
AcDbEntity
  8
ADP1DETAIL
100
AcDbLine
 10
6.094000000000001
 20
-1.347052575011292
 30
0.0
 11
6.655999999999998
 21
-1.347052575011292
 31
0.0
  0
LINE
  5
12D2
330
4346
100
AcDbEntity
  8
ADP1DETAIL
100
AcDbLine
 10
6.094000000000001
 20
-1.909052575011292
 30
0.0
 11
6.094000000000001
 21
-1.347052575011292
 31
0.0
  0
LINE
  5
12D7
330
4346
100
AcDbEntity
  8
ADP1DETAIL
100
AcDbLine
 10
6.655999999999998
 20
-1.347052575011292
 30
0.0
 11
6.655999999999998
 21
-1.909052575011292
 31
0.0
  0
LINE
  5
12DC
330
4346
100
AcDbEntity
  8
ADP1DETAIL
100
AcDbLine
 10
6.875
 20
-1.120136359419542
 30
0.0
 11
6.875
 21
-2.120136359419542
 31
0.0
  0
LINE
  5
12DD
330
4346
100
AcDbEntity
  8
ADP1DETAIL
100
AcDbLine
 10
10.12499999999999
 20
-1.120136359419542
 30
0.0
 11
11.125
 21
-1.120136359419542
 31
0.0
  0
LINE
  5
12E0
330
4346
100
AcDbEntity
  8
ADP1DETAIL
100
AcDbLine
 10
11.125
 20
-2.120136359419542
 30
0.0
 11
10.12499999999999
 21
-2.120136359419542
 31
0.0
  0
LINE
  5
12E1
330
4346
100
AcDbEntity
  8
ADP1DETAIL
100
AcDbLine
 10
10.12499999999999
 20
-2.120136359419542
 30
0.0
 11
10.12499999999999
 21
-1.120136359419542
 31
0.0
  0
LINE
  5
12E2
330
4346
100
AcDbEntity
  8
ADP1DETAIL
100
AcDbLine
 10
10.906
 20
-1.909052575011292
 30
0.0
 11
10.344
 21
-1.909052575011292
 31
0.0
  0
LINE
  5
12E3
330
4346
100
AcDbEntity
  8
ADP1DETAIL
100
AcDbLine
 10
10.344
 20
-1.347052575011292
 30
0.0
 11
10.906
 21
-1.347052575011292
 31
0.0
  0
LINE
  5
12E8
330
4346
100
AcDbEntity
  8
ADP1DETAIL
100
AcDbLine
 10
10.344
 20
-1.909052575011292
 30
0.0
 11
10.344
 21
-1.347052575011292
 31
0.0
  0
LINE
  5
12ED
330
4346
100
AcDbEntity
  8
ADP1DETAIL
100
AcDbLine
 10
10.906
 20
-1.347052575011292
 30
0.0
 11
10.906
 21
-1.909052575011292
 31
0.0
  0
LINE
  5
12F2
330
4346
100
AcDbEntity
  8
ADP1DETAIL
100
AcDbLine
 10
11.125
 20
-1.120136359419542
 30
0.0
 11
11.125
 21
-2.120136359419542
 31
0.0
  0
LINE
  5
12F3
330
4346
100
AcDbEntity
  8
ADP1DETAIL
100
AcDbLine
 10
14.375
 20
-1.120136359419542
 30
0.0
 11
15.375
 21
-1.120136359419542
 31
0.0
  0
LINE
  5
12F6
330
4346
100
AcDbEntity
  8
ADP1DETAIL
100
AcDbLine
 10
15.375
 20
-2.120136359419542
 30
0.0
 11
14.375
 21
-2.120136359419542
 31
0.0
  0
LINE
  5
12F7
330
4346
100
AcDbEntity
  8
ADP1DETAIL
100
AcDbLine
 10
14.375
 20
-2.120136359419542
 30
0.0
 11
14.375
 21
-1.120136359419542
 31
0.0
  0
LINE
  5
12F8
330
4346
100
AcDbEntity
  8
ADP1DETAIL
100
AcDbLine
 10
15.156
 20
-1.909052575011292
 30
0.0
 11
14.594
 21
-1.909052575011292
 31
0.0
  0
LINE
  5
12F9
330
4346
100
AcDbEntity
  8
ADP1DETAIL
100
AcDbLine
 10
14.594
 20
-1.347052575011292
 30
0.0
 11
15.156
 21
-1.347052575011292
 31
0.0
  0
LINE
  5
12FE
330
4346
100
AcDbEntity
  8
ADP1DETAIL
100
AcDbLine
 10
14.594
 20
-1.909052575011292
 30
0.0
 11
14.594
 21
-1.347052575011292
 31
0.0
  0
LINE
  5
1303
330
4346
100
AcDbEntity
  8
ADP1DETAIL
100
AcDbLine
 10
15.156
 20
-1.347052575011292
 30
0.0
 11
15.156
 21
-1.909052575011292
 31
0.0
  0
LINE
  5
1308
330
4346
100
AcDbEntity
  8
ADP1DETAIL
100
AcDbLine
 10
15.375
 20
-1.120136359419542
 30
0.0
 11
15.375
 21
-2.120136359419542
 31
0.0
  0
LWPOLYLINE
  5
1309
330
4346
100
AcDbEntity
  8
ADP1DETAIL
100
AcDbPolyline
 90
        2
 70
     0
 43
0.0
 10
11.13019345134894
 20
-1.378052575011293
 10
14.375
 20
-1.378052575011293
  0
LWPOLYLINE
  5
1313
330
4346
100
AcDbEntity
  8
ADP1DETAIL
100
AcDbPolyline
 90
        4
 70
     0
 43
0.0
 10
15.37499999999999
 20
-1.378052575011293
 10
17.0
 20
-1.378052575011293
 10
17.0
 20
-1.878052575011293
 10
15.37499999999999
 20
-1.878052575011293
  0
LWPOLYLINE
  5
1319
330
4346
100
AcDbEntity
  8
ADP1DETAIL
100
AcDbPolyline
 90
        2
 70
     0
 43
0.0
 10
14.375
 20
-1.878052575011293
 10
11.13019345134894
 20
-1.878052575011293
  0
DIMENSION
  5
428B
330
4346
100
AcDbEntity
  8
ADPDIM
100
AcDbDimension
  2
*D10
 10
6.662968223773972
 20
-0.8613650909017938
 30
0.0
 11
7.142968223773973
 21
-0.8613650909017938
 31
0.0
 70
    32
  3
STANDARD
100
AcDbAlignedDimension
 13
6.100968223773973
 23
-0.5000000000000018
 33
0.0
 14
6.662968223773972
 24
-0.5000000000000018
 34
0.0
100
AcDbRotatedDimension
1001
ACAD
1000
DSTYLE
1002
{
1070
   270
1070
     7
1070
   270
1070
     7
1070
   270
1070
     7
1070
   270
1070
     7
1070
   270
1070
     7
1070
    42
1040
0.063
1070
    78
1070
     2
1070
   173
1070
     1
1070
   271
1070
     3
1070
   276
1070
     2
1070
   277
1070
     5
1070
     6
1000
OBLIQUE
1070
     7
1000
OBLIQUE
1002
}
  0
DIMENSION
  5
428C
330
4346
100
AcDbEntity
  8
ADPDIM
100
AcDbDimension
  2
*D9
 10
8.49648046998309
 20
-0.0000000000000031
 30
0.0
 11
6.324784450049115
 21
2.354444135693164
 31
0.0
 70
    36
  3
STANDARD
100
AcDbRadialDimension
 15
7.287969300936221
 25
2.044535584011431
 35
0.0
 40
0.0
1001
ACAD
1000
DSTYLE
1002
{
1070
   270
1070
     7
1070
   270
1070
     7
1070
   270
1070
     7
1070
   270
1070
     7
1070
   270
1070
     7
1070
    42
1040
0.063
1070
    78
1070
     2
1070
   173
1070
     1
1070
   271
1070
     3
1070
   276
1070
     2
1070
   277
1070
     5
1070
     6
1000
OBLIQUE
1070
     7
1000
OBLIQUE
1002
}
  0
DIMENSION
  5
428F
330
4346
100
AcDbEntity
  8
ADPDIM
100
AcDbDimension
  2
*D8
 10
-0.5680874771041866
 20
-0.4375000000000004
 30
0.0
 11
-0.5680874771041865
 21
1.062499999999999
 31
0.0
 70
    32
  3
STANDARD
100
AcDbAlignedDimension
 13
-0.0000000000000009
 23
2.5625
 33
0.0
 14
1.624999999999999
 24
-0.4375000000000009
 34
0.0
 50
90.0
100
AcDbRotatedDimension
1001
ACAD
1000
DSTYLE
1002
{
1070
   270
1070
     7
1070
   270
1070
     7
1070
   270
1070
     7
1070
   270
1070
     7
1070
   270
1070
     7
1070
    42
1040
0.063
1070
    78
1070
     2
1070
   173
1070
     1
1070
   271
1070
     3
1070
   276
1070
     2
1070
   277
1070
     5
1070
     6
1000
OBLIQUE
1070
     7
1000
OBLIQUE
1002
}
  0
DIMENSION
  5
429D
330
4346
100
AcDbEntity
  8
ADPDIM
100
AcDbDimension
  2
*D7
 10
8.49648046998309
 20
-0.0000000000000022
 30
0.0
 11
8.327026547318224
 21
1.146190280001329
 31
0.0
 70
   164
  3
STANDARD
100
AcDbRadialDimension
 15
9.343693430398337
 25
1.672679048623619
 35
0.0
 40
0.0
1001
ACAD
1000
DSTYLE
1002
{
1070
   270
1070
     7
1070
   270
1070
     7
1070
   270
1070
     7
1070
   270
1070
     7
1070
   270
1070
     7
1070
    42
1040
0.063
1070
    78
1070
     2
1070
   173
1070
     1
1070
   271
1070
     3
1070
   276
1070
     2
1070
   277
1070
     5
1070
     6
1000
OBLIQUE
1070
     7
1000
OBLIQUE
1002
}
  0
DIMENSION
  5
42AA
330
4346
100
AcDbEntity
  8
ADPDIM
100
AcDbDimension
  2
*D6
 10
9.654222239595535
 20
-0.5000000000000007
 30
0.0
 11
9.174222239595534
 21
-0.6799999999999992
 31
0.0
 70
    32
  3
STANDARD
100
AcDbAlignedDimension
 13
10.3338838890658
 23
-0.2500000000000018
 33
0.0
 14
10.3338838890658
 24
-0.5000000000000009
 34
0.0
 50
90.0
100
AcDbRotatedDimension
1001
ACAD
1000
DSTYLE
1002
{
1070
   270
1070
     7
1070
   270
1070
     7
1070
   270
1070
     7
1070
   270
1070
     7
1070
   270
1070
     7
1070
    42
1040
0.063
1070
    78
1070
     2
1070
   173
1070
     1
1070
   271
1070
     3
1070
   276
1070
     2
1070
   277
1070
     5
1070
     6
1000
OBLIQUE
1070
     7
1000
OBLIQUE
1002
}
  0
LINE
  5
4305
330
4346
100
AcDbEntity
  8
ADP1DETAIL
100
AcDbLine
 10
18.58558607731406
 20
2.499999999999998
 30
0.0
 11
18.58558607731406
 21
-0.0077370335928388
 31
0.0
  0
LINE
  5
4306
330
4346
100
AcDbEntity
  8
ADP1DETAIL
100
AcDbLine
 10
18.08558607731406
 20
-0.0077370335928388
 30
0.0
 11
18.08558607731406
 21
2.499999999999998
 31
0.0
  0
DIMENSION
  5
4307
330
4346
100
AcDbEntity
  8
ADPDIM
100
AcDbDimension
  2
*D5
 10
18.6194062021587
 20
-0.8381260588050544
 30
0.0
 11
19.0994062021587
 21
-0.8381260588050544
 31
0.0
 70
    32
  3
STANDARD
100
AcDbAlignedDimension
 13
18.0574062021587
 23
-0.5000000000000023
 33
0.0
 14
18.6194062021587
 24
-0.5000000000000023
 34
0.0
100
AcDbRotatedDimension
1001
ACAD
1000
DSTYLE
1002
{
1070
   270
1070
     7
1070
   270
1070
     7
1070
   270
1070
     7
1070
   270
1070
     7
1070
   270
1070
     7
1070
    42
1040
0.063
1070
    78
1070
     2
1070
   173
1070
     1
1070
   271
1070
     3
1070
   276
1070
     2
1070
   277
1070
     5
1070
     6
1000
OBLIQUE
1070
     7
1000
OBLIQUE
1002
}
  0
DIMENSION
  5
4308
330
4346
100
AcDbEntity
  8
ADPDIM
100
AcDbDimension
  2
*D4
 10
18.83558607731406
 20
-1.282556307388114
 30
0.0
 11
18.33558607731406
 21
-1.282556307388114
 31
0.0
 70
    32
  3
STANDARD
100
AcDbAlignedDimension
 13
17.83558607731406
 23
-0.5000000000000023
 33
0.0
 14
18.83558607731406
 24
-0.5000000000000023
 34
0.0
100
AcDbRotatedDimension
1001
ACAD
1000
DSTYLE
1002
{
1070
   270
1070
     7
1070
   270
1070
     7
1070
   270
1070
     7
1070
   270
1070
     7
1070
   270
1070
     7
1070
    42
1040
0.063
1070
    78
1070
     2
1070
   173
1070
     1
1070
   271
1070
     3
1070
   276
1070
     2
1070
   277
1070
     5
1070
     6
1000
OBLIQUE
1070
     7
1000
OBLIQUE
1002
}
  0
LWPOLYLINE
  5
4309
330
4346
100
AcDbEntity
  8
ADP1DETAIL
100
AcDbPolyline
 90
        4
 70
     1
 43
0.0
 10
17.83558607731406
 20
-0.5000000000000023
 10
17.83558607731406
 20
-0.0000000000000031
 10
18.83558607731406
 20
-0.0000000000000031
 10
18.83558607731406
 20
-0.5000000000000023
  0
LINE
  5
430F
330
4346
100
AcDbEntity
  8
ADP2DETAIL
  6
HIDDEN2
100
AcDbLine
 10
18.6194062021587
 20
-0.2500000000000031
 30
0.0
 11
18.6194062021587
 21
-0.5000000000000023
 31
0.0
  0
LINE
  5
4310
330
4346
100
AcDbEntity
  8
ADP2DETAIL
  6
HIDDEN2
100
AcDbLine
 10
18.0574062021587
 20
-0.5000000000000023
 30
0.0
 11
18.0574062021587
 21
-0.2500000000000031
 31
0.0
  0
LINE
  5
4311
330
4346
100
AcDbEntity
  8
ADP2DETAIL
  6
HIDDEN2
100
AcDbLine
 10
18.0574062021587
 20
-0.2500000000000031
 30
0.0
 11
18.6194062021587
 21
-0.2500000000000031
 31
0.0
  0
LINE
  5
4312
330
4346
100
AcDbEntity
  8
ADP2DETAIL
  6
HIDDEN2
100
AcDbLine
 10
18.58558607731406
 20
1.049959065456083
 30
0.0
 11
18.08558607731406
 21
1.049959065456083
 31
0.0
  0
DIMENSION
  5
4313
330
4346
100
AcDbEntity
  8
ADPDIM
100
AcDbDimension
  2
*D3
 10
18.58558607731406
 20
2.785689935539199
 30
0.0
 11
19.06558607731406
 21
2.785689935539199
 31
0.0
 70
    32
  3
STANDARD
100
AcDbAlignedDimension
 13
18.08558607731406
 23
2.499999999999998
 33
0.0
 14
18.58558607731406
 24
2.499999999999998
 34
0.0
100
AcDbRotatedDimension
1001
ACAD
1000
DSTYLE
1002
{
1070
   270
1070
     7
1070
   270
1070
     7
1070
   270
1070
     7
1070
   270
1070
     7
1070
   270
1070
     7
1070
    42
1040
0.063
1070
    78
1070
     2
1070
   173
1070
     1
1070
   271
1070
     3
1070
   276
1070
     2
1070
   277
1070
     5
1070
     6
1000
OBLIQUE
1070
     7
1000
OBLIQUE
1002
}
  0
LINE
  5
4317
330
4346
100
AcDbEntity
  8
ADP1DETAIL
100
AcDbLine
 10
18.58558607731406
 20
1.874999999999995
 30
0.0
 11
18.08558607731406
 21
1.874999999999995
 31
0.0
  0
LINE
  5
4318
330
4346
100
AcDbEntity
  8
ADP2DETAIL
  6
HIDDEN2
100
AcDbLine
 10
18.58558607731406
 20
2.35011931698126
 30
0.0
 11
18.08558607731406
 21
2.35011931698126
 31
0.0
  0
LINE
  5
4319
330
4346
100
AcDbEntity
  8
ADP1DETAIL
100
AcDbLine
 10
18.08558607731406
 20
2.499999999999998
 30
0.0
 11
18.58558607731406
 21
2.499999999999998
 31
0.0
  0
TEXT
  5
456F
330
4346
100
AcDbEntity
  8
ADPDIM
100
AcDbText
 10
-3.537517700626143
 20
-3.916904553002358
 30
0.0
 40
0.25
  1
J U L I U S  B L U M  &  C O . ,  I N C .      ( 8 0 0 )  5 2 6 - 6 2 9 3        W W W . J U L I U S B L U M . C O M        P A R T  N O .  9 7 1
 41
1.25
  7
ARIAL_WIDE
 72
     1
 11
9.380285846440704
 21
-3.666904553002358
 31
0.0
100
AcDbText
 73
     3
  0
ENDSEC
  0
SECTION
  2
OBJECTS
  0
DICTIONARY
  5
433A
330
0
100
AcDbDictionary
  3
ACAD_GROUP
350
433B
  3
ACAD_LAYOUT
350
4566
  3
ACAD_MLINESTYLE
350
433C
  3
ACAD_PLOTSETTINGS
350
4567
  3
ACAD_PLOTSTYLENAME
350
4564
  3
ACDBHEADERROUNDTRIPXREC
350
49DF
  3
ACDBVARIABLEDICTIONARY
350
46B1
  0
DICTIONARY
  5
46AB
330
4346
100
AcDbDictionary
280
     1
  3
ACAD_LAYOUTSELFREF
360
4A74
  0
DICTIONARY
  5
46A9
330
4343
100
AcDbDictionary
280
     1
  3
ACAD_LAYOUTSELFREF
360
4A73
  0
DICTIONARY
  5
433B
102
{ACAD_REACTORS
330
433A
102
}
330
433A
100
AcDbDictionary
  0
DICTIONARY
  5
4566
102
{ACAD_REACTORS
330
433A
102
}
330
433A
100
AcDbDictionary
  0
DICTIONARY
  5
433C
102
{ACAD_REACTORS
330
433A
102
}
330
433A
100
AcDbDictionary
  3
STANDARD
350
4349
  0
DICTIONARY
  5
4567
102
{ACAD_REACTORS
330
433A
102
}
330
433A
100
AcDbDictionary
  0
ACDBDICTIONARYWDFLT
  5
4564
102
{ACAD_REACTORS
330
433A
102
}
330
433A
100
AcDbDictionary
281
     1
  3
Normal
350
4565
100
AcDbDictionaryWithDefault
340
4565
  0
DICTIONARY
  5
49DF
102
{ACAD_REACTORS
330
433A
102
}
330
433A
100
AcDbDictionary
  3
CEPSNTYPE
350
49E9
  3
DIMSTYLEDATA
350
49ED
  3
FINGERPRINTGUID
350
49EA
  3
HYPERLINKBASE
350
49E2
  3
INSUNITS
350
49E8
  3
LAYOUTDICT
350
49E4
  3
LWETCUNION
350
49E7
  3
PLOTSETDICT
350
49E5
  3
PLOTSTYLNAMDICT
350
49E6
  3
PSVPSCALE
350
49EC
  3
PUCSBASE
350
49F0
  3
PUCSORGBACK
350
49F6
  3
PUCSORGBOTTOM
350
49F2
  3
PUCSORGFRONT
350
49F5
  3
PUCSORGLEFT
350
49F3
  3
PUCSORGRIGHT
350
49F4
  3
PUCSORGTOP
350
49F1
  3
PUCSORTHOREF
350
49EE
  3
PUCSORTHOVIEW
350
49EF
  3
STYLESHEET
350
49E3
  3
TSTACKALIGN
350
49E0
  3
TSTACKSIZE
350
49E1
  3
UCSBASE
350
49F9
  3
UCSORGBACK
350
49FF
  3
UCSORGBOTTOM
350
49FB
  3
UCSORGFRONT
350
49FE
  3
UCSORGLEFT
350
49FC
  3
UCSORGRIGHT
350
49FD
  3
UCSORGTOP
350
49FA
  3
UCSORTHOREF
350
49F7
  3
UCSORTHOVIEW
350
49F8
  3
VERSIONGUID
350
49EB
  0
DICTIONARY
  5
46B1
102
{ACAD_REACTORS
330
433A
102
}
330
433A
100
AcDbDictionary
  3
DIMASSOC
350
46B2
  0
XRECORD
  5
4A74
102
{ACAD_REACTORS
330
46AB
102
}
330
46AB
100
AcDbXrecord
340
4346
  0
XRECORD
  5
4A73
102
{ACAD_REACTORS
330
46A9
102
}
330
46A9
100
AcDbXrecord
340
4343
  0
MLINESTYLE
  5
4349
102
{ACAD_REACTORS
330
433C
102
}
330
433C
100
AcDbMlineStyle
  2
STANDARD
 70
     0
  3

 62
     0
 51
90.0
 52
90.0
 71
     2
 49
0.5
 62
   256
  6
BYLAYER
 49
-0.5
 62
   256
  6
BYLAYER
  0
ACDBPLACEHOLDER
  5
4565
102
{ACAD_REACTORS
330
4564
102
}
330
4564
100
AcDbPlaceHolder
280
     0
  0
XRECORD
  5
49E9
102
{ACAD_REACTORS
330
49DF
102
}
330
49DF
100
AcDbXrecord
 90
        0
  0
XRECORD
  5
49ED
102
{ACAD_REACTORS
330
49DF
102
}
330
49DF
100
AcDbXrecord
1000
DSTYLE
1002
{
1070
   276
 70
     2
1070
   277
 70
     5
1070
   341
340
439A
1070
   343
340
439A
1070
   344
340
439A
1002
}
  0
XRECORD
  5
49EA
102
{ACAD_REACTORS
330
49DF
102
}
330
49DF
100
AcDbXrecord
  1
{4084C95C-045F-41F1-9A5F-EB0482F4FE5C}
  0
XRECORD
  5
49E2
102
{ACAD_REACTORS
330
49DF
102
}
330
49DF
100
AcDbXrecord
  1

  0
XRECORD
  5
49E8
102
{ACAD_REACTORS
330
49DF
102
}
330
49DF
100
AcDbXrecord
 90
        0
  0
XRECORD
  5
49E4
102
{ACAD_REACTORS
330
49DF
102
}
330
49DF
100
AcDbXrecord
340
4566
  0
XRECORD
  5
49E7
102
{ACAD_REACTORS
330
49DF
102
}
330
49DF
100
AcDbXrecord
 90
    14877
  0
XRECORD
  5
49E5
102
{ACAD_REACTORS
330
49DF
102
}
330
49DF
100
AcDbXrecord
340
4567
  0
XRECORD
  5
49E6
102
{ACAD_REACTORS
330
49DF
102
}
330
49DF
100
AcDbXrecord
340
4564
  0
XRECORD
  5
49EC
102
{ACAD_REACTORS
330
49DF
102
}
330
49DF
100
AcDbXrecord
 40
0.0
  0
XRECORD
  5
49F0
102
{ACAD_REACTORS
330
49DF
102
}
330
49DF
100
AcDbXrecord
340
0
  0
XRECORD
  5
49F6
102
{ACAD_REACTORS
330
49DF
102
}
330
49DF
100
AcDbXrecord
 10
0.0
 20
0.0
 30
0.0
  0
XRECORD
  5
49F2
102
{ACAD_REACTORS
330
49DF
102
}
330
49DF
100
AcDbXrecord
 10
0.0
 20
0.0
 30
0.0
  0
XRECORD
  5
49F5
102
{ACAD_REACTORS
330
49DF
102
}
330
49DF
100
AcDbXrecord
 10
0.0
 20
0.0
 30
0.0
  0
XRECORD
  5
49F3
102
{ACAD_REACTORS
330
49DF
102
}
330
49DF
100
AcDbXrecord
 10
0.0
 20
0.0
 30
0.0
  0
XRECORD
  5
49F4
102
{ACAD_REACTORS
330
49DF
102
}
330
49DF
100
AcDbXrecord
 10
0.0
 20
0.0
 30
0.0
  0
XRECORD
  5
49F1
102
{ACAD_REACTORS
330
49DF
102
}
330
49DF
100
AcDbXrecord
 10
0.0
 20
0.0
 30
0.0
  0
XRECORD
  5
49EE
102
{ACAD_REACTORS
330
49DF
102
}
330
49DF
100
AcDbXrecord
340
0
  0
XRECORD
  5
49EF
102
{ACAD_REACTORS
330
49DF
102
}
330
49DF
100
AcDbXrecord
 70
     0
  0
XRECORD
  5
49E3
102
{ACAD_REACTORS
330
49DF
102
}
330
49DF
100
AcDbXrecord
  1

  0
XRECORD
  5
49E0
102
{ACAD_REACTORS
330
49DF
102
}
330
49DF
100
AcDbXrecord
 90
        1
  0
XRECORD
  5
49E1
102
{ACAD_REACTORS
330
49DF
102
}
330
49DF
100
AcDbXrecord
 90
       70
  0
XRECORD
  5
49F9
102
{ACAD_REACTORS
330
49DF
102
}
330
49DF
100
AcDbXrecord
340
0
  0
XRECORD
  5
49FF
102
{ACAD_REACTORS
330
49DF
102
}
330
49DF
100
AcDbXrecord
 10
0.0
 20
0.0
 30
0.0
  0
XRECORD
  5
49FB
102
{ACAD_REACTORS
330
49DF
102
}
330
49DF
100
AcDbXrecord
 10
0.0
 20
0.0
 30
0.0
  0
XRECORD
  5
49FE
102
{ACAD_REACTORS
330
49DF
102
}
330
49DF
100
AcDbXrecord
 10
0.0
 20
0.0
 30
0.0
  0
XRECORD
  5
49FC
102
{ACAD_REACTORS
330
49DF
102
}
330
49DF
100
AcDbXrecord
 10
0.0
 20
0.0
 30
0.0
  0
XRECORD
  5
49FD
102
{ACAD_REACTORS
330
49DF
102
}
330
49DF
100
AcDbXrecord
 10
0.0
 20
0.0
 30
0.0
  0
XRECORD
  5
49FA
102
{ACAD_REACTORS
330
49DF
102
}
330
49DF
100
AcDbXrecord
 10
0.0
 20
0.0
 30
0.0
  0
XRECORD
  5
49F7
102
{ACAD_REACTORS
330
49DF
102
}
330
49DF
100
AcDbXrecord
340
0
  0
XRECORD
  5
49F8
102
{ACAD_REACTORS
330
49DF
102
}
330
49DF
100
AcDbXrecord
 70
     0
  0
XRECORD
  5
49EB
102
{ACAD_REACTORS
330
49DF
102
}
330
49DF
100
AcDbXrecord
  1
{5669C71B-C408-4B62-8661-86F840CF8A5E}
  0
DICTIONARYVAR
  5
46B2
102
{ACAD_REACTORS
330
46B1
102
}
330
46B1
100
DictionaryVariables
280
     0
  1
1
  0
ENDSEC
  0
EOF
