  0
SECTION
  2
HEADER
  9
$ACADVER
  1
AC1014
  9
$ACADMAINTVER
 70
     9
  9
$DWGCODEPAGE
  3
ANSI_1252
  9
$INSBASE
 10
-71.17345529638999
 20
8.313166155726042
 30
0.0
  9
$EXTMIN
 10
-82.14228792355427
 20
7.234006591718262
 30
0.0
  9
$EXTMAX
 10
-62.83816531100312
 20
14.18725602216609
 30
0.0
  9
$LIMMIN
 10
0.0
 20
0.0
  9
$LIMMAX
 10
36.0
 20
36.0
  9
$ORTHOMODE
 70
     1
  9
$REGENMODE
 70
     1
  9
$FILLMODE
 70
     1
  9
$QTEXTMODE
 70
     0
  9
$MIRRTEXT
 70
     1
  9
$DRAGMODE
 70
     0
  9
$LTSCALE
 40
1.0
  9
$OSMODE
 70
    37
  9
$ATTMODE
 70
     1
  9
$TEXTSIZE
 40
0.2
  9
$TRACEWID
 40
0.05
  9
$TEXTSTYLE
  7
STANDARD
  9
$CLAYER
  8
ADPDIM
  9
$CELTYPE
  6
BYLAYER
  9
$CECOLOR
 62
   256
  9
$CELTSCALE
 40
1.0
  9
$DELOBJ
 70
     1
  9
$DISPSILH
 70
     0
  9
$DIMSCALE
 40
1.0
  9
$DIMASZ
 40
0.125
  9
$DIMEXO
 40
0.0625
  9
$DIMDLI
 40
0.38
  9
$DIMRND
 40
0.0
  9
$DIMDLE
 40
0.0
  9
$DIMEXE
 40
0.18
  9
$DIMTP
 40
0.0
  9
$DIMTM
 40
0.0
  9
$DIMTXT
 40
0.125
  9
$DIMCEN
 40
0.1875
  9
$DIMTSZ
 40
0.125
  9
$DIMTOL
 70
     0
  9
$DIMLIM
 70
     0
  9
$DIMTIH
 70
     0
  9
$DIMTOH
 70
     0
  9
$DIMSE1
 70
     0
  9
$DIMSE2
 70
     0
  9
$DIMTAD
 70
     0
  9
$DIMZIN
 70
     3
  9
$DIMBLK
  1

  9
$DIMASO
 70
     1
  9
$DIMSHO
 70
     1
  9
$DIMPOST
  1

  9
$DIMAPOST
  1

  9
$DIMALT
 70
     0
  9
$DIMALTD
 70
     1
  9
$DIMALTF
 40
25.4
  9
$DIMLFAC
 40
1.0
  9
$DIMTOFL
 70
     0
  9
$DIMTVP
 40
0.0
  9
$DIMTIX
 70
     0
  9
$DIMSOXD
 70
     0
  9
$DIMSAH
 70
     0
  9
$DIMBLK1
  1

  9
$DIMBLK2
  1

  9
$DIMSTYLE
  2
STANDARD
  9
$DIMCLRD
 70
     0
  9
$DIMCLRE
 70
     0
  9
$DIMCLRT
 70
     0
  9
$DIMTFAC
 40
1.0
  9
$DIMGAP
 40
0.125
  9
$DIMJUST
 70
     0
  9
$DIMSD1
 70
     0
  9
$DIMSD2
 70
     0
  9
$DIMTOLJ
 70
     1
  9
$DIMTZIN
 70
     0
  9
$DIMALTZ
 70
     0
  9
$DIMALTTZ
 70
     0
  9
$DIMFIT
 70
     3
  9
$DIMUPT
 70
     0
  9
$DIMUNIT
 70
     2
  9
$DIMDEC
 70
     4
  9
$DIMTDEC
 70
     4
  9
$DIMALTU
 70
     2
  9
$DIMALTTD
 70
     2
  9
$DIMTXSTY
  7
STANDARD
  9
$DIMAUNIT
 70
     0
  9
$LUNITS
 70
     5
  9
$LUPREC
 70
     5
  9
$SKETCHINC
 40
0.1
  9
$FILLETRAD
 40
0.062
  9
$AUNITS
 70
     0
  9
$AUPREC
 70
     0
  9
$MENU
  1
acad
  9
$ELEVATION
 40
0.0
  9
$PELEVATION
 40
0.0
  9
$THICKNESS
 40
0.0
  9
$LIMCHECK
 70
     0
  9
$BLIPMODE
 70
     0
  9
$CHAMFERA
 40
0.0
  9
$CHAMFERB
 40
0.0
  9
$CHAMFERC
 40
0.0
  9
$CHAMFERD
 40
0.0
  9
$SKPOLY
 70
     0
  9
$TDCREATE
 40
2450409.658723379
  9
$TDUPDATE
 40
2452297.078640046
  9
$TDINDWG
 40
0.0429892593
  9
$TDUSRTIMER
 40
0.0429892593
  9
$USRTIMER
 70
     1
  9
$ANGBASE
 50
0.0
  9
$ANGDIR
 70
     0
  9
$PDMODE
 70
     0
  9
$PDSIZE
 40
0.0
  9
$PLINEWID
 40
0.0
  9
$COORDS
 70
     2
  9
$SPLFRAME
 70
     0
  9
$SPLINETYPE
 70
     6
  9
$SPLINESEGS
 70
     8
  9
$ATTDIA
 70
     0
  9
$ATTREQ
 70
     1
  9
$HANDLING
 70
 22529
  9
$HANDSEED
  5
322
  9
$SURFTAB1
 70
     6
  9
$SURFTAB2
 70
     6
  9
$SURFTYPE
 70
     6
  9
$SURFU
 70
     6
  9
$SURFV
 70
     6
  9
$UCSNAME
  2

  9
$UCSORG
 10
0.0
 20
0.0
 30
0.0
  9
$UCSXDIR
 10
1.0
 20
0.0
 30
0.0
  9
$UCSYDIR
 10
0.0
 20
1.0
 30
0.0
  9
$PUCSNAME
  2

  9
$PUCSORG
 10
0.0
 20
0.0
 30
0.0
  9
$PUCSXDIR
 10
1.0
 20
0.0
 30
0.0
  9
$PUCSYDIR
 10
0.0
 20
1.0
 30
0.0
  9
$USERI1
 70
     0
  9
$USERI2
 70
     0
  9
$USERI3
 70
     0
  9
$USERI4
 70
     0
  9
$USERI5
 70
     0
  9
$USERR1
 40
0.0
  9
$USERR2
 40
0.0
  9
$USERR3
 40
0.0
  9
$USERR4
 40
0.0
  9
$USERR5
 40
0.0
  9
$WORLDVIEW
 70
     1
  9
$SHADEDGE
 70
     3
  9
$SHADEDIF
 70
    70
  9
$TILEMODE
 70
     1
  9
$MAXACTVP
 70
    15
  9
$PINSBASE
 10
0.0009765857830644
 20
1.500170956078392
 30
0.0
  9
$PLIMCHECK
 70
     0
  9
$PEXTMIN
 10
1.000000000000000E+20
 20
1.000000000000000E+20
 30
1.000000000000000E+20
  9
$PEXTMAX
 10
-1.000000000000000E+20
 20
-1.000000000000000E+20
 30
-1.000000000000000E+20
  9
$PLIMMIN
 10
0.0
 20
0.0
  9
$PLIMMAX
 10
12.0
 20
9.0
  9
$UNITMODE
 70
     0
  9
$VISRETAIN
 70
     0
  9
$PLINEGEN
 70
     0
  9
$PSLTSCALE
 70
     1
  9
$TREEDEPTH
 70
  3020
  9
$PICKSTYLE
 70
     1
  9
$CMLSTYLE
  2
STANDARD
  9
$CMLJUST
 70
     0
  9
$CMLSCALE
 40
1.0
  9
$PROXYGRAPHICS
 70
     1
  9
$MEASUREMENT
 70
     0
  0
ENDSEC
  0
SECTION
  2
CLASSES
  0
CLASS
  1
ACDBDICTIONARYWDFLT
  2
AcDbDictionaryWithDefault
  3
AutoCAD 2000
 90
        0
280
     0
281
     0
  0
CLASS
  1
ACDBPLACEHOLDER
  2
AcDbPlaceHolder
  3
AutoCAD 2000
 90
        0
280
     0
281
     0
  0
CLASS
  1
LAYOUT
  2
AcDbLayout
  3
AutoCAD 2000
 90
        0
280
     0
281
     0
  0
CLASS
  1
DICTIONARYVAR
  2
AcDbDictionaryVar
  3
AutoCAD 2000
 90
        0
280
     0
281
     0
  0
CLASS
  1
LONG_TRANSACTION
  2
AcDbLongTransaction
  3
AutoCAD 2000
 90
        0
280
     0
281
     0
  0
CLASS
  1
LWPOLYLINE
  2
AcDbPolyline
  3
AutoCAD 2000
 90
        0
280
     0
281
     1
  0
CLASS
  1
HATCH
  2
AcDbHatch
  3
AutoCAD 2000
 90
        0
280
     0
281
     1
  0
CLASS
  1
XRECORD
  2
AcDbXrecord
  3
AutoCAD 2000
 90
        0
280
     0
281
     0
  0
CLASS
  1
LONG_TRANSACTION
  2
AcDbLongTransaction
  3
AutoCAD 2000
 90
        0
280
     0
281
     0
  0
CLASS
  1
LWPOLYLINE
  2
AcDbPolyline
  3
AutoCAD 2000
 90
        0
280
     0
281
     1
  0
CLASS
  1
HATCH
  2
AcDbHatch
  3
AutoCAD 2000
 90
        0
280
     0
281
     1
  0
CLASS
  1
XRECORD
  2
AcDbXrecord
  3
AutoCAD 2000
 90
        0
280
     0
281
     0
  0
CLASS
  1
LONG_TRANSACTION
  2
AcDbLongTransaction
  3
AutoCAD 2000
 90
        0
280
     0
281
     0
  0
CLASS
  1
LWPOLYLINE
  2
AcDbPolyline
  3
AutoCAD 2000
 90
        0
280
     0
281
     1
  0
CLASS
  1
HATCH
  2
AcDbHatch
  3
AutoCAD 2000
 90
        0
280
     0
281
     1
  0
CLASS
  1
XRECORD
  2
AcDbXrecord
  3
AutoCAD 2000
 90
        0
280
     0
281
     0
  0
CLASS
  1
LONG_TRANSACTION
  2
AcDbLongTransaction
  3
AutoCAD 2000
 90
        0
280
     0
281
     0
  0
CLASS
  1
LWPOLYLINE
  2
AcDbPolyline
  3
AutoCAD 2000
 90
        0
280
     0
281
     1
  0
CLASS
  1
HATCH
  2
AcDbHatch
  3
AutoCAD 2000
 90
        0
280
     0
281
     1
  0
CLASS
  1
XRECORD
  2
AcDbXrecord
  3
AutoCAD 2000
 90
        0
280
     0
281
     0
  0
CLASS
  1
LONG_TRANSACTION
  2
AcDbLongTransaction
  3
AutoCAD 2000
 90
        0
280
     0
281
     0
  0
CLASS
  1
LWPOLYLINE
  2
AcDbPolyline
  3
AutoCAD 2000
 90
        0
280
     0
281
     1
  0
CLASS
  1
HATCH
  2
AcDbHatch
  3
AutoCAD 2000
 90
        0
280
     0
281
     1
  0
CLASS
  1
XRECORD
  2
AcDbXrecord
  3
AutoCAD 2000
 90
        0
280
     0
281
     0
  0
ENDSEC
  0
SECTION
  2
TABLES
  0
TABLE
  2
VPORT
  5
8
330
0
100
AcDbSymbolTable
 70
     2
  0
VPORT
  5
2FF
330
8
100
AcDbSymbolTableRecord
100
AcDbViewportTableRecord
  2
*ACTIVE
 70
     0
 10
0.0
 20
0.0
 11
1.0
 21
1.0
 12
-72.4729997715506
 22
10.71057136439552
 13
0.0
 23
0.0
 14
0.5740882589684922
 24
0.5740882589684922
 15
0.5
 25
0.5
 16
0.0
 26
0.0
 36
1.0
 17
0.0
 27
0.0
 37
0.0
 40
12.37818398698206
 41
1.570528967254408
 42
50.0
 43
0.0
 44
0.0
 50
0.0
 51
0.0
 71
     0
 72
   100
 73
     1
 74
     0
 75
     0
 76
     0
 77
     0
 78
     0
  0
ENDTAB
  0
TABLE
  2
LTYPE
  5
5
330
0
100
AcDbSymbolTable
 70
     1
  0
LTYPE
  5
12
330
5
100
AcDbSymbolTableRecord
100
AcDbLinetypeTableRecord
  2
BYBLOCK
 70
     0
  3

 72
    65
 73
     0
 40
0.0
  0
LTYPE
  5
13
330
5
100
AcDbSymbolTableRecord
100
AcDbLinetypeTableRecord
  2
BYLAYER
 70
     0
  3

 72
    65
 73
     0
 40
0.0
  0
LTYPE
  5
14
330
5
100
AcDbSymbolTableRecord
100
AcDbLinetypeTableRecord
  2
CONTINUOUS
 70
     0
  3
Solid line
 72
    65
 73
     0
 40
0.0
  0
ENDTAB
  0
TABLE
  2
LAYER
  5
2
330
0
100
AcDbSymbolTable
 70
     3
  0
LAYER
  5
F
330
2
100
AcDbSymbolTableRecord
100
AcDbLayerTableRecord
  2
0
 70
     0
 62
     7
  6
CONTINUOUS
  0
LAYER
  5
E4
330
2
100
AcDbSymbolTableRecord
100
AcDbLayerTableRecord
  2
DEFPOINTS
 70
     0
 62
     7
  6
CONTINUOUS
  0
LAYER
  5
E7
330
2
100
AcDbSymbolTableRecord
100
AcDbLayerTableRecord
  2
ADPDIM
 70
     0
 62
     3
  6
CONTINUOUS
  0
ENDTAB
  0
TABLE
  2
STYLE
  5
3
330
0
100
AcDbSymbolTable
 70
     2
  0
STYLE
  5
10
330
3
100
AcDbSymbolTableRecord
100
AcDbTextStyleTableRecord
  2
STANDARD
 70
     0
 40
0.0
 41
1.0
 50
0.0
 71
     0
 42
0.2
  3
txt
  4

  0
STYLE
  5
1BB
330
3
100
AcDbSymbolTableRecord
100
AcDbTextStyleTableRecord
  2
ARIAL_WIDE
 70
     0
 40
0.0
 41
1.25
 50
0.0
 71
     0
 42
0.2
  3
ARIAL.TTF
  4

1001
ACAD
1000
Arial
1071
       34
  0
ENDTAB
  0
TABLE
  2
VIEW
  5
6
330
0
100
AcDbSymbolTable
 70
     0
  0
ENDTAB
  0
TABLE
  2
UCS
  5
7
330
0
100
AcDbSymbolTable
 70
     0
  0
ENDTAB
  0
TABLE
  2
APPID
  5
9
330
0
100
AcDbSymbolTable
 70
     1
  0
APPID
  5
11
330
9
100
AcDbSymbolTableRecord
100
AcDbRegAppTableRecord
  2
ACAD
 70
     0
  0
ENDTAB
  0
TABLE
  2
DIMSTYLE
  5
A
330
0
100
AcDbSymbolTable
 70
     1
  0
DIMSTYLE
105
1AF
330
A
100
AcDbSymbolTableRecord
100
AcDbDimStyleTableRecord
  2
STANDARD
 70
     0
  3

  4

  5

  6

  7

 40
1.0
 41
0.18
 42
0.0625
 43
0.38
 44
0.18
 45
0.0
 46
0.0
 47
0.0
 48
0.0
140
0.18
141
0.09
142
0.0
143
25.4
144
1.0
145
0.0
146
1.0
147
0.09
 71
     0
 72
     0
 73
     1
 74
     1
 75
     0
 76
     0
 77
     0
 78
     0
170
     0
171
     2
172
     0
173
     0
174
     0
175
     0
176
     0
177
     0
178
     0
270
     2
271
     4
272
     4
273
     2
274
     2
340
10
275
     0
280
     0
281
     0
282
     0
283
     1
284
     0
285
     0
286
     0
287
     3
288
     0
  0
ENDTAB
  0
TABLE
  2
BLOCK_RECORD
  5
1
330
0
100
AcDbSymbolTable
 70
     2
  0
BLOCK_RECORD
  5
18
102
{ACAD_XDICTIONARY
360
210
102
}
330
1
100
AcDbSymbolTableRecord
100
AcDbBlockTableRecord
  2
*MODEL_SPACE
  0
BLOCK_RECORD
  5
15
102
{ACAD_XDICTIONARY
360
20E
102
}
330
1
100
AcDbSymbolTableRecord
100
AcDbBlockTableRecord
  2
*PAPER_SPACE
  0
BLOCK_RECORD
  5
D9
330
1
100
AcDbSymbolTableRecord
100
AcDbBlockTableRecord
  2
*D0
  0
BLOCK_RECORD
  5
DF
330
1
100
AcDbSymbolTableRecord
100
AcDbBlockTableRecord
  2
*D1
  0
ENDTAB
  0
ENDSEC
  0
SECTION
  2
BLOCKS
  0
BLOCK
  5
EA
330
18
100
AcDbEntity
  8
0
100
AcDbBlockBegin
  2
*MODEL_SPACE
 70
     0
 10
0.0
 20
0.0
 30
0.0
  3
*MODEL_SPACE
  1

  0
ENDBLK
  5
EB
330
18
100
AcDbEntity
  8
0
100
AcDbBlockEnd
  0
BLOCK
  5
E8
330
15
100
AcDbEntity
 67
     1
  8
0
100
AcDbBlockBegin
  2
*PAPER_SPACE
 70
     0
 10
0.0
 20
0.0
 30
0.0
  3
*PAPER_SPACE
  1

  0
ENDBLK
  5
E9
330
15
100
AcDbEntity
 67
     1
  8
0
100
AcDbBlockEnd
  0
BLOCK
  5
ED
330
D9
100
AcDbEntity
  8
0
100
AcDbBlockBegin
  2
*D0
 70
     1
 10
0.0
 20
0.0
 30
0.0
  3
*D0
  1

  0
LINE
  5
EE
330
D9
100
AcDbEntity
  8
0
  6
BYBLOCK
 62
     0
100
AcDbLine
 10
-94.62207377084453
 20
15.90067920303324
 30
0.0
 11
-94.62207377084453
 21
16.90589934853445
 31
0.0
  0
LINE
  5
EF
330
D9
100
AcDbEntity
  8
0
  6
BYBLOCK
 62
     0
100
AcDbLine
 10
-89.37207377084453
 20
15.90067920303324
 30
0.0
 11
-89.37207377084453
 21
16.90589934853445
 31
0.0
  0
LINE
  5
F0
330
D9
100
AcDbEntity
  8
0
  6
BYBLOCK
 62
     0
100
AcDbLine
 10
-94.62207377084453
 20
16.72589934853445
 30
0.0
 11
-92.39290710417787
 21
16.72589934853445
 31
0.0
  0
LINE
  5
F1
330
D9
100
AcDbEntity
  8
0
  6
BYBLOCK
 62
     0
100
AcDbLine
 10
-89.37207377084453
 20
16.72589934853445
 30
0.0
 11
-91.60124043751121
 21
16.72589934853445
 31
0.0
  0
LINE
  5
F2
330
D9
100
AcDbEntity
  8
0
  6
BYBLOCK
 62
     0
100
AcDbLine
 10
-94.74707377084454
 20
16.60089934853445
 30
0.0
 11
-94.49707377084454
 21
16.85089934853445
 31
0.0
  0
LINE
  5
F3
330
D9
100
AcDbEntity
  8
0
  6
BYBLOCK
 62
     0
100
AcDbLine
 10
-89.49707377084454
 20
16.60089934853445
 30
0.0
 11
-89.24707377084454
 21
16.85089934853445
 31
0.0
  0
TEXT
  5
F4
330
D9
100
AcDbEntity
  8
0
  6
BYBLOCK
 62
     0
100
AcDbText
 10
-92.26790710417786
 20
16.66339934853445
 30
0.0
 40
0.125
  1
5 1/4
 72
     1
 11
-91.99707377084454
 21
16.72589934853445
 31
0.0
100
AcDbText
 73
     2
  0
POINT
  5
F5
330
D9
100
AcDbEntity
  8
DEFPOINTS
  6
BYBLOCK
 62
     0
100
AcDbPoint
 10
-94.62207377084453
 20
15.83817920303324
 30
0.0
  0
POINT
  5
F6
330
D9
100
AcDbEntity
  8
DEFPOINTS
  6
BYBLOCK
 62
     0
100
AcDbPoint
 10
-89.37207377084453
 20
15.83817920303324
 30
0.0
  0
POINT
  5
F7
330
D9
100
AcDbEntity
  8
DEFPOINTS
  6
BYBLOCK
 62
     0
100
AcDbPoint
 10
-89.37207377084453
 20
16.72589934853445
 30
0.0
  0
ENDBLK
  5
F8
330
D9
100
AcDbEntity
  8
0
100
AcDbBlockEnd
  0
BLOCK
  5
F9
330
DF
100
AcDbEntity
  8
0
100
AcDbBlockBegin
  2
*D1
 70
     1
 10
0.0
 20
0.0
 30
0.0
  3
*D1
  1

  0
LINE
  5
FA
330
DF
100
AcDbEntity
  8
0
  6
BYBLOCK
 62
     0
100
AcDbLine
 10
-100.1232178895645
 20
8.240502436587185
 30
0.0
 11
-101.9056089612723
 21
8.240502436587187
 31
0.0
  0
LINE
  5
FB
330
DF
100
AcDbEntity
  8
0
  6
BYBLOCK
 62
     0
100
AcDbLine
 10
-99.90123243776629
 20
13.74050243658718
 30
0.0
 11
-101.9056089612723
 21
13.74050243658718
 31
0.0
  0
LINE
  5
FC
330
DF
100
AcDbEntity
  8
0
  6
BYBLOCK
 62
     0
100
AcDbLine
 10
-101.7256089612723
 20
8.240502436587187
 30
0.0
 11
-101.7256089612723
 21
10.59466910325385
 31
0.0
  0
LINE
  5
FD
330
DF
100
AcDbEntity
  8
0
  6
BYBLOCK
 62
     0
100
AcDbLine
 10
-101.7256089612723
 20
13.74050243658718
 30
0.0
 11
-101.7256089612723
 21
11.38633576992052
 31
0.0
  0
LINE
  5
FE
330
DF
100
AcDbEntity
  8
0
  6
BYBLOCK
 62
     0
100
AcDbLine
 10
-101.6006089612723
 20
8.115502436587187
 30
0.0
 11
-101.8506089612723
 21
8.365502436587187
 31
0.0
  0
LINE
  5
FF
330
DF
100
AcDbEntity
  8
0
  6
BYBLOCK
 62
     0
100
AcDbLine
 10
-101.6006089612723
 20
13.61550243658718
 30
0.0
 11
-101.8506089612723
 21
13.86550243658718
 31
0.0
  0
TEXT
  5
100
330
DF
100
AcDbEntity
  8
0
  6
BYBLOCK
 62
     0
100
AcDbText
 10
-101.6631089612723
 20
10.71966910325385
 30
0.0
 40
0.125
  1
5 1/2
 50
90.0
 72
     1
 11
-101.7256089612723
 21
10.99050243658718
 31
0.0
100
AcDbText
 73
     2
  0
POINT
  5
101
330
DF
100
AcDbEntity
  8
DEFPOINTS
  6
BYBLOCK
 62
     0
100
AcDbPoint
 10
-100.0607178895644
 20
8.240502436587185
 30
0.0
  0
POINT
  5
102
330
DF
100
AcDbEntity
  8
DEFPOINTS
  6
BYBLOCK
 62
     0
100
AcDbPoint
 10
-99.83873243776629
 20
13.74050243658718
 30
0.0
  0
POINT
  5
103
330
DF
100
AcDbEntity
  8
DEFPOINTS
  6
BYBLOCK
 62
     0
100
AcDbPoint
 10
-101.7256089612723
 20
13.74050243658718
 30
0.0
  0
ENDBLK
  5
104
330
DF
100
AcDbEntity
  8
0
100
AcDbBlockEnd
  0
ENDSEC
  0
SECTION
  2
ENTITIES
  0
DIMENSION
  5
105
330
18
100
AcDbEntity
  8
ADPDIM
100
AcDbDimension
  2
*D0
 10
-69.85681366878307
 20
14.00725602216609
 30
0.0
 11
-72.48181366878307
 21
14.00725602216609
 31
0.0
 12
19.51526010206146
 22
-2.71864332636836
 32
0.0
100
AcDbAlignedDimension
 13
-75.10681366878308
 23
13.11953587666488
 33
0.0
 14
-69.85681366878307
 24
13.11953587666488
 34
0.0
100
AcDbRotatedDimension
  0
LWPOLYLINE
  5
106
330
18
100
AcDbEntity
  8
0
100
AcDbPolyline
 90
        7
 70
     0
 43
0.0
 10
-71.86689592345256
 20
9.780546144065748
 42
-0.0838935299015127
 10
-71.75210822695079
 20
10.05710231428563
 42
-0.4534600304610074
 10
-70.98933854977556
 20
10.42516926146627
 42
-0.0663518606904602
 10
-70.53343019430617
 20
10.24113578787595
 42
0.6847618230816166
 10
-70.19149892770411
 20
10.4514597462963
 42
0.4051616189120851
 10
-70.4019181329907
 20
10.76694572381687
 42
0.0960673267712159
 10
-71.2348275839357
 20
10.85458069984368
 42
23.04906154541666
  0
LWPOLYLINE
  5
10F
330
18
100
AcDbEntity
  8
0
100
AcDbPolyline
 90
        4
 70
     0
 43
0.0
 10
-72.10280686375421
 20
9.776670343131812
 42
-0.3960096143423338
 10
-70.77891922846629
 20
10.66178370471666
 42
-0.1514097101655369
 10
-70.33177835922095
 20
10.50404071595637
 42
-0.7808623055536821
 10
-70.54219768053022
 20
10.24113578787595
 42
-4.578283875477404
  0
LWPOLYLINE
  5
115
330
18
100
AcDbEntity
  8
0
100
AcDbPolyline
 90
        8
 70
     0
 43
0.0
 10
-72.22975055823927
 20
9.252546144065748
 42
0.2685152792243219
 10
-71.17345529638999
 20
8.313166155726042
 42
0.3498742016808082
 10
-69.90217246242372
 20
9.312204978167736
 42
0.343230433725822
 10
-70.02491703751511
 20
9.759143379838477
 42
0.4788231311828289
 10
-70.44575544808829
 20
9.452420923854615
 42
-0.0735743756588763
 10
-70.55096505073159
 20
8.944138030987101
 42
-0.2937598276990163
 10
-71.12085049506834
 20
8.689996544663308
 42
-0.2697643293288567
 10
-71.8282881521729
 20
9.252546144065748
 42
-0.4534600304610074
  0
LWPOLYLINE
  5
11F
330
18
100
AcDbEntity
  8
0
100
AcDbPolyline
 90
        6
 70
     0
 43
0.0
 10
-70.83152402978794
 20
8.348220082312709
 42
0.2250307842130973
 10
-70.04245200996322
 20
9.338495462997771
 42
1.280635999185901
 10
-70.35808081789311
 20
9.443657402317914
 42
-0.040789730299561
 10
-70.5246627080821
 20
8.83897601188689
 42
-0.3211590781609279
 10
-71.19975775506215
 20
8.549780598976431
 42
-0.3150910189375095
 10
-71.93622497356521
 20
9.250860486970964
 42
-1.222453057144062
  0
LWPOLYLINE
  5
127
330
18
100
AcDbEntity
  8
0
100
AcDbPolyline
 90
        6
 70
     0
 43
0.0
 10
-71.86887406953551
 20
12.99675009134788
 42
-0.0174232974965163
 10
-71.84855034337002
 20
13.02792829678068
 42
-0.5706366512010922
 10
-70.41068561921476
 20
12.800077375067
 42
-0.1831481967426281
 10
-70.56850002317969
 20
11.95878154138558
 42
-0.0045312577143356
 10
-71.86608531581814
 20
10.7143647541568
 42
0.1888318352458117
 10
-72.29848035587787
 20
9.780546144065748
 42
0.3498742016808082
  0
LWPOLYLINE
  5
12F
330
18
100
AcDbEntity
  8
0
100
AcDbPolyline
 90
        6
 70
     0
 43
0.0
 10
-72.09403937753015
 20
9.776670343131812
 42
-0.1379449666000224
 10
-71.79594554204839
 20
10.47775023112634
 42
-0.0091685848061252
 10
-70.36684830411717
 20
11.89743705018881
 42
0.2394988918138892
 10
-70.25287121524981
 20
13.05421886139079
 42
0.3939416178090191
 10
-71.91869011713979
 20
13.27330626156777
 42
0.097825576440512
 10
-72.08281067896175
 20
12.99675009134788
 42
0.3709947186684077
  0
LWPOLYLINE
  5
137
330
18
100
AcDbEntity
  8
0
100
AcDbPolyline
 90
        5
 70
     0
 43
0.0
 10
-71.22606009771164
 20
10.85458069984368
 42
0.0071763373232167
 10
-70.37561579034122
 20
11.59071459420495
 42
0.3678155189523382
 10
-70.20903390015222
 20
13.25577929827444
 42
0.3524784980627506
 10
-71.74334074072674
 20
13.571265275795
 42
0.2053138403900583
 10
-72.26823773954516
 20
12.99675009134788
 42
0.0973809501149847
  0
DIMENSION
  5
13E
330
18
100
AcDbEntity
  8
ADPDIM
100
AcDbDimension
  2
*D1
 10
-75.65428951984578
 20
13.74050243658718
 30
0.0
 11
-75.65428951984578
 21
10.99050243658718
 31
0.0
 12
26.07131944142654
 22
0.0
 32
0.0
100
AcDbAlignedDimension
 13
-73.98939844813796
 23
8.240502436587185
 33
0.0
 14
-73.76741299633976
 24
13.74050243658718
 34
0.0
 50
90.0
100
AcDbRotatedDimension
  0
LWPOLYLINE
  5
13F
330
18
100
AcDbEntity
  8
0
100
AcDbPolyline
 90
        6
 70
     0
 43
0.0
 10
-73.06753055438736
 20
12.99675009134788
 42
0.0174232974965163
 10
-73.08785428055284
 20
13.02792829678068
 42
0.5706366512010922
 10
-74.52571900470811
 20
12.800077375067
 42
0.1831481967426281
 10
-74.36790460074317
 20
11.95878154138558
 42
0.0045312577143356
 10
-73.07031930810473
 20
10.7143647541568
 42
-0.1888318352458117
 10
-72.63792426804499
 20
9.780546144065748
 42
-0.3498742016808082
  0
LWPOLYLINE
  5
147
330
18
100
AcDbEntity
  8
0
100
AcDbPolyline
 90
        5
 70
     0
 43
0.0
 10
-73.71034452621123
 20
10.85458069984368
 42
-0.0071763373232167
 10
-74.56078883358165
 20
11.59071459420495
 42
-0.3678155189523382
 10
-74.72737072377064
 20
13.25577929827444
 42
-0.3524784980627506
 10
-73.19306388319613
 20
13.571265275795
 42
-0.2053138403900583
 10
-72.66816688437771
 20
12.99675009134788
 42
-0.0973809501149847
  0
LWPOLYLINE
  5
14E
330
18
100
AcDbEntity
  8
0
100
AcDbPolyline
 90
        6
 70
     0
 43
0.0
 10
-72.84236524639272
 20
9.776670343131812
 42
0.1379449666000224
 10
-73.14045908187448
 20
10.47775023112634
 42
0.0091685848061252
 10
-74.56955631980569
 20
11.89743705018881
 42
-0.2394988918138892
 10
-74.68353340867306
 20
13.05421886139079
 42
-0.3939416178090191
 10
-73.01771450678308
 20
13.27330626156777
 42
-0.097825576440512
 10
-72.85359394496111
 20
12.99675009134788
 42
-0.3709947186684077
  0
LWPOLYLINE
  5
156
330
18
100
AcDbEntity
  8
0
100
AcDbPolyline
 90
        8
 70
     0
 43
0.0
 10
-72.70665406568359
 20
9.252546144065748
 42
-0.2685152792243219
 10
-73.76294932753288
 20
8.313166155726042
 42
-0.3498742016808082
 10
-75.03423216149915
 20
9.312204978167736
 42
-0.343230433725822
 10
-74.91148758640775
 20
9.759143379838477
 42
-0.4788231311828289
 10
-74.49064917583458
 20
9.452420923854615
 42
0.0735743756588763
 10
-74.38543957319128
 20
8.944138030987101
 42
0.2937598276990163
 10
-73.81555412885453
 20
8.689996544663308
 42
0.2697643293288572
 10
-73.10811647174997
 20
9.252546144065748
 42
0.4534600304610074
  0
LWPOLYLINE
  5
160
330
18
100
AcDbEntity
  8
0
100
AcDbPolyline
 90
        6
 70
     0
 43
0.0
 10
-74.10488059413492
 20
8.348220082312709
 42
-0.2250307842130973
 10
-74.89395261395964
 20
9.338495462997771
 42
-1.280635999185901
 10
-74.57832380602976
 20
9.443657402317914
 42
0.040789730299561
 10
-74.41174191584076
 20
8.83897601188689
 42
0.3211590781609279
 10
-73.73664686886072
 20
8.549780598976431
 42
0.3150910189375095
 10
-73.00017965035765
 20
9.250860486970964
 42
1.222453057144062
  0
LWPOLYLINE
  5
168
330
18
100
AcDbEntity
  8
0
100
AcDbPolyline
 90
        7
 70
     0
 43
0.0
 10
-73.06950870047031
 20
9.780546144065748
 42
0.0838935299015127
 10
-73.18429639697207
 20
10.05710231428563
 42
0.4534600304610074
 10
-73.9470660741473
 20
10.42516926146627
 42
0.0663518606904602
 10
-74.40297442961671
 20
10.24113578787595
 42
-0.6847618230816166
 10
-74.74490569621875
 20
10.4514597462963
 42
-0.4051616189120851
 10
-74.53448649093217
 20
10.76694572381687
 42
-0.0960673267712159
 10
-73.70157703998717
 20
10.85458069984368
 42
-23.04906154541666
  0
LWPOLYLINE
  5
171
330
18
100
AcDbEntity
  8
0
100
AcDbPolyline
 90
        4
 70
     0
 43
0.0
 10
-72.83359776016865
 20
9.776670343131812
 42
0.3960096143423338
 10
-74.15748539545657
 20
10.66178370471666
 42
0.1514097101655369
 10
-74.60462626470192
 20
10.50404071595637
 42
0.7808623055536821
 10
-74.39420694339265
 20
10.24113578787595
 42
4.578283875477404
  0
LINE
  5
177
330
18
100
AcDbEntity
  8
0
 62
     7
100
AcDbLine
 10
-71.83629904276878
 20
9.780546144065748
 30
0.0
 11
-72.40491442738417
 21
9.780546144065748
 31
0.0
  0
LINE
  5
178
330
18
100
AcDbEntity
  8
0
 62
     7
100
AcDbLine
 10
-71.79568365815341
 20
9.780546144065748
 30
0.0
 11
-73.15004311117099
 21
9.780546144065748
 31
0.0
  0
LINE
  5
179
330
18
100
AcDbEntity
  8
0
 62
     7
100
AcDbLine
 10
-73.23127388040176
 20
9.496238451758054
 30
0.0
 11
-71.71445288892264
 21
9.496238451758054
 31
0.0
  0
LINE
  5
17A
330
18
100
AcDbEntity
  8
0
 62
     7
100
AcDbLine
 10
-73.15004311117099
 20
9.252546144065748
 30
0.0
 11
-71.79568365815341
 21
9.252546144065748
 31
0.0
  0
LINE
  5
17B
330
18
100
AcDbEntity
  8
0
 62
     7
100
AcDbLine
 10
-73.15004311117099
 20
9.780546144065748
 30
0.0
 11
-73.23127388040176
 21
9.496238451758054
 31
0.0
  0
LINE
  5
17C
330
18
100
AcDbEntity
  8
0
 62
     7
100
AcDbLine
 10
-72.94696618809407
 20
9.496238451758054
 30
0.0
 11
-72.8657354188633
 21
9.780546144065748
 31
0.0
  0
LINE
  5
17D
330
18
100
AcDbEntity
  8
0
 62
     7
100
AcDbLine
 10
-72.8657354188633
 20
9.252546144065748
 30
0.0
 11
-72.94696618809407
 21
9.496238451758054
 31
0.0
  0
LINE
  5
17E
330
18
100
AcDbEntity
  8
0
 62
     7
100
AcDbLine
 10
-73.23127388040176
 20
9.496238451758054
 30
0.0
 11
-73.15004311117099
 21
9.252546144065748
 31
0.0
  0
LINE
  5
17F
330
18
100
AcDbEntity
  8
0
 62
     7
100
AcDbLine
 10
-71.71445288892264
 20
9.496238451758054
 30
0.0
 11
-71.79568365815341
 21
9.780546144065748
 31
0.0
  0
LINE
  5
180
330
18
100
AcDbEntity
  8
0
 62
     7
100
AcDbLine
 10
-71.79568365815341
 20
9.252546144065748
 30
0.0
 11
-71.79568365815341
 21
9.252546144065748
 31
0.0
  0
LINE
  5
181
330
18
100
AcDbEntity
  8
0
 62
     7
100
AcDbLine
 10
-71.79568365815341
 20
9.252546144065748
 30
0.0
 11
-71.71445288892264
 21
9.496238451758054
 31
0.0
  0
LINE
  5
182
330
18
100
AcDbEntity
  8
0
 62
     7
100
AcDbLine
 10
-71.99876058123033
 20
9.496238451758054
 30
0.0
 11
-72.0799913504611
 21
9.780546144065748
 31
0.0
  0
LINE
  5
183
330
18
100
AcDbEntity
  8
0
 62
     7
100
AcDbLine
 10
-72.0799913504611
 20
9.252546144065748
 30
0.0
 11
-71.99876058123033
 21
9.496238451758054
 31
0.0
  0
LWPOLYLINE
  5
184
330
18
100
AcDbEntity
  8
0
100
AcDbPolyline
 90
        6
 70
     0
 43
0.0
 10
-72.63427782168069
 20
12.46875009134788
 42
-0.1261287768940488
 10
-72.85113261659408
 20
12.02888947433899
 42
-0.0973809501149847
 10
-73.29827348583943
 20
11.67834957023176
 42
-0.2398112506129909
 10
-73.78925167018237
 20
11.67834957023176
 42
-1.250998057156015
 10
-73.52622766357413
 20
12.18663246309927
 42
0.2772532232425271
 10
-73.05394953386084
 20
12.46875009134788
 42
0.5706366512010922
  0
LWPOLYLINE
  5
18C
330
18
100
AcDbEntity
  8
0
100
AcDbPolyline
 90
        5
 70
     0
 43
0.0
 10
-72.84477930008513
 20
12.46875009134788
 42
-0.1435510112973809
 10
-73.10538925300095
 20
12.08147052377913
 42
-0.3709947186684077
 10
-73.63143726621742
 20
12.09899748707246
 42
0.7005356308353911
 10
-73.82432161507859
 20
11.96754498314221
 42
0.4714391750368824
 10
-73.51746017735007
 20
11.63453204232832
 42
36.46534251686844
  0
LINE
  5
193
330
18
100
AcDbEntity
  8
0
 62
     7
100
AcDbLine
 10
-71.87395438079694
 20
12.99675009134788
 30
0.0
 11
-72.44256976541233
 21
12.99675009134788
 31
0.0
  0
LINE
  5
194
330
18
100
AcDbEntity
  8
0
 62
     7
100
AcDbLine
 10
-71.83333899618157
 20
12.99675009134788
 30
0.0
 11
-73.1302883413846
 21
12.99675009134788
 31
0.0
  0
LINE
  5
195
330
18
100
AcDbEntity
  8
0
 62
     7
100
AcDbLine
 10
-73.21151911061537
 20
12.71244239904019
 30
0.0
 11
-71.75210822695079
 21
12.71244239904019
 31
0.0
  0
LINE
  5
196
330
18
100
AcDbEntity
  8
0
 62
     7
100
AcDbLine
 10
-73.1302883413846
 20
12.46875009134788
 30
0.0
 11
-71.83333899618157
 21
12.46875009134788
 31
0.0
  0
LWPOLYLINE
  5
197
330
18
100
AcDbEntity
  8
0
100
AcDbPolyline
 90
        6
 70
     0
 43
0.0
 10
-72.30212680224219
 20
12.46875009134788
 42
0.1261287768940488
 10
-72.08527200732878
 20
12.02888947433899
 42
0.0973809501149847
 10
-71.63813113808344
 20
11.67834957023176
 42
0.2398112506129909
 10
-71.1471529537405
 20
11.67834957023176
 42
1.250998057156015
 10
-71.41017696034873
 20
12.18663246309927
 42
-0.2772532232425271
 10
-71.88245509006202
 20
12.46875009134788
 42
-0.5706366512010922
  0
LINE
  5
19F
330
18
100
AcDbEntity
  8
0
 62
     7
100
AcDbLine
 10
-72.92721141830767
 20
12.71244239904019
 30
0.0
 11
-72.8459806490769
 21
12.99675009134788
 31
0.0
  0
LINE
  5
1A0
330
18
100
AcDbEntity
  8
0
 62
     7
100
AcDbLine
 10
-73.1302883413846
 20
12.99675009134788
 30
0.0
 11
-73.21151911061537
 21
12.71244239904019
 31
0.0
  0
LINE
  5
1A1
330
18
100
AcDbEntity
  8
0
 62
     7
100
AcDbLine
 10
-72.8459806490769
 20
12.46875009134788
 30
0.0
 11
-72.92721141830767
 21
12.71244239904019
 31
0.0
  0
LINE
  5
1A2
330
18
100
AcDbEntity
  8
0
 62
     7
100
AcDbLine
 10
-73.21151911061537
 20
12.71244239904019
 30
0.0
 11
-73.1302883413846
 21
12.46875009134788
 31
0.0
  0
LINE
  5
1A3
330
18
100
AcDbEntity
  8
0
 62
     7
100
AcDbLine
 10
-71.75210822695079
 20
12.71244239904019
 30
0.0
 11
-71.83333899618157
 21
12.99675009134788
 31
0.0
  0
LINE
  5
1A4
330
18
100
AcDbEntity
  8
0
 62
     7
100
AcDbLine
 10
-71.83333899618157
 20
12.46875009134788
 30
0.0
 11
-71.83333899618157
 21
12.46875009134788
 31
0.0
  0
LINE
  5
1A5
330
18
100
AcDbEntity
  8
0
 62
     7
100
AcDbLine
 10
-71.83333899618157
 20
12.46875009134788
 30
0.0
 11
-71.75210822695079
 21
12.71244239904019
 31
0.0
  0
LINE
  5
1A6
330
18
100
AcDbEntity
  8
0
 62
     7
100
AcDbLine
 10
-72.03641591925848
 20
12.71244239904019
 30
0.0
 11
-72.11764668848926
 21
12.99675009134788
 31
0.0
  0
LINE
  5
1A7
330
18
100
AcDbEntity
  8
0
 62
     7
100
AcDbLine
 10
-72.11764668848926
 20
12.46875009134788
 30
0.0
 11
-72.03641591925848
 21
12.71244239904019
 31
0.0
  0
LWPOLYLINE
  5
1A8
330
18
100
AcDbEntity
  8
0
100
AcDbPolyline
 90
        5
 70
     0
 43
0.0
 10
-72.09162532383773
 20
12.46875009134788
 42
0.1435510112973809
 10
-71.83101537092191
 20
12.08147052377913
 42
0.3709947186684077
 10
-71.30496735770545
 20
12.09899748707246
 42
-0.7005356308353911
 10
-71.11208300884428
 20
11.96754498314221
 42
-0.4714391750368824
 10
-71.41894444657279
 20
11.63453204232832
 42
-36.46534251686844
  0
TEXT
  5
1BC
330
18
100
AcDbEntity
  8
ADPDIM
100
AcDbText
 10
-82.14228792355427
 20
7.289514777257144
 30
0.0
 40
0.1875
  1
J U L I U S  B L U M  &  C O . ,  I N C .      ( 8 0 0 )  5 2 6 - 6 2 9 3        W W W . J U L I U S B L U M . C O M        P A R T  N o .  9 6 8
 41
1.25
  7
ARIAL_WIDE
 72
     1
 11
-72.49022661727869
 21
7.477014777257144
 31
0.0
100
AcDbText
 73
     3
  0
ENDSEC
  0
SECTION
  2
OBJECTS
  0
DICTIONARY
  5
C
330
0
100
AcDbDictionary
  3
ACAD_GROUP
350
D
  3
ACAD_LAYOUT
350
1B5
  3
ACAD_MLINESTYLE
350
E
  3
ACAD_PLOTSETTINGS
350
1B6
  3
ACAD_PLOTSTYLENAME
350
1B3
  3
ACDBHEADERROUNDTRIPXREC
350
300
  3
ACDBVARIABLEDICTIONARY
350
216
  0
DICTIONARY
  5
210
330
18
100
AcDbDictionary
280
     1
  3
ACAD_LAYOUTSELFREF
360
321
  0
DICTIONARY
  5
20E
330
15
100
AcDbDictionary
280
     1
  3
ACAD_LAYOUTSELFREF
360
320
  0
DICTIONARY
  5
D
102
{ACAD_REACTORS
330
C
102
}
330
C
100
AcDbDictionary
  0
DICTIONARY
  5
1B5
102
{ACAD_REACTORS
330
C
102
}
330
C
100
AcDbDictionary
  0
DICTIONARY
  5
E
102
{ACAD_REACTORS
330
C
102
}
330
C
100
AcDbDictionary
  3
STANDARD
350
1B
  0
DICTIONARY
  5
1B6
102
{ACAD_REACTORS
330
C
102
}
330
C
100
AcDbDictionary
  0
ACDBDICTIONARYWDFLT
  5
1B3
102
{ACAD_REACTORS
330
C
102
}
330
C
100
AcDbDictionary
281
     1
  3
Normal
350
1B4
100
AcDbDictionaryWithDefault
340
1B4
  0
DICTIONARY
  5
300
102
{ACAD_REACTORS
330
C
102
}
330
C
100
AcDbDictionary
  3
CEPSNTYPE
350
30A
  3
FINGERPRINTGUID
350
30B
  3
HYPERLINKBASE
350
303
  3
INSUNITS
350
309
  3
LAYOUTDICT
350
305
  3
LWETCUNION
350
308
  3
PLOTSETDICT
350
306
  3
PLOTSTYLNAMDICT
350
307
  3
PSVPSCALE
350
30D
  3
PUCSBASE
350
310
  3
PUCSORGBACK
350
316
  3
PUCSORGBOTTOM
350
312
  3
PUCSORGFRONT
350
315
  3
PUCSORGLEFT
350
313
  3
PUCSORGRIGHT
350
314
  3
PUCSORGTOP
350
311
  3
PUCSORTHOREF
350
30E
  3
PUCSORTHOVIEW
350
30F
  3
STYLESHEET
350
304
  3
TSTACKALIGN
350
301
  3
TSTACKSIZE
350
302
  3
UCSBASE
350
319
  3
UCSORGBACK
350
31F
  3
UCSORGBOTTOM
350
31B
  3
UCSORGFRONT
350
31E
  3
UCSORGLEFT
350
31C
  3
UCSORGRIGHT
350
31D
  3
UCSORGTOP
350
31A
  3
UCSORTHOREF
350
317
  3
UCSORTHOVIEW
350
318
  3
VERSIONGUID
350
30C
  0
DICTIONARY
  5
216
102
{ACAD_REACTORS
330
C
102
}
330
C
100
AcDbDictionary
  3
DIMASSOC
350
217
  0
XRECORD
  5
321
102
{ACAD_REACTORS
330
210
102
}
330
210
100
AcDbXrecord
340
18
  0
XRECORD
  5
320
102
{ACAD_REACTORS
330
20E
102
}
330
20E
100
AcDbXrecord
340
15
  0
MLINESTYLE
  5
1B
102
{ACAD_REACTORS
330
E
102
}
330
E
100
AcDbMlineStyle
  2
STANDARD
 70
     0
  3

 62
     0
 51
90.0
 52
90.0
 71
     2
 49
0.5
 62
   256
  6
BYLAYER
 49
-0.5
 62
   256
  6
BYLAYER
  0
ACDBPLACEHOLDER
  5
1B4
102
{ACAD_REACTORS
330
1B3
102
}
330
1B3
100
AcDbPlaceHolder
280
     0
  0
XRECORD
  5
30A
102
{ACAD_REACTORS
330
300
102
}
330
300
100
AcDbXrecord
 90
        0
  0
XRECORD
  5
30B
102
{ACAD_REACTORS
330
300
102
}
330
300
100
AcDbXrecord
  1
{BDBE03EB-C8DF-46A0-882F-3CB606684317}
  0
XRECORD
  5
303
102
{ACAD_REACTORS
330
300
102
}
330
300
100
AcDbXrecord
  1

  0
XRECORD
  5
309
102
{ACAD_REACTORS
330
300
102
}
330
300
100
AcDbXrecord
 90
        0
  0
XRECORD
  5
305
102
{ACAD_REACTORS
330
300
102
}
330
300
100
AcDbXrecord
340
1B5
  0
XRECORD
  5
308
102
{ACAD_REACTORS
330
300
102
}
330
300
100
AcDbXrecord
 90
    14877
  0
XRECORD
  5
306
102
{ACAD_REACTORS
330
300
102
}
330
300
100
AcDbXrecord
340
1B6
  0
XRECORD
  5
307
102
{ACAD_REACTORS
330
300
102
}
330
300
100
AcDbXrecord
340
1B3
  0
XRECORD
  5
30D
102
{ACAD_REACTORS
330
300
102
}
330
300
100
AcDbXrecord
 40
0.0
  0
XRECORD
  5
310
102
{ACAD_REACTORS
330
300
102
}
330
300
100
AcDbXrecord
340
0
  0
XRECORD
  5
316
102
{ACAD_REACTORS
330
300
102
}
330
300
100
AcDbXrecord
 10
0.0
 20
0.0
 30
0.0
  0
XRECORD
  5
312
102
{ACAD_REACTORS
330
300
102
}
330
300
100
AcDbXrecord
 10
0.0
 20
0.0
 30
0.0
  0
XRECORD
  5
315
102
{ACAD_REACTORS
330
300
102
}
330
300
100
AcDbXrecord
 10
0.0
 20
0.0
 30
0.0
  0
XRECORD
  5
313
102
{ACAD_REACTORS
330
300
102
}
330
300
100
AcDbXrecord
 10
0.0
 20
0.0
 30
0.0
  0
XRECORD
  5
314
102
{ACAD_REACTORS
330
300
102
}
330
300
100
AcDbXrecord
 10
0.0
 20
0.0
 30
0.0
  0
XRECORD
  5
311
102
{ACAD_REACTORS
330
300
102
}
330
300
100
AcDbXrecord
 10
0.0
 20
0.0
 30
0.0
  0
XRECORD
  5
30E
102
{ACAD_REACTORS
330
300
102
}
330
300
100
AcDbXrecord
340
0
  0
XRECORD
  5
30F
102
{ACAD_REACTORS
330
300
102
}
330
300
100
AcDbXrecord
 70
     0
  0
XRECORD
  5
304
102
{ACAD_REACTORS
330
300
102
}
330
300
100
AcDbXrecord
  1

  0
XRECORD
  5
301
102
{ACAD_REACTORS
330
300
102
}
330
300
100
AcDbXrecord
 90
        1
  0
XRECORD
  5
302
102
{ACAD_REACTORS
330
300
102
}
330
300
100
AcDbXrecord
 90
       70
  0
XRECORD
  5
319
102
{ACAD_REACTORS
330
300
102
}
330
300
100
AcDbXrecord
340
0
  0
XRECORD
  5
31F
102
{ACAD_REACTORS
330
300
102
}
330
300
100
AcDbXrecord
 10
0.0
 20
0.0
 30
0.0
  0
XRECORD
  5
31B
102
{ACAD_REACTORS
330
300
102
}
330
300
100
AcDbXrecord
 10
0.0
 20
0.0
 30
0.0
  0
XRECORD
  5
31E
102
{ACAD_REACTORS
330
300
102
}
330
300
100
AcDbXrecord
 10
0.0
 20
0.0
 30
0.0
  0
XRECORD
  5
31C
102
{ACAD_REACTORS
330
300
102
}
330
300
100
AcDbXrecord
 10
0.0
 20
0.0
 30
0.0
  0
XRECORD
  5
31D
102
{ACAD_REACTORS
330
300
102
}
330
300
100
AcDbXrecord
 10
0.0
 20
0.0
 30
0.0
  0
XRECORD
  5
31A
102
{ACAD_REACTORS
330
300
102
}
330
300
100
AcDbXrecord
 10
0.0
 20
0.0
 30
0.0
  0
XRECORD
  5
317
102
{ACAD_REACTORS
330
300
102
}
330
300
100
AcDbXrecord
340
0
  0
XRECORD
  5
318
102
{ACAD_REACTORS
330
300
102
}
330
300
100
AcDbXrecord
 70
     0
  0
XRECORD
  5
30C
102
{ACAD_REACTORS
330
300
102
}
330
300
100
AcDbXrecord
  1
{14226F71-8BB1-482E-956F-01FC79C70618}
  0
DICTIONARYVAR
  5
217
102
{ACAD_REACTORS
330
216
102
}
330
216
100
DictionaryVariables
280
     0
  1
1
  0
ENDSEC
  0
EOF
