  0
SECTION
  2
HEADER
  9
$ACADVER
  1
AC1014
  9
$ACADMAINTVER
 70
     9
  9
$DWGCODEPAGE
  3
ANSI_1252
  9
$INSBASE
 10
-97.42447904416078
 20
8.240502436587185
 30
0.0
  9
$EXTMIN
 10
-108.1645898652782
 20
7.290035752588926
 30
0.0
  9
$EXTMAX
 10
-88.86046725272709
 20
14.18725602216609
 30
0.0
  9
$LIMMIN
 10
0.0
 20
0.0
  9
$LIMMAX
 10
36.0
 20
36.0
  9
$ORTHOMODE
 70
     1
  9
$REGENMODE
 70
     1
  9
$FILLMODE
 70
     1
  9
$QTEXTMODE
 70
     0
  9
$MIRRTEXT
 70
     1
  9
$DRAGMODE
 70
     0
  9
$LTSCALE
 40
1.0
  9
$OSMODE
 70
    37
  9
$ATTMODE
 70
     1
  9
$TEXTSIZE
 40
0.2
  9
$TRACEWID
 40
0.05
  9
$TEXTSTYLE
  7
STANDARD
  9
$CLAYER
  8
ADPDIM
  9
$CELTYPE
  6
BYLAYER
  9
$CECOLOR
 62
   256
  9
$CELTSCALE
 40
1.0
  9
$DELOBJ
 70
     1
  9
$DISPSILH
 70
     0
  9
$DIMSCALE
 40
1.0
  9
$DIMASZ
 40
0.125
  9
$DIMEXO
 40
0.0625
  9
$DIMDLI
 40
0.38
  9
$DIMRND
 40
0.0
  9
$DIMDLE
 40
0.0
  9
$DIMEXE
 40
0.18
  9
$DIMTP
 40
0.0
  9
$DIMTM
 40
0.0
  9
$DIMTXT
 40
0.125
  9
$DIMCEN
 40
0.1875
  9
$DIMTSZ
 40
0.125
  9
$DIMTOL
 70
     0
  9
$DIMLIM
 70
     0
  9
$DIMTIH
 70
     0
  9
$DIMTOH
 70
     0
  9
$DIMSE1
 70
     0
  9
$DIMSE2
 70
     0
  9
$DIMTAD
 70
     0
  9
$DIMZIN
 70
     3
  9
$DIMBLK
  1

  9
$DIMASO
 70
     1
  9
$DIMSHO
 70
     1
  9
$DIMPOST
  1

  9
$DIMAPOST
  1

  9
$DIMALT
 70
     0
  9
$DIMALTD
 70
     1
  9
$DIMALTF
 40
25.4
  9
$DIMLFAC
 40
1.0
  9
$DIMTOFL
 70
     0
  9
$DIMTVP
 40
0.0
  9
$DIMTIX
 70
     0
  9
$DIMSOXD
 70
     0
  9
$DIMSAH
 70
     0
  9
$DIMBLK1
  1

  9
$DIMBLK2
  1

  9
$DIMSTYLE
  2
STANDARD
  9
$DIMCLRD
 70
     0
  9
$DIMCLRE
 70
     0
  9
$DIMCLRT
 70
     0
  9
$DIMTFAC
 40
1.0
  9
$DIMGAP
 40
0.125
  9
$DIMJUST
 70
     0
  9
$DIMSD1
 70
     0
  9
$DIMSD2
 70
     0
  9
$DIMTOLJ
 70
     1
  9
$DIMTZIN
 70
     0
  9
$DIMALTZ
 70
     0
  9
$DIMALTTZ
 70
     0
  9
$DIMFIT
 70
     3
  9
$DIMUPT
 70
     0
  9
$DIMUNIT
 70
     2
  9
$DIMDEC
 70
     4
  9
$DIMTDEC
 70
     4
  9
$DIMALTU
 70
     2
  9
$DIMALTTD
 70
     2
  9
$DIMTXSTY
  7
STANDARD
  9
$DIMAUNIT
 70
     0
  9
$LUNITS
 70
     5
  9
$LUPREC
 70
     5
  9
$SKETCHINC
 40
0.1
  9
$FILLETRAD
 40
0.062
  9
$AUNITS
 70
     0
  9
$AUPREC
 70
     0
  9
$MENU
  1
acad
  9
$ELEVATION
 40
0.0
  9
$PELEVATION
 40
0.0
  9
$THICKNESS
 40
0.0
  9
$LIMCHECK
 70
     0
  9
$BLIPMODE
 70
     0
  9
$CHAMFERA
 40
0.0
  9
$CHAMFERB
 40
0.0
  9
$CHAMFERC
 40
0.0
  9
$CHAMFERD
 40
0.0
  9
$SKPOLY
 70
     0
  9
$TDCREATE
 40
2450409.657966238
  9
$TDUPDATE
 40
2452297.078593750
  9
$TDINDWG
 40
0.0436790625
  9
$TDUSRTIMER
 40
0.0436790625
  9
$USRTIMER
 70
     1
  9
$ANGBASE
 50
0.0
  9
$ANGDIR
 70
     0
  9
$PDMODE
 70
     0
  9
$PDSIZE
 40
0.0
  9
$PLINEWID
 40
0.0
  9
$COORDS
 70
     2
  9
$SPLFRAME
 70
     0
  9
$SPLINETYPE
 70
     6
  9
$SPLINESEGS
 70
     8
  9
$ATTDIA
 70
     0
  9
$ATTREQ
 70
     1
  9
$HANDLING
 70
 22529
  9
$HANDSEED
  5
30E
  9
$SURFTAB1
 70
     6
  9
$SURFTAB2
 70
     6
  9
$SURFTYPE
 70
     6
  9
$SURFU
 70
     6
  9
$SURFV
 70
     6
  9
$UCSNAME
  2

  9
$UCSORG
 10
0.0
 20
0.0
 30
0.0
  9
$UCSXDIR
 10
1.0
 20
0.0
 30
0.0
  9
$UCSYDIR
 10
0.0
 20
1.0
 30
0.0
  9
$PUCSNAME
  2

  9
$PUCSORG
 10
0.0
 20
0.0
 30
0.0
  9
$PUCSXDIR
 10
1.0
 20
0.0
 30
0.0
  9
$PUCSYDIR
 10
0.0
 20
1.0
 30
0.0
  9
$USERI1
 70
     0
  9
$USERI2
 70
     0
  9
$USERI3
 70
     0
  9
$USERI4
 70
     0
  9
$USERI5
 70
     0
  9
$USERR1
 40
0.0
  9
$USERR2
 40
0.0
  9
$USERR3
 40
0.0
  9
$USERR4
 40
0.0
  9
$USERR5
 40
0.0
  9
$WORLDVIEW
 70
     1
  9
$SHADEDGE
 70
     3
  9
$SHADEDIF
 70
    70
  9
$TILEMODE
 70
     1
  9
$MAXACTVP
 70
    15
  9
$PINSBASE
 10
0.0009765857830644
 20
1.500170956078392
 30
0.0
  9
$PLIMCHECK
 70
     0
  9
$PEXTMIN
 10
1.000000000000000E+20
 20
1.000000000000000E+20
 30
1.000000000000000E+20
  9
$PEXTMAX
 10
-1.000000000000000E+20
 20
-1.000000000000000E+20
 30
-1.000000000000000E+20
  9
$PLIMMIN
 10
0.0
 20
0.0
  9
$PLIMMAX
 10
12.0
 20
9.0
  9
$UNITMODE
 70
     0
  9
$VISRETAIN
 70
     0
  9
$PLINEGEN
 70
     0
  9
$PSLTSCALE
 70
     1
  9
$TREEDEPTH
 70
  3020
  9
$PICKSTYLE
 70
     1
  9
$CMLSTYLE
  2
STANDARD
  9
$CMLJUST
 70
     0
  9
$CMLSCALE
 40
1.0
  9
$PROXYGRAPHICS
 70
     1
  9
$MEASUREMENT
 70
     0
  0
ENDSEC
  0
SECTION
  2
CLASSES
  0
CLASS
  1
ACDBDICTIONARYWDFLT
  2
AcDbDictionaryWithDefault
  3
AutoCAD 2000
 90
        0
280
     0
281
     0
  0
CLASS
  1
ACDBPLACEHOLDER
  2
AcDbPlaceHolder
  3
AutoCAD 2000
 90
        0
280
     0
281
     0
  0
CLASS
  1
LAYOUT
  2
AcDbLayout
  3
AutoCAD 2000
 90
        0
280
     0
281
     0
  0
CLASS
  1
DICTIONARYVAR
  2
AcDbDictionaryVar
  3
AutoCAD 2000
 90
        0
280
     0
281
     0
  0
CLASS
  1
LONG_TRANSACTION
  2
AcDbLongTransaction
  3
AutoCAD 2000
 90
        0
280
     0
281
     0
  0
CLASS
  1
LWPOLYLINE
  2
AcDbPolyline
  3
AutoCAD 2000
 90
        0
280
     0
281
     1
  0
CLASS
  1
HATCH
  2
AcDbHatch
  3
AutoCAD 2000
 90
        0
280
     0
281
     1
  0
CLASS
  1
XRECORD
  2
AcDbXrecord
  3
AutoCAD 2000
 90
        0
280
     0
281
     0
  0
CLASS
  1
LONG_TRANSACTION
  2
AcDbLongTransaction
  3
AutoCAD 2000
 90
        0
280
     0
281
     0
  0
CLASS
  1
LWPOLYLINE
  2
AcDbPolyline
  3
AutoCAD 2000
 90
        0
280
     0
281
     1
  0
CLASS
  1
HATCH
  2
AcDbHatch
  3
AutoCAD 2000
 90
        0
280
     0
281
     1
  0
CLASS
  1
XRECORD
  2
AcDbXrecord
  3
AutoCAD 2000
 90
        0
280
     0
281
     0
  0
CLASS
  1
LONG_TRANSACTION
  2
AcDbLongTransaction
  3
AutoCAD 2000
 90
        0
280
     0
281
     0
  0
CLASS
  1
LWPOLYLINE
  2
AcDbPolyline
  3
AutoCAD 2000
 90
        0
280
     0
281
     1
  0
CLASS
  1
HATCH
  2
AcDbHatch
  3
AutoCAD 2000
 90
        0
280
     0
281
     1
  0
CLASS
  1
XRECORD
  2
AcDbXrecord
  3
AutoCAD 2000
 90
        0
280
     0
281
     0
  0
CLASS
  1
LONG_TRANSACTION
  2
AcDbLongTransaction
  3
AutoCAD 2000
 90
        0
280
     0
281
     0
  0
CLASS
  1
LWPOLYLINE
  2
AcDbPolyline
  3
AutoCAD 2000
 90
        0
280
     0
281
     1
  0
CLASS
  1
HATCH
  2
AcDbHatch
  3
AutoCAD 2000
 90
        0
280
     0
281
     1
  0
CLASS
  1
XRECORD
  2
AcDbXrecord
  3
AutoCAD 2000
 90
        0
280
     0
281
     0
  0
CLASS
  1
LONG_TRANSACTION
  2
AcDbLongTransaction
  3
AutoCAD 2000
 90
        0
280
     0
281
     0
  0
CLASS
  1
LWPOLYLINE
  2
AcDbPolyline
  3
AutoCAD 2000
 90
        0
280
     0
281
     1
  0
CLASS
  1
HATCH
  2
AcDbHatch
  3
AutoCAD 2000
 90
        0
280
     0
281
     1
  0
CLASS
  1
XRECORD
  2
AcDbXrecord
  3
AutoCAD 2000
 90
        0
280
     0
281
     0
  0
ENDSEC
  0
SECTION
  2
TABLES
  0
TABLE
  2
VPORT
  5
8
330
0
100
AcDbSymbolTable
 70
     2
  0
VPORT
  5
2EB
330
8
100
AcDbSymbolTableRecord
100
AcDbViewportTableRecord
  2
*ACTIVE
 70
     0
 10
0.0
 20
0.0
 11
1.0
 21
1.0
 12
-98.50145346882692
 22
10.73803718473999
 13
0.0
 23
0.0
 14
0.5740882589684922
 24
0.5740882589684922
 15
0.5
 25
0.5
 16
0.0
 26
0.0
 36
1.0
 17
0.0
 27
0.0
 37
0.0
 40
12.3773039060998
 41
1.570528967254408
 42
50.0
 43
0.0
 44
0.0
 50
0.0
 51
0.0
 71
     0
 72
   100
 73
     1
 74
     0
 75
     0
 76
     0
 77
     0
 78
     0
  0
ENDTAB
  0
TABLE
  2
LTYPE
  5
5
330
0
100
AcDbSymbolTable
 70
     1
  0
LTYPE
  5
12
330
5
100
AcDbSymbolTableRecord
100
AcDbLinetypeTableRecord
  2
BYBLOCK
 70
     0
  3

 72
    65
 73
     0
 40
0.0
  0
LTYPE
  5
13
330
5
100
AcDbSymbolTableRecord
100
AcDbLinetypeTableRecord
  2
BYLAYER
 70
     0
  3

 72
    65
 73
     0
 40
0.0
  0
LTYPE
  5
14
330
5
100
AcDbSymbolTableRecord
100
AcDbLinetypeTableRecord
  2
CONTINUOUS
 70
     0
  3
Solid line
 72
    65
 73
     0
 40
0.0
  0
ENDTAB
  0
TABLE
  2
LAYER
  5
2
330
0
100
AcDbSymbolTable
 70
     3
  0
LAYER
  5
F
330
2
100
AcDbSymbolTableRecord
100
AcDbLayerTableRecord
  2
0
 70
     0
 62
     7
  6
CONTINUOUS
  0
LAYER
  5
E4
330
2
100
AcDbSymbolTableRecord
100
AcDbLayerTableRecord
  2
DEFPOINTS
 70
     0
 62
     7
  6
CONTINUOUS
  0
LAYER
  5
E7
330
2
100
AcDbSymbolTableRecord
100
AcDbLayerTableRecord
  2
ADPDIM
 70
     0
 62
     3
  6
CONTINUOUS
  0
ENDTAB
  0
TABLE
  2
STYLE
  5
3
330
0
100
AcDbSymbolTable
 70
     2
  0
STYLE
  5
10
330
3
100
AcDbSymbolTableRecord
100
AcDbTextStyleTableRecord
  2
STANDARD
 70
     0
 40
0.0
 41
1.0
 50
0.0
 71
     0
 42
0.2
  3
txt
  4

  0
STYLE
  5
1A7
330
3
100
AcDbSymbolTableRecord
100
AcDbTextStyleTableRecord
  2
ARIAL_WIDE
 70
     0
 40
0.0
 41
1.25
 50
0.0
 71
     0
 42
0.2
  3
ARIAL.TTF
  4

1001
ACAD
1000
Arial
1071
       34
  0
ENDTAB
  0
TABLE
  2
VIEW
  5
6
330
0
100
AcDbSymbolTable
 70
     0
  0
ENDTAB
  0
TABLE
  2
UCS
  5
7
330
0
100
AcDbSymbolTable
 70
     0
  0
ENDTAB
  0
TABLE
  2
APPID
  5
9
330
0
100
AcDbSymbolTable
 70
     1
  0
APPID
  5
11
330
9
100
AcDbSymbolTableRecord
100
AcDbRegAppTableRecord
  2
ACAD
 70
     0
  0
ENDTAB
  0
TABLE
  2
DIMSTYLE
  5
A
330
0
100
AcDbSymbolTable
 70
     1
  0
DIMSTYLE
105
19B
330
A
100
AcDbSymbolTableRecord
100
AcDbDimStyleTableRecord
  2
STANDARD
 70
     0
  3

  4

  5

  6

  7

 40
1.0
 41
0.18
 42
0.0625
 43
0.38
 44
0.18
 45
0.0
 46
0.0
 47
0.0
 48
0.0
140
0.18
141
0.09
142
0.0
143
25.4
144
1.0
145
0.0
146
1.0
147
0.09
 71
     0
 72
     0
 73
     1
 74
     1
 75
     0
 76
     0
 77
     0
 78
     0
170
     0
171
     2
172
     0
173
     0
174
     0
175
     0
176
     0
177
     0
178
     0
270
     2
271
     4
272
     4
273
     2
274
     2
340
10
275
     0
280
     0
281
     0
282
     0
283
     1
284
     0
285
     0
286
     0
287
     3
288
     0
  0
ENDTAB
  0
TABLE
  2
BLOCK_RECORD
  5
1
330
0
100
AcDbSymbolTable
 70
     2
  0
BLOCK_RECORD
  5
18
102
{ACAD_XDICTIONARY
360
1FC
102
}
330
1
100
AcDbSymbolTableRecord
100
AcDbBlockTableRecord
  2
*MODEL_SPACE
  0
BLOCK_RECORD
  5
15
102
{ACAD_XDICTIONARY
360
1FA
102
}
330
1
100
AcDbSymbolTableRecord
100
AcDbBlockTableRecord
  2
*PAPER_SPACE
  0
BLOCK_RECORD
  5
D9
330
1
100
AcDbSymbolTableRecord
100
AcDbBlockTableRecord
  2
*D0
  0
BLOCK_RECORD
  5
DF
330
1
100
AcDbSymbolTableRecord
100
AcDbBlockTableRecord
  2
*D1
  0
ENDTAB
  0
ENDSEC
  0
SECTION
  2
BLOCKS
  0
BLOCK
  5
EA
330
18
100
AcDbEntity
  8
0
100
AcDbBlockBegin
  2
*MODEL_SPACE
 70
     0
 10
0.0
 20
0.0
 30
0.0
  3
*MODEL_SPACE
  1

  0
ENDBLK
  5
EB
330
18
100
AcDbEntity
  8
0
100
AcDbBlockEnd
  0
BLOCK
  5
E8
330
15
100
AcDbEntity
 67
     1
  8
0
100
AcDbBlockBegin
  2
*PAPER_SPACE
 70
     0
 10
0.0
 20
0.0
 30
0.0
  3
*PAPER_SPACE
  1

  0
ENDBLK
  5
E9
330
15
100
AcDbEntity
 67
     1
  8
0
100
AcDbBlockEnd
  0
BLOCK
  5
ED
330
D9
100
AcDbEntity
  8
0
100
AcDbBlockBegin
  2
*D0
 70
     1
 10
0.0
 20
0.0
 30
0.0
  3
*D0
  1

  0
LINE
  5
EE
330
D9
100
AcDbEntity
  8
0
  6
BYBLOCK
 62
     0
100
AcDbLine
 10
-94.62207377084453
 20
15.90067920303324
 30
0.0
 11
-94.62207377084453
 21
16.90589934853445
 31
0.0
  0
LINE
  5
EF
330
D9
100
AcDbEntity
  8
0
  6
BYBLOCK
 62
     0
100
AcDbLine
 10
-89.37207377084453
 20
15.90067920303324
 30
0.0
 11
-89.37207377084453
 21
16.90589934853445
 31
0.0
  0
LINE
  5
F0
330
D9
100
AcDbEntity
  8
0
  6
BYBLOCK
 62
     0
100
AcDbLine
 10
-94.62207377084453
 20
16.72589934853445
 30
0.0
 11
-92.39290710417787
 21
16.72589934853445
 31
0.0
  0
LINE
  5
F1
330
D9
100
AcDbEntity
  8
0
  6
BYBLOCK
 62
     0
100
AcDbLine
 10
-89.37207377084453
 20
16.72589934853445
 30
0.0
 11
-91.60124043751121
 21
16.72589934853445
 31
0.0
  0
LINE
  5
F2
330
D9
100
AcDbEntity
  8
0
  6
BYBLOCK
 62
     0
100
AcDbLine
 10
-94.74707377084454
 20
16.60089934853445
 30
0.0
 11
-94.49707377084454
 21
16.85089934853445
 31
0.0
  0
LINE
  5
F3
330
D9
100
AcDbEntity
  8
0
  6
BYBLOCK
 62
     0
100
AcDbLine
 10
-89.49707377084454
 20
16.60089934853445
 30
0.0
 11
-89.24707377084454
 21
16.85089934853445
 31
0.0
  0
TEXT
  5
F4
330
D9
100
AcDbEntity
  8
0
  6
BYBLOCK
 62
     0
100
AcDbText
 10
-92.26790710417786
 20
16.66339934853445
 30
0.0
 40
0.125
  1
5 1/4
 72
     1
 11
-91.99707377084454
 21
16.72589934853445
 31
0.0
100
AcDbText
 73
     2
  0
POINT
  5
F5
330
D9
100
AcDbEntity
  8
DEFPOINTS
  6
BYBLOCK
 62
     0
100
AcDbPoint
 10
-94.62207377084453
 20
15.83817920303324
 30
0.0
  0
POINT
  5
F6
330
D9
100
AcDbEntity
  8
DEFPOINTS
  6
BYBLOCK
 62
     0
100
AcDbPoint
 10
-89.37207377084453
 20
15.83817920303324
 30
0.0
  0
POINT
  5
F7
330
D9
100
AcDbEntity
  8
DEFPOINTS
  6
BYBLOCK
 62
     0
100
AcDbPoint
 10
-89.37207377084453
 20
16.72589934853445
 30
0.0
  0
ENDBLK
  5
F8
330
D9
100
AcDbEntity
  8
0
100
AcDbBlockEnd
  0
BLOCK
  5
F9
330
DF
100
AcDbEntity
  8
0
100
AcDbBlockBegin
  2
*D1
 70
     1
 10
0.0
 20
0.0
 30
0.0
  3
*D1
  1

  0
LINE
  5
FA
330
DF
100
AcDbEntity
  8
0
  6
BYBLOCK
 62
     0
100
AcDbLine
 10
-100.1232178895645
 20
8.240502436587185
 30
0.0
 11
-101.9056089612723
 21
8.240502436587187
 31
0.0
  0
LINE
  5
FB
330
DF
100
AcDbEntity
  8
0
  6
BYBLOCK
 62
     0
100
AcDbLine
 10
-99.90123243776629
 20
13.74050243658718
 30
0.0
 11
-101.9056089612723
 21
13.74050243658718
 31
0.0
  0
LINE
  5
FC
330
DF
100
AcDbEntity
  8
0
  6
BYBLOCK
 62
     0
100
AcDbLine
 10
-101.7256089612723
 20
8.240502436587187
 30
0.0
 11
-101.7256089612723
 21
10.59466910325385
 31
0.0
  0
LINE
  5
FD
330
DF
100
AcDbEntity
  8
0
  6
BYBLOCK
 62
     0
100
AcDbLine
 10
-101.7256089612723
 20
13.74050243658718
 30
0.0
 11
-101.7256089612723
 21
11.38633576992052
 31
0.0
  0
LINE
  5
FE
330
DF
100
AcDbEntity
  8
0
  6
BYBLOCK
 62
     0
100
AcDbLine
 10
-101.6006089612723
 20
8.115502436587187
 30
0.0
 11
-101.8506089612723
 21
8.365502436587187
 31
0.0
  0
LINE
  5
FF
330
DF
100
AcDbEntity
  8
0
  6
BYBLOCK
 62
     0
100
AcDbLine
 10
-101.6006089612723
 20
13.61550243658718
 30
0.0
 11
-101.8506089612723
 21
13.86550243658718
 31
0.0
  0
TEXT
  5
100
330
DF
100
AcDbEntity
  8
0
  6
BYBLOCK
 62
     0
100
AcDbText
 10
-101.6631089612723
 20
10.71966910325385
 30
0.0
 40
0.125
  1
5 1/2
 50
90.0
 72
     1
 11
-101.7256089612723
 21
10.99050243658718
 31
0.0
100
AcDbText
 73
     2
  0
POINT
  5
101
330
DF
100
AcDbEntity
  8
DEFPOINTS
  6
BYBLOCK
 62
     0
100
AcDbPoint
 10
-100.0607178895644
 20
8.240502436587185
 30
0.0
  0
POINT
  5
102
330
DF
100
AcDbEntity
  8
DEFPOINTS
  6
BYBLOCK
 62
     0
100
AcDbPoint
 10
-99.83873243776629
 20
13.74050243658718
 30
0.0
  0
POINT
  5
103
330
DF
100
AcDbEntity
  8
DEFPOINTS
  6
BYBLOCK
 62
     0
100
AcDbPoint
 10
-101.7256089612723
 20
13.74050243658718
 30
0.0
  0
ENDBLK
  5
104
330
DF
100
AcDbEntity
  8
0
100
AcDbBlockEnd
  0
ENDSEC
  0
SECTION
  2
ENTITIES
  0
LINE
  5
105
330
18
100
AcDbEntity
  8
0
 62
     7
100
AcDbLine
 10
-97.89752526484003
 20
12.96654262174626
 30
0.0
 11
-99.2087409555792
 21
12.96654262174626
 31
0.0
  0
LINE
  5
106
330
18
100
AcDbEntity
  8
0
 62
     7
100
AcDbLine
 10
-99.2087409555792
 20
12.43854262174626
 30
0.0
 11
-97.89752526484003
 21
12.43854262174626
 31
0.0
  0
LINE
  5
107
330
18
100
AcDbEntity
  8
0
 62
     7
100
AcDbLine
 10
-99.28997172480997
 20
12.68223492943856
 30
0.0
 11
-97.81629449560925
 21
12.68223492943856
 31
0.0
  0
LWPOLYLINE
  5
108
330
18
100
AcDbEntity
  8
0
100
AcDbPolyline
 90
        5
 70
     0
 43
0.0
 10
-97.48607545253257
 20
11.75870634638596
 42
0.3777324384055277
 10
-97.19569221907651
 20
12.04895815720016
 42
0.688186729030334
 10
-97.50367449252012
 20
12.18968631996185
 42
-0.4386765084841768
 10
-97.84685473014652
 20
12.06654920740349
 42
-0.2360734382269612
 10
-98.19883448776668
 20
12.42716513940936
 42
0.730014814411554
  0
LWPOLYLINE
  5
10F
330
18
100
AcDbEntity
  8
0
100
AcDbPolyline
 90
        6
 70
     0
 43
0.0
 10
-98.43642083284471
 20
12.4359606247002
 42
0.3779873711290261
 10
-97.41567952416701
 20
11.75870634638596
 42
0.3405927521575832
 10
-97.03730132235783
 20
12.05775372211265
 42
0.5860663761071395
 10
-97.39808059997177
 20
12.3568010182177
 42
-0.0412862823210293
 10
-97.74126083759817
 20
12.23366390565934
 42
-0.3699049198818971
 10
-98.03318845651389
 20
12.43854262174626
 42
-0.5426869796051144
  0
LINE
  5
117
330
18
100
AcDbEntity
  8
0
 62
     7
100
AcDbLine
 10
-99.2087409555792
 20
9.190417475512308
 30
0.0
 11
-97.89752526484003
 21
9.190417475512308
 31
0.0
  0
LINE
  5
118
330
18
100
AcDbEntity
  8
0
 62
     7
100
AcDbLine
 10
-99.28997172480997
 20
9.434109783204615
 30
0.0
 11
-97.81629449560925
 21
9.434109783204615
 31
0.0
  0
LINE
  5
119
330
18
100
AcDbEntity
  8
0
 62
     7
100
AcDbLine
 10
-97.89752526484003
 20
9.718417475512309
 30
0.0
 11
-99.2087409555792
 21
9.718417475512309
 31
0.0
  0
LWPOLYLINE
  5
11A
330
18
100
AcDbEntity
  8
0
100
AcDbPolyline
 90
        7
 70
     0
 43
0.0
 10
-98.18803683967493
 20
9.190417475512308
 42
0.1274042611836575
 10
-97.96124814268864
 20
8.829801543506436
 42
0.2824632755724839
 10
-96.96690539399225
 20
8.495572226616381
 42
0.3059009222738973
 10
-96.57092815219552
 20
8.838597108418925
 42
-0.0897331100709519
 10
-96.41253725547684
 20
9.410305244756496
 42
-0.6280225547164064
 10
-96.08695605783799
 20
9.410305244756496
 42
-0.3189795339343473
 10
-96.34214132711127
 20
8.530754247401389
 42
-0.3486054359533295
  0
LWPOLYLINE
  5
123
330
18
100
AcDbEntity
  8
0
100
AcDbPolyline
 90
        8
 70
     0
 43
0.0
 10
-98.38362382867439
 20
9.190417475512308
 42
0.245032441549933
 10
-97.42447904416078
 20
8.240502436587185
 42
0.3206088589101835
 10
-95.99896108948486
 20
8.961734220977279
 42
0.1551976145055198
 10
-95.9901615694911
 20
9.471873801035673
 42
0.7446256703733503
 10
-96.55332922800027
 20
9.471873801035673
 42
0.0557534036173748
 10
-96.66772264054241
 20
8.988120756471447
 42
-0.4732768037801366
 10
-97.6356669450498
 20
8.759437501936419
 42
-0.1354962656046613
 10
-97.97370126651177
 20
9.190417475512308
 42
-0.5186897741490614
  0
LWPOLYLINE
  5
12D
330
18
100
AcDbEntity
  8
0
100
AcDbPolyline
 90
        6
 70
     0
 43
0.0
 10
-98.0260415477162
 20
12.96654262174626
 42
-0.3170944297062296
 10
-97.38048155998422
 20
13.35948912813116
 42
-0.3950209471960164
 10
-96.42133677547061
 20
12.53271120176439
 42
-0.4726425685855601
 10
-97.50367449252012
 20
11.40688597929257
 10
-97.50367449252012
 20
10.40419786937911
 42
0.3049764707057005
 10
-98.36500219528943
 20
9.718417475512309
 42
0.245032441549933
  0
LWPOLYLINE
  5
135
330
18
100
AcDbEntity
  8
0
100
AcDbPolyline
 90
        7
 70
     0
 43
0.0
 10
-98.24283197194326
 20
12.96369117534028
 42
-0.2919957087280021
 10
-97.39808059997177
 20
13.57937689737535
 42
-0.4346057883455029
 10
-96.16615150619733
 20
12.47114264548521
 42
-0.4142400966721824
 10
-97.24848922324683
 20
11.20458926025172
 10
-97.24848922324683
 20
10.21949212091993
 42
0.2432395356196774
 10
-98.08444107522454
 20
9.920444824814893
 42
0.0665471500164212
 10
-98.18377729910514
 20
9.718417475512309
 42
0.2824632755724839
  0
LWPOLYLINE
  5
13E
330
18
100
AcDbEntity
  8
0
100
AcDbPolyline
 90
        7
 70
     0
 43
0.0
 10
-97.99176878134652
 20
9.718417475512309
 42
-0.137619848531813
 10
-97.82045628595751
 20
9.841285218332386
 42
-0.1144904067826119
 10
-97.03730132235783
 20
10.0347864520824
 10
-97.03730132235783
 20
11.01988351179253
 42
0.4137615799501843
 10
-96.02535953367388
 20
12.41836957449687
 42
0.4820307563904739
 10
-97.42447904416078
 20
13.7025140099337
 42
0.3728778976889722
 10
-98.46270928802717
 20
12.96654262174626
 42
-0.9473035228021117
  0
DIMENSION
  5
147
330
18
100
AcDbEntity
  8
ADPDIM
100
AcDbDimension
  2
*D0
 10
-95.92813311020961
 20
14.00725602216609
 30
0.0
 11
-98.55313311020962
 21
14.00725602216609
 31
0.0
 12
-6.556059339365077
 22
-2.71864332636836
 32
0.0
100
AcDbAlignedDimension
 13
-101.1781331102096
 23
13.11953587666488
 33
0.0
 14
-95.92813311020961
 24
13.11953587666488
 34
0.0
100
AcDbRotatedDimension
  0
LWPOLYLINE
  5
148
330
18
100
AcDbEntity
  8
0
100
AcDbPolyline
 90
        6
 70
     0
 43
0.0
 10
-99.14598287142307
 20
12.96654262174626
 42
0.3170944297062296
 10
-99.79154285915505
 20
13.35948912813116
 42
0.3950209471960164
 10
-100.7506876436686
 20
12.53271120176439
 42
0.4726425685855601
 10
-99.66834992661915
 20
11.40688597929257
 10
-99.66834992661915
 20
10.40419786937911
 42
-0.3049764707057005
 10
-98.80702222384984
 20
9.718417475512309
 42
-0.245032441549933
  0
LWPOLYLINE
  5
150
330
18
100
AcDbEntity
  8
0
100
AcDbPolyline
 90
        7
 70
     0
 43
0.0
 10
-98.92919244719603
 20
12.96369117534028
 42
0.2919957087280021
 10
-99.77394381916752
 20
13.57937689737535
 42
0.4346057883455029
 10
-101.0058729129419
 20
12.47114264548521
 42
0.4142400966721824
 10
-99.92353519589244
 20
11.20458926025172
 10
-99.92353519589244
 20
10.21949212091993
 42
-0.2432395356196774
 10
-99.08758334391471
 20
9.920444824814893
 42
-0.0665471500164213
 10
-98.98824712003415
 20
9.718417475512309
 42
-0.2824632755724839
  0
LWPOLYLINE
  5
159
330
18
100
AcDbEntity
  8
0
100
AcDbPolyline
 90
        7
 70
     0
 43
0.0
 10
-99.18025563779274
 20
9.718417475512309
 42
0.1376198485318131
 10
-99.35156813318178
 20
9.841285218332386
 42
0.1144904067826119
 10
-100.1347230967814
 20
10.0347864520824
 10
-100.1347230967814
 20
11.01988351179253
 42
-0.4137615799501843
 10
-101.1466648854653
 20
12.41836957449687
 42
-0.4820307563904739
 10
-99.74754537497851
 20
13.7025140099337
 42
-0.3728778976889722
 10
-98.70931513111212
 20
12.96654262174626
 42
0.9473035228021117
  0
DIMENSION
  5
162
330
18
100
AcDbEntity
  8
ADPDIM
100
AcDbDimension
  2
*D1
 10
-101.7256089612723
 20
13.74050243658718
 30
0.0
 11
-101.7256089612723
 21
10.99050243658718
 31
0.0
100
AcDbAlignedDimension
 13
-100.0607178895644
 23
8.240502436587185
 33
0.0
 14
-99.83873243776629
 24
13.74050243658718
 34
0.0
 50
90.0
100
AcDbRotatedDimension
  0
LWPOLYLINE
  5
163
330
18
100
AcDbEntity
  8
0
100
AcDbPolyline
 90
        7
 70
     0
 43
0.0
 10
-98.98398757946436
 20
9.190417475512308
 42
-0.1274042611836575
 10
-99.21077627645063
 20
8.829801543506436
 42
-0.2824632755724839
 10
-100.205119025147
 20
8.495572226616381
 42
-0.3059009222738973
 10
-100.6010962669437
 20
8.838597108418925
 42
0.0897331100709519
 10
-100.7594871636624
 20
9.410305244756496
 42
0.6280225547164064
 10
-101.0850683613012
 20
9.410305244756496
 42
0.3189795339343473
 10
-100.829883092028
 20
8.530754247401389
 42
0.3486054359533295
  0
LWPOLYLINE
  5
16C
330
18
100
AcDbEntity
  8
0
100
AcDbPolyline
 90
        8
 70
     0
 43
0.0
 10
-98.78840059046488
 20
9.190417475512308
 42
-0.245032441549933
 10
-99.74754537497851
 20
8.240502436587185
 42
-0.3206088589101835
 10
-101.1730633296544
 20
8.961734220977279
 42
-0.1551976145055198
 10
-101.1818628496481
 20
9.471873801035673
 42
-0.7446256703733503
 10
-100.6186951911389
 20
9.471873801035673
 42
-0.0557534036173748
 10
-100.5043017785968
 20
8.988120756471447
 42
0.4732768037801366
 10
-99.53635747408947
 20
8.759437501936419
 42
0.1354962656046613
 10
-99.1983231526275
 20
9.190417475512308
 42
0.5186897741490614
  0
LINE
  5
176
330
18
100
AcDbEntity
  8
0
 62
     7
100
AcDbLine
 10
-99.2087409555792
 20
9.718417475512309
 30
0.0
 11
-99.28997172480997
 21
9.434109783204615
 31
0.0
  0
LINE
  5
177
330
18
100
AcDbEntity
  8
0
 62
     7
100
AcDbLine
 10
-99.28997172480997
 20
9.434109783204615
 30
0.0
 11
-99.2087409555792
 21
9.190417475512308
 31
0.0
  0
LINE
  5
178
330
18
100
AcDbEntity
  8
0
 62
     7
100
AcDbLine
 10
-97.93814064945541
 20
9.718417475512309
 30
0.0
 11
-98.23397172480998
 21
9.718417475512309
 31
0.0
  0
LINE
  5
179
330
18
100
AcDbEntity
  8
0
 62
     7
100
AcDbLine
 10
-98.10060218791695
 20
9.434109783204615
 30
0.0
 11
-98.18183295714772
 21
9.718417475512309
 31
0.0
  0
LINE
  5
17A
330
18
100
AcDbEntity
  8
0
 62
     7
100
AcDbLine
 10
-99.00566403250229
 20
9.434109783204615
 30
0.0
 11
-98.92443326327152
 21
9.718417475512309
 31
0.0
  0
LINE
  5
17B
330
18
100
AcDbEntity
  8
0
 62
     7
100
AcDbLine
 10
-98.18183295714772
 20
9.190417475512308
 30
0.0
 11
-98.10060218791695
 21
9.434109783204615
 31
0.0
  0
LINE
  5
17C
330
18
100
AcDbEntity
  8
0
 62
     7
100
AcDbLine
 10
-98.92443326327152
 20
9.190417475512308
 30
0.0
 11
-99.00566403250229
 21
9.434109783204615
 31
0.0
  0
LINE
  5
17D
330
18
100
AcDbEntity
  8
0
 62
     7
100
AcDbLine
 10
-98.59951018634843
 20
9.718417475512309
 30
0.0
 11
-99.16812557096381
 21
9.718417475512309
 31
0.0
  0
LINE
  5
17E
330
18
100
AcDbEntity
  8
0
 62
     7
100
AcDbLine
 10
-99.28997172480997
 20
12.68223492943856
 30
0.0
 11
-99.2087409555792
 21
12.43854262174626
 31
0.0
  0
LWPOLYLINE
  5
17F
330
18
100
AcDbEntity
  8
0
100
AcDbPolyline
 90
        5
 70
     0
 43
0.0
 10
-99.6859489666067
 20
11.75870634638596
 42
-0.3777324384055277
 10
-99.97633220006276
 20
12.04895815720016
 42
-0.688186729030334
 10
-99.66834992661915
 20
12.18968631996185
 42
0.4386765084841768
 10
-99.32516968899276
 20
12.06654920740349
 42
0.2360734382269612
 10
-98.97318993137259
 20
12.42716513940936
 42
-0.730014814411554
  0
LWPOLYLINE
  5
186
330
18
100
AcDbEntity
  8
0
100
AcDbPolyline
 90
        6
 70
     0
 43
0.0
 10
-98.73560358629456
 20
12.4359606247002
 42
-0.3779873711290261
 10
-99.75634489497227
 20
11.75870634638596
 42
-0.3405927521575832
 10
-100.1347230967814
 20
12.05775372211265
 42
-0.5860663761071395
 10
-99.77394381916752
 20
12.3568010182177
 42
0.0412862823210293
 10
-99.43076358154112
 20
12.23366390565934
 42
0.3699049198818976
 10
-99.13883596262538
 20
12.43854262174626
 42
0.5426869796051144
  0
LINE
  5
18E
330
18
100
AcDbEntity
  8
0
 62
     7
100
AcDbLine
 10
-99.2087409555792
 20
12.96654262174626
 30
0.0
 11
-99.28997172480997
 21
12.68223492943856
 31
0.0
  0
LINE
  5
18F
330
18
100
AcDbEntity
  8
0
 62
     7
100
AcDbLine
 10
-97.93814064945541
 20
12.96654262174626
 30
0.0
 11
-98.23397172480998
 21
12.96654262174626
 31
0.0
  0
LINE
  5
190
330
18
100
AcDbEntity
  8
0
 62
     7
100
AcDbLine
 10
-98.59951018634843
 20
12.96654262174626
 30
0.0
 11
-99.16812557096381
 21
12.96654262174626
 31
0.0
  0
LINE
  5
191
330
18
100
AcDbEntity
  8
0
 62
     7
100
AcDbLine
 10
-98.18183295714772
 20
12.43854262174626
 30
0.0
 11
-98.10060218791695
 21
12.68223492943856
 31
0.0
  0
LINE
  5
192
330
18
100
AcDbEntity
  8
0
 62
     7
100
AcDbLine
 10
-98.92443326327152
 20
12.43854262174626
 30
0.0
 11
-99.00566403250229
 21
12.68223492943856
 31
0.0
  0
LINE
  5
193
330
18
100
AcDbEntity
  8
0
 62
     7
100
AcDbLine
 10
-99.00566403250229
 20
12.68223492943856
 30
0.0
 11
-98.92443326327152
 21
12.96654262174626
 31
0.0
  0
LINE
  5
194
330
18
100
AcDbEntity
  8
0
 62
     7
100
AcDbLine
 10
-98.10060218791695
 20
12.68223492943856
 30
0.0
 11
-98.18183295714772
 21
12.96654262174626
 31
0.0
  0
LINE
  5
195
330
18
100
AcDbEntity
  8
0
 62
     7
100
AcDbLine
 10
-97.81629449560925
 20
9.434109783204615
 30
0.0
 11
-97.89752526484003
 21
9.718417475512309
 31
0.0
  0
LINE
  5
196
330
18
100
AcDbEntity
  8
0
 62
     7
100
AcDbLine
 10
-97.89752526484003
 20
9.190417475512308
 30
0.0
 11
-97.89752526484003
 21
9.190417475512308
 31
0.0
  0
LINE
  5
197
330
18
100
AcDbEntity
  8
0
 62
     7
100
AcDbLine
 10
-97.89752526484003
 20
9.190417475512308
 30
0.0
 11
-97.81629449560925
 21
9.434109783204615
 31
0.0
  0
LINE
  5
198
330
18
100
AcDbEntity
  8
0
 62
     7
100
AcDbLine
 10
-97.89752526484003
 20
12.43854262174626
 30
0.0
 11
-97.89752526484003
 21
12.43854262174626
 31
0.0
  0
LINE
  5
199
330
18
100
AcDbEntity
  8
0
 62
     7
100
AcDbLine
 10
-97.89752526484003
 20
12.43854262174626
 30
0.0
 11
-97.81629449560925
 21
12.68223492943856
 31
0.0
  0
LINE
  5
19A
330
18
100
AcDbEntity
  8
0
 62
     7
100
AcDbLine
 10
-97.81629449560925
 20
12.68223492943856
 30
0.0
 11
-97.89752526484003
 21
12.96654262174626
 31
0.0
  0
TEXT
  5
1A8
330
18
100
AcDbEntity
  8
ADPDIM
100
AcDbText
 10
-108.1645898652782
 20
7.345543938127808
 30
0.0
 40
0.1875
  1
J U L I U S  B L U M  &  C O . ,  I N C .      ( 8 0 0 )  5 2 6 - 6 2 9 3        W W W . J U L I U S B L U M . C O M        P A R T  N o .  9 6 6
 41
1.25
  7
ARIAL_WIDE
 72
     1
 11
-98.51252855900268
 21
7.533043938127808
 31
0.0
100
AcDbText
 73
     3
  0
ENDSEC
  0
SECTION
  2
OBJECTS
  0
DICTIONARY
  5
C
330
0
100
AcDbDictionary
  3
ACAD_GROUP
350
D
  3
ACAD_LAYOUT
350
1A1
  3
ACAD_MLINESTYLE
350
E
  3
ACAD_PLOTSETTINGS
350
1A2
  3
ACAD_PLOTSTYLENAME
350
19F
  3
ACDBHEADERROUNDTRIPXREC
350
2EC
  3
ACDBVARIABLEDICTIONARY
350
202
  0
DICTIONARY
  5
1FC
330
18
100
AcDbDictionary
280
     1
  3
ACAD_LAYOUTSELFREF
360
30D
  0
DICTIONARY
  5
1FA
330
15
100
AcDbDictionary
280
     1
  3
ACAD_LAYOUTSELFREF
360
30C
  0
DICTIONARY
  5
D
102
{ACAD_REACTORS
330
C
102
}
330
C
100
AcDbDictionary
  0
DICTIONARY
  5
1A1
102
{ACAD_REACTORS
330
C
102
}
330
C
100
AcDbDictionary
  0
DICTIONARY
  5
E
102
{ACAD_REACTORS
330
C
102
}
330
C
100
AcDbDictionary
  3
STANDARD
350
1B
  0
DICTIONARY
  5
1A2
102
{ACAD_REACTORS
330
C
102
}
330
C
100
AcDbDictionary
  0
ACDBDICTIONARYWDFLT
  5
19F
102
{ACAD_REACTORS
330
C
102
}
330
C
100
AcDbDictionary
281
     1
  3
Normal
350
1A0
100
AcDbDictionaryWithDefault
340
1A0
  0
DICTIONARY
  5
2EC
102
{ACAD_REACTORS
330
C
102
}
330
C
100
AcDbDictionary
  3
CEPSNTYPE
350
2F6
  3
FINGERPRINTGUID
350
2F7
  3
HYPERLINKBASE
350
2EF
  3
INSUNITS
350
2F5
  3
LAYOUTDICT
350
2F1
  3
LWETCUNION
350
2F4
  3
PLOTSETDICT
350
2F2
  3
PLOTSTYLNAMDICT
350
2F3
  3
PSVPSCALE
350
2F9
  3
PUCSBASE
350
2FC
  3
PUCSORGBACK
350
302
  3
PUCSORGBOTTOM
350
2FE
  3
PUCSORGFRONT
350
301
  3
PUCSORGLEFT
350
2FF
  3
PUCSORGRIGHT
350
300
  3
PUCSORGTOP
350
2FD
  3
PUCSORTHOREF
350
2FA
  3
PUCSORTHOVIEW
350
2FB
  3
STYLESHEET
350
2F0
  3
TSTACKALIGN
350
2ED
  3
TSTACKSIZE
350
2EE
  3
UCSBASE
350
305
  3
UCSORGBACK
350
30B
  3
UCSORGBOTTOM
350
307
  3
UCSORGFRONT
350
30A
  3
UCSORGLEFT
350
308
  3
UCSORGRIGHT
350
309
  3
UCSORGTOP
350
306
  3
UCSORTHOREF
350
303
  3
UCSORTHOVIEW
350
304
  3
VERSIONGUID
350
2F8
  0
DICTIONARY
  5
202
102
{ACAD_REACTORS
330
C
102
}
330
C
100
AcDbDictionary
  3
DIMASSOC
350
203
  0
XRECORD
  5
30D
102
{ACAD_REACTORS
330
1FC
102
}
330
1FC
100
AcDbXrecord
340
18
  0
XRECORD
  5
30C
102
{ACAD_REACTORS
330
1FA
102
}
330
1FA
100
AcDbXrecord
340
15
  0
MLINESTYLE
  5
1B
102
{ACAD_REACTORS
330
E
102
}
330
E
100
AcDbMlineStyle
  2
STANDARD
 70
     0
  3

 62
     0
 51
90.0
 52
90.0
 71
     2
 49
0.5
 62
   256
  6
BYLAYER
 49
-0.5
 62
   256
  6
BYLAYER
  0
ACDBPLACEHOLDER
  5
1A0
102
{ACAD_REACTORS
330
19F
102
}
330
19F
100
AcDbPlaceHolder
280
     0
  0
XRECORD
  5
2F6
102
{ACAD_REACTORS
330
2EC
102
}
330
2EC
100
AcDbXrecord
 90
        0
  0
XRECORD
  5
2F7
102
{ACAD_REACTORS
330
2EC
102
}
330
2EC
100
AcDbXrecord
  1
{CCDB8388-6C56-45BA-9419-B345B867E2D7}
  0
XRECORD
  5
2EF
102
{ACAD_REACTORS
330
2EC
102
}
330
2EC
100
AcDbXrecord
  1

  0
XRECORD
  5
2F5
102
{ACAD_REACTORS
330
2EC
102
}
330
2EC
100
AcDbXrecord
 90
        0
  0
XRECORD
  5
2F1
102
{ACAD_REACTORS
330
2EC
102
}
330
2EC
100
AcDbXrecord
340
1A1
  0
XRECORD
  5
2F4
102
{ACAD_REACTORS
330
2EC
102
}
330
2EC
100
AcDbXrecord
 90
    14877
  0
XRECORD
  5
2F2
102
{ACAD_REACTORS
330
2EC
102
}
330
2EC
100
AcDbXrecord
340
1A2
  0
XRECORD
  5
2F3
102
{ACAD_REACTORS
330
2EC
102
}
330
2EC
100
AcDbXrecord
340
19F
  0
XRECORD
  5
2F9
102
{ACAD_REACTORS
330
2EC
102
}
330
2EC
100
AcDbXrecord
 40
0.0
  0
XRECORD
  5
2FC
102
{ACAD_REACTORS
330
2EC
102
}
330
2EC
100
AcDbXrecord
340
0
  0
XRECORD
  5
302
102
{ACAD_REACTORS
330
2EC
102
}
330
2EC
100
AcDbXrecord
 10
0.0
 20
0.0
 30
0.0
  0
XRECORD
  5
2FE
102
{ACAD_REACTORS
330
2EC
102
}
330
2EC
100
AcDbXrecord
 10
0.0
 20
0.0
 30
0.0
  0
XRECORD
  5
301
102
{ACAD_REACTORS
330
2EC
102
}
330
2EC
100
AcDbXrecord
 10
0.0
 20
0.0
 30
0.0
  0
XRECORD
  5
2FF
102
{ACAD_REACTORS
330
2EC
102
}
330
2EC
100
AcDbXrecord
 10
0.0
 20
0.0
 30
0.0
  0
XRECORD
  5
300
102
{ACAD_REACTORS
330
2EC
102
}
330
2EC
100
AcDbXrecord
 10
0.0
 20
0.0
 30
0.0
  0
XRECORD
  5
2FD
102
{ACAD_REACTORS
330
2EC
102
}
330
2EC
100
AcDbXrecord
 10
0.0
 20
0.0
 30
0.0
  0
XRECORD
  5
2FA
102
{ACAD_REACTORS
330
2EC
102
}
330
2EC
100
AcDbXrecord
340
0
  0
XRECORD
  5
2FB
102
{ACAD_REACTORS
330
2EC
102
}
330
2EC
100
AcDbXrecord
 70
     0
  0
XRECORD
  5
2F0
102
{ACAD_REACTORS
330
2EC
102
}
330
2EC
100
AcDbXrecord
  1

  0
XRECORD
  5
2ED
102
{ACAD_REACTORS
330
2EC
102
}
330
2EC
100
AcDbXrecord
 90
        1
  0
XRECORD
  5
2EE
102
{ACAD_REACTORS
330
2EC
102
}
330
2EC
100
AcDbXrecord
 90
       70
  0
XRECORD
  5
305
102
{ACAD_REACTORS
330
2EC
102
}
330
2EC
100
AcDbXrecord
340
0
  0
XRECORD
  5
30B
102
{ACAD_REACTORS
330
2EC
102
}
330
2EC
100
AcDbXrecord
 10
0.0
 20
0.0
 30
0.0
  0
XRECORD
  5
307
102
{ACAD_REACTORS
330
2EC
102
}
330
2EC
100
AcDbXrecord
 10
0.0
 20
0.0
 30
0.0
  0
XRECORD
  5
30A
102
{ACAD_REACTORS
330
2EC
102
}
330
2EC
100
AcDbXrecord
 10
0.0
 20
0.0
 30
0.0
  0
XRECORD
  5
308
102
{ACAD_REACTORS
330
2EC
102
}
330
2EC
100
AcDbXrecord
 10
0.0
 20
0.0
 30
0.0
  0
XRECORD
  5
309
102
{ACAD_REACTORS
330
2EC
102
}
330
2EC
100
AcDbXrecord
 10
0.0
 20
0.0
 30
0.0
  0
XRECORD
  5
306
102
{ACAD_REACTORS
330
2EC
102
}
330
2EC
100
AcDbXrecord
 10
0.0
 20
0.0
 30
0.0
  0
XRECORD
  5
303
102
{ACAD_REACTORS
330
2EC
102
}
330
2EC
100
AcDbXrecord
340
0
  0
XRECORD
  5
304
102
{ACAD_REACTORS
330
2EC
102
}
330
2EC
100
AcDbXrecord
 70
     0
  0
XRECORD
  5
2F8
102
{ACAD_REACTORS
330
2EC
102
}
330
2EC
100
AcDbXrecord
  1
{1783BD97-E227-4943-8439-33585AE78518}
  0
DICTIONARYVAR
  5
203
102
{ACAD_REACTORS
330
202
102
}
330
202
100
DictionaryVariables
280
     0
  1
1
  0
ENDSEC
  0
EOF
