  0
SECTION
  2
HEADER
  9
$ACADVER
  1
AC1014
  9
$ACADMAINTVER
 70
     9
  9
$DWGCODEPAGE
  3
ANSI_1252
  9
$INSBASE
 10
-95.78302285563342
 20
22.90943101906
 30
0.0
  9
$EXTMIN
 10
-110.8340806226291
 20
21.76877533715614
 30
0.0
  9
$EXTMAX
 10
-85.09525047256092
 20
34.39398865184206
 30
0.0
  9
$LIMMIN
 10
0.0
 20
0.0
  9
$LIMMAX
 10
36.0
 20
36.0
  9
$ORTHOMODE
 70
     1
  9
$REGENMODE
 70
     1
  9
$FILLMODE
 70
     1
  9
$QTEXTMODE
 70
     0
  9
$MIRRTEXT
 70
     1
  9
$DRAGMODE
 70
     0
  9
$LTSCALE
 40
1.0
  9
$OSMODE
 70
    37
  9
$ATTMODE
 70
     1
  9
$TEXTSIZE
 40
0.2
  9
$TRACEWID
 40
0.05
  9
$TEXTSTYLE
  7
STANDARD
  9
$CLAYER
  8
ADPDIM
  9
$CELTYPE
  6
BYLAYER
  9
$CECOLOR
 62
   256
  9
$CELTSCALE
 40
1.0
  9
$DELOBJ
 70
     1
  9
$DISPSILH
 70
     0
  9
$DIMSCALE
 40
1.0
  9
$DIMASZ
 40
0.125
  9
$DIMEXO
 40
0.0625
  9
$DIMDLI
 40
0.38
  9
$DIMRND
 40
0.0
  9
$DIMDLE
 40
0.0
  9
$DIMEXE
 40
0.18
  9
$DIMTP
 40
0.0
  9
$DIMTM
 40
0.0
  9
$DIMTXT
 40
0.125
  9
$DIMCEN
 40
0.1875
  9
$DIMTSZ
 40
0.125
  9
$DIMTOL
 70
     0
  9
$DIMLIM
 70
     0
  9
$DIMTIH
 70
     0
  9
$DIMTOH
 70
     0
  9
$DIMSE1
 70
     0
  9
$DIMSE2
 70
     0
  9
$DIMTAD
 70
     0
  9
$DIMZIN
 70
     3
  9
$DIMBLK
  1

  9
$DIMASO
 70
     1
  9
$DIMSHO
 70
     1
  9
$DIMPOST
  1

  9
$DIMAPOST
  1

  9
$DIMALT
 70
     0
  9
$DIMALTD
 70
     1
  9
$DIMALTF
 40
25.4
  9
$DIMLFAC
 40
1.0
  9
$DIMTOFL
 70
     0
  9
$DIMTVP
 40
0.0
  9
$DIMTIX
 70
     0
  9
$DIMSOXD
 70
     0
  9
$DIMSAH
 70
     0
  9
$DIMBLK1
  1

  9
$DIMBLK2
  1

  9
$DIMSTYLE
  2
STANDARD
  9
$DIMCLRD
 70
     0
  9
$DIMCLRE
 70
     0
  9
$DIMCLRT
 70
     0
  9
$DIMTFAC
 40
1.0
  9
$DIMGAP
 40
0.125
  9
$DIMJUST
 70
     0
  9
$DIMSD1
 70
     0
  9
$DIMSD2
 70
     0
  9
$DIMTOLJ
 70
     1
  9
$DIMTZIN
 70
     0
  9
$DIMALTZ
 70
     0
  9
$DIMALTTZ
 70
     0
  9
$DIMFIT
 70
     3
  9
$DIMUPT
 70
     0
  9
$DIMUNIT
 70
     2
  9
$DIMDEC
 70
     4
  9
$DIMTDEC
 70
     4
  9
$DIMALTU
 70
     2
  9
$DIMALTTD
 70
     2
  9
$DIMTXSTY
  7
STANDARD
  9
$DIMAUNIT
 70
     0
  9
$LUNITS
 70
     5
  9
$LUPREC
 70
     5
  9
$SKETCHINC
 40
0.1
  9
$FILLETRAD
 40
0.062
  9
$AUNITS
 70
     0
  9
$AUPREC
 70
     0
  9
$MENU
  1
acad
  9
$ELEVATION
 40
0.0
  9
$PELEVATION
 40
0.0
  9
$THICKNESS
 40
0.0
  9
$LIMCHECK
 70
     0
  9
$BLIPMODE
 70
     0
  9
$CHAMFERA
 40
0.0
  9
$CHAMFERB
 40
0.0
  9
$CHAMFERC
 40
0.0
  9
$CHAMFERD
 40
0.0
  9
$SKPOLY
 70
     0
  9
$TDCREATE
 40
2450409.655108020
  9
$TDUPDATE
 40
2452297.078520324
  9
$TDINDWG
 40
0.0448629977
  9
$TDUSRTIMER
 40
0.0448629977
  9
$USRTIMER
 70
     1
  9
$ANGBASE
 50
0.0
  9
$ANGDIR
 70
     0
  9
$PDMODE
 70
     0
  9
$PDSIZE
 40
0.0
  9
$PLINEWID
 40
0.0
  9
$COORDS
 70
     2
  9
$SPLFRAME
 70
     0
  9
$SPLINETYPE
 70
     6
  9
$SPLINESEGS
 70
     8
  9
$ATTDIA
 70
     0
  9
$ATTREQ
 70
     1
  9
$HANDLING
 70
 22529
  9
$HANDSEED
  5
333
  9
$SURFTAB1
 70
     6
  9
$SURFTAB2
 70
     6
  9
$SURFTYPE
 70
     6
  9
$SURFU
 70
     6
  9
$SURFV
 70
     6
  9
$UCSNAME
  2

  9
$UCSORG
 10
0.0
 20
0.0
 30
0.0
  9
$UCSXDIR
 10
1.0
 20
0.0
 30
0.0
  9
$UCSYDIR
 10
0.0
 20
1.0
 30
0.0
  9
$PUCSNAME
  2

  9
$PUCSORG
 10
0.0
 20
0.0
 30
0.0
  9
$PUCSXDIR
 10
1.0
 20
0.0
 30
0.0
  9
$PUCSYDIR
 10
0.0
 20
1.0
 30
0.0
  9
$USERI1
 70
     0
  9
$USERI2
 70
     0
  9
$USERI3
 70
     0
  9
$USERI4
 70
     0
  9
$USERI5
 70
     0
  9
$USERR1
 40
0.0
  9
$USERR2
 40
0.0
  9
$USERR3
 40
0.0
  9
$USERR4
 40
0.0
  9
$USERR5
 40
0.0
  9
$WORLDVIEW
 70
     1
  9
$SHADEDGE
 70
     3
  9
$SHADEDIF
 70
    70
  9
$TILEMODE
 70
     1
  9
$MAXACTVP
 70
    15
  9
$PINSBASE
 10
0.0009765857830644
 20
1.500170956078392
 30
0.0
  9
$PLIMCHECK
 70
     0
  9
$PEXTMIN
 10
1.000000000000000E+20
 20
1.000000000000000E+20
 30
1.000000000000000E+20
  9
$PEXTMAX
 10
-1.000000000000000E+20
 20
-1.000000000000000E+20
 30
-1.000000000000000E+20
  9
$PLIMMIN
 10
0.0
 20
0.0
  9
$PLIMMAX
 10
12.0
 20
9.0
  9
$UNITMODE
 70
     0
  9
$VISRETAIN
 70
     0
  9
$PLINEGEN
 70
     0
  9
$PSLTSCALE
 70
     1
  9
$TREEDEPTH
 70
  3020
  9
$PICKSTYLE
 70
     1
  9
$CMLSTYLE
  2
STANDARD
  9
$CMLJUST
 70
     0
  9
$CMLSCALE
 40
1.0
  9
$PROXYGRAPHICS
 70
     1
  9
$MEASUREMENT
 70
     0
  0
ENDSEC
  0
SECTION
  2
CLASSES
  0
CLASS
  1
ACDBDICTIONARYWDFLT
  2
AcDbDictionaryWithDefault
  3
AutoCAD 2000
 90
        0
280
     0
281
     0
  0
CLASS
  1
ACDBPLACEHOLDER
  2
AcDbPlaceHolder
  3
AutoCAD 2000
 90
        0
280
     0
281
     0
  0
CLASS
  1
LAYOUT
  2
AcDbLayout
  3
AutoCAD 2000
 90
        0
280
     0
281
     0
  0
CLASS
  1
DICTIONARYVAR
  2
AcDbDictionaryVar
  3
AutoCAD 2000
 90
        0
280
     0
281
     0
  0
CLASS
  1
LONG_TRANSACTION
  2
AcDbLongTransaction
  3
AutoCAD 2000
 90
        0
280
     0
281
     0
  0
CLASS
  1
LWPOLYLINE
  2
AcDbPolyline
  3
AutoCAD 2000
 90
        0
280
     0
281
     1
  0
CLASS
  1
HATCH
  2
AcDbHatch
  3
AutoCAD 2000
 90
        0
280
     0
281
     1
  0
CLASS
  1
XRECORD
  2
AcDbXrecord
  3
AutoCAD 2000
 90
        0
280
     0
281
     0
  0
CLASS
  1
LONG_TRANSACTION
  2
AcDbLongTransaction
  3
AutoCAD 2000
 90
        0
280
     0
281
     0
  0
CLASS
  1
LWPOLYLINE
  2
AcDbPolyline
  3
AutoCAD 2000
 90
        0
280
     0
281
     1
  0
CLASS
  1
HATCH
  2
AcDbHatch
  3
AutoCAD 2000
 90
        0
280
     0
281
     1
  0
CLASS
  1
XRECORD
  2
AcDbXrecord
  3
AutoCAD 2000
 90
        0
280
     0
281
     0
  0
CLASS
  1
LONG_TRANSACTION
  2
AcDbLongTransaction
  3
AutoCAD 2000
 90
        0
280
     0
281
     0
  0
CLASS
  1
LWPOLYLINE
  2
AcDbPolyline
  3
AutoCAD 2000
 90
        0
280
     0
281
     1
  0
CLASS
  1
HATCH
  2
AcDbHatch
  3
AutoCAD 2000
 90
        0
280
     0
281
     1
  0
CLASS
  1
XRECORD
  2
AcDbXrecord
  3
AutoCAD 2000
 90
        0
280
     0
281
     0
  0
CLASS
  1
LONG_TRANSACTION
  2
AcDbLongTransaction
  3
AutoCAD 2000
 90
        0
280
     0
281
     0
  0
CLASS
  1
LWPOLYLINE
  2
AcDbPolyline
  3
AutoCAD 2000
 90
        0
280
     0
281
     1
  0
CLASS
  1
HATCH
  2
AcDbHatch
  3
AutoCAD 2000
 90
        0
280
     0
281
     1
  0
CLASS
  1
XRECORD
  2
AcDbXrecord
  3
AutoCAD 2000
 90
        0
280
     0
281
     0
  0
CLASS
  1
LONG_TRANSACTION
  2
AcDbLongTransaction
  3
AutoCAD 2000
 90
        0
280
     0
281
     0
  0
CLASS
  1
LWPOLYLINE
  2
AcDbPolyline
  3
AutoCAD 2000
 90
        0
280
     0
281
     1
  0
CLASS
  1
HATCH
  2
AcDbHatch
  3
AutoCAD 2000
 90
        0
280
     0
281
     1
  0
CLASS
  1
XRECORD
  2
AcDbXrecord
  3
AutoCAD 2000
 90
        0
280
     0
281
     0
  0
ENDSEC
  0
SECTION
  2
TABLES
  0
TABLE
  2
VPORT
  5
8
330
0
100
AcDbSymbolTable
 70
     2
  0
VPORT
  5
310
330
8
100
AcDbSymbolTableRecord
100
AcDbViewportTableRecord
  2
*ACTIVE
 70
     0
 10
0.0
 20
0.0
 11
1.0
 21
1.0
 12
-97.94612541540322
 22
28.08132944125837
 13
0.0
 23
0.0
 14
0.5740882589684922
 24
0.5740882589684922
 15
0.5
 25
0.5
 16
0.0
 26
0.0
 36
1.0
 17
0.0
 27
0.0
 37
0.0
 40
16.50482127897754
 41
1.570528967254408
 42
50.0
 43
0.0
 44
0.0
 50
0.0
 51
0.0
 71
     0
 72
   100
 73
     1
 74
     0
 75
     0
 76
     0
 77
     0
 78
     0
  0
ENDTAB
  0
TABLE
  2
LTYPE
  5
5
330
0
100
AcDbSymbolTable
 70
     1
  0
LTYPE
  5
12
330
5
100
AcDbSymbolTableRecord
100
AcDbLinetypeTableRecord
  2
BYBLOCK
 70
     0
  3

 72
    65
 73
     0
 40
0.0
  0
LTYPE
  5
13
330
5
100
AcDbSymbolTableRecord
100
AcDbLinetypeTableRecord
  2
BYLAYER
 70
     0
  3

 72
    65
 73
     0
 40
0.0
  0
LTYPE
  5
14
330
5
100
AcDbSymbolTableRecord
100
AcDbLinetypeTableRecord
  2
CONTINUOUS
 70
     0
  3
Solid line
 72
    65
 73
     0
 40
0.0
  0
ENDTAB
  0
TABLE
  2
LAYER
  5
2
330
0
100
AcDbSymbolTable
 70
     3
  0
LAYER
  5
F
330
2
100
AcDbSymbolTableRecord
100
AcDbLayerTableRecord
  2
0
 70
     0
 62
     7
  6
CONTINUOUS
  0
LAYER
  5
DD
330
2
100
AcDbSymbolTableRecord
100
AcDbLayerTableRecord
  2
DEFPOINTS
 70
     0
 62
     7
  6
CONTINUOUS
  0
LAYER
  5
E0
330
2
100
AcDbSymbolTableRecord
100
AcDbLayerTableRecord
  2
ADPDIM
 70
     0
 62
     3
  6
CONTINUOUS
  0
ENDTAB
  0
TABLE
  2
STYLE
  5
3
330
0
100
AcDbSymbolTable
 70
     2
  0
STYLE
  5
10
330
3
100
AcDbSymbolTableRecord
100
AcDbTextStyleTableRecord
  2
STANDARD
 70
     0
 40
0.0
 41
1.0
 50
0.0
 71
     0
 42
0.2
  3
txt
  4

  0
STYLE
  5
1CC
330
3
100
AcDbSymbolTableRecord
100
AcDbTextStyleTableRecord
  2
ARIAL_WIDE
 70
     0
 40
0.0
 41
1.25
 50
0.0
 71
     0
 42
0.2
  3
ARIAL.TTF
  4

1001
ACAD
1000
Arial
1071
       34
  0
ENDTAB
  0
TABLE
  2
VIEW
  5
6
330
0
100
AcDbSymbolTable
 70
     0
  0
ENDTAB
  0
TABLE
  2
UCS
  5
7
330
0
100
AcDbSymbolTable
 70
     0
  0
ENDTAB
  0
TABLE
  2
APPID
  5
9
330
0
100
AcDbSymbolTable
 70
     1
  0
APPID
  5
11
330
9
100
AcDbSymbolTableRecord
100
AcDbRegAppTableRecord
  2
ACAD
 70
     0
  0
ENDTAB
  0
TABLE
  2
DIMSTYLE
  5
A
330
0
100
AcDbSymbolTable
 70
     1
  0
DIMSTYLE
105
1C0
330
A
100
AcDbSymbolTableRecord
100
AcDbDimStyleTableRecord
  2
STANDARD
 70
     0
  3

  4

  5

  6

  7

 40
1.0
 41
0.18
 42
0.0625
 43
0.38
 44
0.18
 45
0.0
 46
0.0
 47
0.0
 48
0.0
140
0.18
141
0.09
142
0.0
143
25.4
144
1.0
145
0.0
146
1.0
147
0.09
 71
     0
 72
     0
 73
     1
 74
     1
 75
     0
 76
     0
 77
     0
 78
     0
170
     0
171
     2
172
     0
173
     0
174
     0
175
     0
176
     0
177
     0
178
     0
270
     2
271
     4
272
     4
273
     2
274
     2
340
10
275
     0
280
     0
281
     0
282
     0
283
     1
284
     0
285
     0
286
     0
287
     3
288
     0
  0
ENDTAB
  0
TABLE
  2
BLOCK_RECORD
  5
1
330
0
100
AcDbSymbolTable
 70
     2
  0
BLOCK_RECORD
  5
18
102
{ACAD_XDICTIONARY
360
221
102
}
330
1
100
AcDbSymbolTableRecord
100
AcDbBlockTableRecord
  2
*MODEL_SPACE
  0
BLOCK_RECORD
  5
15
102
{ACAD_XDICTIONARY
360
21F
102
}
330
1
100
AcDbSymbolTableRecord
100
AcDbBlockTableRecord
  2
*PAPER_SPACE
  0
BLOCK_RECORD
  5
D6
330
1
100
AcDbSymbolTableRecord
100
AcDbBlockTableRecord
  2
*D0
  0
BLOCK_RECORD
  5
D8
330
1
100
AcDbSymbolTableRecord
100
AcDbBlockTableRecord
  2
*D1
  0
ENDTAB
  0
ENDSEC
  0
SECTION
  2
BLOCKS
  0
BLOCK
  5
E3
330
18
100
AcDbEntity
  8
0
100
AcDbBlockBegin
  2
*MODEL_SPACE
 70
     0
 10
0.0
 20
0.0
 30
0.0
  3
*MODEL_SPACE
  1

  0
ENDBLK
  5
E4
330
18
100
AcDbEntity
  8
0
100
AcDbBlockEnd
  0
BLOCK
  5
E1
330
15
100
AcDbEntity
 67
     1
  8
0
100
AcDbBlockBegin
  2
*PAPER_SPACE
 70
     0
 10
0.0
 20
0.0
 30
0.0
  3
*PAPER_SPACE
  1

  0
ENDBLK
  5
E2
330
15
100
AcDbEntity
 67
     1
  8
0
100
AcDbBlockEnd
  0
BLOCK
  5
E6
330
D6
100
AcDbEntity
  8
0
100
AcDbBlockBegin
  2
*D0
 70
     1
 10
0.0
 20
0.0
 30
0.0
  3
*D0
  1

  0
LINE
  5
E7
330
D6
100
AcDbEntity
  8
0
  6
BYBLOCK
 62
     0
100
AcDbLine
 10
-102.0303746086983
 20
28.33985934110673
 30
0.0
 11
-102.0303746086983
 21
34.39398865184206
 31
0.0
  0
LINE
  5
E8
330
D6
100
AcDbEntity
  8
0
  6
BYBLOCK
 62
     0
100
AcDbLine
 10
-94.0303746086983
 20
28.45082451160275
 30
0.0
 11
-94.0303746086983
 21
34.39398865184206
 31
0.0
  0
LINE
  5
E9
330
D6
100
AcDbEntity
  8
0
  6
BYBLOCK
 62
     0
100
AcDbLine
 10
-102.0303746086983
 20
34.21398865184206
 30
0.0
 11
-98.19704127536496
 21
34.21398865184206
 31
0.0
  0
LINE
  5
EA
330
D6
100
AcDbEntity
  8
0
  6
BYBLOCK
 62
     0
100
AcDbLine
 10
-94.0303746086983
 20
34.21398865184206
 30
0.0
 11
-97.86370794203163
 21
34.21398865184206
 31
0.0
  0
LINE
  5
EB
330
D6
100
AcDbEntity
  8
0
  6
BYBLOCK
 62
     0
100
AcDbLine
 10
-102.1553746086983
 20
34.08898865184206
 30
0.0
 11
-101.9053746086983
 21
34.33898865184206
 31
0.0
  0
LINE
  5
EC
330
D6
100
AcDbEntity
  8
0
  6
BYBLOCK
 62
     0
100
AcDbLine
 10
-94.15537460869829
 20
34.08898865184206
 30
0.0
 11
-93.90537460869829
 21
34.33898865184206
 31
0.0
  0
TEXT
  5
ED
330
D6
100
AcDbEntity
  8
0
  6
BYBLOCK
 62
     0
100
AcDbText
 10
-98.07204127536497
 20
34.15148865184206
 30
0.0
 40
0.125
  1
8
 72
     1
 11
-98.0303746086983
 21
34.21398865184206
 31
0.0
100
AcDbText
 73
     2
  0
POINT
  5
EE
330
D6
100
AcDbEntity
  8
DEFPOINTS
  6
BYBLOCK
 62
     0
100
AcDbPoint
 10
-102.0303746086983
 20
28.27735934110673
 30
0.0
  0
POINT
  5
EF
330
D6
100
AcDbEntity
  8
DEFPOINTS
  6
BYBLOCK
 62
     0
100
AcDbPoint
 10
-94.0303746086983
 20
28.38832451160275
 30
0.0
  0
POINT
  5
F0
330
D6
100
AcDbEntity
  8
DEFPOINTS
  6
BYBLOCK
 62
     0
100
AcDbPoint
 10
-94.0303746086983
 20
34.21398865184206
 30
0.0
  0
ENDBLK
  5
F1
330
D6
100
AcDbEntity
  8
0
100
AcDbBlockEnd
  0
BLOCK
  5
F2
330
D8
100
AcDbEntity
  8
0
100
AcDbBlockBegin
  2
*D1
 70
     1
 10
0.0
 20
0.0
 30
0.0
  3
*D1
  1

  0
LINE
  5
F3
330
D8
100
AcDbEntity
  8
0
  6
BYBLOCK
 62
     0
100
AcDbLine
 10
-95.66950102983556
 20
22.84007268837002
 30
0.0
 11
-93.3321465118535
 21
22.84007268837002
 31
0.0
  0
LINE
  5
F4
330
D8
100
AcDbEntity
  8
0
  6
BYBLOCK
 62
     0
100
AcDbLine
 10
-95.66950102983556
 20
33.84007268837002
 30
0.0
 11
-93.3321465118535
 21
33.84007268837002
 31
0.0
  0
LINE
  5
F5
330
D8
100
AcDbEntity
  8
0
  6
BYBLOCK
 62
     0
100
AcDbLine
 10
-93.51214651185351
 20
22.84007268837002
 30
0.0
 11
-93.51214651185351
 21
28.15257268837002
 31
0.0
  0
LINE
  5
F6
330
D8
100
AcDbEntity
  8
0
  6
BYBLOCK
 62
     0
100
AcDbLine
 10
-93.51214651185351
 20
33.84007268837002
 30
0.0
 11
-93.51214651185351
 21
28.52757268837002
 31
0.0
  0
LINE
  5
F7
330
D8
100
AcDbEntity
  8
0
  6
BYBLOCK
 62
     0
100
AcDbLine
 10
-93.38714651185352
 20
22.71507268837002
 30
0.0
 11
-93.63714651185352
 21
22.96507268837002
 31
0.0
  0
LINE
  5
F8
330
D8
100
AcDbEntity
  8
0
  6
BYBLOCK
 62
     0
100
AcDbLine
 10
-93.38714651185352
 20
33.71507268837002
 30
0.0
 11
-93.63714651185352
 21
33.96507268837002
 31
0.0
  0
TEXT
  5
F9
330
D8
100
AcDbEntity
  8
0
  6
BYBLOCK
 62
     0
100
AcDbText
 10
-93.44964651185351
 20
28.27757268837002
 30
0.0
 40
0.125
  1
11
 50
90.0
 72
     1
 11
-93.51214651185351
 21
28.34007268837002
 31
0.0
100
AcDbText
 73
     2
  0
POINT
  5
FA
330
D8
100
AcDbEntity
  8
DEFPOINTS
  6
BYBLOCK
 62
     0
100
AcDbPoint
 10
-95.73200102983555
 20
22.84007268837002
 30
0.0
  0
POINT
  5
FB
330
D8
100
AcDbEntity
  8
DEFPOINTS
  6
BYBLOCK
 62
     0
100
AcDbPoint
 10
-95.73200102983555
 20
33.84007268837002
 30
0.0
  0
POINT
  5
FC
330
D8
100
AcDbEntity
  8
DEFPOINTS
  6
BYBLOCK
 62
     0
100
AcDbPoint
 10
-93.51214651185351
 20
33.84007268837002
 30
0.0
  0
ENDBLK
  5
FD
330
D8
100
AcDbEntity
  8
0
100
AcDbBlockEnd
  0
ENDSEC
  0
SECTION
  2
ENTITIES
  0
LWPOLYLINE
  5
FE
330
18
100
AcDbEntity
  8
0
100
AcDbPolyline
 90
        8
 70
     0
 43
0.0
 10
-97.35738459183336
 20
32.50764062673752
 42
-0.0988893966893866
 10
-97.24325496140615
 20
32.85584280715498
 42
-0.4191043408770553
 10
-95.7033139678864
 20
33.07573479239435
 42
-0.1276815197091166
 10
-95.33984962631089
 20
32.13880370631811
 42
0.4963606199492291
 10
-94.80421794173516
 20
32.26309046999265
 42
0.2592285895368191
 10
-94.99551494031047
 20
33.07573479239435
 42
0.3280993722287846
 10
-96.76501242068544
 20
33.6684870686573
 42
0.306969476613947
 10
-97.85285812829364
 20
32.50764062673752
 42
0.2267585941505648
  0
LINE
  5
108
330
18
100
AcDbEntity
  8
0
 62
     7
100
AcDbLine
 10
-98.90360537792908
 20
32.26394831904521
 30
0.0
 11
-97.15714383946753
 21
32.26394831904521
 31
0.0
  0
LINE
  5
109
330
18
100
AcDbEntity
  8
0
 62
     7
100
AcDbLine
 10
-97.2383746086983
 20
31.97964062673751
 30
0.0
 11
-98.82237460869831
 21
31.97964062673751
 31
0.0
  0
LINE
  5
10A
330
18
100
AcDbEntity
  8
0
 62
     7
100
AcDbLine
 10
-98.82237460869831
 20
32.50764062673752
 30
0.0
 11
-97.2383746086983
 21
32.50764062673752
 31
0.0
  0
LWPOLYLINE
  5
10B
330
18
100
AcDbEntity
  8
0
100
AcDbPolyline
 90
        8
 70
     0
 43
0.0
 10
-97.35738459183336
 20
24.06418682908403
 42
0.0988893966893866
 10
-97.24325496140615
 20
23.71598464866656
 42
0.4191043408770553
 10
-95.7033139678864
 20
23.49609266342719
 42
0.1276815197091166
 10
-95.33984962631089
 20
24.43302374950343
 42
-0.4963606199492291
 10
-94.80421794173516
 20
24.3087369858289
 42
-0.2592285895368191
 10
-94.99551494031047
 20
23.49609266342719
 42
-0.3280993722287846
 10
-96.76501242068544
 20
22.90334038716424
 42
-0.306969476613947
 10
-97.85285812829364
 20
24.06418682908403
 42
-0.2267585941505648
  0
LINE
  5
115
330
18
100
AcDbEntity
  8
0
 62
     7
100
AcDbLine
 10
-98.90360537792908
 20
24.30787913677633
 30
0.0
 11
-97.15714383946753
 21
24.30787913677633
 31
0.0
  0
LINE
  5
116
330
18
100
AcDbEntity
  8
0
 62
     7
100
AcDbLine
 10
-98.82237460869831
 20
24.06418682908403
 30
0.0
 11
-97.2383746086983
 21
24.06418682908403
 31
0.0
  0
LINE
  5
117
330
18
100
AcDbEntity
  8
0
 62
     7
100
AcDbLine
 10
-97.2383746086983
 20
24.59218682908403
 30
0.0
 11
-98.82237460869831
 21
24.59218682908403
 31
0.0
  0
DIMENSION
  5
118
330
18
100
AcDbEntity
  8
ADPDIM
100
AcDbDimension
  2
*D0
 10
-94.0303746086983
 20
34.21398865184206
 30
0.0
 11
-98.0303746086983
 21
34.21398865184206
 31
0.0
100
AcDbAlignedDimension
 13
-102.0303746086983
 23
28.27735934110673
 33
0.0
 14
-94.0303746086983
 24
28.38832451160275
 34
0.0
100
AcDbRotatedDimension
  0
LINE
  5
119
330
18
100
AcDbEntity
  8
0
 62
     7
100
AcDbLine
 10
-98.53806691639061
 20
32.50764062673752
 30
0.0
 11
-98.61929768562138
 21
32.26394831904521
 31
0.0
  0
LINE
  5
11A
330
18
100
AcDbEntity
  8
0
 62
     7
100
AcDbLine
 10
-98.90360537792908
 20
32.26394831904521
 30
0.0
 11
-98.82237460869831
 21
32.50764062673752
 31
0.0
  0
LWPOLYLINE
  5
11B
330
18
100
AcDbEntity
  8
0
100
AcDbPolyline
 90
        5
 70
     0
 43
0.0
 10
-98.48740939314769
 20
32.50764062673752
 42
0.0942208584820165
 10
-98.60146378413812
 20
32.92276642571073
 42
0.4137614913410295
 10
-100.4570449802956
 20
33.35298986185309
 42
0.248446010820784
 10
-101.059630547949
 20
32.32045361511142
 42
0.3664473649374643
 10
-100.8587687215862
 20
32.062319553426
 42
0.103886765773214
  0
LWPOLYLINE
  5
122
330
18
100
AcDbEntity
  8
0
100
AcDbPolyline
 90
        8
 70
     0
 43
0.0
 10
-98.71689064056614
 20
32.50764062673752
 42
0.0988893966893866
 10
-98.83102027099335
 20
32.85584280715498
 42
0.4191043408770553
 10
-100.370961264513
 20
33.07573479239435
 42
0.1276815197091166
 10
-100.7344256060886
 20
32.13880370631811
 42
-0.4963606199492291
 10
-101.2700572906643
 20
32.26309046999265
 42
-0.2592285895368191
 10
-101.078760292089
 20
33.07573479239435
 42
-0.3280993722287846
 10
-99.30926281171405
 20
33.6684870686573
 42
-0.3069694766139471
 10
-98.22141710410583
 20
32.50764062673752
 42
-0.2267585941505648
  0
LWPOLYLINE
  5
12C
330
18
100
AcDbEntity
  8
0
100
AcDbPolyline
 90
        8
 70
     0
 43
0.0
 10
-98.71689064056614
 20
24.06418682908403
 42
-0.0988893966893866
 10
-98.83102027099335
 20
23.71598464866656
 42
-0.4191043408770553
 10
-100.370961264513
 20
23.49609266342719
 42
-0.1276815197091166
 10
-100.7344256060886
 20
24.43302374950343
 42
0.4963606199492291
 10
-101.2700572906643
 20
24.3087369858289
 42
0.2592285895368191
 10
-101.078760292089
 20
23.49609266342719
 42
0.3280993722287846
 10
-99.30926281171405
 20
22.90334038716424
 42
0.3069694766139471
 10
-98.22141710410583
 20
24.06418682908403
 42
0.2267585941505648
  0
LWPOLYLINE
  5
136
330
18
100
AcDbEntity
  8
0
100
AcDbPolyline
 90
        5
 70
     0
 43
0.0
 10
-98.48740939314769
 20
24.06418682908403
 42
-0.0942208584820165
 10
-98.60146378413812
 20
23.64906103011081
 42
-0.4137614913410295
 10
-100.4570449802956
 20
23.21883759396845
 42
-0.248446010820784
 10
-101.059630547949
 20
24.25137384071012
 42
-0.3664473649374643
 10
-100.8587687215862
 20
24.50950790239554
 42
-0.103886765773214
  0
LWPOLYLINE
  5
13D
330
18
100
AcDbEntity
  8
0
100
AcDbPolyline
 90
        6
 70
     0
 43
0.0
 10
-98.23732628590088
 20
24.59218682908403
 42
0.0790433623262304
 10
-98.40060195777526
 20
25.00665501799304
 42
0.2267585941505648
 10
-99.52925438221686
 20
25.48468106491783
 10
-99.52925438221686
 20
26.6223830675607
 42
-0.1178702001476923
 10
-100.5144340355857
 20
26.9091987322552
 42
-0.2845222274170798
 10
-101.3465760900944
 20
28.28591372791077
 42
-0.9893406192621164
  0
LWPOLYLINE
  5
145
330
18
100
AcDbEntity
  8
0
100
AcDbPolyline
 90
        6
 70
     0
 43
0.0
 10
-101.9682914904527
 20
28.28591372791077
 42
0.302979606083258
 10
-100.8492038937986
 20
26.55545944900495
 42
0.0282911063676699
 10
-99.93097812350745
 20
26.25908324997409
 10
-99.93097812350745
 20
25.15962332377727
 42
-0.0400970821542046
 10
-99.29969798392649
 20
25.0448970944391
 42
-0.1847230656332813
 10
-98.8079973971017
 20
24.59218682908403
 42
-0.4191043408770553
  0
LWPOLYLINE
  5
14D
330
18
100
AcDbEntity
  8
0
100
AcDbPolyline
 90
        6
 70
     0
 43
0.0
 10
-101.6717810319549
 20
28.28591372791077
 42
0.258875864270835
 10
-100.724860778301
 20
26.7275488234619
 42
0.069646139335822
 10
-99.76837569685965
 20
26.41205161665769
 10
-99.76837569685965
 20
25.31259169046088
 42
-0.1028157336281643
 10
-99.18491969621646
 20
25.21698646889605
 42
-0.1977337769915112
 10
-98.56920759764024
 20
24.59218682908403
 42
-0.4137614913410295
  0
LINE
  5
155
330
18
100
AcDbEntity
  8
0
 62
     7
100
AcDbLine
 10
-98.61929768562138
 20
24.30787913677633
 30
0.0
 11
-98.53806691639061
 21
24.59218682908403
 31
0.0
  0
LINE
  5
156
330
18
100
AcDbEntity
  8
0
 62
     7
100
AcDbLine
 10
-98.82237460869831
 20
24.59218682908403
 30
0.0
 11
-98.90360537792908
 21
24.30787913677633
 31
0.0
  0
LINE
  5
157
330
18
100
AcDbEntity
  8
0
 62
     7
100
AcDbLine
 10
-98.90360537792908
 20
24.30787913677633
 30
0.0
 11
-98.82237460869831
 21
24.06418682908403
 31
0.0
  0
LINE
  5
158
330
18
100
AcDbEntity
  8
0
 62
     7
100
AcDbLine
 10
-98.53806691639061
 20
24.06418682908403
 30
0.0
 11
-98.61929768562138
 21
24.30787913677633
 31
0.0
  0
LINE
  5
159
330
18
100
AcDbEntity
  8
0
 62
     7
100
AcDbLine
 10
-98.21314383946754
 20
24.59218682908403
 30
0.0
 11
-98.78175922408292
 21
24.59218682908403
 31
0.0
  0
LWPOLYLINE
  5
15A
330
18
100
AcDbEntity
  8
0
100
AcDbPolyline
 90
        6
 70
     0
 43
0.0
 10
-98.23732628590088
 20
31.97964062673751
 42
-0.0790433623262304
 10
-98.40060195777526
 20
31.5651724378285
 42
-0.2267585941505648
 10
-99.52925438221686
 20
31.08714639090371
 10
-99.52925438221686
 20
29.94944438826084
 42
0.1178702001476923
 10
-100.5144340355857
 20
29.66262872356634
 42
0.2845222274170798
 10
-101.3465760900944
 20
28.28591372791077
 42
0.9893406192621164
  0
LWPOLYLINE
  5
162
330
18
100
AcDbEntity
  8
0
100
AcDbPolyline
 90
        6
 70
     0
 43
0.0
 10
-101.6717810319549
 20
28.28591372791077
 42
-0.258875864270835
 10
-100.724860778301
 20
29.84427863235964
 42
-0.069646139335822
 10
-99.76837569685965
 20
30.15977583916384
 10
-99.76837569685965
 20
31.25923576536066
 42
0.1028157336281643
 10
-99.18491969621646
 20
31.35484098692549
 42
0.1977337769915112
 10
-98.56920759764024
 20
31.97964062673751
 42
0.4137614913410295
  0
LWPOLYLINE
  5
16A
330
18
100
AcDbEntity
  8
0
100
AcDbPolyline
 90
        6
 70
     0
 43
0.0
 10
-101.9682914904527
 20
28.28591372791077
 42
-0.302979606083258
 10
-100.8492038937986
 20
30.01636800681659
 42
-0.0282911063676699
 10
-99.93097812350745
 20
30.31274420584745
 10
-99.93097812350745
 20
31.41220413204427
 42
0.0400970821542046
 10
-99.29969798392649
 20
31.52693036138244
 42
0.1847230656332813
 10
-98.8079973971017
 20
31.97964062673751
 42
0.4191043408770553
  0
LINE
  5
172
330
18
100
AcDbEntity
  8
0
 62
     7
100
AcDbLine
 10
-98.61929768562138
 20
32.26394831904521
 30
0.0
 11
-98.53806691639061
 21
31.97964062673751
 31
0.0
  0
LINE
  5
173
330
18
100
AcDbEntity
  8
0
 62
     7
100
AcDbLine
 10
-98.82237460869831
 20
31.97964062673751
 30
0.0
 11
-98.90360537792908
 21
32.26394831904521
 31
0.0
  0
LINE
  5
174
330
18
100
AcDbEntity
  8
0
 62
     7
100
AcDbLine
 10
-98.21314383946754
 20
31.97964062673751
 30
0.0
 11
-98.78175922408292
 21
31.97964062673751
 31
0.0
  0
LINE
  5
175
330
18
100
AcDbEntity
  8
0
 62
     7
100
AcDbLine
 10
-97.52268230100598
 20
32.50764062673752
 30
0.0
 11
-97.44145153177521
 21
32.26394831904521
 31
0.0
  0
LINE
  5
176
330
18
100
AcDbEntity
  8
0
 62
     7
100
AcDbLine
 10
-97.2383746086983
 20
32.50764062673752
 30
0.0
 11
-97.15714383946753
 21
32.26394831904521
 31
0.0
  0
LWPOLYLINE
  5
177
330
18
100
AcDbEntity
  8
0
100
AcDbPolyline
 90
        5
 70
     0
 43
0.0
 10
-97.58686583925181
 20
32.50764062673752
 42
-0.0942208584820165
 10
-97.47281144826137
 20
32.92276642571073
 42
-0.4137614913410295
 10
-95.61723025210387
 20
33.35298986185309
 42
-0.248446010820784
 10
-95.01464468445043
 20
32.32045361511142
 42
-0.3664473649374643
 10
-95.2155065108133
 20
32.062319553426
 42
-0.103886765773214
  0
DIMENSION
  5
17E
330
18
100
AcDbEntity
  8
ADPDIM
100
AcDbDimension
  2
*D1
 10
-93.51214651185351
 20
33.77735934110674
 30
0.0
 11
-93.51214651185351
 21
28.27735934110673
 31
0.0
 12
0.0
 22
-0.0627133472632835
 32
0.0
100
AcDbAlignedDimension
 13
-95.73200102983555
 23
22.77735934110673
 33
0.0
 14
-95.73200102983555
 24
33.77735934110674
 34
0.0
 50
90.0
100
AcDbRotatedDimension
  0
LWPOLYLINE
  5
17F
330
18
100
AcDbEntity
  8
0
100
AcDbPolyline
 90
        5
 70
     0
 43
0.0
 10
-97.58686583925181
 20
24.06418682908403
 42
0.0942208584820165
 10
-97.47281144826137
 20
23.64906103011081
 42
0.4137614913410295
 10
-95.61723025210387
 20
23.21883759396845
 42
0.248446010820784
 10
-95.01464468445043
 20
24.25137384071012
 42
0.3664473649374643
 10
-95.2155065108133
 20
24.50950790239554
 42
0.103886765773214
  0
LWPOLYLINE
  5
186
330
18
100
AcDbEntity
  8
0
100
AcDbPolyline
 90
        6
 70
     0
 43
0.0
 10
-97.83694894649862
 20
24.59218682908403
 42
-0.0790433623262304
 10
-97.67367327462423
 20
25.00665501799304
 42
-0.2267585941505648
 10
-96.54502085018263
 20
25.48468106491783
 10
-96.54502085018263
 20
26.6223830675607
 42
0.1178702001476923
 10
-95.55984119681371
 20
26.9091987322552
 42
0.2845222274170798
 10
-94.72769914230504
 20
28.28591372791077
 42
0.9893406192621164
  0
LWPOLYLINE
  5
18E
330
18
100
AcDbEntity
  8
0
100
AcDbPolyline
 90
        6
 70
     0
 43
0.0
 10
-94.40249420044459
 20
28.28591372791077
 42
-0.258875864270835
 10
-95.34941445409844
 20
26.7275488234619
 42
-0.069646139335822
 10
-96.30589953553984
 20
26.41205161665769
 10
-96.30589953553984
 20
25.31259169046088
 42
0.1028157336281643
 10
-96.88935553618303
 20
25.21698646889605
 42
0.1977337769915115
 10
-97.50506763475925
 20
24.59218682908403
 42
0.4137614913410295
  0
LWPOLYLINE
  5
196
330
18
100
AcDbEntity
  8
0
100
AcDbPolyline
 90
        6
 70
     0
 43
0.0
 10
-94.10598374194679
 20
28.28591372791077
 42
-0.302979606083258
 10
-95.22507133860084
 20
26.55545944900495
 42
-0.0282911063676699
 10
-96.14329710889204
 20
26.25908324997409
 10
-96.14329710889204
 20
25.15962332377727
 42
0.0400970821542046
 10
-96.774577248473
 20
25.0448970944391
 42
0.1847230656332814
 10
-97.26627783529778
 20
24.59218682908403
 42
0.4191043408770553
  0
LINE
  5
19E
330
18
100
AcDbEntity
  8
0
 62
     7
100
AcDbLine
 10
-97.44145153177521
 20
24.30787913677633
 30
0.0
 11
-97.52268230100598
 21
24.59218682908403
 31
0.0
  0
LINE
  5
19F
330
18
100
AcDbEntity
  8
0
 62
     7
100
AcDbLine
 10
-97.27898999331369
 20
24.59218682908403
 30
0.0
 11
-97.84760537792907
 21
24.59218682908403
 31
0.0
  0
LINE
  5
1A0
330
18
100
AcDbEntity
  8
0
 62
     7
100
AcDbLine
 10
-97.2383746086983
 20
24.06418682908403
 30
0.0
 11
-97.2383746086983
 21
24.06418682908403
 31
0.0
  0
LINE
  5
1A1
330
18
100
AcDbEntity
  8
0
 62
     7
100
AcDbLine
 10
-97.52268230100598
 20
24.06418682908403
 30
0.0
 11
-97.44145153177521
 21
24.30787913677633
 31
0.0
  0
LINE
  5
1A2
330
18
100
AcDbEntity
  8
0
 62
     7
100
AcDbLine
 10
-97.15714383946753
 20
24.30787913677633
 30
0.0
 11
-97.2383746086983
 21
24.59218682908403
 31
0.0
  0
LINE
  5
1A3
330
18
100
AcDbEntity
  8
0
 62
     7
100
AcDbLine
 10
-97.2383746086983
 20
24.06418682908403
 30
0.0
 11
-97.15714383946753
 21
24.30787913677633
 31
0.0
  0
LWPOLYLINE
  5
1A4
330
18
100
AcDbEntity
  8
0
100
AcDbPolyline
 90
        6
 70
     0
 43
0.0
 10
-94.10598374194679
 20
28.28591372791077
 42
0.302979606083258
 10
-95.22507133860084
 20
30.01636800681659
 42
0.0282911063676699
 10
-96.14329710889204
 20
30.31274420584745
 10
-96.14329710889204
 20
31.41220413204427
 42
-0.0400970821542046
 10
-96.774577248473
 20
31.52693036138244
 42
-0.1847230656332814
 10
-97.26627783529778
 20
31.97964062673751
 42
-0.4191043408770553
  0
LWPOLYLINE
  5
1AC
330
18
100
AcDbEntity
  8
0
100
AcDbPolyline
 90
        6
 70
     0
 43
0.0
 10
-94.40249420044459
 20
28.28591372791077
 42
0.258875864270835
 10
-95.34941445409844
 20
29.84427863235964
 42
0.069646139335822
 10
-96.30589953553984
 20
30.15977583916384
 10
-96.30589953553984
 20
31.25923576536066
 42
-0.1028157336281643
 10
-96.88935553618303
 20
31.35484098692549
 42
-0.1977337769915115
 10
-97.50506763475925
 20
31.97964062673751
 42
-0.4137614913410295
  0
LWPOLYLINE
  5
1B4
330
18
100
AcDbEntity
  8
0
100
AcDbPolyline
 90
        6
 70
     0
 43
0.0
 10
-97.83694894649862
 20
31.97964062673751
 42
0.0790433623262304
 10
-97.67367327462423
 20
31.5651724378285
 42
0.2267585941505648
 10
-96.54502085018263
 20
31.08714639090371
 10
-96.54502085018263
 20
29.94944438826084
 42
-0.1178702001476923
 10
-95.55984119681371
 20
29.66262872356634
 42
-0.2845222274170798
 10
-94.72769914230504
 20
28.28591372791077
 42
-0.9893406192621164
  0
LINE
  5
1BC
330
18
100
AcDbEntity
  8
0
 62
     7
100
AcDbLine
 10
-97.44145153177521
 20
32.26394831904521
 30
0.0
 11
-97.52268230100598
 21
31.97964062673751
 31
0.0
  0
LINE
  5
1BD
330
18
100
AcDbEntity
  8
0
 62
     7
100
AcDbLine
 10
-97.27898999331369
 20
31.97964062673751
 30
0.0
 11
-97.84760537792907
 21
31.97964062673751
 31
0.0
  0
LINE
  5
1BE
330
18
100
AcDbEntity
  8
0
 62
     7
100
AcDbLine
 10
-97.15714383946753
 20
32.26394831904521
 30
0.0
 11
-97.2383746086983
 21
31.97964062673751
 31
0.0
  0
LINE
  5
1BF
330
18
100
AcDbEntity
  8
0
 62
     7
100
AcDbLine
 10
-97.2383746086983
 20
32.50764062673752
 30
0.0
 11
-97.2383746086983
 21
32.50764062673752
 31
0.0
  0
TEXT
  5
1CD
330
18
100
AcDbEntity
  8
ADPDIM
100
AcDbText
 10
-110.8340806226291
 20
21.84278625120799
 30
0.0
 40
0.25
  1
J U L I U S  B L U M  &  C O . ,  I N C .      ( 8 0 0 )  5 2 6 - 6 2 9 3        W W W . J U L I U S B L U M . C O M        P A R T  N o .  9 6 3
 41
1.25
  7
ARIAL_WIDE
 72
     1
 11
-97.96466554759502
 21
22.09278625120799
 31
0.0
100
AcDbText
 73
     3
  0
ENDSEC
  0
SECTION
  2
OBJECTS
  0
DICTIONARY
  5
C
330
0
100
AcDbDictionary
  3
ACAD_GROUP
350
D
  3
ACAD_LAYOUT
350
1C6
  3
ACAD_MLINESTYLE
350
E
  3
ACAD_PLOTSETTINGS
350
1C7
  3
ACAD_PLOTSTYLENAME
350
1C4
  3
ACDBHEADERROUNDTRIPXREC
350
311
  3
ACDBVARIABLEDICTIONARY
350
227
  0
DICTIONARY
  5
221
330
18
100
AcDbDictionary
280
     1
  3
ACAD_LAYOUTSELFREF
360
332
  0
DICTIONARY
  5
21F
330
15
100
AcDbDictionary
280
     1
  3
ACAD_LAYOUTSELFREF
360
331
  0
DICTIONARY
  5
D
102
{ACAD_REACTORS
330
C
102
}
330
C
100
AcDbDictionary
  0
DICTIONARY
  5
1C6
102
{ACAD_REACTORS
330
C
102
}
330
C
100
AcDbDictionary
  0
DICTIONARY
  5
E
102
{ACAD_REACTORS
330
C
102
}
330
C
100
AcDbDictionary
  3
STANDARD
350
1B
  0
DICTIONARY
  5
1C7
102
{ACAD_REACTORS
330
C
102
}
330
C
100
AcDbDictionary
  0
ACDBDICTIONARYWDFLT
  5
1C4
102
{ACAD_REACTORS
330
C
102
}
330
C
100
AcDbDictionary
281
     1
  3
Normal
350
1C5
100
AcDbDictionaryWithDefault
340
1C5
  0
DICTIONARY
  5
311
102
{ACAD_REACTORS
330
C
102
}
330
C
100
AcDbDictionary
  3
CEPSNTYPE
350
31B
  3
FINGERPRINTGUID
350
31C
  3
HYPERLINKBASE
350
314
  3
INSUNITS
350
31A
  3
LAYOUTDICT
350
316
  3
LWETCUNION
350
319
  3
PLOTSETDICT
350
317
  3
PLOTSTYLNAMDICT
350
318
  3
PSVPSCALE
350
31E
  3
PUCSBASE
350
321
  3
PUCSORGBACK
350
327
  3
PUCSORGBOTTOM
350
323
  3
PUCSORGFRONT
350
326
  3
PUCSORGLEFT
350
324
  3
PUCSORGRIGHT
350
325
  3
PUCSORGTOP
350
322
  3
PUCSORTHOREF
350
31F
  3
PUCSORTHOVIEW
350
320
  3
STYLESHEET
350
315
  3
TSTACKALIGN
350
312
  3
TSTACKSIZE
350
313
  3
UCSBASE
350
32A
  3
UCSORGBACK
350
330
  3
UCSORGBOTTOM
350
32C
  3
UCSORGFRONT
350
32F
  3
UCSORGLEFT
350
32D
  3
UCSORGRIGHT
350
32E
  3
UCSORGTOP
350
32B
  3
UCSORTHOREF
350
328
  3
UCSORTHOVIEW
350
329
  3
VERSIONGUID
350
31D
  0
DICTIONARY
  5
227
102
{ACAD_REACTORS
330
C
102
}
330
C
100
AcDbDictionary
  3
DIMASSOC
350
228
  0
XRECORD
  5
332
102
{ACAD_REACTORS
330
221
102
}
330
221
100
AcDbXrecord
340
18
  0
XRECORD
  5
331
102
{ACAD_REACTORS
330
21F
102
}
330
21F
100
AcDbXrecord
340
15
  0
MLINESTYLE
  5
1B
102
{ACAD_REACTORS
330
E
102
}
330
E
100
AcDbMlineStyle
  2
STANDARD
 70
     0
  3

 62
     0
 51
90.0
 52
90.0
 71
     2
 49
0.5
 62
   256
  6
BYLAYER
 49
-0.5
 62
   256
  6
BYLAYER
  0
ACDBPLACEHOLDER
  5
1C5
102
{ACAD_REACTORS
330
1C4
102
}
330
1C4
100
AcDbPlaceHolder
280
     0
  0
XRECORD
  5
31B
102
{ACAD_REACTORS
330
311
102
}
330
311
100
AcDbXrecord
 90
        0
  0
XRECORD
  5
31C
102
{ACAD_REACTORS
330
311
102
}
330
311
100
AcDbXrecord
  1
{73BBE924-795E-45EC-A3E7-7A3432E5355D}
  0
XRECORD
  5
314
102
{ACAD_REACTORS
330
311
102
}
330
311
100
AcDbXrecord
  1

  0
XRECORD
  5
31A
102
{ACAD_REACTORS
330
311
102
}
330
311
100
AcDbXrecord
 90
        0
  0
XRECORD
  5
316
102
{ACAD_REACTORS
330
311
102
}
330
311
100
AcDbXrecord
340
1C6
  0
XRECORD
  5
319
102
{ACAD_REACTORS
330
311
102
}
330
311
100
AcDbXrecord
 90
    14877
  0
XRECORD
  5
317
102
{ACAD_REACTORS
330
311
102
}
330
311
100
AcDbXrecord
340
1C7
  0
XRECORD
  5
318
102
{ACAD_REACTORS
330
311
102
}
330
311
100
AcDbXrecord
340
1C4
  0
XRECORD
  5
31E
102
{ACAD_REACTORS
330
311
102
}
330
311
100
AcDbXrecord
 40
0.0
  0
XRECORD
  5
321
102
{ACAD_REACTORS
330
311
102
}
330
311
100
AcDbXrecord
340
0
  0
XRECORD
  5
327
102
{ACAD_REACTORS
330
311
102
}
330
311
100
AcDbXrecord
 10
0.0
 20
0.0
 30
0.0
  0
XRECORD
  5
323
102
{ACAD_REACTORS
330
311
102
}
330
311
100
AcDbXrecord
 10
0.0
 20
0.0
 30
0.0
  0
XRECORD
  5
326
102
{ACAD_REACTORS
330
311
102
}
330
311
100
AcDbXrecord
 10
0.0
 20
0.0
 30
0.0
  0
XRECORD
  5
324
102
{ACAD_REACTORS
330
311
102
}
330
311
100
AcDbXrecord
 10
0.0
 20
0.0
 30
0.0
  0
XRECORD
  5
325
102
{ACAD_REACTORS
330
311
102
}
330
311
100
AcDbXrecord
 10
0.0
 20
0.0
 30
0.0
  0
XRECORD
  5
322
102
{ACAD_REACTORS
330
311
102
}
330
311
100
AcDbXrecord
 10
0.0
 20
0.0
 30
0.0
  0
XRECORD
  5
31F
102
{ACAD_REACTORS
330
311
102
}
330
311
100
AcDbXrecord
340
0
  0
XRECORD
  5
320
102
{ACAD_REACTORS
330
311
102
}
330
311
100
AcDbXrecord
 70
     0
  0
XRECORD
  5
315
102
{ACAD_REACTORS
330
311
102
}
330
311
100
AcDbXrecord
  1

  0
XRECORD
  5
312
102
{ACAD_REACTORS
330
311
102
}
330
311
100
AcDbXrecord
 90
        1
  0
XRECORD
  5
313
102
{ACAD_REACTORS
330
311
102
}
330
311
100
AcDbXrecord
 90
       70
  0
XRECORD
  5
32A
102
{ACAD_REACTORS
330
311
102
}
330
311
100
AcDbXrecord
340
0
  0
XRECORD
  5
330
102
{ACAD_REACTORS
330
311
102
}
330
311
100
AcDbXrecord
 10
0.0
 20
0.0
 30
0.0
  0
XRECORD
  5
32C
102
{ACAD_REACTORS
330
311
102
}
330
311
100
AcDbXrecord
 10
0.0
 20
0.0
 30
0.0
  0
XRECORD
  5
32F
102
{ACAD_REACTORS
330
311
102
}
330
311
100
AcDbXrecord
 10
0.0
 20
0.0
 30
0.0
  0
XRECORD
  5
32D
102
{ACAD_REACTORS
330
311
102
}
330
311
100
AcDbXrecord
 10
0.0
 20
0.0
 30
0.0
  0
XRECORD
  5
32E
102
{ACAD_REACTORS
330
311
102
}
330
311
100
AcDbXrecord
 10
0.0
 20
0.0
 30
0.0
  0
XRECORD
  5
32B
102
{ACAD_REACTORS
330
311
102
}
330
311
100
AcDbXrecord
 10
0.0
 20
0.0
 30
0.0
  0
XRECORD
  5
328
102
{ACAD_REACTORS
330
311
102
}
330
311
100
AcDbXrecord
340
0
  0
XRECORD
  5
329
102
{ACAD_REACTORS
330
311
102
}
330
311
100
AcDbXrecord
 70
     0
  0
XRECORD
  5
31D
102
{ACAD_REACTORS
330
311
102
}
330
311
100
AcDbXrecord
  1
{D022F491-0C92-4326-BA01-97E0601AAB42}
  0
DICTIONARYVAR
  5
228
102
{ACAD_REACTORS
330
227
102
}
330
227
100
DictionaryVariables
280
     0
  1
1
  0
ENDSEC
  0
EOF
