  0
SECTION
  2
HEADER
  9
$ACADVER
  1
AC1014
  9
$ACADMAINTVER
 70
     9
  9
$DWGCODEPAGE
  3
ANSI_1252
  9
$INSBASE
 10
-1.192866874211618
 20
1.606815784495949
 30
0.0
  9
$EXTMIN
 10
-31.02438666316261
 20
-1.54898807661322
 30
0.0
  9
$EXTMAX
 10
33.32268871200791
 20
35.7460665988282
 30
0.0
  9
$LIMMIN
 10
0.0
 20
0.0
  9
$LIMMAX
 10
36.0
 20
36.0
  9
$ORTHOMODE
 70
     1
  9
$REGENMODE
 70
     1
  9
$FILLMODE
 70
     1
  9
$QTEXTMODE
 70
     0
  9
$MIRRTEXT
 70
     1
  9
$DRAGMODE
 70
     0
  9
$LTSCALE
 40
1.0
  9
$OSMODE
 70
    37
  9
$ATTMODE
 70
     1
  9
$TEXTSIZE
 40
0.2
  9
$TRACEWID
 40
0.05
  9
$TEXTSTYLE
  7
STANDARD
  9
$CLAYER
  8
ADPDIM
  9
$CELTYPE
  6
BYLAYER
  9
$CECOLOR
 62
   256
  9
$CELTSCALE
 40
1.0
  9
$DELOBJ
 70
     1
  9
$DISPSILH
 70
     0
  9
$DIMSCALE
 40
1.0
  9
$DIMASZ
 40
0.125
  9
$DIMEXO
 40
0.0625
  9
$DIMDLI
 40
0.38
  9
$DIMRND
 40
0.0
  9
$DIMDLE
 40
0.0
  9
$DIMEXE
 40
0.18
  9
$DIMTP
 40
0.0
  9
$DIMTM
 40
0.0
  9
$DIMTXT
 40
0.125
  9
$DIMCEN
 40
0.1875
  9
$DIMTSZ
 40
0.125
  9
$DIMTOL
 70
     0
  9
$DIMLIM
 70
     0
  9
$DIMTIH
 70
     0
  9
$DIMTOH
 70
     0
  9
$DIMSE1
 70
     0
  9
$DIMSE2
 70
     0
  9
$DIMTAD
 70
     0
  9
$DIMZIN
 70
     3
  9
$DIMBLK
  1

  9
$DIMASO
 70
     1
  9
$DIMSHO
 70
     1
  9
$DIMPOST
  1

  9
$DIMAPOST
  1

  9
$DIMALT
 70
     0
  9
$DIMALTD
 70
     1
  9
$DIMALTF
 40
25.4
  9
$DIMLFAC
 40
1.0
  9
$DIMTOFL
 70
     0
  9
$DIMTVP
 40
0.0
  9
$DIMTIX
 70
     0
  9
$DIMSOXD
 70
     0
  9
$DIMSAH
 70
     0
  9
$DIMBLK1
  1

  9
$DIMBLK2
  1

  9
$DIMSTYLE
  2
STANDARD
  9
$DIMCLRD
 70
     0
  9
$DIMCLRE
 70
     0
  9
$DIMCLRT
 70
     0
  9
$DIMTFAC
 40
1.0
  9
$DIMGAP
 40
0.125
  9
$DIMJUST
 70
     0
  9
$DIMSD1
 70
     0
  9
$DIMSD2
 70
     0
  9
$DIMTOLJ
 70
     1
  9
$DIMTZIN
 70
     0
  9
$DIMALTZ
 70
     0
  9
$DIMALTTZ
 70
     0
  9
$DIMFIT
 70
     3
  9
$DIMUPT
 70
     0
  9
$DIMUNIT
 70
     2
  9
$DIMDEC
 70
     4
  9
$DIMTDEC
 70
     4
  9
$DIMALTU
 70
     2
  9
$DIMALTTD
 70
     2
  9
$DIMTXSTY
  7
STANDARD
  9
$DIMAUNIT
 70
     0
  9
$LUNITS
 70
     5
  9
$LUPREC
 70
     4
  9
$SKETCHINC
 40
0.1
  9
$FILLETRAD
 40
0.01
  9
$AUNITS
 70
     0
  9
$AUPREC
 70
     0
  9
$MENU
  1
acad
  9
$ELEVATION
 40
0.0
  9
$PELEVATION
 40
0.0
  9
$THICKNESS
 40
0.0
  9
$LIMCHECK
 70
     0
  9
$BLIPMODE
 70
     0
  9
$CHAMFERA
 40
0.0
  9
$CHAMFERB
 40
0.0
  9
$CHAMFERC
 40
0.0
  9
$CHAMFERD
 40
0.0
  9
$SKPOLY
 70
     0
  9
$TDCREATE
 40
2450248.632717396
  9
$TDUPDATE
 40
2452297.078496817
  9
$TDINDWG
 40
0.0453475347
  9
$TDUSRTIMER
 40
0.0453475347
  9
$USRTIMER
 70
     1
  9
$ANGBASE
 50
0.0
  9
$ANGDIR
 70
     0
  9
$PDMODE
 70
     0
  9
$PDSIZE
 40
0.0
  9
$PLINEWID
 40
0.0
  9
$COORDS
 70
     2
  9
$SPLFRAME
 70
     0
  9
$SPLINETYPE
 70
     6
  9
$SPLINESEGS
 70
     8
  9
$ATTDIA
 70
     0
  9
$ATTREQ
 70
     1
  9
$HANDLING
 70
 22529
  9
$HANDSEED
  5
6E9
  9
$SURFTAB1
 70
     6
  9
$SURFTAB2
 70
     6
  9
$SURFTYPE
 70
     6
  9
$SURFU
 70
     6
  9
$SURFV
 70
     6
  9
$UCSNAME
  2

  9
$UCSORG
 10
0.0
 20
0.0
 30
0.0
  9
$UCSXDIR
 10
1.0
 20
0.0
 30
0.0
  9
$UCSYDIR
 10
0.0
 20
1.0
 30
0.0
  9
$PUCSNAME
  2

  9
$PUCSORG
 10
0.0
 20
0.0
 30
0.0
  9
$PUCSXDIR
 10
1.0
 20
0.0
 30
0.0
  9
$PUCSYDIR
 10
0.0
 20
1.0
 30
0.0
  9
$USERI1
 70
     0
  9
$USERI2
 70
     0
  9
$USERI3
 70
     0
  9
$USERI4
 70
     0
  9
$USERI5
 70
     0
  9
$USERR1
 40
0.0
  9
$USERR2
 40
0.0
  9
$USERR3
 40
0.0
  9
$USERR4
 40
0.0
  9
$USERR5
 40
0.0
  9
$WORLDVIEW
 70
     1
  9
$SHADEDGE
 70
     3
  9
$SHADEDIF
 70
    70
  9
$TILEMODE
 70
     1
  9
$MAXACTVP
 70
    15
  9
$PINSBASE
 10
0.1562532186508182
 20
0.0
 30
0.0
  9
$PLIMCHECK
 70
     0
  9
$PEXTMIN
 10
1.000000000000000E+20
 20
1.000000000000000E+20
 30
1.000000000000000E+20
  9
$PEXTMAX
 10
-1.000000000000000E+20
 20
-1.000000000000000E+20
 30
-1.000000000000000E+20
  9
$PLIMMIN
 10
0.0
 20
0.0
  9
$PLIMMAX
 10
12.0
 20
9.0
  9
$UNITMODE
 70
     0
  9
$VISRETAIN
 70
     0
  9
$PLINEGEN
 70
     0
  9
$PSLTSCALE
 70
     1
  9
$TREEDEPTH
 70
  3020
  9
$PICKSTYLE
 70
     1
  9
$CMLSTYLE
  2
STANDARD
  9
$CMLJUST
 70
     0
  9
$CMLSCALE
 40
1.0
  9
$PROXYGRAPHICS
 70
     1
  9
$MEASUREMENT
 70
     0
  0
ENDSEC
  0
SECTION
  2
CLASSES
  0
CLASS
  1
ACDBDICTIONARYWDFLT
  2
AcDbDictionaryWithDefault
  3
AutoCAD 2000
 90
        0
280
     0
281
     0
  0
CLASS
  1
ACDBPLACEHOLDER
  2
AcDbPlaceHolder
  3
AutoCAD 2000
 90
        0
280
     0
281
     0
  0
CLASS
  1
LAYOUT
  2
AcDbLayout
  3
AutoCAD 2000
 90
        0
280
     0
281
     0
  0
CLASS
  1
DICTIONARYVAR
  2
AcDbDictionaryVar
  3
AutoCAD 2000
 90
        0
280
     0
281
     0
  0
CLASS
  1
LONG_TRANSACTION
  2
AcDbLongTransaction
  3
AutoCAD 2000
 90
        0
280
     0
281
     0
  0
CLASS
  1
LWPOLYLINE
  2
AcDbPolyline
  3
AutoCAD 2000
 90
        0
280
     0
281
     1
  0
CLASS
  1
HATCH
  2
AcDbHatch
  3
AutoCAD 2000
 90
        0
280
     0
281
     1
  0
CLASS
  1
XRECORD
  2
AcDbXrecord
  3
AutoCAD 2000
 90
        0
280
     0
281
     0
  0
CLASS
  1
LONG_TRANSACTION
  2
AcDbLongTransaction
  3
AutoCAD 2000
 90
        0
280
     0
281
     0
  0
CLASS
  1
LWPOLYLINE
  2
AcDbPolyline
  3
AutoCAD 2000
 90
        0
280
     0
281
     1
  0
CLASS
  1
HATCH
  2
AcDbHatch
  3
AutoCAD 2000
 90
        0
280
     0
281
     1
  0
CLASS
  1
XRECORD
  2
AcDbXrecord
  3
AutoCAD 2000
 90
        0
280
     0
281
     0
  0
CLASS
  1
LONG_TRANSACTION
  2
AcDbLongTransaction
  3
AutoCAD 2000
 90
        0
280
     0
281
     0
  0
CLASS
  1
LWPOLYLINE
  2
AcDbPolyline
  3
AutoCAD 2000
 90
        0
280
     0
281
     1
  0
CLASS
  1
HATCH
  2
AcDbHatch
  3
AutoCAD 2000
 90
        0
280
     0
281
     1
  0
CLASS
  1
XRECORD
  2
AcDbXrecord
  3
AutoCAD 2000
 90
        0
280
     0
281
     0
  0
CLASS
  1
LONG_TRANSACTION
  2
AcDbLongTransaction
  3
AutoCAD 2000
 90
        0
280
     0
281
     0
  0
CLASS
  1
LWPOLYLINE
  2
AcDbPolyline
  3
AutoCAD 2000
 90
        0
280
     0
281
     1
  0
CLASS
  1
HATCH
  2
AcDbHatch
  3
AutoCAD 2000
 90
        0
280
     0
281
     1
  0
CLASS
  1
XRECORD
  2
AcDbXrecord
  3
AutoCAD 2000
 90
        0
280
     0
281
     0
  0
CLASS
  1
LONG_TRANSACTION
  2
AcDbLongTransaction
  3
AutoCAD 2000
 90
        0
280
     0
281
     0
  0
CLASS
  1
LWPOLYLINE
  2
AcDbPolyline
  3
AutoCAD 2000
 90
        0
280
     0
281
     1
  0
CLASS
  1
HATCH
  2
AcDbHatch
  3
AutoCAD 2000
 90
        0
280
     0
281
     1
  0
CLASS
  1
XRECORD
  2
AcDbXrecord
  3
AutoCAD 2000
 90
        0
280
     0
281
     0
  0
ENDSEC
  0
SECTION
  2
TABLES
  0
TABLE
  2
VPORT
  5
8
330
0
100
AcDbSymbolTable
 70
     2
  0
VPORT
  5
6C6
330
8
100
AcDbSymbolTableRecord
100
AcDbViewportTableRecord
  2
*ACTIVE
 70
     0
 10
0.0
 20
0.0
 11
1.0
 21
1.0
 12
1.202142967570271
 22
17.09926126974851
 13
0.0
 23
0.0
 14
0.5740882589684922
 24
0.5740882589684922
 15
0.5
 25
0.5
 16
0.0
 26
0.0
 36
1.0
 17
0.0
 27
0.0
 37
0.0
 40
41.23991146620156
 41
1.570528967254408
 42
50.0
 43
0.0
 44
0.0
 50
0.0
 51
0.0
 71
     0
 72
   100
 73
     1
 74
     1
 75
     0
 76
     0
 77
     0
 78
     0
  0
ENDTAB
  0
TABLE
  2
LTYPE
  5
5
330
0
100
AcDbSymbolTable
 70
     1
  0
LTYPE
  5
12
330
5
100
AcDbSymbolTableRecord
100
AcDbLinetypeTableRecord
  2
BYBLOCK
 70
     0
  3

 72
    65
 73
     0
 40
0.0
  0
LTYPE
  5
13
330
5
100
AcDbSymbolTableRecord
100
AcDbLinetypeTableRecord
  2
BYLAYER
 70
     0
  3

 72
    65
 73
     0
 40
0.0
  0
LTYPE
  5
14
330
5
100
AcDbSymbolTableRecord
100
AcDbLinetypeTableRecord
  2
CONTINUOUS
 70
     0
  3
Solid line
 72
    65
 73
     0
 40
0.0
  0
ENDTAB
  0
TABLE
  2
LAYER
  5
2
330
0
100
AcDbSymbolTable
 70
     4
  0
LAYER
  5
F
330
2
100
AcDbSymbolTableRecord
100
AcDbLayerTableRecord
  2
0
 70
     0
 62
     7
  6
CONTINUOUS
  0
LAYER
  5
36
330
2
100
AcDbSymbolTableRecord
100
AcDbLayerTableRecord
  2
ADPDIM
 70
     0
 62
     3
  6
CONTINUOUS
  0
LAYER
  5
38
330
2
100
AcDbSymbolTableRecord
100
AcDbLayerTableRecord
  2
ADP1DETAIL
 70
     0
 62
     7
  6
CONTINUOUS
  0
LAYER
  5
3A
330
2
100
AcDbSymbolTableRecord
100
AcDbLayerTableRecord
  2
DEFPOINTS
 70
     0
 62
     7
  6
CONTINUOUS
  0
ENDTAB
  0
TABLE
  2
STYLE
  5
3
330
0
100
AcDbSymbolTable
 70
     2
  0
STYLE
  5
10
330
3
100
AcDbSymbolTableRecord
100
AcDbTextStyleTableRecord
  2
STANDARD
 70
     0
 40
0.0
 41
1.0
 50
0.0
 71
     0
 42
0.2
  3
txt
  4

  0
STYLE
  5
582
330
3
100
AcDbSymbolTableRecord
100
AcDbTextStyleTableRecord
  2
ARIAL_WIDE
 70
     0
 40
0.0
 41
1.25
 50
0.0
 71
     0
 42
0.2
  3
ARIAL.TTF
  4

1001
ACAD
1000
Arial
1071
       34
  0
ENDTAB
  0
TABLE
  2
VIEW
  5
6
330
0
100
AcDbSymbolTable
 70
     0
  0
ENDTAB
  0
TABLE
  2
UCS
  5
7
330
0
100
AcDbSymbolTable
 70
     0
  0
ENDTAB
  0
TABLE
  2
APPID
  5
9
330
0
100
AcDbSymbolTable
 70
     1
  0
APPID
  5
11
330
9
100
AcDbSymbolTableRecord
100
AcDbRegAppTableRecord
  2
ACAD
 70
     0
  0
ENDTAB
  0
TABLE
  2
DIMSTYLE
  5
A
330
0
100
AcDbSymbolTable
 70
     1
  0
DIMSTYLE
105
576
330
A
100
AcDbSymbolTableRecord
100
AcDbDimStyleTableRecord
  2
STANDARD
 70
     0
  3

  4

  5

  6

  7

 40
1.0
 41
0.18
 42
0.0625
 43
0.38
 44
0.18
 45
0.0
 46
0.0
 47
0.0
 48
0.0
140
0.18
141
0.09
142
0.0
143
25.4
144
1.0
145
0.0
146
1.0
147
0.09
 71
     0
 72
     0
 73
     1
 74
     1
 75
     0
 76
     0
 77
     0
 78
     0
170
     0
171
     2
172
     0
173
     0
174
     0
175
     0
176
     0
177
     0
178
     0
270
     2
271
     4
272
     4
273
     2
274
     2
340
10
275
     0
280
     0
281
     0
282
     0
283
     1
284
     0
285
     0
286
     0
287
     3
288
     0
  0
ENDTAB
  0
TABLE
  2
BLOCK_RECORD
  5
1
330
0
100
AcDbSymbolTable
 70
     2
  0
BLOCK_RECORD
  5
18
102
{ACAD_XDICTIONARY
360
5D7
102
}
330
1
100
AcDbSymbolTableRecord
100
AcDbBlockTableRecord
  2
*MODEL_SPACE
  0
BLOCK_RECORD
  5
15
102
{ACAD_XDICTIONARY
360
5D5
102
}
330
1
100
AcDbSymbolTableRecord
100
AcDbBlockTableRecord
  2
*PAPER_SPACE
  0
BLOCK_RECORD
  5
31
330
1
100
AcDbSymbolTableRecord
100
AcDbBlockTableRecord
  2
*D0
  0
BLOCK_RECORD
  5
34
330
1
100
AcDbSymbolTableRecord
100
AcDbBlockTableRecord
  2
*D1
  0
ENDTAB
  0
ENDSEC
  0
SECTION
  2
BLOCKS
  0
BLOCK
  5
3D
330
18
100
AcDbEntity
  8
0
100
AcDbBlockBegin
  2
*MODEL_SPACE
 70
     0
 10
0.0
 20
0.0
 30
0.0
  3
*MODEL_SPACE
  1

  0
ENDBLK
  5
3E
330
18
100
AcDbEntity
  8
0
100
AcDbBlockEnd
  0
BLOCK
  5
3B
330
15
100
AcDbEntity
 67
     1
  8
0
100
AcDbBlockBegin
  2
*PAPER_SPACE
 70
     0
 10
0.0
 20
0.0
 30
0.0
  3
*PAPER_SPACE
  1

  0
ENDBLK
  5
3C
330
15
100
AcDbEntity
 67
     1
  8
0
100
AcDbBlockEnd
  0
BLOCK
  5
40
330
31
100
AcDbEntity
  8
0
100
AcDbBlockBegin
  2
*D0
 70
     1
 10
0.0
 20
0.0
 30
0.0
  3
*D0
  1

  0
LINE
  5
41
330
31
100
AcDbEntity
  8
0
  6
BYBLOCK
 62
     0
100
AcDbLine
 10
-2.973713779749076
 20
7.587271810554586
 30
0.0
 11
-2.973713779749076
 21
0.5406767847378662
 31
0.0
  0
LINE
  5
42
330
31
100
AcDbEntity
  8
0
  6
BYBLOCK
 62
     0
100
AcDbLine
 10
5.000227588329099
 20
7.587271810554585
 30
0.0
 11
5.000227588329099
 21
0.5406767847378662
 31
0.0
  0
LINE
  5
43
330
31
100
AcDbEntity
  8
0
  6
BYBLOCK
 62
     0
100
AcDbLine
 10
-2.973713779749076
 20
0.7206767847378661
 30
0.0
 11
0.8465902376233447
 21
0.7206767847378661
 31
0.0
  0
LINE
  5
44
330
31
100
AcDbEntity
  8
0
  6
BYBLOCK
 62
     0
100
AcDbLine
 10
5.000227588329099
 20
0.7206767847378661
 30
0.0
 11
1.179923570956678
 21
0.7206767847378661
 31
0.0
  0
LINE
  5
45
330
31
100
AcDbEntity
  8
0
  6
BYBLOCK
 62
     0
100
AcDbLine
 10
-3.098713779749076
 20
0.5956767847378661
 30
0.0
 11
-2.848713779749076
 21
0.845676784737866
 31
0.0
  0
LINE
  5
46
330
31
100
AcDbEntity
  8
0
  6
BYBLOCK
 62
     0
100
AcDbLine
 10
4.875227588329099
 20
0.5956767847378661
 30
0.0
 11
5.125227588329099
 21
0.845676784737866
 31
0.0
  0
TEXT
  5
47
330
31
100
AcDbEntity
  8
0
  6
BYBLOCK
 62
     0
100
AcDbText
 10
0.9715902376233447
 20
0.6581767847378661
 30
0.0
 40
0.125
  1
8
 72
     1
 11
1.013256904290011
 21
0.7206767847378661
 31
0.0
100
AcDbText
 73
     2
  0
POINT
  5
48
330
31
100
AcDbEntity
  8
DEFPOINTS
  6
BYBLOCK
 62
     0
100
AcDbPoint
 10
-2.973713779749076
 20
7.649771810554586
 30
0.0
  0
POINT
  5
49
330
31
100
AcDbEntity
  8
DEFPOINTS
  6
BYBLOCK
 62
     0
100
AcDbPoint
 10
5.000227588329099
 20
7.649771810554585
 30
0.0
  0
POINT
  5
4A
330
31
100
AcDbEntity
  8
DEFPOINTS
  6
BYBLOCK
 62
     0
100
AcDbPoint
 10
5.000227588329099
 20
0.7206767847378661
 30
0.0
  0
ENDBLK
  5
4B
330
31
100
AcDbEntity
  8
0
100
AcDbBlockEnd
  0
BLOCK
  5
4C
330
34
100
AcDbEntity
  8
0
100
AcDbBlockBegin
  2
*D1
 70
     1
 10
0.0
 20
0.0
 30
0.0
  3
*D1
  1

  0
LINE
  5
4D
330
34
100
AcDbEntity
  8
0
  6
BYBLOCK
 62
     0
100
AcDbLine
 10
3.148981659990336
 20
35.6210665988282
 30
0.0
 11
5.937270303721671
 21
35.6210665988282
 31
0.0
  0
LINE
  5
4E
330
34
100
AcDbEntity
  8
0
  6
BYBLOCK
 62
     0
100
AcDbLine
 10
3.308460487351897
 20
1.60681578449595
 30
0.0
 11
5.937270303721669
 21
1.606815784495949
 31
0.0
  0
LINE
  5
4F
330
34
100
AcDbEntity
  8
0
  6
BYBLOCK
 62
     0
100
AcDbLine
 10
5.757270303721671
 20
35.6210665988282
 30
0.0
 11
5.75727030372167
 21
18.84310785832874
 31
0.0
  0
LINE
  5
50
330
34
100
AcDbEntity
  8
0
  6
BYBLOCK
 62
     0
100
AcDbLine
 10
5.757270303721669
 20
1.606815784495949
 30
0.0
 11
5.75727030372167
 21
18.3847745249954
 31
0.0
  0
LINE
  5
51
330
34
100
AcDbEntity
  8
0
  6
BYBLOCK
 62
     0
100
AcDbLine
 10
5.882270303721671
 20
35.4960665988282
 30
0.0
 11
5.632270303721671
 21
35.7460665988282
 31
0.0
  0
LINE
  5
52
330
34
100
AcDbEntity
  8
0
  6
BYBLOCK
 62
     0
100
AcDbLine
 10
5.882270303721669
 20
1.481815784495949
 30
0.0
 11
5.632270303721669
 21
1.731815784495949
 31
0.0
  0
TEXT
  5
53
330
34
100
AcDbEntity
  8
0
  6
BYBLOCK
 62
     0
100
AcDbText
 10
5.81977030372167
 20
18.5097745249954
 30
0.0
 40
0.125
  1
34
 50
90.0
 72
     1
 11
5.75727030372167
 21
18.61394119166207
 31
0.0
100
AcDbText
 73
     2
  0
POINT
  5
54
330
34
100
AcDbEntity
  8
DEFPOINTS
  6
BYBLOCK
 62
     0
100
AcDbPoint
 10
3.086481659990336
 20
35.6210665988282
 30
0.0
  0
POINT
  5
55
330
34
100
AcDbEntity
  8
DEFPOINTS
  6
BYBLOCK
 62
     0
100
AcDbPoint
 10
3.245960487351897
 20
1.60681578449595
 30
0.0
  0
POINT
  5
56
330
34
100
AcDbEntity
  8
DEFPOINTS
  6
BYBLOCK
 62
     0
100
AcDbPoint
 10
5.757270303721669
 20
1.606815784495949
 30
0.0
  0
ENDBLK
  5
57
330
34
100
AcDbEntity
  8
0
100
AcDbBlockEnd
  0
ENDSEC
  0
SECTION
  2
ENTITIES
  0
ARC
  5
58
330
18
100
AcDbEntity
  8
0
100
AcDbCircle
 10
3.544465783111183
 20
17.76497435232574
 30
0.0
 40
0.5705940665816974
100
AcDbArc
 50
100.9662208074299
 51
174.4526423655914
  0
LINE
  5
59
330
18
100
AcDbEntity
  8
0
100
AcDbLine
 10
1.169117305357905
 20
18.45804811208766
 30
0.0
 11
1.169117305357905
 21
17.47459534335802
 31
0.0
  0
LINE
  5
5A
330
18
100
AcDbEntity
  8
0
100
AcDbLine
 10
1.302016328159209
 20
18.32514908928636
 30
0.0
 11
1.302016328159209
 21
17.48211618956375
 31
0.0
  0
LWPOLYLINE
  5
5B
330
18
100
AcDbEntity
  8
0
100
AcDbPolyline
 90
        5
 70
     0
 43
0.0
 10
1.302016328159209
 20
18.32514908928636
 10
2.145049227881816
 20
18.32514908928636
 42
-0.3321053948249863
 10
2.604426751611976
 20
17.82013280264141
 10
2.604426751611976
 20
17.23537710231568
 10
2.976544015455625
 20
17.23537710231568
  0
LWPOLYLINE
  5
62
330
18
100
AcDbEntity
  8
0
100
AcDbPolyline
 90
        5
 70
     0
 43
0.0
 10
4.411853461709696
 20
18.45804811208766
 10
4.411853461709695
 20
17.47459534335803
 42
-0.3801993223490394
 10
3.827097761383959
 20
16.94299925215281
 10
3.268921865618486
 20
16.94299925215281
 10
3.268921865618486
 20
16.73036081567073
  0
LWPOLYLINE
  5
69
330
18
100
AcDbEntity
  8
0
100
AcDbPolyline
 90
        5
 70
     0
 43
0.0
 10
4.278954438908392
 20
18.32514908928636
 10
4.278954438908391
 20
17.48211618956375
 42
-0.3321053948249863
 10
3.773938152263438
 20
17.02273866583359
 10
3.189182451937709
 20
17.02273866583359
 10
3.189182451937709
 20
16.65062140198994
  0
LWPOLYLINE
  5
70
330
18
100
AcDbEntity
  8
0
100
AcDbPolyline
 90
        5
 70
     0
 43
0.0
 10
1.169117305357905
 20
18.45804811208766
 10
2.152570074087546
 20
18.45804811208766
 42
-0.3801993223490394
 10
2.684166165292757
 20
17.87329241176193
 10
2.684166165292757
 20
17.31511651599645
 10
2.896804601774843
 20
17.31511651599645
  0
ARC
  5
77
330
18
100
AcDbEntity
  8
0
100
AcDbCircle
 10
3.491527728810673
 20
17.86664746062187
 30
0.0
 40
0.5947602485093715
100
AcDbArc
 50
96.09277165733601
 51
179.3598503304769
  0
ARC
  5
78
330
18
100
AcDbEntity
  8
0
100
AcDbCircle
 10
0.0072609103852894
 20
17.76497435232574
 30
0.0
 40
0.5705940665816974
100
AcDbArc
 50
100.9662208074299
 51
174.4526423655914
  0
LWPOLYLINE
  5
79
330
18
100
AcDbEntity
  8
0
100
AcDbPolyline
 90
        5
 70
     0
 43
0.0
 10
0.7417495661824982
 20
18.32514908928636
 10
0.7417495661824978
 20
17.48211618956375
 42
-0.3321053948249863
 10
0.2367332795375452
 20
17.02273866583359
 10
-0.3480224207881841
 20
17.02273866583359
 10
-0.3480224207881841
 20
16.65062140198994
  0
LWPOLYLINE
  5
80
330
18
100
AcDbEntity
  8
0
100
AcDbPolyline
 90
        5
 70
     0
 43
0.0
 10
0.8746485889838023
 20
18.45804811208766
 10
0.8746485889838018
 20
17.47459534335803
 42
-0.3801993223490394
 10
0.2898928886580654
 20
16.94299925215281
 10
-0.2682830071074074
 20
16.94299925215281
 10
-0.2682830071074074
 20
16.73036081567073
  0
LINE
  5
87
330
18
100
AcDbEntity
  8
0
100
AcDbLine
 10
-2.235188544566684
 20
18.32514908928636
 30
0.0
 11
-2.235188544566684
 21
17.48211618956375
 31
0.0
  0
LINE
  5
88
330
18
100
AcDbEntity
  8
0
100
AcDbLine
 10
-2.368087567367988
 20
18.45804811208766
 30
0.0
 11
-2.368087567367988
 21
17.47459534335802
 31
0.0
  0
LWPOLYLINE
  5
89
330
18
100
AcDbEntity
  8
0
100
AcDbPolyline
 90
        5
 70
     0
 43
0.0
 10
-2.235188544566684
 20
18.32514908928636
 10
-1.392155644844076
 20
18.32514908928636
 42
-0.3321053948249863
 10
-0.932778121113917
 20
17.82013280264141
 10
-0.932778121113917
 20
17.23537710231568
 10
-0.5606608572702685
 20
17.23537710231568
  0
ARC
  5
90
330
18
100
AcDbEntity
  8
0
100
AcDbCircle
 10
-0.0456771439152197
 20
17.86664746062187
 30
0.0
 40
0.5947602485093715
100
AcDbArc
 50
96.09277165733601
 51
179.3598503304769
  0
LWPOLYLINE
  5
91
330
18
100
AcDbEntity
  8
0
100
AcDbPolyline
 90
        5
 70
     0
 43
0.0
 10
-2.368087567367988
 20
18.45804811208766
 10
-1.384634798638347
 20
18.45804811208766
 42
-0.3801993223490394
 10
-0.8530387074331358
 20
17.87329241176193
 10
-0.8530387074331358
 20
17.31511651599645
 10
-0.6404002709510506
 20
17.31511651599645
  0
DIMENSION
  5
98
330
18
100
AcDbEntity
  8
ADPDIM
100
AcDbDimension
  2
*D1
 10
5.757270303721669
 20
1.606815784495949
 30
0.0
 11
5.75727030372167
 21
18.61394119166207
 31
0.0
100
AcDbAlignedDimension
 13
3.086481659990336
 23
35.6210665988282
 33
0.0
 14
3.245960487351897
 24
1.60681578449595
 34
0.0
 50
90.0
100
AcDbRotatedDimension
  0
LWPOLYLINE
  5
99
330
18
100
AcDbEntity
  8
0
100
AcDbPolyline
 90
        8
 70
     1
 43
0.0
 10
1.064044874807141
 20
18.31118886567795
 10
1.06404487480714
 20
15.33391933950814
 42
0.4142135623730951
 10
1.31404487480714
 20
15.08391933950814
 10
4.292889490791662
 20
15.08391933950814
 42
0.4142135623730948
 10
4.542889490791662
 20
15.33391933950814
 10
4.542889490791662
 20
18.31118886567795
 42
0.4142135623730951
 10
4.292889490791662
 20
18.56118886567795
 10
1.314044874807141
 20
18.56118886567794
 42
0.4142135623730951
  0
LWPOLYLINE
  5
A3
330
18
100
AcDbEntity
  8
0
100
AcDbPolyline
 90
        8
 70
     1
 43
0.0
 10
-2.473159997918751
 20
18.31118886567795
 10
-2.473159997918751
 20
15.33391933950814
 42
0.4142135623730951
 10
-2.223159997918751
 20
15.08391933950814
 10
0.7556846180657684
 20
15.08391933950814
 42
0.4142135623730948
 10
1.005684618065767
 20
15.33391933950814
 10
1.005684618065767
 20
18.31118886567795
 42
0.4142135623730951
 10
0.755684618065768
 20
18.56118886567795
 10
-2.223159997918751
 20
18.56118886567794
 42
0.4142135623730951
  0
LINE
  5
AD
330
18
100
AcDbEntity
  8
0
 62
     7
100
AcDbLine
 10
5.000227588329099
 20
7.649771810554585
 30
0.0
 11
5.000227588329099
 21
29.57811057276956
 31
0.0
  0
LINE
  5
AE
330
18
100
AcDbEntity
  8
0
 62
     7
100
AcDbLine
 10
-2.973713779749076
 20
29.57811057276956
 30
0.0
 11
-2.973713779749076
 21
7.649771810554586
 31
0.0
  0
LINE
  5
AF
330
18
100
AcDbEntity
  8
0
 62
     7
100
AcDbLine
 10
-2.681335929586212
 20
7.915569856157185
 30
0.0
 11
-2.681335929586212
 21
29.2857327226067
 31
0.0
  0
LINE
  5
B0
330
18
100
AcDbEntity
  8
0
 62
     7
100
AcDbLine
 10
-2.814234952387516
 20
29.418631745408
 30
0.0
 11
-2.814234952387516
 21
7.782670833355886
 31
0.0
  0
LINE
  5
B1
330
18
100
AcDbEntity
  8
0
 62
     7
100
AcDbLine
 10
4.707849738166231
 20
29.2857327226067
 30
0.0
 11
4.707849738166231
 21
7.915569856157186
 31
0.0
  0
LINE
  5
B2
330
18
100
AcDbEntity
  8
0
 62
     7
100
AcDbLine
 10
4.814168956407275
 20
7.782670833355886
 30
0.0
 11
4.814168956407275
 21
29.418631745408
 31
0.0
  0
ARC
  5
B3
330
18
100
AcDbEntity
  8
0
100
AcDbCircle
 10
3.820452810243898
 20
16.1356376886349
 30
0.0
 40
0.5947602485093715
100
AcDbArc
 50
6.092771657336005
 51
89.35985033047691
  0
ARC
  5
B4
330
18
100
AcDbEntity
  8
0
100
AcDbCircle
 10
3.718779701947769
 20
16.08269963433438
 30
0.0
 40
0.5705940665816974
100
AcDbArc
 50
10.96622080742993
 51
84.45264236559145
  0
ARC
  5
B5
330
18
100
AcDbEntity
  8
0
100
AcDbCircle
 10
3.718779701947769
 20
12.57647108095821
 30
0.0
 40
0.5705940665816974
100
AcDbArc
 50
10.96622080742993
 51
84.45264236559145
  0
ARC
  5
B6
330
18
100
AcDbEntity
  8
0
100
AcDbCircle
 10
3.820452810243898
 20
12.62940913525872
 30
0.0
 40
0.5947602485093715
100
AcDbArc
 50
6.092771657336005
 51
89.35985033047691
  0
LINE
  5
B7
330
18
100
AcDbEntity
  8
0
100
AcDbLine
 10
4.411853461709696
 20
14.95181955871149
 30
0.0
 11
3.428400692980055
 21
14.95181955871149
 31
0.0
  0
LINE
  5
B8
330
18
100
AcDbEntity
  8
0
100
AcDbLine
 10
4.278954438908392
 20
14.81892053591018
 30
0.0
 11
3.435921539185785
 21
14.81892053591018
 31
0.0
  0
LWPOLYLINE
  5
B9
330
18
100
AcDbEntity
  8
0
100
AcDbPolyline
 90
        5
 70
     0
 43
0.0
 10
4.411853461709696
 20
14.95181955871149
 10
4.411853461709695
 20
13.96836678998185
 42
-0.3801993223490394
 10
3.827097761383959
 20
13.43677069877664
 10
3.268921865618486
 20
13.43677069877664
 10
3.268921865618486
 20
13.22413226229455
  0
LWPOLYLINE
  5
C0
330
18
100
AcDbEntity
  8
0
100
AcDbPolyline
 90
        5
 70
     0
 43
0.0
 10
4.278954438908392
 20
14.81892053591018
 10
4.278954438908391
 20
13.97588763618758
 42
-0.3321053948249863
 10
3.773938152263438
 20
13.51651011245742
 10
3.189182451937709
 20
13.51651011245742
 10
3.189182451937709
 20
13.14439284861377
  0
ARC
  5
C7
330
18
100
AcDbEntity
  8
0
100
AcDbCircle
 10
3.820452810243898
 20
9.079714600153561
 30
0.0
 40
0.5947602485093715
100
AcDbArc
 50
6.092771657336005
 51
89.35985033047691
  0
ARC
  5
C8
330
18
100
AcDbEntity
  8
0
100
AcDbCircle
 10
3.718779701947769
 20
9.026776545853049
 30
0.0
 40
0.5705940665816974
100
AcDbArc
 50
10.96622080742993
 51
84.45264236559145
  0
LINE
  5
C9
330
18
100
AcDbEntity
  8
0
100
AcDbLine
 10
4.411853461709696
 20
11.40212502360632
 30
0.0
 11
3.428400692980055
 21
11.40212502360632
 31
0.0
  0
LINE
  5
CA
330
18
100
AcDbEntity
  8
0
100
AcDbLine
 10
4.278954438908392
 20
11.26922600080502
 30
0.0
 11
3.435921539185785
 21
11.26922600080502
 31
0.0
  0
LWPOLYLINE
  5
CB
330
18
100
AcDbEntity
  8
0
100
AcDbPolyline
 90
        5
 70
     0
 43
0.0
 10
4.411853461709696
 20
11.40212502360632
 10
4.411853461709695
 20
10.41867225487668
 42
-0.3801993223490394
 10
3.827097761383959
 20
9.887076163671475
 10
3.268921865618486
 20
9.887076163671475
 10
3.268921865618486
 20
9.674437727189392
  0
LWPOLYLINE
  5
D2
330
18
100
AcDbEntity
  8
0
100
AcDbPolyline
 90
        5
 70
     0
 43
0.0
 10
4.278954438908392
 20
11.26922600080502
 10
4.278954438908391
 20
10.42619310108241
 42
-0.3321053948249863
 10
3.773938152263438
 20
9.966815577352255
 10
3.189182451937709
 20
9.966815577352255
 10
3.189182451937709
 20
9.594698313508608
  0
LWPOLYLINE
  5
D9
330
18
100
AcDbEntity
  8
0
100
AcDbPolyline
 90
        5
 70
     0
 43
0.0
 10
4.411853461709693
 20
11.7090834023597
 10
3.428400692980053
 20
11.7090834023597
 42
-0.3801993223490394
 10
2.896804601774842
 20
12.29383910268543
 10
2.896804601774842
 20
12.85201499845091
 10
2.684166165292756
 20
12.85201499845091
  0
LWPOLYLINE
  5
E0
330
18
100
AcDbEntity
  8
0
100
AcDbPolyline
 90
        5
 70
     0
 43
0.0
 10
4.278954438908391
 20
11.841982425161
 10
3.435921539185783
 20
11.841982425161
 42
-0.3321053948249863
 10
2.976544015455622
 20
12.34699871180595
 10
2.976544015455622
 20
12.93175441213168
 10
2.604426751611974
 20
12.93175441213168
  0
LINE
  5
E7
330
18
100
AcDbEntity
  8
0
 62
     7
100
AcDbLine
 10
3.432019119273725
 20
8.128208292639275
 30
0.0
 11
4.415471888003366
 21
8.128208292639275
 31
0.0
  0
LINE
  5
E8
330
18
100
AcDbEntity
  8
0
 62
     7
100
AcDbLine
 10
3.445960487351901
 20
7.649771810554585
 30
0.0
 11
5.000227588329099
 21
7.649771810554585
 31
0.0
  0
LINE
  5
E9
330
18
100
AcDbEntity
  8
0
 62
     7
100
AcDbLine
 10
4.707849738166231
 20
7.915569856157186
 30
0.0
 11
3.453582637189032
 21
7.915569856157186
 31
0.0
  0
LINE
  5
EA
330
18
100
AcDbEntity
  8
0
 62
     7
100
AcDbLine
 10
3.436481659990336
 20
7.782670833355886
 30
0.0
 11
4.707849738166231
 21
7.782670833355886
 31
0.0
  0
LWPOLYLINE
  5
EB
330
18
100
AcDbEntity
  8
0
100
AcDbPolyline
 90
        5
 70
     0
 43
0.0
 10
4.411853461709693
 20
8.159388867254534
 10
3.428400692980053
 20
8.159388867254534
 42
-0.3801993223490394
 10
2.896804601774842
 20
8.744144567580271
 10
2.896804601774842
 20
9.302320463345743
 10
2.684166165292756
 20
9.302320463345743
  0
LWPOLYLINE
  5
F2
330
18
100
AcDbEntity
  8
0
100
AcDbPolyline
 90
        5
 70
     0
 43
0.0
 10
4.278954438908391
 20
8.292287890055842
 10
3.435921539185783
 20
8.292287890055838
 42
-0.3321053948249863
 10
2.976544015455622
 20
8.797304176700791
 10
2.976544015455622
 20
9.38205987702652
 10
2.604426751611974
 20
9.38205987702652
  0
LWPOLYLINE
  5
F9
330
18
100
AcDbEntity
  8
0
100
AcDbPolyline
 90
        8
 70
     1
 43
0.0
 10
1.064044874807141
 20
14.80496031230177
 10
1.06404487480714
 20
11.82769078613197
 42
0.4142135623730951
 10
1.31404487480714
 20
11.57769078613197
 10
4.292889490791662
 20
11.57769078613197
 42
0.4142135623730948
 10
4.542889490791662
 20
11.82769078613197
 10
4.542889490791662
 20
14.80496031230178
 42
0.4142135623730951
 10
4.292889490791662
 20
15.05496031230177
 10
1.314044874807141
 20
15.05496031230177
 42
0.4142135623730951
  0
LWPOLYLINE
  5
103
330
18
100
AcDbEntity
  8
0
100
AcDbPolyline
 90
        8
 70
     1
 43
0.0
 10
1.064044874807141
 20
11.2552657771966
 10
1.06404487480714
 20
8.277996251026806
 42
0.4142135623730951
 10
1.31404487480714
 20
8.027996251026806
 10
4.292889490791662
 20
8.027996251026809
 42
0.4142135623730948
 10
4.542889490791662
 20
8.277996251026809
 10
4.542889490791662
 20
11.25526577719661
 42
0.4142135623730951
 10
4.292889490791662
 20
11.50526577719661
 10
1.314044874807141
 20
11.5052657771966
 42
0.4142135623730951
  0
DIMENSION
  5
10D
330
18
100
AcDbEntity
  8
ADPDIM
100
AcDbDimension
  2
*D0
 10
5.000227588329099
 20
0.7206767847378661
 30
0.0
 11
1.013256904290011
 21
0.7206767847378661
 31
0.0
100
AcDbAlignedDimension
 13
-2.973713779749076
 23
7.649771810554586
 33
0.0
 14
5.000227588329099
 24
7.649771810554585
 34
0.0
100
AcDbRotatedDimension
  0
LWPOLYLINE
  5
10E
330
18
100
AcDbEntity
  8
0
100
AcDbPolyline
 90
        5
 70
     0
 43
0.0
 10
4.411853461709693
 20
15.21531195573587
 10
3.428400692980053
 20
15.21531195573587
 42
-0.3801993223490394
 10
2.896804601774842
 20
15.8000676560616
 10
2.896804601774842
 20
16.35824355182708
 10
2.684166165292756
 20
16.35824355182708
  0
LWPOLYLINE
  5
115
330
18
100
AcDbEntity
  8
0
100
AcDbPolyline
 90
        5
 70
     0
 43
0.0
 10
4.278954438908391
 20
15.34821097853718
 10
3.435921539185783
 20
15.34821097853717
 42
-0.3321053948249863
 10
2.976544015455622
 20
15.85322726518213
 10
2.976544015455622
 20
16.43798296550786
 10
2.604426751611974
 20
16.43798296550786
  0
LINE
  5
11C
330
18
100
AcDbEntity
  8
0
 62
     7
100
AcDbLine
 10
3.086481659990336
 20
1.606815784495949
 30
0.0
 11
3.086481659990336
 21
7.432670833355886
 31
0.0
  0
LINE
  5
11D
330
18
100
AcDbEntity
  8
0
 62
     7
100
AcDbLine
 10
2.953582637189032
 20
7.415569856157186
 30
0.0
 11
2.953582637189032
 21
1.606815784495949
 31
0.0
  0
LINE
  5
11E
330
18
100
AcDbEntity
  8
0
 62
     7
100
AcDbLine
 10
2.528305764224863
 20
1.606815784495949
 30
0.0
 11
2.528305764224864
 21
7.432670833355887
 31
0.0
  0
LINE
  5
11F
330
18
100
AcDbEntity
  8
0
 62
     7
100
AcDbLine
 10
2.634624982465904
 20
7.415569856157186
 30
0.0
 11
2.634624982465904
 21
1.606815784495949
 31
0.0
  0
LINE
  5
120
330
18
100
AcDbEntity
  8
0
 62
     7
100
AcDbLine
 10
3.2459604873519
 20
1.606815784495949
 30
0.0
 11
3.245960487351901
 21
7.449771810554585
 31
0.0
  0
LINE
  5
121
330
18
100
AcDbEntity
  8
0
 62
     7
100
AcDbLine
 10
2.368826936863299
 20
7.449771810554585
 30
0.0
 11
2.368826936863299
 21
1.606815784495949
 31
0.0
  0
LINE
  5
122
330
18
100
AcDbEntity
  8
0
 62
     7
100
AcDbLine
 10
-0.6081111738858854
 20
1.606815784495949
 30
0.0
 11
-0.6081111738858854
 21
7.415569856157186
 31
0.0
  0
LINE
  5
123
330
18
100
AcDbEntity
  8
0
 62
     7
100
AcDbLine
 10
-0.4752121510845813
 20
7.432670833355885
 30
0.0
 11
-0.4752121510845813
 21
1.606815784495949
 31
0.0
  0
LINE
  5
124
330
18
100
AcDbEntity
  8
0
 62
     7
100
AcDbLine
 10
-0.9004890240487535
 20
1.606815784495949
 30
0.0
 11
-0.9004890240487535
 21
7.415569856157186
 31
0.0
  0
LINE
  5
125
330
18
100
AcDbEntity
  8
0
 62
     7
100
AcDbLine
 10
-1.033388046850054
 20
7.432670833355885
 30
0.0
 11
-1.033388046850054
 21
1.606815784495949
 31
0.0
  0
LINE
  5
126
330
18
100
AcDbEntity
  8
0
 62
     7
100
AcDbLine
 10
-0.3157333237230206
 20
1.606815784495949
 30
0.0
 11
-0.3157333237230206
 21
7.449771810554585
 31
0.0
  0
LINE
  5
127
330
18
100
AcDbEntity
  8
0
 62
     7
100
AcDbLine
 10
-1.192866874211618
 20
7.449771810554585
 30
0.0
 11
-1.192866874211618
 21
1.606815784495949
 31
0.0
  0
LINE
  5
128
330
18
100
AcDbEntity
  8
ADP1DETAIL
100
AcDbLine
 10
-1.192866874211618
 20
1.60681578449595
 30
0.0
 11
-0.3157333237230206
 21
1.60681578449595
 31
0.0
  0
LINE
  5
129
330
18
100
AcDbEntity
  8
ADP1DETAIL
100
AcDbLine
 10
2.368826936863299
 20
1.60681578449595
 30
0.0
 11
3.245960487351897
 21
1.60681578449595
 31
0.0
  0
ARC
  5
12A
330
18
100
AcDbEntity
  8
0
100
AcDbCircle
 10
-1.675013807606062
 20
17.59066043348915
 30
0.0
 40
0.5705940665816974
100
AcDbArc
 50
190.9662208074298
 51
264.4526423655914
  0
ARC
  5
12B
330
18
100
AcDbEntity
  8
0
100
AcDbCircle
 10
-1.776686915902192
 20
17.53772237918864
 30
0.0
 40
0.5947602485093715
100
AcDbArc
 50
186.092771657336
 51
269.3598503304769
  0
LINE
  5
12C
330
18
100
AcDbEntity
  8
0
100
AcDbLine
 10
-2.235188544566685
 20
15.34821097853717
 30
0.0
 11
-1.39215564484408
 21
15.34821097853717
 31
0.0
  0
LWPOLYLINE
  5
12D
330
18
100
AcDbEntity
  8
0
100
AcDbPolyline
 90
        5
 70
     0
 43
0.0
 10
-2.235188544566685
 20
15.34821097853717
 10
-2.235188544566685
 20
16.19124387825978
 42
-0.3321053948249863
 10
-1.730172257921732
 20
16.65062140198994
 10
-1.145416557596003
 20
16.65062140198994
 10
-1.145416557596003
 20
17.02273866583359
  0
ARC
  5
134
330
18
100
AcDbEntity
  8
0
100
AcDbCircle
 10
-1.675013807606062
 20
14.08443188011298
 30
0.0
 40
0.5705940665816974
100
AcDbArc
 50
190.9662208074298
 51
264.4526423655914
  0
ARC
  5
135
330
18
100
AcDbEntity
  8
0
100
AcDbCircle
 10
-1.776686915902192
 20
14.03149382581246
 30
0.0
 40
0.5947602485093715
100
AcDbArc
 50
186.092771657336
 51
269.3598503304769
  0
LWPOLYLINE
  5
136
330
18
100
AcDbEntity
  8
0
100
AcDbPolyline
 90
        5
 70
     0
 43
0.0
 10
-2.235188544566684
 20
14.81892053591019
 10
-1.392155644844076
 20
14.81892053591018
 42
-0.3321053948249863
 10
-0.932778121113917
 20
14.31390424926523
 10
-0.932778121113917
 20
13.7291485489395
 10
-0.5606608572702685
 20
13.7291485489395
  0
LINE
  5
13D
330
18
100
AcDbEntity
  8
0
100
AcDbLine
 10
-2.36808756736799
 20
15.21531195573587
 30
0.0
 11
-1.384634798638349
 21
15.21531195573587
 31
0.0
  0
LWPOLYLINE
  5
13E
330
18
100
AcDbEntity
  8
0
100
AcDbPolyline
 90
        5
 70
     0
 43
0.0
 10
-2.368087567367988
 20
14.95181955871149
 10
-1.384634798638347
 20
14.95181955871149
 42
-0.3801993223490394
 10
-0.8530387074331358
 20
14.36706385838575
 10
-0.8530387074331358
 20
13.80888796262028
 10
-0.6404002709510506
 20
13.80888796262028
  0
ARC
  5
145
330
18
100
AcDbEntity
  8
0
100
AcDbCircle
 10
-1.675013807606062
 20
10.53473734500781
 30
0.0
 40
0.5705940665816974
100
AcDbArc
 50
190.9662208074298
 51
264.4526423655914
  0
ARC
  5
146
330
18
100
AcDbEntity
  8
0
100
AcDbCircle
 10
-1.776686915902192
 20
10.48179929070729
 30
0.0
 40
0.5947602485093715
100
AcDbArc
 50
186.092771657336
 51
269.3598503304769
  0
LINE
  5
147
330
18
100
AcDbEntity
  8
0
100
AcDbLine
 10
-2.235188544566685
 20
11.841982425161
 30
0.0
 11
-1.39215564484408
 21
11.841982425161
 31
0.0
  0
LWPOLYLINE
  5
148
330
18
100
AcDbEntity
  8
0
100
AcDbPolyline
 90
        5
 70
     0
 43
0.0
 10
-2.235188544566684
 20
11.26922600080502
 10
-1.392155644844076
 20
11.26922600080502
 42
-0.3321053948249863
 10
-0.932778121113917
 20
10.76420971416006
 10
-0.932778121113917
 20
10.17945401383433
 10
-0.5606608572702685
 20
10.17945401383433
  0
LINE
  5
14F
330
18
100
AcDbEntity
  8
0
100
AcDbLine
 10
-2.36808756736799
 20
11.7090834023597
 30
0.0
 11
-1.384634798638349
 21
11.7090834023597
 31
0.0
  0
LWPOLYLINE
  5
150
330
18
100
AcDbEntity
  8
0
100
AcDbPolyline
 90
        5
 70
     0
 43
0.0
 10
-2.368087567367988
 20
11.40212502360632
 10
-1.384634798638347
 20
11.40212502360632
 42
-0.3801993223490394
 10
-0.8530387074331358
 20
10.81736932328059
 10
-0.8530387074331358
 20
10.25919342751511
 10
-0.6404002709510506
 20
10.25919342751511
  0
LWPOLYLINE
  5
157
330
18
100
AcDbEntity
  8
0
100
AcDbPolyline
 90
        5
 70
     0
 43
0.0
 10
-2.235188544566685
 20
11.841982425161
 10
-2.235188544566685
 20
12.68501532488361
 42
-0.3321053948249863
 10
-1.730172257921732
 20
13.14439284861377
 10
-1.145416557596003
 20
13.14439284861377
 10
-1.145416557596003
 20
13.51651011245742
  0
LWPOLYLINE
  5
15E
330
18
100
AcDbEntity
  8
0
100
AcDbPolyline
 90
        8
 70
     1
 43
0.0
 10
-2.473159997918751
 20
14.80496031230177
 10
-2.473159997918751
 20
11.82769078613197
 42
0.4142135623730951
 10
-2.223159997918751
 20
11.57769078613197
 10
0.7556846180657684
 20
11.57769078613197
 42
0.4142135623730948
 10
1.005684618065767
 20
11.82769078613197
 10
1.005684618065767
 20
14.80496031230178
 42
0.4142135623730951
 10
0.755684618065768
 20
15.05496031230177
 10
-2.223159997918751
 20
15.05496031230177
 42
0.4142135623730951
  0
LWPOLYLINE
  5
168
330
18
100
AcDbEntity
  8
0
100
AcDbPolyline
 90
        5
 70
     0
 43
0.0
 10
-2.368087567367989
 20
11.7090834023597
 10
-2.368087567367989
 20
12.69253617108933
 42
-0.3801993223490394
 10
-1.783331867042252
 20
13.22413226229455
 10
-1.225155971276779
 20
13.22413226229455
 10
-1.225155971276779
 20
13.43677069877663
  0
LINE
  5
16F
330
18
100
AcDbEntity
  8
0
100
AcDbLine
 10
-2.235188544566685
 20
8.292287890055838
 30
0.0
 11
-1.39215564484408
 21
8.292287890055838
 31
0.0
  0
LINE
  5
170
330
18
100
AcDbEntity
  8
0
100
AcDbLine
 10
-2.36808756736799
 20
8.159388867254534
 30
0.0
 11
-1.384634798638349
 21
8.159388867254534
 31
0.0
  0
LINE
  5
171
330
18
100
AcDbEntity
  8
0
 62
     7
100
AcDbLine
 10
-2.681335929586212
 20
7.915569856157185
 30
0.0
 11
-1.400489024048753
 21
7.915569856157186
 31
0.0
  0
LINE
  5
172
330
18
100
AcDbEntity
  8
0
 62
     7
100
AcDbLine
 10
-1.383388046850054
 20
7.782670833355885
 30
0.0
 11
-2.814234952387516
 21
7.782670833355886
 31
0.0
  0
LINE
  5
173
330
18
100
AcDbEntity
  8
0
 62
     7
100
AcDbLine
 10
-2.973713779749076
 20
7.649771810554586
 30
0.0
 11
-1.392866874211618
 21
7.649771810554585
 31
0.0
  0
LWPOLYLINE
  5
174
330
18
100
AcDbEntity
  8
0
100
AcDbPolyline
 90
        5
 70
     0
 43
0.0
 10
-2.235188544566685
 20
8.292287890055838
 10
-2.235188544566685
 20
9.135320789778443
 42
-0.3321053948249863
 10
-1.730172257921732
 20
9.594698313508605
 10
-1.145416557596003
 20
9.594698313508605
 10
-1.145416557596003
 20
9.966815577352251
  0
LWPOLYLINE
  5
17B
330
18
100
AcDbEntity
  8
0
100
AcDbPolyline
 90
        5
 70
     0
 43
0.0
 10
-2.368087567367989
 20
8.159388867254534
 10
-2.368087567367989
 20
9.142841635984172
 42
-0.3801993223490394
 10
-1.783331867042252
 20
9.674437727189385
 10
-1.225155971276779
 20
9.674437727189385
 10
-1.225155971276779
 20
9.887076163671467
  0
LWPOLYLINE
  5
182
330
18
100
AcDbEntity
  8
0
100
AcDbPolyline
 90
        8
 70
     1
 43
0.0
 10
-2.473159997918751
 20
11.2552657771966
 10
-2.473159997918751
 20
8.277996251026806
 42
0.4142135623730951
 10
-2.223159997918751
 20
8.027996251026806
 10
0.7556846180657684
 20
8.027996251026809
 42
0.4142135623730948
 10
1.005684618065767
 20
8.277996251026809
 10
1.005684618065767
 20
11.25526577719661
 42
0.4142135623730951
 10
0.755684618065768
 20
11.50526577719661
 10
-2.223159997918751
 20
11.5052657771966
 42
0.4142135623730951
  0
LWPOLYLINE
  5
18C
330
18
100
AcDbEntity
  8
0
100
AcDbPolyline
 90
        5
 70
     0
 43
0.0
 10
-2.368087567367989
 20
15.21531195573587
 10
-2.368087567367989
 20
16.19876472446551
 42
-0.3801993223490394
 10
-1.783331867042252
 20
16.73036081567072
 10
-1.225155971276779
 20
16.73036081567072
 10
-1.225155971276779
 20
16.94299925215281
  0
LINE
  5
193
330
18
100
AcDbEntity
  8
0
100
AcDbLine
 10
-2.235188544566685
 20
8.292287890055838
 30
0.0
 11
-2.368087567367989
 21
8.159388867254534
 31
0.0
  0
LINE
  5
194
330
18
100
AcDbEntity
  8
0
100
AcDbLine
 10
-2.235188544566684
 20
11.26922600080502
 30
0.0
 11
-2.235188544566684
 21
10.42619310108241
 31
0.0
  0
LINE
  5
195
330
18
100
AcDbEntity
  8
0
100
AcDbLine
 10
-2.368087567367988
 20
11.40212502360632
 30
0.0
 11
-2.368087567367988
 21
10.41867225487668
 31
0.0
  0
LINE
  5
196
330
18
100
AcDbEntity
  8
0
100
AcDbLine
 10
-2.368087567367988
 20
11.40212502360632
 30
0.0
 11
-2.235188544566684
 21
11.26922600080502
 31
0.0
  0
LINE
  5
197
330
18
100
AcDbEntity
  8
0
100
AcDbLine
 10
-2.235188544566685
 20
11.841982425161
 30
0.0
 11
-2.368087567367989
 21
11.7090834023597
 31
0.0
  0
LINE
  5
198
330
18
100
AcDbEntity
  8
0
100
AcDbLine
 10
-2.235188544566684
 20
14.81892053591019
 30
0.0
 11
-2.235188544566684
 21
13.97588763618758
 31
0.0
  0
LINE
  5
199
330
18
100
AcDbEntity
  8
0
100
AcDbLine
 10
-2.368087567367988
 20
14.95181955871149
 30
0.0
 11
-2.368087567367988
 21
13.96836678998185
 31
0.0
  0
LINE
  5
19A
330
18
100
AcDbEntity
  8
0
100
AcDbLine
 10
-2.368087567367988
 20
14.95181955871149
 30
0.0
 11
-2.235188544566684
 21
14.81892053591019
 31
0.0
  0
LINE
  5
19B
330
18
100
AcDbEntity
  8
0
100
AcDbLine
 10
-2.235188544566685
 20
15.34821097853717
 30
0.0
 11
-2.368087567367989
 21
15.21531195573587
 31
0.0
  0
LINE
  5
19C
330
18
100
AcDbEntity
  8
0
100
AcDbLine
 10
2.684166165292756
 20
12.29383910268543
 30
0.0
 11
2.684166165292756
 21
12.85201499845091
 31
0.0
  0
LINE
  5
19D
330
18
100
AcDbEntity
  8
0
100
AcDbLine
 10
2.604426751611974
 20
12.34699871180595
 30
0.0
 11
2.604426751611974
 21
12.93175441213168
 31
0.0
  0
LWPOLYLINE
  5
19E
330
18
100
AcDbEntity
  8
0
100
AcDbPolyline
 90
        5
 70
     0
 43
0.0
 10
1.302016328159207
 20
11.841982425161
 10
1.302016328159207
 20
12.68501532488361
 42
-0.3321053948249863
 10
1.80703261480416
 20
13.14439284861377
 10
2.391788315129889
 20
13.14439284861377
 10
2.391788315129889
 20
13.51651011245742
  0
LINE
  5
1A5
330
18
100
AcDbEntity
  8
0
100
AcDbLine
 10
-0.8530387074331384
 20
12.29383910268543
 30
0.0
 11
-0.8530387074331384
 21
12.85201499845091
 31
0.0
  0
LINE
  5
1A6
330
18
100
AcDbEntity
  8
0
100
AcDbLine
 10
-0.9327781211139187
 20
12.34699871180595
 30
0.0
 11
-0.9327781211139187
 21
12.93175441213168
 31
0.0
  0
LINE
  5
1A7
330
18
100
AcDbEntity
  8
0
100
AcDbLine
 10
0.7417495661824969
 20
11.841982425161
 30
0.0
 11
0.7417495661824965
 21
12.68501532488361
 31
0.0
  0
LINE
  5
1A8
330
18
100
AcDbEntity
  8
0
100
AcDbLine
 10
0.8746485889838005
 20
11.7090834023597
 30
0.0
 11
0.8746485889838005
 21
12.69253617108934
 31
0.0
  0
LWPOLYLINE
  5
1A9
330
18
100
AcDbEntity
  8
0
100
AcDbPolyline
 90
        5
 70
     0
 43
0.0
 10
0.7417495661824969
 20
11.841982425161
 10
-0.1012833335401106
 20
11.841982425161
 42
-0.3321053948249863
 10
-0.5606608572702703
 20
12.34699871180595
 10
-0.5606608572702703
 20
12.93175441213168
 10
-0.9327781211139187
 20
12.93175441213168
  0
LWPOLYLINE
  5
1B0
330
18
100
AcDbEntity
  8
0
100
AcDbPolyline
 90
        5
 70
     0
 43
0.0
 10
0.8746485889838
 20
11.7090834023597
 10
-0.1088041797458397
 20
11.7090834023597
 42
-0.3801993223490394
 10
-0.6404002709510524
 20
12.29383910268543
 10
-0.6404002709510524
 20
12.85201499845091
 10
-0.8530387074331367
 20
12.85201499845091
  0
LWPOLYLINE
  5
1B7
330
18
100
AcDbEntity
  8
0
100
AcDbPolyline
 90
        5
 70
     0
 43
0.0
 10
1.169117305357903
 20
11.7090834023597
 10
1.169117305357903
 20
12.69253617108933
 42
-0.3801993223490394
 10
1.75387300568364
 20
13.22413226229455
 10
2.312048901449113
 20
13.22413226229455
 10
2.312048901449113
 20
13.43677069877663
  0
LINE
  5
1BE
330
18
100
AcDbEntity
  8
0
100
AcDbLine
 10
1.302016328159207
 20
11.841982425161
 30
0.0
 11
1.169117305357903
 21
11.7090834023597
 31
0.0
  0
LINE
  5
1BF
330
18
100
AcDbEntity
  8
0
100
AcDbLine
 10
1.169117305357905
 20
11.40212502360632
 30
0.0
 11
1.302016328159209
 21
11.26922600080502
 31
0.0
  0
LINE
  5
1C0
330
18
100
AcDbEntity
  8
0
100
AcDbLine
 10
1.169117305357903
 20
11.7090834023597
 30
0.0
 11
2.152570074087543
 21
11.7090834023597
 31
0.0
  0
LWPOLYLINE
  5
1C1
330
18
100
AcDbEntity
  8
0
100
AcDbPolyline
 90
        5
 70
     0
 43
0.0
 10
1.169117305357905
 20
11.40212502360632
 10
2.152570074087546
 20
11.40212502360632
 42
-0.3801993223490394
 10
2.684166165292757
 20
10.81736932328059
 10
2.684166165292757
 20
10.25919342751511
 10
2.896804601774843
 20
10.25919342751511
  0
LINE
  5
1C8
330
18
100
AcDbEntity
  8
0
100
AcDbLine
 10
1.302016328159207
 20
8.292287890055838
 30
0.0
 11
1.169117305357903
 21
8.159388867254534
 31
0.0
  0
LINE
  5
1C9
330
18
100
AcDbEntity
  8
0
100
AcDbLine
 10
1.169117305357903
 20
8.159388867254534
 30
0.0
 11
2.152570074087543
 21
8.159388867254534
 31
0.0
  0
ARC
  5
1CA
330
18
100
AcDbEntity
  8
0
100
AcDbCircle
 10
1.7605179568237
 20
10.48179929070729
 30
0.0
 40
0.5947602485093715
100
AcDbArc
 50
186.092771657336
 51
269.3598503304769
  0
LWPOLYLINE
  5
1CB
330
18
100
AcDbEntity
  8
0
100
AcDbPolyline
 90
        5
 70
     0
 43
0.0
 10
1.169117305357903
 20
8.159388867254534
 10
1.169117305357903
 20
9.142841635984172
 42
-0.3801993223490394
 10
1.75387300568364
 20
9.674437727189385
 10
2.312048901449113
 20
9.674437727189385
 10
2.312048901449113
 20
9.887076163671467
  0
LINE
  5
1D2
330
18
100
AcDbEntity
  8
0
 62
     7
100
AcDbLine
 10
-0.1157333237230205
 20
7.649771810554585
 30
0.0
 11
2.168826936863299
 21
7.649771810554585
 31
0.0
  0
LINE
  5
1D3
330
18
100
AcDbEntity
  8
0
 62
     7
100
AcDbLine
 10
2.178305764224865
 20
7.782670833355886
 30
0.0
 11
-0.1252121510845812
 21
7.782670833355885
 31
0.0
  0
LINE
  5
1D4
330
18
100
AcDbEntity
  8
0
 62
     7
100
AcDbLine
 10
-0.1081111738858853
 20
7.915569856157186
 30
0.0
 11
2.134624982465904
 21
7.915569856157186
 31
0.0
  0
ARC
  5
1D5
330
18
100
AcDbEntity
  8
0
100
AcDbCircle
 10
0.1815748292218755
 20
9.026776545853049
 30
0.0
 40
0.5705940665816974
100
AcDbArc
 50
10.96622080742993
 51
84.45264236559145
  0
ARC
  5
1D6
330
18
100
AcDbEntity
  8
0
100
AcDbCircle
 10
0.2832479375180048
 20
9.079714600153561
 30
0.0
 40
0.5947602485093715
100
AcDbArc
 50
6.092771657336005
 51
89.35985033047691
  0
ARC
  5
1D7
330
18
100
AcDbEntity
  8
0
 62
     7
100
AcDbCircle
 10
-0.1252121510845812
 20
7.432670833355885
 30
0.0
 40
0.35
100
AcDbArc
 50
90.0
 51
180.0
  0
ARC
  5
1D8
330
18
100
AcDbEntity
  8
0
 62
     7
100
AcDbCircle
 10
-0.1157333237230205
 20
7.449771810554585
 30
0.0
 40
0.2
100
AcDbArc
 50
90.0
 51
180.0
  0
ARC
  5
1D9
330
18
100
AcDbEntity
  8
0
 62
     7
100
AcDbCircle
 10
-0.1081111738858853
 20
7.415569856157186
 30
0.0
 40
0.5
100
AcDbArc
 50
90.0
 51
180.0
  0
LWPOLYLINE
  5
1DA
330
18
100
AcDbEntity
  8
0
100
AcDbPolyline
 90
        5
 70
     0
 43
0.0
 10
0.7417495661824969
 20
8.292287890055842
 10
-0.1012833335401106
 20
8.292287890055838
 42
-0.3321053948249863
 10
-0.5606608572702703
 20
8.797304176700791
 10
-0.5606608572702703
 20
9.38205987702652
 10
-0.9327781211139187
 20
9.38205987702652
  0
LWPOLYLINE
  5
1E1
330
18
100
AcDbEntity
  8
0
100
AcDbPolyline
 90
        5
 70
     0
 43
0.0
 10
0.8746485889838
 20
8.159388867254534
 10
-0.1088041797458397
 20
8.159388867254534
 42
-0.3801993223490394
 10
-0.6404002709510524
 20
8.744144567580271
 10
-0.6404002709510524
 20
9.302320463345743
 10
-0.8530387074331367
 20
9.302320463345743
  0
ARC
  5
1E8
330
18
100
AcDbEntity
  8
0
100
AcDbCircle
 10
-1.447761834468967
 20
8.750789518720331
 30
0.0
 40
0.5947602485093715
100
AcDbArc
 50
276.092771657336
 51
359.3598503304769
  0
ARC
  5
1E9
330
18
100
AcDbEntity
  8
0
 62
     7
100
AcDbCircle
 10
-1.383388046850054
 20
7.432670833355885
 30
0.0
 40
0.35
100
AcDbArc
 50
0.0
 51
90.0
  0
ARC
  5
1EA
330
18
100
AcDbEntity
  8
0
 62
     7
100
AcDbCircle
 10
-1.400489024048753
 20
7.415569856157186
 30
0.0
 40
0.5
100
AcDbArc
 50
0.0
 51
90.0
  0
ARC
  5
1EB
330
18
100
AcDbEntity
  8
0
 62
     7
100
AcDbCircle
 10
-1.392866874211618
 20
7.449771810554585
 30
0.0
 40
0.2
100
AcDbArc
 50
0.0
 51
90.0
  0
ARC
  5
1EC
330
18
100
AcDbEntity
  8
0
100
AcDbCircle
 10
-1.500699888769477
 20
8.852462627016461
 30
0.0
 40
0.5705940665816974
100
AcDbArc
 50
280.9662208074299
 51
354.4526423655915
  0
LINE
  5
1ED
330
18
100
AcDbEntity
  8
0
100
AcDbLine
 10
-0.8530387074331384
 20
8.744144567580271
 30
0.0
 11
-0.8530387074331384
 21
9.302320463345743
 31
0.0
  0
LINE
  5
1EE
330
18
100
AcDbEntity
  8
0
100
AcDbLine
 10
-0.9327781211139187
 20
8.797304176700791
 30
0.0
 11
-0.9327781211139187
 21
9.38205987702652
 31
0.0
  0
LINE
  5
1EF
330
18
100
AcDbEntity
  8
0
100
AcDbLine
 10
-0.8530387074331384
 20
9.302320463345743
 30
0.0
 11
-0.9327781211139187
 21
9.38205987702652
 31
0.0
  0
LINE
  5
1F0
330
18
100
AcDbEntity
  8
0
100
AcDbLine
 10
-0.6404002709510524
 20
9.302320463345743
 30
0.0
 11
-0.5606608572702703
 21
9.38205987702652
 31
0.0
  0
LINE
  5
1F1
330
18
100
AcDbEntity
  8
0
 62
     7
100
AcDbLine
 10
-0.1296746918011964
 20
8.128208292639275
 30
0.0
 11
0.8803578814887087
 21
8.128208292639275
 31
0.0
  0
LINE
  5
1F2
330
18
100
AcDbEntity
  8
0
100
AcDbLine
 10
0.7417495661824969
 20
8.292287890055842
 30
0.0
 11
0.7417495661824965
 21
9.135320789778447
 31
0.0
  0
LINE
  5
1F3
330
18
100
AcDbEntity
  8
0
100
AcDbLine
 10
0.8746485889838005
 20
8.159388867254534
 30
0.0
 11
0.8746485889838005
 21
9.142841635984176
 31
0.0
  0
LINE
  5
1F4
330
18
100
AcDbEntity
  8
0
100
AcDbLine
 10
0.7417495661824969
 20
8.292287890055842
 30
0.0
 11
0.8746485889838
 21
8.159388867254534
 31
0.0
  0
ARC
  5
1F5
330
18
100
AcDbEntity
  8
0
100
AcDbCircle
 10
-0.0456771439152197
 20
10.81072437214053
 30
0.0
 40
0.5947602485093715
100
AcDbArc
 50
96.09277165733601
 51
179.3598503304769
  0
ARC
  5
1F6
330
18
100
AcDbEntity
  8
0
100
AcDbCircle
 10
0.0072609103852894
 20
10.7090512638444
 30
0.0
 40
0.5705940665816974
100
AcDbArc
 50
100.9662208074299
 51
174.4526423655914
  0
LINE
  5
1F7
330
18
100
AcDbEntity
  8
0
100
AcDbLine
 10
-1.730172257921731
 20
9.966815577352251
 30
0.0
 11
-1.145416557596002
 21
9.966815577352251
 31
0.0
  0
LINE
  5
1F8
330
18
100
AcDbEntity
  8
0
100
AcDbLine
 10
-1.783331867042251
 20
9.887076163671471
 30
0.0
 11
-1.225155971276778
 21
9.887076163671471
 31
0.0
  0
LINE
  5
1F9
330
18
100
AcDbEntity
  8
0
100
AcDbLine
 10
-1.225155971276778
 20
9.887076163671471
 30
0.0
 11
-1.145416557596003
 21
9.966815577352251
 31
0.0
  0
LINE
  5
1FA
330
18
100
AcDbEntity
  8
0
100
AcDbLine
 10
-1.225155971276779
 20
9.674437727189385
 30
0.0
 11
-1.145416557596003
 21
9.594698313508605
 31
0.0
  0
LINE
  5
1FB
330
18
100
AcDbEntity
  8
0
100
AcDbLine
 10
-0.5606608572702685
 20
10.76420971416006
 30
0.0
 11
-0.5606608572702685
 21
10.17945401383433
 31
0.0
  0
LINE
  5
1FC
330
18
100
AcDbEntity
  8
0
100
AcDbLine
 10
-0.6404002709510497
 20
10.81736932328059
 30
0.0
 11
-0.6404002709510497
 21
10.25919342751511
 31
0.0
  0
LINE
  5
1FD
330
18
100
AcDbEntity
  8
0
100
AcDbLine
 10
-0.8530387074331358
 20
10.25919342751511
 30
0.0
 11
-0.932778121113917
 21
10.17945401383433
 31
0.0
  0
LINE
  5
1FE
330
18
100
AcDbEntity
  8
0
100
AcDbLine
 10
-0.6404002709510506
 20
10.25919342751511
 30
0.0
 11
-0.5606608572702685
 21
10.17945401383433
 31
0.0
  0
ARC
  5
1FF
330
18
100
AcDbEntity
  8
0
100
AcDbCircle
 10
-1.447761834468967
 20
12.30048405382549
 30
0.0
 40
0.5947602485093715
100
AcDbArc
 50
276.092771657336
 51
359.3598503304769
  0
ARC
  5
200
330
18
100
AcDbEntity
  8
0
100
AcDbCircle
 10
-1.500699888769477
 20
12.40215716212162
 30
0.0
 40
0.5705940665816974
100
AcDbArc
 50
280.9662208074299
 51
354.4526423655915
  0
LINE
  5
201
330
18
100
AcDbEntity
  8
0
100
AcDbLine
 10
1.169117305357905
 20
11.40212502360632
 30
0.0
 11
1.169117305357905
 21
10.41867225487668
 31
0.0
  0
LWPOLYLINE
  5
202
330
18
100
AcDbEntity
  8
0
100
AcDbPolyline
 90
        5
 70
     0
 43
0.0
 10
0.7417495661824982
 20
11.26922600080502
 10
0.7417495661824978
 20
10.42619310108241
 42
-0.3321053948249863
 10
0.2367332795375452
 20
9.966815577352255
 10
-0.3480224207881841
 20
9.966815577352255
 10
-0.3480224207881841
 20
9.594698313508608
  0
LWPOLYLINE
  5
209
330
18
100
AcDbEntity
  8
0
100
AcDbPolyline
 90
        5
 70
     0
 43
0.0
 10
0.8746485889838023
 20
11.40212502360632
 10
0.8746485889838018
 20
10.41867225487668
 42
-0.3801993223490394
 10
0.2898928886580654
 20
9.887076163671475
 10
-0.2682830071074074
 20
9.887076163671475
 10
-0.2682830071074074
 20
9.674437727189392
  0
LINE
  5
210
330
18
100
AcDbEntity
  8
0
100
AcDbLine
 10
0.2367332795375434
 20
9.594698313508608
 30
0.0
 11
-0.3480224207881859
 21
9.594698313508608
 31
0.0
  0
LINE
  5
211
330
18
100
AcDbEntity
  8
0
100
AcDbLine
 10
0.2898928886580636
 20
9.674437727189388
 30
0.0
 11
-0.2682830071074091
 21
9.674437727189388
 31
0.0
  0
LINE
  5
212
330
18
100
AcDbEntity
  8
0
100
AcDbLine
 10
-0.3480224207881841
 20
9.966815577352255
 30
0.0
 11
-0.2682830071074074
 21
9.887076163671475
 31
0.0
  0
LINE
  5
213
330
18
100
AcDbEntity
  8
0
100
AcDbLine
 10
-0.3480224207881841
 20
9.594698313508608
 30
0.0
 11
-0.2682830071074074
 21
9.674437727189392
 31
0.0
  0
LINE
  5
214
330
18
100
AcDbEntity
  8
0
100
AcDbLine
 10
0.7417495661824982
 20
11.26922600080502
 30
0.0
 11
-0.1012833335401089
 21
11.26922600080502
 31
0.0
  0
LINE
  5
215
330
18
100
AcDbEntity
  8
0
100
AcDbLine
 10
0.8746485889838023
 20
11.40212502360632
 30
0.0
 11
-0.1088041797458379
 21
11.40212502360632
 31
0.0
  0
LINE
  5
216
330
18
100
AcDbEntity
  8
0
100
AcDbLine
 10
0.9012283935440636
 20
11.40212502360632
 30
0.0
 11
0.7417495661824982
 21
11.26922600080502
 31
0.0
  0
LINE
  5
217
330
18
100
AcDbEntity
  8
0
100
AcDbLine
 10
0.7417495661824969
 20
11.841982425161
 30
0.0
 11
0.8746485889838
 21
11.7090834023597
 31
0.0
  0
LWPOLYLINE
  5
218
330
18
100
AcDbEntity
  8
0
100
AcDbPolyline
 90
        5
 70
     0
 43
0.0
 10
1.302016328159207
 20
8.292287890055838
 10
1.302016328159207
 20
9.135320789778443
 42
-0.3321053948249863
 10
1.80703261480416
 20
9.594698313508605
 10
2.391788315129889
 20
9.594698313508605
 10
2.391788315129889
 20
9.966815577352251
  0
ARC
  5
21F
330
18
100
AcDbEntity
  8
0
100
AcDbCircle
 10
2.089443038256926
 20
8.750789518720331
 30
0.0
 40
0.5947602485093715
100
AcDbArc
 50
276.092771657336
 51
359.3598503304769
  0
ARC
  5
220
330
18
100
AcDbEntity
  8
0
 62
     7
100
AcDbCircle
 10
2.134624982465904
 20
7.415569856157186
 30
0.0
 40
0.5
100
AcDbArc
 50
0.0
 51
90.0
  0
ARC
  5
221
330
18
100
AcDbEntity
  8
0
 62
     7
100
AcDbCircle
 10
2.168826936863299
 20
7.449771810554585
 30
0.0
 40
0.2
100
AcDbArc
 50
0.0
 51
90.0
  0
ARC
  5
222
330
18
100
AcDbEntity
  8
0
 62
     7
100
AcDbCircle
 10
2.178305764224865
 20
7.432670833355887
 30
0.0
 40
0.35
100
AcDbArc
 50
0.0
 51
90.00000000000005
  0
LINE
  5
223
330
18
100
AcDbEntity
  8
0
100
AcDbLine
 10
1.302016328159207
 20
8.292287890055838
 30
0.0
 11
2.145049227881814
 21
8.292287890055838
 31
0.0
  0
LINE
  5
224
330
18
100
AcDbEntity
  8
0
100
AcDbLine
 10
2.684166165292756
 20
8.744144567580271
 30
0.0
 11
2.684166165292756
 21
9.302320463345743
 31
0.0
  0
LINE
  5
225
330
18
100
AcDbEntity
  8
0
100
AcDbLine
 10
2.604426751611974
 20
8.797304176700791
 30
0.0
 11
2.604426751611974
 21
9.38205987702652
 31
0.0
  0
ARC
  5
226
330
18
100
AcDbEntity
  8
0
100
AcDbCircle
 10
2.036504983956417
 20
8.852462627016461
 30
0.0
 40
0.5705940665816974
100
AcDbArc
 50
280.9662208074299
 51
354.4526423655915
  0
LINE
  5
227
330
18
100
AcDbEntity
  8
0
100
AcDbLine
 10
2.684166165292756
 20
9.302320463345743
 30
0.0
 11
2.604426751611974
 21
9.38205987702652
 31
0.0
  0
ARC
  5
228
330
18
100
AcDbEntity
  8
0
 62
     7
100
AcDbCircle
 10
3.445960487351901
 20
7.449771810554585
 30
0.0
 40
0.2
100
AcDbArc
 50
90.0
 51
180.0
  0
ARC
  5
229
330
18
100
AcDbEntity
  8
0
 62
     7
100
AcDbCircle
 10
3.436481659990336
 20
7.432670833355886
 30
0.0
 40
0.35
100
AcDbArc
 50
90.0
 51
180.0
  0
ARC
  5
22A
330
18
100
AcDbEntity
  8
0
 62
     7
100
AcDbCircle
 10
3.453582637189032
 20
7.415569856157186
 30
0.0
 40
0.5
100
AcDbArc
 50
90.0
 51
180.0
  0
LINE
  5
22B
330
18
100
AcDbEntity
  8
0
100
AcDbLine
 10
2.896804601774842
 20
9.302320463345743
 30
0.0
 11
2.976544015455622
 21
9.38205987702652
 31
0.0
  0
LWPOLYLINE
  5
22C
330
18
100
AcDbEntity
  8
0
100
AcDbPolyline
 90
        5
 70
     0
 43
0.0
 10
1.302016328159209
 20
11.26922600080502
 10
2.145049227881816
 20
11.26922600080502
 42
-0.3321053948249863
 10
2.604426751611976
 20
10.76420971416006
 10
2.604426751611976
 20
10.17945401383433
 10
2.976544015455625
 20
10.17945401383433
  0
ARC
  5
233
330
18
100
AcDbEntity
  8
0
100
AcDbCircle
 10
2.089443038256926
 20
12.30048405382549
 30
0.0
 40
0.5947602485093715
100
AcDbArc
 50
276.092771657336
 51
359.3598503304769
  0
LINE
  5
234
330
18
100
AcDbEntity
  8
0
100
AcDbLine
 10
1.302016328159209
 20
11.26922600080502
 30
0.0
 11
1.302016328159209
 21
10.42619310108241
 31
0.0
  0
LINE
  5
235
330
18
100
AcDbEntity
  8
0
100
AcDbLine
 10
1.753873005683642
 20
9.887076163671471
 30
0.0
 11
2.312048901449114
 21
9.887076163671471
 31
0.0
  0
LINE
  5
236
330
18
100
AcDbEntity
  8
0
100
AcDbLine
 10
1.807032614804162
 20
9.966815577352251
 30
0.0
 11
2.391788315129891
 21
9.966815577352251
 31
0.0
  0
ARC
  5
237
330
18
100
AcDbEntity
  8
0
100
AcDbCircle
 10
1.86219106511983
 20
10.53473734500781
 30
0.0
 40
0.5705940665816974
100
AcDbArc
 50
190.9662208074298
 51
264.4526423655914
  0
LINE
  5
238
330
18
100
AcDbEntity
  8
0
100
AcDbLine
 10
2.312048901449114
 20
9.887076163671471
 30
0.0
 11
2.391788315129889
 21
9.966815577352251
 31
0.0
  0
LINE
  5
239
330
18
100
AcDbEntity
  8
0
100
AcDbLine
 10
2.312048901449113
 20
9.674437727189385
 30
0.0
 11
2.391788315129889
 21
9.594698313508605
 31
0.0
  0
LINE
  5
23A
330
18
100
AcDbEntity
  8
0
100
AcDbLine
 10
2.684166165292757
 20
10.25919342751511
 30
0.0
 11
2.604426751611976
 21
10.17945401383433
 31
0.0
  0
LINE
  5
23B
330
18
100
AcDbEntity
  8
0
100
AcDbLine
 10
1.302016328159207
 20
11.841982425161
 30
0.0
 11
2.145049227881814
 21
11.841982425161
 31
0.0
  0
ARC
  5
23C
330
18
100
AcDbEntity
  8
0
100
AcDbCircle
 10
2.036504983956417
 20
12.40215716212162
 30
0.0
 40
0.5705940665816974
100
AcDbArc
 50
280.9662208074299
 51
354.4526423655915
  0
ARC
  5
23D
330
18
100
AcDbEntity
  8
0
100
AcDbCircle
 10
3.544465783111183
 20
10.7090512638444
 30
0.0
 40
0.5705940665816974
100
AcDbArc
 50
100.9662208074299
 51
174.4526423655914
  0
ARC
  5
23E
330
18
100
AcDbEntity
  8
0
100
AcDbCircle
 10
3.491527728810673
 20
10.81072437214053
 30
0.0
 40
0.5947602485093715
100
AcDbArc
 50
96.09277165733601
 51
179.3598503304769
  0
LINE
  5
23F
330
18
100
AcDbEntity
  8
0
100
AcDbLine
 10
3.827097761383958
 20
9.674437727189388
 30
0.0
 11
3.268921865618485
 21
9.674437727189388
 31
0.0
  0
LINE
  5
240
330
18
100
AcDbEntity
  8
0
100
AcDbLine
 10
3.773938152263438
 20
9.594698313508608
 30
0.0
 11
3.189182451937708
 21
9.594698313508608
 31
0.0
  0
LINE
  5
241
330
18
100
AcDbEntity
  8
0
100
AcDbLine
 10
2.976544015455625
 20
10.76420971416006
 30
0.0
 11
2.976544015455625
 21
10.17945401383433
 31
0.0
  0
LINE
  5
242
330
18
100
AcDbEntity
  8
0
100
AcDbLine
 10
2.896804601774844
 20
10.81736932328059
 30
0.0
 11
2.896804601774844
 21
10.25919342751511
 31
0.0
  0
LINE
  5
243
330
18
100
AcDbEntity
  8
0
100
AcDbLine
 10
2.896804601774843
 20
10.25919342751511
 30
0.0
 11
2.976544015455625
 21
10.17945401383433
 31
0.0
  0
LINE
  5
244
330
18
100
AcDbEntity
  8
0
100
AcDbLine
 10
3.189182451937709
 20
9.966815577352255
 30
0.0
 11
3.268921865618486
 21
9.887076163671475
 31
0.0
  0
LINE
  5
245
330
18
100
AcDbEntity
  8
0
100
AcDbLine
 10
3.189182451937709
 20
9.594698313508608
 30
0.0
 11
3.268921865618486
 21
9.674437727189392
 31
0.0
  0
ARC
  5
246
330
18
100
AcDbEntity
  8
0
100
AcDbCircle
 10
1.7605179568237
 20
17.53772237918864
 30
0.0
 40
0.5947602485093715
100
AcDbArc
 50
186.092771657336
 51
269.3598503304769
  0
LINE
  5
247
330
18
100
AcDbEntity
  8
0
100
AcDbLine
 10
1.169117305357905
 20
14.95181955871149
 30
0.0
 11
1.302016328159209
 21
14.81892053591019
 31
0.0
  0
LINE
  5
248
330
18
100
AcDbEntity
  8
0
100
AcDbLine
 10
1.169117305357903
 20
15.21531195573587
 30
0.0
 11
2.152570074087543
 21
15.21531195573587
 31
0.0
  0
LWPOLYLINE
  5
249
330
18
100
AcDbEntity
  8
0
100
AcDbPolyline
 90
        5
 70
     0
 43
0.0
 10
1.169117305357905
 20
14.95181955871149
 10
2.152570074087546
 20
14.95181955871149
 42
-0.3801993223490394
 10
2.684166165292757
 20
14.36706385838575
 10
2.684166165292757
 20
13.80888796262028
 10
2.896804601774843
 20
13.80888796262028
  0
ARC
  5
250
330
18
100
AcDbEntity
  8
0
100
AcDbCircle
 10
1.7605179568237
 20
14.03149382581246
 30
0.0
 40
0.5947602485093715
100
AcDbArc
 50
186.092771657336
 51
269.3598503304769
  0
LINE
  5
251
330
18
100
AcDbEntity
  8
0
100
AcDbLine
 10
1.302016328159207
 20
15.34821097853717
 30
0.0
 11
1.169117305357903
 21
15.21531195573587
 31
0.0
  0
LWPOLYLINE
  5
252
330
18
100
AcDbEntity
  8
0
100
AcDbPolyline
 90
        5
 70
     0
 43
0.0
 10
1.169117305357903
 20
15.21531195573587
 10
1.169117305357903
 20
16.19876472446551
 42
-0.3801993223490394
 10
1.75387300568364
 20
16.73036081567072
 10
2.312048901449113
 20
16.73036081567072
 10
2.312048901449113
 20
16.94299925215281
  0
ARC
  5
259
330
18
100
AcDbEntity
  8
0
100
AcDbCircle
 10
-1.447761834468967
 20
15.80671260720166
 30
0.0
 40
0.5947602485093715
100
AcDbArc
 50
276.092771657336
 51
359.3598503304769
  0
LWPOLYLINE
  5
25A
330
18
100
AcDbEntity
  8
0
100
AcDbPolyline
 90
        5
 70
     0
 43
0.0
 10
0.8746485889838
 20
15.21531195573587
 10
-0.1088041797458397
 20
15.21531195573587
 42
-0.3801993223490394
 10
-0.6404002709510524
 20
15.8000676560616
 10
-0.6404002709510524
 20
16.35824355182708
 10
-0.8530387074331367
 20
16.35824355182708
  0
ARC
  5
261
330
18
100
AcDbEntity
  8
0
100
AcDbCircle
 10
-0.0456771439152197
 20
14.36041890724569
 30
0.0
 40
0.5947602485093715
100
AcDbArc
 50
96.09277165733601
 51
179.3598503304769
  0
ARC
  5
262
330
18
100
AcDbEntity
  8
0
100
AcDbCircle
 10
0.0072609103852894
 20
14.25874579894956
 30
0.0
 40
0.5705940665816974
100
AcDbArc
 50
100.9662208074299
 51
174.4526423655914
  0
LINE
  5
263
330
18
100
AcDbEntity
  8
0
100
AcDbLine
 10
-0.5606608572702685
 20
14.31390424926523
 30
0.0
 11
-0.5606608572702685
 21
13.7291485489395
 31
0.0
  0
LINE
  5
264
330
18
100
AcDbEntity
  8
0
100
AcDbLine
 10
-0.6404002709510506
 20
13.80888796262028
 30
0.0
 11
-0.5606608572702685
 21
13.7291485489395
 31
0.0
  0
LINE
  5
265
330
18
100
AcDbEntity
  8
0
100
AcDbLine
 10
-0.8530387074331358
 20
13.80888796262028
 30
0.0
 11
-0.932778121113917
 21
13.7291485489395
 31
0.0
  0
LINE
  5
266
330
18
100
AcDbEntity
  8
0
100
AcDbLine
 10
-1.730172257921731
 20
13.51651011245742
 30
0.0
 11
-1.145416557596002
 21
13.51651011245742
 31
0.0
  0
LINE
  5
267
330
18
100
AcDbEntity
  8
0
100
AcDbLine
 10
-1.783331867042251
 20
13.43677069877664
 30
0.0
 11
-1.225155971276778
 21
13.43677069877664
 31
0.0
  0
LINE
  5
268
330
18
100
AcDbEntity
  8
0
100
AcDbLine
 10
-1.225155971276778
 20
13.43677069877664
 30
0.0
 11
-1.145416557596003
 21
13.51651011245742
 31
0.0
  0
LINE
  5
269
330
18
100
AcDbEntity
  8
0
100
AcDbLine
 10
-1.225155971276779
 20
13.22413226229455
 30
0.0
 11
-1.145416557596003
 21
13.14439284861377
 31
0.0
  0
LINE
  5
26A
330
18
100
AcDbEntity
  8
0
100
AcDbLine
 10
-0.8530387074331384
 20
12.85201499845091
 30
0.0
 11
-0.9327781211139187
 21
12.93175441213168
 31
0.0
  0
LINE
  5
26B
330
18
100
AcDbEntity
  8
0
100
AcDbLine
 10
-0.6404002709510524
 20
12.85201499845091
 30
0.0
 11
-0.5606608572702703
 21
12.93175441213168
 31
0.0
  0
LINE
  5
26C
330
18
100
AcDbEntity
  8
0
100
AcDbLine
 10
-0.6404002709510497
 20
14.36706385838575
 30
0.0
 11
-0.6404002709510497
 21
13.80888796262028
 31
0.0
  0
LWPOLYLINE
  5
26D
330
18
100
AcDbEntity
  8
0
100
AcDbPolyline
 90
        5
 70
     0
 43
0.0
 10
0.7417495661824982
 20
14.81892053591018
 10
0.7417495661824978
 20
13.97588763618758
 42
-0.3321053948249863
 10
0.2367332795375452
 20
13.51651011245742
 10
-0.3480224207881841
 20
13.51651011245742
 10
-0.3480224207881841
 20
13.14439284861377
  0
LWPOLYLINE
  5
274
330
18
100
AcDbEntity
  8
0
100
AcDbPolyline
 90
        5
 70
     0
 43
0.0
 10
0.8746485889838023
 20
14.95181955871149
 10
0.8746485889838018
 20
13.96836678998185
 42
-0.3801993223490394
 10
0.2898928886580654
 20
13.43677069877664
 10
-0.2682830071074074
 20
13.43677069877664
 10
-0.2682830071074074
 20
13.22413226229455
  0
ARC
  5
27B
330
18
100
AcDbEntity
  8
0
100
AcDbCircle
 10
0.1815748292218755
 20
12.57647108095821
 30
0.0
 40
0.5705940665816974
100
AcDbArc
 50
10.96622080742993
 51
84.45264236559145
  0
ARC
  5
27C
330
18
100
AcDbEntity
  8
0
100
AcDbCircle
 10
0.2832479375180048
 20
12.62940913525872
 30
0.0
 40
0.5947602485093715
100
AcDbArc
 50
6.092771657336005
 51
89.35985033047691
  0
LINE
  5
27D
330
18
100
AcDbEntity
  8
0
100
AcDbLine
 10
0.2367332795375434
 20
13.14439284861377
 30
0.0
 11
-0.3480224207881859
 21
13.14439284861377
 31
0.0
  0
LINE
  5
27E
330
18
100
AcDbEntity
  8
0
100
AcDbLine
 10
0.2898928886580636
 20
13.22413226229455
 30
0.0
 11
-0.2682830071074091
 21
13.22413226229455
 31
0.0
  0
LINE
  5
27F
330
18
100
AcDbEntity
  8
0
100
AcDbLine
 10
-0.3480224207881841
 20
13.51651011245742
 30
0.0
 11
-0.2682830071074074
 21
13.43677069877664
 31
0.0
  0
LINE
  5
280
330
18
100
AcDbEntity
  8
0
100
AcDbLine
 10
-0.3480224207881841
 20
13.14439284861377
 30
0.0
 11
-0.2682830071074074
 21
13.22413226229455
 31
0.0
  0
LINE
  5
281
330
18
100
AcDbEntity
  8
0
100
AcDbLine
 10
0.7417495661824982
 20
14.81892053591018
 30
0.0
 11
-0.1012833335401089
 21
14.81892053591018
 31
0.0
  0
LINE
  5
282
330
18
100
AcDbEntity
  8
0
100
AcDbLine
 10
0.8746485889838023
 20
14.95181955871149
 30
0.0
 11
-0.1088041797458379
 21
14.95181955871149
 31
0.0
  0
LINE
  5
283
330
18
100
AcDbEntity
  8
0
100
AcDbLine
 10
1.169117305357905
 20
14.95181955871149
 30
0.0
 11
1.169117305357905
 21
13.96836678998185
 31
0.0
  0
LINE
  5
284
330
18
100
AcDbEntity
  8
0
100
AcDbLine
 10
0.9012283935440636
 20
14.95181955871149
 30
0.0
 11
0.7417495661824982
 21
14.81892053591018
 31
0.0
  0
LWPOLYLINE
  5
285
330
18
100
AcDbEntity
  8
0
100
AcDbPolyline
 90
        5
 70
     0
 43
0.0
 10
0.7417495661824969
 20
15.34821097853718
 10
-0.1012833335401106
 20
15.34821097853717
 42
-0.3321053948249863
 10
-0.5606608572702703
 20
15.85322726518213
 10
-0.5606608572702703
 20
16.43798296550786
 10
-0.9327781211139187
 20
16.43798296550786
  0
ARC
  5
28C
330
18
100
AcDbEntity
  8
0
100
AcDbCircle
 10
-1.500699888769477
 20
15.90838571549779
 30
0.0
 40
0.5705940665816974
100
AcDbArc
 50
280.9662208074299
 51
354.4526423655915
  0
LINE
  5
28D
330
18
100
AcDbEntity
  8
0
100
AcDbLine
 10
-0.8530387074331384
 20
15.8000676560616
 30
0.0
 11
-0.8530387074331384
 21
16.35824355182708
 31
0.0
  0
LINE
  5
28E
330
18
100
AcDbEntity
  8
0
100
AcDbLine
 10
-0.9327781211139187
 20
15.85322726518213
 30
0.0
 11
-0.9327781211139187
 21
16.43798296550786
 31
0.0
  0
LINE
  5
28F
330
18
100
AcDbEntity
  8
0
100
AcDbLine
 10
-0.8530387074331384
 20
16.35824355182708
 30
0.0
 11
-0.9327781211139187
 21
16.43798296550786
 31
0.0
  0
LINE
  5
290
330
18
100
AcDbEntity
  8
0
100
AcDbLine
 10
-0.6404002709510524
 20
16.35824355182708
 30
0.0
 11
-0.5606608572702703
 21
16.43798296550786
 31
0.0
  0
LINE
  5
291
330
18
100
AcDbEntity
  8
0
100
AcDbLine
 10
-1.730172257921731
 20
17.02273866583359
 30
0.0
 11
-1.145416557596002
 21
17.02273866583359
 31
0.0
  0
LINE
  5
292
330
18
100
AcDbEntity
  8
0
100
AcDbLine
 10
-1.783331867042251
 20
16.94299925215281
 30
0.0
 11
-1.225155971276778
 21
16.94299925215281
 31
0.0
  0
LINE
  5
293
330
18
100
AcDbEntity
  8
0
100
AcDbLine
 10
-1.225155971276778
 20
16.94299925215281
 30
0.0
 11
-1.145416557596003
 21
17.02273866583359
 31
0.0
  0
LINE
  5
294
330
18
100
AcDbEntity
  8
0
100
AcDbLine
 10
-1.225155971276779
 20
16.73036081567072
 30
0.0
 11
-1.145416557596003
 21
16.65062140198994
 31
0.0
  0
LINE
  5
295
330
18
100
AcDbEntity
  8
0
100
AcDbLine
 10
-0.6404002709510506
 20
17.31511651599645
 30
0.0
 11
-0.5606608572702685
 21
17.23537710231568
 31
0.0
  0
LINE
  5
296
330
18
100
AcDbEntity
  8
0
100
AcDbLine
 10
-0.8530387074331358
 20
17.31511651599645
 30
0.0
 11
-0.932778121113917
 21
17.23537710231568
 31
0.0
  0
LINE
  5
297
330
18
100
AcDbEntity
  8
0
100
AcDbLine
 10
-0.5606608572702685
 20
17.82013280264141
 30
0.0
 11
-0.5606608572702685
 21
17.23537710231568
 31
0.0
  0
LINE
  5
298
330
18
100
AcDbEntity
  8
0
100
AcDbLine
 10
-0.6404002709510497
 20
17.87329241176193
 30
0.0
 11
-0.6404002709510497
 21
17.31511651599645
 31
0.0
  0
ARC
  5
299
330
18
100
AcDbEntity
  8
0
100
AcDbCircle
 10
0.1815748292218755
 20
16.08269963433438
 30
0.0
 40
0.5705940665816974
100
AcDbArc
 50
10.96622080742993
 51
84.45264236559145
  0
ARC
  5
29A
330
18
100
AcDbEntity
  8
0
100
AcDbCircle
 10
0.2832479375180048
 20
16.1356376886349
 30
0.0
 40
0.5947602485093715
100
AcDbArc
 50
6.092771657336005
 51
89.35985033047691
  0
LINE
  5
29B
330
18
100
AcDbEntity
  8
0
100
AcDbLine
 10
0.7417495661824969
 20
15.34821097853718
 30
0.0
 11
0.7417495661824965
 21
16.19124387825978
 31
0.0
  0
LINE
  5
29C
330
18
100
AcDbEntity
  8
0
100
AcDbLine
 10
0.8746485889838005
 20
15.21531195573587
 30
0.0
 11
0.8746485889838005
 21
16.19876472446551
 31
0.0
  0
LINE
  5
29D
330
18
100
AcDbEntity
  8
0
100
AcDbLine
 10
0.7417495661824969
 20
15.34821097853718
 30
0.0
 11
0.8746485889838
 21
15.21531195573587
 31
0.0
  0
LINE
  5
29E
330
18
100
AcDbEntity
  8
0
100
AcDbLine
 10
0.2367332795375434
 20
16.65062140198994
 30
0.0
 11
-0.3480224207881859
 21
16.65062140198994
 31
0.0
  0
LINE
  5
29F
330
18
100
AcDbEntity
  8
0
100
AcDbLine
 10
0.2898928886580636
 20
16.73036081567072
 30
0.0
 11
-0.2682830071074091
 21
16.73036081567072
 31
0.0
  0
LINE
  5
2A0
330
18
100
AcDbEntity
  8
0
100
AcDbLine
 10
-0.3480224207881841
 20
17.02273866583359
 30
0.0
 11
-0.2682830071074074
 21
16.94299925215281
 31
0.0
  0
LINE
  5
2A1
330
18
100
AcDbEntity
  8
0
100
AcDbLine
 10
-0.3480224207881841
 20
16.65062140198994
 30
0.0
 11
-0.2682830071074074
 21
16.73036081567073
 31
0.0
  0
ARC
  5
2A2
330
18
100
AcDbEntity
  8
0
100
AcDbCircle
 10
2.089443038256926
 20
15.80671260720166
 30
0.0
 40
0.5947602485093715
100
AcDbArc
 50
276.092771657336
 51
359.3598503304769
  0
LWPOLYLINE
  5
2A3
330
18
100
AcDbEntity
  8
0
100
AcDbPolyline
 90
        5
 70
     0
 43
0.0
 10
1.302016328159209
 20
14.81892053591019
 10
2.145049227881816
 20
14.81892053591018
 42
-0.3321053948249863
 10
2.604426751611976
 20
14.31390424926523
 10
2.604426751611976
 20
13.7291485489395
 10
2.976544015455625
 20
13.7291485489395
  0
LINE
  5
2AA
330
18
100
AcDbEntity
  8
0
100
AcDbLine
 10
2.684166165292757
 20
13.80888796262028
 30
0.0
 11
2.604426751611976
 21
13.7291485489395
 31
0.0
  0
ARC
  5
2AB
330
18
100
AcDbEntity
  8
0
100
AcDbCircle
 10
1.86219106511983
 20
14.08443188011298
 30
0.0
 40
0.5705940665816974
100
AcDbArc
 50
190.9662208074298
 51
264.4526423655914
  0
LINE
  5
2AC
330
18
100
AcDbEntity
  8
0
100
AcDbLine
 10
1.753873005683642
 20
13.43677069877664
 30
0.0
 11
2.312048901449114
 21
13.43677069877664
 31
0.0
  0
LINE
  5
2AD
330
18
100
AcDbEntity
  8
0
100
AcDbLine
 10
1.807032614804162
 20
13.51651011245742
 30
0.0
 11
2.391788315129891
 21
13.51651011245742
 31
0.0
  0
LINE
  5
2AE
330
18
100
AcDbEntity
  8
0
100
AcDbLine
 10
2.684166165292756
 20
12.85201499845091
 30
0.0
 11
2.604426751611974
 21
12.93175441213168
 31
0.0
  0
LINE
  5
2AF
330
18
100
AcDbEntity
  8
0
100
AcDbLine
 10
2.312048901449114
 20
13.43677069877664
 30
0.0
 11
2.391788315129889
 21
13.51651011245742
 31
0.0
  0
LINE
  5
2B0
330
18
100
AcDbEntity
  8
0
100
AcDbLine
 10
2.312048901449113
 20
13.22413226229455
 30
0.0
 11
2.391788315129889
 21
13.14439284861377
 31
0.0
  0
LINE
  5
2B1
330
18
100
AcDbEntity
  8
0
100
AcDbLine
 10
1.302016328159209
 20
14.81892053591019
 30
0.0
 11
1.302016328159209
 21
13.97588763618758
 31
0.0
  0
LINE
  5
2B2
330
18
100
AcDbEntity
  8
0
100
AcDbLine
 10
2.976544015455625
 20
14.31390424926523
 30
0.0
 11
2.976544015455625
 21
13.7291485489395
 31
0.0
  0
LINE
  5
2B3
330
18
100
AcDbEntity
  8
0
100
AcDbLine
 10
2.896804601774843
 20
13.80888796262028
 30
0.0
 11
2.976544015455625
 21
13.7291485489395
 31
0.0
  0
LINE
  5
2B4
330
18
100
AcDbEntity
  8
0
100
AcDbLine
 10
3.827097761383958
 20
13.22413226229455
 30
0.0
 11
3.268921865618485
 21
13.22413226229455
 31
0.0
  0
LINE
  5
2B5
330
18
100
AcDbEntity
  8
0
100
AcDbLine
 10
3.773938152263438
 20
13.14439284861377
 30
0.0
 11
3.189182451937708
 21
13.14439284861377
 31
0.0
  0
LINE
  5
2B6
330
18
100
AcDbEntity
  8
0
100
AcDbLine
 10
2.896804601774842
 20
12.85201499845091
 30
0.0
 11
2.976544015455622
 21
12.93175441213168
 31
0.0
  0
LINE
  5
2B7
330
18
100
AcDbEntity
  8
0
100
AcDbLine
 10
3.189182451937709
 20
13.51651011245742
 30
0.0
 11
3.268921865618486
 21
13.43677069877664
 31
0.0
  0
LINE
  5
2B8
330
18
100
AcDbEntity
  8
0
100
AcDbLine
 10
3.189182451937709
 20
13.14439284861377
 30
0.0
 11
3.268921865618486
 21
13.22413226229455
 31
0.0
  0
ARC
  5
2B9
330
18
100
AcDbEntity
  8
0
100
AcDbCircle
 10
3.544465783111183
 20
14.25874579894956
 30
0.0
 40
0.5705940665816974
100
AcDbArc
 50
100.9662208074299
 51
174.4526423655914
  0
ARC
  5
2BA
330
18
100
AcDbEntity
  8
0
100
AcDbCircle
 10
3.491527728810673
 20
14.36041890724569
 30
0.0
 40
0.5947602485093715
100
AcDbArc
 50
96.09277165733601
 51
179.3598503304769
  0
LINE
  5
2BB
330
18
100
AcDbEntity
  8
0
100
AcDbLine
 10
2.896804601774844
 20
14.36706385838575
 30
0.0
 11
2.896804601774844
 21
13.80888796262028
 31
0.0
  0
LWPOLYLINE
  5
2BC
330
18
100
AcDbEntity
  8
0
100
AcDbPolyline
 90
        5
 70
     0
 43
0.0
 10
1.302016328159207
 20
15.34821097853717
 10
1.302016328159207
 20
16.19124387825978
 42
-0.3321053948249863
 10
1.80703261480416
 20
16.65062140198994
 10
2.391788315129889
 20
16.65062140198994
 10
2.391788315129889
 20
17.02273866583359
  0
LINE
  5
2C3
330
18
100
AcDbEntity
  8
0
100
AcDbLine
 10
1.302016328159207
 20
15.34821097853717
 30
0.0
 11
2.145049227881814
 21
15.34821097853717
 31
0.0
  0
LINE
  5
2C4
330
18
100
AcDbEntity
  8
0
100
AcDbLine
 10
2.604426751611974
 20
15.85322726518213
 30
0.0
 11
2.604426751611974
 21
16.43798296550786
 31
0.0
  0
LINE
  5
2C5
330
18
100
AcDbEntity
  8
0
100
AcDbLine
 10
2.684166165292756
 20
15.8000676560616
 30
0.0
 11
2.684166165292756
 21
16.35824355182708
 31
0.0
  0
ARC
  5
2C6
330
18
100
AcDbEntity
  8
0
100
AcDbCircle
 10
2.036504983956417
 20
15.90838571549779
 30
0.0
 40
0.5705940665816974
100
AcDbArc
 50
280.9662208074299
 51
354.4526423655915
  0
LINE
  5
2C7
330
18
100
AcDbEntity
  8
0
100
AcDbLine
 10
2.684166165292756
 20
16.35824355182708
 30
0.0
 11
2.604426751611974
 21
16.43798296550786
 31
0.0
  0
LINE
  5
2C8
330
18
100
AcDbEntity
  8
0
100
AcDbLine
 10
1.753873005683642
 20
16.94299925215281
 30
0.0
 11
2.312048901449114
 21
16.94299925215281
 31
0.0
  0
LINE
  5
2C9
330
18
100
AcDbEntity
  8
0
100
AcDbLine
 10
1.807032614804162
 20
17.02273866583359
 30
0.0
 11
2.391788315129891
 21
17.02273866583359
 31
0.0
  0
ARC
  5
2CA
330
18
100
AcDbEntity
  8
0
100
AcDbCircle
 10
1.86219106511983
 20
17.59066043348915
 30
0.0
 40
0.5705940665816974
100
AcDbArc
 50
190.9662208074298
 51
264.4526423655914
  0
LINE
  5
2CB
330
18
100
AcDbEntity
  8
0
100
AcDbLine
 10
2.684166165292757
 20
17.31511651599645
 30
0.0
 11
2.604426751611976
 21
17.23537710231568
 31
0.0
  0
LINE
  5
2CC
330
18
100
AcDbEntity
  8
0
100
AcDbLine
 10
2.312048901449114
 20
16.94299925215281
 30
0.0
 11
2.391788315129889
 21
17.02273866583359
 31
0.0
  0
LINE
  5
2CD
330
18
100
AcDbEntity
  8
0
100
AcDbLine
 10
2.312048901449113
 20
16.73036081567072
 30
0.0
 11
2.391788315129889
 21
16.65062140198994
 31
0.0
  0
LINE
  5
2CE
330
18
100
AcDbEntity
  8
0
100
AcDbLine
 10
2.896804601774842
 20
16.35824355182708
 30
0.0
 11
2.976544015455622
 21
16.43798296550786
 31
0.0
  0
LINE
  5
2CF
330
18
100
AcDbEntity
  8
0
100
AcDbLine
 10
3.827097761383958
 20
16.73036081567072
 30
0.0
 11
3.268921865618485
 21
16.73036081567072
 31
0.0
  0
LINE
  5
2D0
330
18
100
AcDbEntity
  8
0
100
AcDbLine
 10
3.773938152263438
 20
16.65062140198994
 30
0.0
 11
3.189182451937708
 21
16.65062140198994
 31
0.0
  0
LINE
  5
2D1
330
18
100
AcDbEntity
  8
0
100
AcDbLine
 10
2.896804601774843
 20
17.31511651599645
 30
0.0
 11
2.976544015455625
 21
17.23537710231568
 31
0.0
  0
LINE
  5
2D2
330
18
100
AcDbEntity
  8
0
100
AcDbLine
 10
2.976544015455625
 20
17.82013280264141
 30
0.0
 11
2.976544015455625
 21
17.23537710231568
 31
0.0
  0
LINE
  5
2D3
330
18
100
AcDbEntity
  8
0
100
AcDbLine
 10
3.189182451937709
 20
17.02273866583359
 30
0.0
 11
3.268921865618486
 21
16.94299925215281
 31
0.0
  0
LINE
  5
2D4
330
18
100
AcDbEntity
  8
0
100
AcDbLine
 10
3.189182451937709
 20
16.65062140198994
 30
0.0
 11
3.268921865618486
 21
16.73036081567073
 31
0.0
  0
LINE
  5
2D5
330
18
100
AcDbEntity
  8
0
100
AcDbLine
 10
2.896804601774844
 20
17.87329241176193
 30
0.0
 11
2.896804601774844
 21
17.31511651599645
 31
0.0
  0
LINE
  5
2D6
330
18
100
AcDbEntity
  8
0
100
AcDbLine
 10
4.411853461709695
 20
11.7090834023597
 30
0.0
 11
4.411853461709695
 21
12.69253617108934
 31
0.0
  0
LINE
  5
2D7
330
18
100
AcDbEntity
  8
0
100
AcDbLine
 10
4.278954438908391
 20
11.841982425161
 30
0.0
 11
4.278954438908391
 21
12.68501532488361
 31
0.0
  0
LINE
  5
2D8
330
18
100
AcDbEntity
  8
0
100
AcDbLine
 10
4.411853461709695
 20
8.159388867254534
 30
0.0
 11
4.411853461709695
 21
9.142841635984176
 31
0.0
  0
LINE
  5
2D9
330
18
100
AcDbEntity
  8
0
100
AcDbLine
 10
4.278954438908391
 20
8.292287890055842
 30
0.0
 11
4.278954438908391
 21
9.135320789778447
 31
0.0
  0
LINE
  5
2DA
330
18
100
AcDbEntity
  8
0
100
AcDbLine
 10
4.278954438908391
 20
8.292287890055842
 30
0.0
 11
4.411853461709693
 21
8.159388867254534
 31
0.0
  0
LINE
  5
2DB
330
18
100
AcDbEntity
  8
0
100
AcDbLine
 10
4.438433266269957
 20
11.40212502360632
 30
0.0
 11
4.278954438908392
 21
11.26922600080502
 31
0.0
  0
LINE
  5
2DC
330
18
100
AcDbEntity
  8
0
100
AcDbLine
 10
4.278954438908391
 20
11.841982425161
 30
0.0
 11
4.411853461709693
 21
11.7090834023597
 31
0.0
  0
LINE
  5
2DD
330
18
100
AcDbEntity
  8
0
100
AcDbLine
 10
4.438433266269957
 20
14.95181955871149
 30
0.0
 11
4.278954438908392
 21
14.81892053591018
 31
0.0
  0
LINE
  5
2DE
330
18
100
AcDbEntity
  8
0
100
AcDbLine
 10
4.278954438908391
 20
15.34821097853718
 30
0.0
 11
4.278954438908391
 21
16.19124387825978
 31
0.0
  0
LINE
  5
2DF
330
18
100
AcDbEntity
  8
0
100
AcDbLine
 10
4.411853461709695
 20
15.21531195573587
 30
0.0
 11
4.411853461709695
 21
16.19876472446551
 31
0.0
  0
LINE
  5
2E0
330
18
100
AcDbEntity
  8
0
100
AcDbLine
 10
4.278954438908391
 20
15.34821097853718
 30
0.0
 11
4.411853461709693
 21
15.21531195573587
 31
0.0
  0
LINE
  5
2E1
330
18
100
AcDbEntity
  8
0
 62
     7
100
AcDbLine
 10
5.000227588329099
 20
29.57811057276956
 30
0.0
 11
3.445960487351901
 21
29.57811057276957
 31
0.0
  0
LINE
  5
2E2
330
18
100
AcDbEntity
  8
0
 62
     7
100
AcDbLine
 10
4.707849738166231
 20
29.418631745408
 30
0.0
 11
3.436481659990336
 21
29.418631745408
 31
0.0
  0
LINE
  5
2E3
330
18
100
AcDbEntity
  8
0
 62
     7
100
AcDbLine
 10
3.453582637189032
 20
29.2857327226067
 30
0.0
 11
4.707849738166231
 21
29.2857327226067
 31
0.0
  0
LINE
  5
2E4
330
18
100
AcDbEntity
  8
0
100
AcDbLine
 10
4.278954438908392
 20
28.91361545876305
 30
0.0
 11
3.435921539185785
 21
28.91361545876305
 31
0.0
  0
LINE
  5
2E5
330
18
100
AcDbEntity
  8
0
100
AcDbLine
 10
4.411853461709696
 20
29.04651448156435
 30
0.0
 11
3.428400692980055
 21
29.04651448156435
 31
0.0
  0
ARC
  5
2E6
330
18
100
AcDbEntity
  8
0
100
AcDbCircle
 10
3.718779701947769
 20
26.67116600381108
 30
0.0
 40
0.5705940665816974
100
AcDbArc
 50
10.96622080742993
 51
84.45264236559145
  0
ARC
  5
2E7
330
18
100
AcDbEntity
  8
0
100
AcDbCircle
 10
3.820452810243898
 20
26.72410405811159
 30
0.0
 40
0.5947602485093715
100
AcDbArc
 50
6.092771657336005
 51
89.35985033047691
  0
LINE
  5
2E8
330
18
100
AcDbEntity
  8
0
100
AcDbLine
 10
4.411853461709696
 20
25.48499430068851
 30
0.0
 11
3.428400692980055
 21
25.48499430068851
 31
0.0
  0
LINE
  5
2E9
330
18
100
AcDbEntity
  8
0
100
AcDbLine
 10
4.278954438908392
 20
25.35209527788721
 30
0.0
 11
3.435921539185785
 21
25.35209527788721
 31
0.0
  0
LWPOLYLINE
  5
2EA
330
18
100
AcDbEntity
  8
0
100
AcDbPolyline
 90
        5
 70
     0
 43
0.0
 10
4.278954438908391
 20
25.93667734801387
 10
3.435921539185783
 20
25.93667734801387
 42
-0.3321053948249863
 10
2.976544015455622
 20
26.44169363465882
 10
2.976544015455622
 20
27.02644933498455
 10
2.604426751611974
 20
27.02644933498455
  0
LWPOLYLINE
  5
2F1
330
18
100
AcDbEntity
  8
0
100
AcDbPolyline
 90
        5
 70
     0
 43
0.0
 10
4.411853461709693
 20
25.80377832521256
 10
3.428400692980053
 20
25.80377832521256
 42
-0.3801993223490394
 10
2.896804601774842
 20
26.3885340255383
 10
2.896804601774842
 20
26.94670992130377
 10
2.684166165292756
 20
26.94670992130377
  0
ARC
  5
2F8
330
18
100
AcDbEntity
  8
0
100
AcDbCircle
 10
3.820452810243898
 20
23.16258387723574
 30
0.0
 40
0.5947602485093715
100
AcDbArc
 50
6.092771657336005
 51
89.35985033047691
  0
ARC
  5
2F9
330
18
100
AcDbEntity
  8
0
100
AcDbCircle
 10
3.718779701947769
 20
23.10964582293523
 30
0.0
 40
0.5705940665816974
100
AcDbArc
 50
10.96622080742993
 51
84.45264236559145
  0
LINE
  5
2FA
330
18
100
AcDbEntity
  8
0
100
AcDbLine
 10
4.411853461709696
 20
21.97152120638809
 30
0.0
 11
3.428400692980055
 21
21.97152120638809
 31
0.0
  0
LINE
  5
2FB
330
18
100
AcDbEntity
  8
0
100
AcDbLine
 10
4.278954438908392
 20
21.83862218358678
 30
0.0
 11
3.435921539185785
 21
21.83862218358678
 31
0.0
  0
LWPOLYLINE
  5
2FC
330
18
100
AcDbEntity
  8
0
100
AcDbPolyline
 90
        5
 70
     0
 43
0.0
 10
4.411853461709693
 20
22.24225814433672
 10
3.428400692980053
 20
22.24225814433672
 42
-0.3801993223490394
 10
2.896804601774842
 20
22.82701384466245
 10
2.896804601774842
 20
23.38518974042793
 10
2.684166165292756
 20
23.38518974042793
  0
LWPOLYLINE
  5
303
330
18
100
AcDbEntity
  8
0
100
AcDbPolyline
 90
        5
 70
     0
 43
0.0
 10
4.278954438908391
 20
22.37515716713802
 10
3.435921539185783
 20
22.37515716713802
 42
-0.3321053948249863
 10
2.976544015455622
 20
22.88017345378297
 10
2.976544015455622
 20
23.4649291541087
 10
2.604426751611974
 20
23.4649291541087
  0
LWPOLYLINE
  5
30A
330
18
100
AcDbEntity
  8
0
100
AcDbPolyline
 90
        5
 70
     0
 43
0.0
 10
4.411853461709696
 20
25.48499430068851
 10
4.411853461709695
 20
24.50154153195887
 42
-0.3801993223490394
 10
3.827097761383959
 20
23.96994544075366
 10
3.268921865618486
 20
23.96994544075366
 10
3.268921865618486
 20
23.75730700427157
  0
LWPOLYLINE
  5
311
330
18
100
AcDbEntity
  8
0
100
AcDbPolyline
 90
        5
 70
     0
 43
0.0
 10
4.278954438908392
 20
25.35209527788721
 10
4.278954438908391
 20
24.5090623781646
 42
-0.3321053948249863
 10
3.773938152263438
 20
24.04968485443444
 10
3.189182451937709
 20
24.04968485443444
 10
3.189182451937709
 20
23.67756759059079
  0
ARC
  5
318
330
18
100
AcDbEntity
  8
0
100
AcDbCircle
 10
3.820452810243898
 20
19.64911078293532
 30
0.0
 40
0.5947602485093715
100
AcDbArc
 50
6.092771657336005
 51
89.35985033047691
  0
ARC
  5
319
330
18
100
AcDbEntity
  8
0
100
AcDbCircle
 10
3.718779701947769
 20
19.59617272863481
 30
0.0
 40
0.5705940665816974
100
AcDbArc
 50
10.96622080742993
 51
84.45264236559145
  0
LWPOLYLINE
  5
31A
330
18
100
AcDbEntity
  8
0
100
AcDbPolyline
 90
        5
 70
     0
 43
0.0
 10
4.411853461709693
 20
18.72878505003629
 10
3.428400692980053
 20
18.72878505003629
 42
-0.3801993223490394
 10
2.896804601774842
 20
19.31354075036203
 10
2.896804601774842
 20
19.8717166461275
 10
2.684166165292756
 20
19.8717166461275
  0
LWPOLYLINE
  5
321
330
18
100
AcDbEntity
  8
0
100
AcDbPolyline
 90
        5
 70
     0
 43
0.0
 10
4.278954438908391
 20
18.8616840728376
 10
3.435921539185783
 20
18.8616840728376
 42
-0.3321053948249863
 10
2.976544015455622
 20
19.36670035948255
 10
2.976544015455622
 20
19.95145605980828
 10
2.604426751611974
 20
19.95145605980828
  0
LINE
  5
328
330
18
100
AcDbEntity
  8
0
100
AcDbLine
 10
4.411853461709696
 20
18.45804811208766
 30
0.0
 11
3.428400692980055
 21
18.45804811208766
 31
0.0
  0
LINE
  5
329
330
18
100
AcDbEntity
  8
0
100
AcDbLine
 10
4.278954438908392
 20
18.32514908928636
 30
0.0
 11
3.435921539185785
 21
18.32514908928636
 31
0.0
  0
LWPOLYLINE
  5
32A
330
18
100
AcDbEntity
  8
0
100
AcDbPolyline
 90
        5
 70
     0
 43
0.0
 10
4.411853461709696
 20
21.97152120638809
 10
4.411853461709695
 20
20.98806843765845
 42
-0.3801993223490394
 10
3.827097761383959
 20
20.45647234645323
 10
3.268921865618486
 20
20.45647234645323
 10
3.268921865618486
 20
20.24383390997115
  0
LWPOLYLINE
  5
331
330
18
100
AcDbEntity
  8
0
100
AcDbPolyline
 90
        5
 70
     0
 43
0.0
 10
4.278954438908392
 20
21.83862218358678
 10
4.278954438908391
 20
20.99558928386417
 42
-0.3321053948249863
 10
3.773938152263438
 20
20.53621176013402
 10
3.189182451937709
 20
20.53621176013402
 10
3.189182451937709
 20
20.16409449629037
  0
LWPOLYLINE
  5
338
330
18
100
AcDbEntity
  8
0
100
AcDbPolyline
 90
        5
 70
     0
 43
0.0
 10
4.278954438908392
 20
28.91361545876305
 10
4.278954438908391
 20
28.07058255904045
 42
-0.3321053948249863
 10
3.773938152263438
 20
27.61120503531028
 10
3.189182451937709
 20
27.61120503531028
 10
3.189182451937709
 20
27.23908777146664
  0
LWPOLYLINE
  5
33F
330
18
100
AcDbEntity
  8
0
100
AcDbPolyline
 90
        5
 70
     0
 43
0.0
 10
4.411853461709696
 20
29.04651448156435
 10
4.411853461709695
 20
28.06306171283472
 42
-0.3801993223490394
 10
3.827097761383959
 20
27.5314656216295
 10
3.268921865618486
 20
27.5314656216295
 10
3.268921865618486
 20
27.31882718514742
  0
LWPOLYLINE
  5
346
330
18
100
AcDbEntity
  8
0
100
AcDbPolyline
 90
        8
 70
     1
 43
0.0
 10
1.064044874807141
 20
28.89965523515463
 10
1.06404487480714
 20
25.92238570898484
 42
0.4142135623730951
 10
1.31404487480714
 20
25.67238570898483
 10
4.292889490791662
 20
25.67238570898484
 42
0.4142135623730948
 10
4.542889490791662
 20
25.92238570898484
 10
4.542889490791662
 20
28.89965523515464
 42
0.4142135623730951
 10
4.292889490791662
 20
29.14965523515464
 10
1.314044874807141
 20
29.14965523515464
 42
0.4142135623730951
  0
LWPOLYLINE
  5
350
330
18
100
AcDbEntity
  8
0
100
AcDbPolyline
 90
        8
 70
     1
 43
0.0
 10
1.064044874807141
 20
25.33813505427879
 10
1.06404487480714
 20
22.36086552810899
 42
0.4142135623730951
 10
1.31404487480714
 20
22.11086552810899
 10
4.292889490791662
 20
22.11086552810899
 42
0.4142135623730948
 10
4.542889490791662
 20
22.36086552810899
 10
4.542889490791662
 20
25.33813505427879
 42
0.4142135623730951
 10
4.292889490791662
 20
25.58813505427879
 10
1.314044874807141
 20
25.58813505427879
 42
0.4142135623730951
  0
LWPOLYLINE
  5
35A
330
18
100
AcDbEntity
  8
0
100
AcDbPolyline
 90
        8
 70
     1
 43
0.0
 10
1.064044874807141
 20
21.82466195997837
 10
1.06404487480714
 20
18.84739243380856
 42
0.4142135623730951
 10
1.31404487480714
 20
18.59739243380857
 10
4.292889490791662
 20
18.59739243380857
 42
0.4142135623730948
 10
4.542889490791662
 20
18.84739243380857
 10
4.542889490791662
 20
21.82466195997837
 42
0.4142135623730951
 10
4.292889490791662
 20
22.07466195997837
 10
1.314044874807141
 20
22.07466195997837
 42
0.4142135623730951
  0
ARC
  5
364
330
18
100
AcDbEntity
  8
0
 62
     7
100
AcDbCircle
 10
3.453582637189032
 20
29.7857327226067
 30
0.0
 40
0.5
100
AcDbArc
 50
180.0
 51
270.0
  0
ARC
  5
365
330
18
100
AcDbEntity
  8
0
 62
     7
100
AcDbCircle
 10
2.134624982465904
 20
29.7857327226067
 30
0.0
 40
0.5
100
AcDbArc
 50
270.0
 51
0.0
  0
ARC
  5
366
330
18
100
AcDbEntity
  8
0
 62
     7
100
AcDbCircle
 10
-1.400489024048753
 20
29.78573272260669
 30
0.0
 40
0.5
100
AcDbArc
 50
270.0
 51
0.0
  0
ARC
  5
367
330
18
100
AcDbEntity
  8
0
 62
     7
100
AcDbCircle
 10
-0.1081111738858853
 20
29.7857327226067
 30
0.0
 40
0.5
100
AcDbArc
 50
180.0
 51
270.0
  0
ARC
  5
368
330
18
100
AcDbEntity
  8
0
100
AcDbCircle
 10
-1.675013807606063
 20
28.17912680296584
 30
0.0
 40
0.5705940665816974
100
AcDbArc
 50
190.9662208074298
 51
264.4526423655914
  0
ARC
  5
369
330
18
100
AcDbEntity
  8
0
100
AcDbCircle
 10
-1.776686915902192
 20
28.12618874866533
 30
0.0
 40
0.5947602485093715
100
AcDbArc
 50
186.092771657336
 51
269.3598503304769
  0
LINE
  5
36A
330
18
100
AcDbEntity
  8
0
100
AcDbLine
 10
-2.235188544566685
 20
25.93667734801387
 30
0.0
 11
-1.392155644844079
 21
25.93667734801387
 31
0.0
  0
LWPOLYLINE
  5
36B
330
18
100
AcDbEntity
  8
0
100
AcDbPolyline
 90
        5
 70
     0
 43
0.0
 10
-2.235188544566685
 20
25.93667734801387
 10
-2.235188544566685
 20
26.77971024773647
 42
-0.3321053948249863
 10
-1.730172257921732
 20
27.23908777146663
 10
-1.145416557596003
 20
27.23908777146663
 10
-1.145416557596003
 20
27.61120503531028
  0
LWPOLYLINE
  5
372
330
18
100
AcDbEntity
  8
0
100
AcDbPolyline
 90
        5
 70
     0
 43
0.0
 10
-2.368087567367989
 20
25.80377832521256
 10
-2.368087567367989
 20
26.7872310939422
 42
-0.3801993223490394
 10
-1.783331867042253
 20
27.31882718514741
 10
-1.22515597127678
 20
27.31882718514741
 10
-1.22515597127678
 20
27.5314656216295
  0
LINE
  5
379
330
18
100
AcDbEntity
  8
0
100
AcDbLine
 10
-2.36808756736799
 20
25.80377832521256
 30
0.0
 11
-1.384634798638349
 21
25.80377832521256
 31
0.0
  0
ARC
  5
37A
330
18
100
AcDbEntity
  8
0
100
AcDbCircle
 10
-1.675013807606062
 20
24.61760662209
 30
0.0
 40
0.5705940665816974
100
AcDbArc
 50
190.9662208074298
 51
264.4526423655914
  0
ARC
  5
37B
330
18
100
AcDbEntity
  8
0
100
AcDbCircle
 10
-1.776686915902192
 20
24.56466856778948
 30
0.0
 40
0.5947602485093715
100
AcDbArc
 50
186.092771657336
 51
269.3598503304769
  0
LINE
  5
37C
330
18
100
AcDbEntity
  8
0
100
AcDbLine
 10
-2.235188544566685
 20
22.37515716713802
 30
0.0
 11
-1.39215564484408
 21
22.37515716713802
 31
0.0
  0
LWPOLYLINE
  5
37D
330
18
100
AcDbEntity
  8
0
100
AcDbPolyline
 90
        5
 70
     0
 43
0.0
 10
-2.235188544566685
 20
22.37515716713802
 10
-2.235188544566685
 20
23.21819006686062
 42
-0.3321053948249863
 10
-1.730172257921732
 20
23.67756759059079
 10
-1.145416557596003
 20
23.67756759059079
 10
-1.145416557596003
 20
24.04968485443443
  0
LINE
  5
384
330
18
100
AcDbEntity
  8
0
100
AcDbLine
 10
-2.36808756736799
 20
22.24225814433672
 30
0.0
 11
-1.384634798638349
 21
22.24225814433672
 31
0.0
  0
LWPOLYLINE
  5
385
330
18
100
AcDbEntity
  8
0
100
AcDbPolyline
 90
        5
 70
     0
 43
0.0
 10
-2.368087567367989
 20
22.24225814433672
 10
-2.368087567367989
 20
23.22571091306635
 42
-0.3801993223490394
 10
-1.783331867042252
 20
23.75730700427157
 10
-1.225155971276779
 20
23.75730700427157
 10
-1.225155971276779
 20
23.96994544075365
  0
LWPOLYLINE
  5
38C
330
18
100
AcDbEntity
  8
0
100
AcDbPolyline
 90
        5
 70
     0
 43
0.0
 10
-2.235188544566684
 20
25.35209527788721
 10
-1.392155644844076
 20
25.35209527788721
 42
-0.3321053948249863
 10
-0.932778121113917
 20
24.84707899124225
 10
-0.932778121113917
 20
24.26232329091652
 10
-0.5606608572702685
 20
24.26232329091652
  0
LWPOLYLINE
  5
393
330
18
100
AcDbEntity
  8
0
100
AcDbPolyline
 90
        8
 70
     1
 43
0.0
 10
-2.473159997918751
 20
25.33813505427879
 10
-2.473159997918751
 20
22.36086552810899
 42
0.4142135623730951
 10
-2.223159997918751
 20
22.11086552810899
 10
0.7556846180657684
 20
22.11086552810899
 42
0.4142135623730948
 10
1.005684618065767
 20
22.36086552810899
 10
1.005684618065767
 20
25.33813505427879
 42
0.4142135623730951
 10
0.755684618065768
 20
25.58813505427879
 10
-2.223159997918751
 20
25.58813505427879
 42
0.4142135623730951
  0
LWPOLYLINE
  5
39D
330
18
100
AcDbEntity
  8
0
100
AcDbPolyline
 90
        5
 70
     0
 43
0.0
 10
-2.368087567367988
 20
25.48499430068851
 10
-1.384634798638347
 20
25.48499430068851
 42
-0.3801993223490394
 10
-0.8530387074331358
 20
24.90023860036277
 10
-0.8530387074331358
 20
24.3420627045973
 10
-0.6404002709510506
 20
24.3420627045973
  0
ARC
  5
3A4
330
18
100
AcDbEntity
  8
0
100
AcDbCircle
 10
-1.675013807606062
 20
21.10413352778957
 30
0.0
 40
0.5705940665816974
100
AcDbArc
 50
190.9662208074298
 51
264.4526423655914
  0
ARC
  5
3A5
330
18
100
AcDbEntity
  8
0
100
AcDbCircle
 10
-1.776686915902192
 20
21.05119547348906
 30
0.0
 40
0.5947602485093715
100
AcDbArc
 50
186.092771657336
 51
269.3598503304769
  0
LWPOLYLINE
  5
3A6
330
18
100
AcDbEntity
  8
0
100
AcDbPolyline
 90
        5
 70
     0
 43
0.0
 10
-2.235188544566685
 20
18.8616840728376
 10
-2.235188544566685
 20
19.7047169725602
 42
-0.3321053948249863
 10
-1.730172257921732
 20
20.16409449629037
 10
-1.145416557596003
 20
20.16409449629037
 10
-1.145416557596003
 20
20.53621176013401
  0
LINE
  5
3AD
330
18
100
AcDbEntity
  8
0
100
AcDbLine
 10
-2.235188544566685
 20
18.8616840728376
 30
0.0
 11
-1.39215564484408
 21
18.8616840728376
 31
0.0
  0
LINE
  5
3AE
330
18
100
AcDbEntity
  8
0
100
AcDbLine
 10
-2.36808756736799
 20
18.72878505003629
 30
0.0
 11
-1.384634798638349
 21
18.72878505003629
 31
0.0
  0
LWPOLYLINE
  5
3AF
330
18
100
AcDbEntity
  8
0
100
AcDbPolyline
 90
        5
 70
     0
 43
0.0
 10
-2.368087567367989
 20
18.72878505003629
 10
-2.368087567367989
 20
19.71223781876593
 42
-0.3801993223490394
 10
-1.783331867042252
 20
20.24383390997114
 10
-1.225155971276779
 20
20.24383390997114
 10
-1.225155971276779
 20
20.45647234645323
  0
LWPOLYLINE
  5
3B6
330
18
100
AcDbEntity
  8
0
100
AcDbPolyline
 90
        5
 70
     0
 43
0.0
 10
-2.235188544566684
 20
21.83862218358679
 10
-1.392155644844076
 20
21.83862218358678
 42
-0.3321053948249863
 10
-0.932778121113917
 20
21.33360589694183
 10
-0.932778121113917
 20
20.7488501966161
 10
-0.5606608572702685
 20
20.7488501966161
  0
LWPOLYLINE
  5
3BD
330
18
100
AcDbEntity
  8
0
100
AcDbPolyline
 90
        5
 70
     0
 43
0.0
 10
-2.368087567367988
 20
21.97152120638809
 10
-1.384634798638347
 20
21.97152120638809
 42
-0.3801993223490394
 10
-0.8530387074331358
 20
21.38676550606235
 10
-0.8530387074331358
 20
20.82858961029688
 10
-0.6404002709510506
 20
20.82858961029688
  0
LWPOLYLINE
  5
3C4
330
18
100
AcDbEntity
  8
0
100
AcDbPolyline
 90
        8
 70
     1
 43
0.0
 10
-2.473159997918751
 20
21.82466195997837
 10
-2.473159997918751
 20
18.84739243380856
 42
0.4142135623730951
 10
-2.223159997918751
 20
18.59739243380857
 10
0.7556846180657684
 20
18.59739243380857
 42
0.4142135623730948
 10
1.005684618065767
 20
18.84739243380857
 10
1.005684618065767
 20
21.82466195997837
 42
0.4142135623730951
 10
0.755684618065768
 20
22.07466195997837
 10
-2.223159997918751
 20
22.07466195997837
 42
0.4142135623730951
  0
LWPOLYLINE
  5
3CE
330
18
100
AcDbEntity
  8
0
100
AcDbPolyline
 90
        5
 70
     0
 43
0.0
 10
-2.235188544566684
 20
28.91361545876305
 10
-1.392155644844077
 20
28.91361545876305
 42
-0.3321053948249863
 10
-0.932778121113917
 20
28.4085991721181
 10
-0.932778121113917
 20
27.82384347179237
 10
-0.5606608572702685
 20
27.82384347179237
  0
LWPOLYLINE
  5
3D5
330
18
100
AcDbEntity
  8
0
100
AcDbPolyline
 90
        5
 70
     0
 43
0.0
 10
-2.368087567367988
 20
29.04651448156435
 10
-1.384634798638347
 20
29.04651448156435
 42
-0.3801993223490394
 10
-0.8530387074331358
 20
28.46175878123862
 10
-0.8530387074331358
 20
27.90358288547315
 10
-0.6404002709510506
 20
27.90358288547315
  0
LWPOLYLINE
  5
3DC
330
18
100
AcDbEntity
  8
0
100
AcDbPolyline
 90
        8
 70
     1
 43
0.0
 10
-2.473159997918752
 20
28.89965523515463
 10
-2.473159997918752
 20
25.92238570898484
 42
0.4142135623730951
 10
-2.223159997918752
 20
25.67238570898483
 10
0.7556846180657684
 20
25.67238570898484
 42
0.4142135623730948
 10
1.005684618065767
 20
25.92238570898484
 10
1.005684618065767
 20
28.89965523515464
 42
0.4142135623730951
 10
0.755684618065768
 20
29.14965523515464
 10
-2.223159997918751
 20
29.14965523515464
 42
0.4142135623730951
  0
LINE
  5
3E6
330
18
100
AcDbEntity
  8
0
100
AcDbLine
 10
-2.368087567367988
 20
18.45804811208766
 30
0.0
 11
-2.235188544566684
 21
18.32514908928636
 31
0.0
  0
LINE
  5
3E7
330
18
100
AcDbEntity
  8
0
100
AcDbLine
 10
-2.235188544566685
 20
18.8616840728376
 30
0.0
 11
-2.368087567367989
 21
18.72878505003629
 31
0.0
  0
LINE
  5
3E8
330
18
100
AcDbEntity
  8
0
100
AcDbLine
 10
-2.235188544566684
 20
21.83862218358679
 30
0.0
 11
-2.235188544566684
 21
20.99558928386417
 31
0.0
  0
LINE
  5
3E9
330
18
100
AcDbEntity
  8
0
100
AcDbLine
 10
-2.368087567367988
 20
21.97152120638809
 30
0.0
 11
-2.368087567367988
 21
20.98806843765844
 31
0.0
  0
LINE
  5
3EA
330
18
100
AcDbEntity
  8
0
100
AcDbLine
 10
-2.368087567367988
 20
21.97152120638809
 30
0.0
 11
-2.235188544566684
 21
21.83862218358679
 31
0.0
  0
LINE
  5
3EB
330
18
100
AcDbEntity
  8
0
100
AcDbLine
 10
-2.235188544566685
 20
22.37515716713802
 30
0.0
 11
-2.368087567367989
 21
22.24225814433672
 31
0.0
  0
LINE
  5
3EC
330
18
100
AcDbEntity
  8
0
100
AcDbLine
 10
-2.235188544566684
 20
25.35209527788721
 30
0.0
 11
-2.235188544566684
 21
24.5090623781646
 31
0.0
  0
LINE
  5
3ED
330
18
100
AcDbEntity
  8
0
100
AcDbLine
 10
-2.368087567367988
 20
25.48499430068851
 30
0.0
 11
-2.368087567367988
 21
24.50154153195887
 31
0.0
  0
LINE
  5
3EE
330
18
100
AcDbEntity
  8
0
100
AcDbLine
 10
-2.368087567367988
 20
25.48499430068851
 30
0.0
 11
-2.235188544566684
 21
25.35209527788721
 31
0.0
  0
LINE
  5
3EF
330
18
100
AcDbEntity
  8
0
100
AcDbLine
 10
-2.235188544566685
 20
25.93667734801387
 30
0.0
 11
-2.368087567367989
 21
25.80377832521256
 31
0.0
  0
LINE
  5
3F0
330
18
100
AcDbEntity
  8
0
100
AcDbLine
 10
-2.235188544566684
 20
28.91361545876305
 30
0.0
 11
-2.235188544566684
 21
28.07058255904044
 31
0.0
  0
LINE
  5
3F1
330
18
100
AcDbEntity
  8
0
100
AcDbLine
 10
-2.368087567367988
 20
29.04651448156435
 30
0.0
 11
-2.368087567367988
 21
28.06306171283472
 31
0.0
  0
LINE
  5
3F2
330
18
100
AcDbEntity
  8
0
100
AcDbLine
 10
-2.368087567367988
 20
29.04651448156435
 30
0.0
 11
-2.235188544566684
 21
28.91361545876305
 31
0.0
  0
LWPOLYLINE
  5
3F3
330
18
100
AcDbEntity
  8
0
100
AcDbPolyline
 90
        5
 70
     0
 43
0.0
 10
1.302016328159207
 20
22.37515716713802
 10
1.302016328159207
 20
23.21819006686062
 42
-0.3321053948249863
 10
1.80703261480416
 20
23.67756759059079
 10
2.391788315129889
 20
23.67756759059079
 10
2.391788315129889
 20
24.04968485443443
  0
ARC
  5
3FA
330
18
100
AcDbEntity
  8
0
100
AcDbCircle
 10
0.1815748292218755
 20
23.10964582293523
 30
0.0
 40
0.5705940665816974
100
AcDbArc
 50
10.96622080742993
 51
84.45264236559145
  0
ARC
  5
3FB
330
18
100
AcDbEntity
  8
0
100
AcDbCircle
 10
0.2832479375180048
 20
23.16258387723574
 30
0.0
 40
0.5947602485093715
100
AcDbArc
 50
6.092771657336005
 51
89.35985033047691
  0
LWPOLYLINE
  5
3FC
330
18
100
AcDbEntity
  8
0
100
AcDbPolyline
 90
        5
 70
     0
 43
0.0
 10
1.169117305357903
 20
22.24225814433672
 10
1.169117305357903
 20
23.22571091306635
 42
-0.3801993223490394
 10
1.75387300568364
 20
23.75730700427157
 10
2.312048901449113
 20
23.75730700427157
 10
2.312048901449113
 20
23.96994544075365
  0
LINE
  5
403
330
18
100
AcDbEntity
  8
0
100
AcDbLine
 10
1.302016328159207
 20
22.37515716713802
 30
0.0
 11
1.169117305357903
 21
22.24225814433672
 31
0.0
  0
LINE
  5
404
330
18
100
AcDbEntity
  8
0
100
AcDbLine
 10
1.169117305357905
 20
21.97152120638809
 30
0.0
 11
1.302016328159209
 21
21.83862218358679
 31
0.0
  0
LINE
  5
405
330
18
100
AcDbEntity
  8
0
100
AcDbLine
 10
1.169117305357903
 20
22.24225814433672
 30
0.0
 11
2.152570074087543
 21
22.24225814433672
 31
0.0
  0
LINE
  5
406
330
18
100
AcDbEntity
  8
0
100
AcDbLine
 10
1.302016328159207
 20
18.8616840728376
 30
0.0
 11
1.169117305357903
 21
18.72878505003629
 31
0.0
  0
LINE
  5
407
330
18
100
AcDbEntity
  8
0
100
AcDbLine
 10
1.169117305357903
 20
18.72878505003629
 30
0.0
 11
2.152570074087543
 21
18.72878505003629
 31
0.0
  0
LINE
  5
408
330
18
100
AcDbEntity
  8
0
100
AcDbLine
 10
1.169117305357905
 20
18.45804811208766
 30
0.0
 11
1.302016328159209
 21
18.32514908928636
 31
0.0
  0
LWPOLYLINE
  5
409
330
18
100
AcDbEntity
  8
0
100
AcDbPolyline
 90
        5
 70
     0
 43
0.0
 10
1.169117305357905
 20
21.97152120638809
 10
2.152570074087546
 20
21.97152120638809
 42
-0.3801993223490394
 10
2.684166165292757
 20
21.38676550606235
 10
2.684166165292757
 20
20.82858961029688
 10
2.896804601774843
 20
20.82858961029688
  0
ARC
  5
410
330
18
100
AcDbEntity
  8
0
100
AcDbCircle
 10
1.7605179568237
 20
21.05119547348906
 30
0.0
 40
0.5947602485093715
100
AcDbArc
 50
186.092771657336
 51
269.3598503304769
  0
LWPOLYLINE
  5
411
330
18
100
AcDbEntity
  8
0
100
AcDbPolyline
 90
        5
 70
     0
 43
0.0
 10
1.169117305357903
 20
18.72878505003629
 10
1.169117305357903
 20
19.71223781876593
 42
-0.3801993223490394
 10
1.75387300568364
 20
20.24383390997114
 10
2.312048901449113
 20
20.24383390997114
 10
2.312048901449113
 20
20.45647234645323
  0
LINE
  5
418
330
18
100
AcDbEntity
  8
0
100
AcDbLine
 10
-0.6404002709510506
 20
20.82858961029688
 30
0.0
 11
-0.5606608572702685
 21
20.7488501966161
 31
0.0
  0
LINE
  5
419
330
18
100
AcDbEntity
  8
0
100
AcDbLine
 10
-0.8530387074331358
 20
20.82858961029688
 30
0.0
 11
-0.932778121113917
 21
20.7488501966161
 31
0.0
  0
LINE
  5
41A
330
18
100
AcDbEntity
  8
0
100
AcDbLine
 10
-0.5606608572702685
 20
21.33360589694183
 30
0.0
 11
-0.5606608572702685
 21
20.7488501966161
 31
0.0
  0
LWPOLYLINE
  5
41B
330
18
100
AcDbEntity
  8
0
100
AcDbPolyline
 90
        5
 70
     0
 43
0.0
 10
0.7417495661824982
 20
21.83862218358678
 10
0.7417495661824978
 20
20.99558928386417
 42
-0.3321053948249863
 10
0.2367332795375452
 20
20.53621176013402
 10
-0.3480224207881841
 20
20.53621176013402
 10
-0.3480224207881841
 20
20.16409449629037
  0
LWPOLYLINE
  5
422
330
18
100
AcDbEntity
  8
0
100
AcDbPolyline
 90
        5
 70
     0
 43
0.0
 10
0.8746485889838023
 20
21.97152120638809
 10
0.8746485889838018
 20
20.98806843765845
 42
-0.3801993223490394
 10
0.2898928886580654
 20
20.45647234645323
 10
-0.2682830071074074
 20
20.45647234645323
 10
-0.2682830071074074
 20
20.24383390997115
  0
LWPOLYLINE
  5
429
330
18
100
AcDbEntity
  8
0
100
AcDbPolyline
 90
        5
 70
     0
 43
0.0
 10
0.7417495661824969
 20
18.8616840728376
 10
-0.1012833335401106
 20
18.8616840728376
 42
-0.3321053948249863
 10
-0.5606608572702703
 20
19.36670035948255
 10
-0.5606608572702703
 20
19.95145605980828
 10
-0.9327781211139187
 20
19.95145605980828
  0
LWPOLYLINE
  5
430
330
18
100
AcDbEntity
  8
0
100
AcDbPolyline
 90
        5
 70
     0
 43
0.0
 10
0.8746485889838
 20
18.72878505003629
 10
-0.1088041797458397
 20
18.72878505003629
 42
-0.3801993223490394
 10
-0.6404002709510524
 20
19.31354075036203
 10
-0.6404002709510524
 20
19.8717166461275
 10
-0.8530387074331367
 20
19.8717166461275
  0
LINE
  5
437
330
18
100
AcDbEntity
  8
0
100
AcDbLine
 10
-0.9327781211139187
 20
19.36670035948255
 30
0.0
 11
-0.9327781211139187
 21
19.95145605980828
 31
0.0
  0
LINE
  5
438
330
18
100
AcDbEntity
  8
0
100
AcDbLine
 10
-0.8530387074331384
 20
19.31354075036203
 30
0.0
 11
-0.8530387074331384
 21
19.8717166461275
 31
0.0
  0
ARC
  5
439
330
18
100
AcDbEntity
  8
0
100
AcDbCircle
 10
-1.447761834468967
 20
19.32018570150209
 30
0.0
 40
0.5947602485093715
100
AcDbArc
 50
276.092771657336
 51
359.3598503304769
  0
ARC
  5
43A
330
18
100
AcDbEntity
  8
0
100
AcDbCircle
 10
-1.500699888769477
 20
19.42185880979822
 30
0.0
 40
0.5705940665816974
100
AcDbArc
 50
280.9662208074299
 51
354.4526423655915
  0
LINE
  5
43B
330
18
100
AcDbEntity
  8
0
100
AcDbLine
 10
-1.730172257921731
 20
20.53621176013401
 30
0.0
 11
-1.145416557596002
 21
20.53621176013401
 31
0.0
  0
LINE
  5
43C
330
18
100
AcDbEntity
  8
0
100
AcDbLine
 10
-1.783331867042251
 20
20.45647234645323
 30
0.0
 11
-1.225155971276778
 21
20.45647234645323
 31
0.0
  0
LINE
  5
43D
330
18
100
AcDbEntity
  8
0
100
AcDbLine
 10
-1.225155971276778
 20
20.45647234645323
 30
0.0
 11
-1.145416557596003
 21
20.53621176013401
 31
0.0
  0
LINE
  5
43E
330
18
100
AcDbEntity
  8
0
100
AcDbLine
 10
-1.225155971276779
 20
20.24383390997114
 30
0.0
 11
-1.145416557596003
 21
20.16409449629037
 31
0.0
  0
LINE
  5
43F
330
18
100
AcDbEntity
  8
0
100
AcDbLine
 10
-0.8530387074331384
 20
19.8717166461275
 30
0.0
 11
-0.9327781211139187
 21
19.95145605980828
 31
0.0
  0
LINE
  5
440
330
18
100
AcDbEntity
  8
0
100
AcDbLine
 10
-0.6404002709510524
 20
19.8717166461275
 30
0.0
 11
-0.5606608572702703
 21
19.95145605980828
 31
0.0
  0
LINE
  5
441
330
18
100
AcDbEntity
  8
0
100
AcDbLine
 10
0.7417495661824969
 20
18.8616840728376
 30
0.0
 11
0.7417495661824965
 21
19.7047169725602
 31
0.0
  0
LINE
  5
442
330
18
100
AcDbEntity
  8
0
100
AcDbLine
 10
0.8746485889838005
 20
18.72878505003629
 30
0.0
 11
0.8746485889838005
 21
19.71223781876593
 31
0.0
  0
LINE
  5
443
330
18
100
AcDbEntity
  8
0
100
AcDbLine
 10
0.7417495661824982
 20
18.32514908928636
 30
0.0
 11
-0.1012833335401089
 21
18.32514908928636
 31
0.0
  0
LINE
  5
444
330
18
100
AcDbEntity
  8
0
100
AcDbLine
 10
0.8746485889838023
 20
18.45804811208766
 30
0.0
 11
-0.1088041797458379
 21
18.45804811208766
 31
0.0
  0
LINE
  5
445
330
18
100
AcDbEntity
  8
0
100
AcDbLine
 10
0.9012283935440636
 20
18.45804811208766
 30
0.0
 11
0.7417495661824982
 21
18.32514908928636
 31
0.0
  0
LINE
  5
446
330
18
100
AcDbEntity
  8
0
100
AcDbLine
 10
0.7417495661824969
 20
18.8616840728376
 30
0.0
 11
0.8746485889838
 21
18.72878505003629
 31
0.0
  0
ARC
  5
447
330
18
100
AcDbEntity
  8
0
100
AcDbCircle
 10
0.1815748292218755
 20
19.59617272863481
 30
0.0
 40
0.5705940665816974
100
AcDbArc
 50
10.96622080742993
 51
84.45264236559145
  0
ARC
  5
448
330
18
100
AcDbEntity
  8
0
100
AcDbCircle
 10
0.2832479375180048
 20
19.64911078293532
 30
0.0
 40
0.5947602485093715
100
AcDbArc
 50
6.092771657336005
 51
89.35985033047691
  0
LINE
  5
449
330
18
100
AcDbEntity
  8
0
100
AcDbLine
 10
0.2367332795375434
 20
20.16409449629037
 30
0.0
 11
-0.3480224207881859
 21
20.16409449629037
 31
0.0
  0
LINE
  5
44A
330
18
100
AcDbEntity
  8
0
100
AcDbLine
 10
0.2898928886580636
 20
20.24383390997115
 30
0.0
 11
-0.2682830071074091
 21
20.24383390997115
 31
0.0
  0
LINE
  5
44B
330
18
100
AcDbEntity
  8
0
100
AcDbLine
 10
-0.3480224207881841
 20
20.16409449629037
 30
0.0
 11
-0.2682830071074074
 21
20.24383390997115
 31
0.0
  0
LINE
  5
44C
330
18
100
AcDbEntity
  8
0
100
AcDbLine
 10
-0.3480224207881841
 20
20.53621176013402
 30
0.0
 11
-0.2682830071074074
 21
20.45647234645323
 31
0.0
  0
LWPOLYLINE
  5
44D
330
18
100
AcDbEntity
  8
0
100
AcDbPolyline
 90
        5
 70
     0
 43
0.0
 10
0.8746485889838
 20
22.24225814433672
 10
-0.1088041797458397
 20
22.24225814433672
 42
-0.3801993223490394
 10
-0.6404002709510524
 20
22.82701384466245
 10
-0.6404002709510524
 20
23.38518974042793
 10
-0.8530387074331367
 20
23.38518974042793
  0
LWPOLYLINE
  5
454
330
18
100
AcDbEntity
  8
0
100
AcDbPolyline
 90
        5
 70
     0
 43
0.0
 10
0.7417495661824969
 20
22.37515716713802
 10
-0.1012833335401106
 20
22.37515716713802
 42
-0.3321053948249863
 10
-0.5606608572702703
 20
22.88017345378297
 10
-0.5606608572702703
 20
23.4649291541087
 10
-0.9327781211139187
 20
23.4649291541087
  0
ARC
  5
45B
330
18
100
AcDbEntity
  8
0
100
AcDbCircle
 10
-0.0456771439152197
 20
21.38012055492229
 30
0.0
 40
0.5947602485093715
100
AcDbArc
 50
96.09277165733601
 51
179.3598503304769
  0
ARC
  5
45C
330
18
100
AcDbEntity
  8
0
100
AcDbCircle
 10
0.0072609103852894
 20
21.27844744662616
 30
0.0
 40
0.5705940665816974
100
AcDbArc
 50
100.9662208074299
 51
174.4526423655914
  0
ARC
  5
45D
330
18
100
AcDbEntity
  8
0
100
AcDbCircle
 10
-1.447761834468967
 20
22.83365879580251
 30
0.0
 40
0.5947602485093715
100
AcDbArc
 50
276.092771657336
 51
359.3598503304769
  0
LINE
  5
45E
330
18
100
AcDbEntity
  8
0
100
AcDbLine
 10
-0.6404002709510497
 20
21.38676550606235
 30
0.0
 11
-0.6404002709510497
 21
20.82858961029688
 31
0.0
  0
ARC
  5
45F
330
18
100
AcDbEntity
  8
0
100
AcDbCircle
 10
-1.500699888769477
 20
22.93533190409864
 30
0.0
 40
0.5705940665816974
100
AcDbArc
 50
280.9662208074299
 51
354.4526423655915
  0
LINE
  5
460
330
18
100
AcDbEntity
  8
0
100
AcDbLine
 10
-0.8530387074331384
 20
22.82701384466245
 30
0.0
 11
-0.8530387074331384
 21
23.38518974042793
 31
0.0
  0
LINE
  5
461
330
18
100
AcDbEntity
  8
0
100
AcDbLine
 10
-0.9327781211139187
 20
22.88017345378297
 30
0.0
 11
-0.9327781211139187
 21
23.4649291541087
 31
0.0
  0
LINE
  5
462
330
18
100
AcDbEntity
  8
0
100
AcDbLine
 10
-0.8530387074331384
 20
23.38518974042793
 30
0.0
 11
-0.9327781211139187
 21
23.4649291541087
 31
0.0
  0
LINE
  5
463
330
18
100
AcDbEntity
  8
0
100
AcDbLine
 10
-0.6404002709510524
 20
23.38518974042793
 30
0.0
 11
-0.5606608572702703
 21
23.4649291541087
 31
0.0
  0
LINE
  5
464
330
18
100
AcDbEntity
  8
0
100
AcDbLine
 10
0.7417495661824982
 20
21.83862218358678
 30
0.0
 11
-0.1012833335401089
 21
21.83862218358678
 31
0.0
  0
LINE
  5
465
330
18
100
AcDbEntity
  8
0
100
AcDbLine
 10
0.8746485889838023
 20
21.97152120638809
 30
0.0
 11
-0.1088041797458379
 21
21.97152120638809
 31
0.0
  0
LINE
  5
466
330
18
100
AcDbEntity
  8
0
100
AcDbLine
 10
1.169117305357905
 20
21.97152120638809
 30
0.0
 11
1.169117305357905
 21
20.98806843765844
 31
0.0
  0
LINE
  5
467
330
18
100
AcDbEntity
  8
0
100
AcDbLine
 10
0.9012283935440636
 20
21.97152120638809
 30
0.0
 11
0.7417495661824982
 21
21.83862218358678
 31
0.0
  0
LINE
  5
468
330
18
100
AcDbEntity
  8
0
100
AcDbLine
 10
0.7417495661824969
 20
22.37515716713802
 30
0.0
 11
0.7417495661824965
 21
23.21819006686063
 31
0.0
  0
LINE
  5
469
330
18
100
AcDbEntity
  8
0
100
AcDbLine
 10
0.8746485889838005
 20
22.24225814433672
 30
0.0
 11
0.8746485889838005
 21
23.22571091306636
 31
0.0
  0
LINE
  5
46A
330
18
100
AcDbEntity
  8
0
100
AcDbLine
 10
0.7417495661824969
 20
22.37515716713802
 30
0.0
 11
0.8746485889838
 21
22.24225814433672
 31
0.0
  0
LINE
  5
46B
330
18
100
AcDbEntity
  8
0
100
AcDbLine
 10
2.684166165292757
 20
20.82858961029688
 30
0.0
 11
2.604426751611976
 21
20.7488501966161
 31
0.0
  0
LINE
  5
46C
330
18
100
AcDbEntity
  8
0
100
AcDbLine
 10
2.896804601774843
 20
20.82858961029688
 30
0.0
 11
2.976544015455625
 21
20.7488501966161
 31
0.0
  0
LINE
  5
46D
330
18
100
AcDbEntity
  8
0
100
AcDbLine
 10
2.976544015455625
 20
21.33360589694183
 30
0.0
 11
2.976544015455625
 21
20.7488501966161
 31
0.0
  0
ARC
  5
46E
330
18
100
AcDbEntity
  8
0
100
AcDbCircle
 10
1.86219106511983
 20
21.10413352778957
 30
0.0
 40
0.5705940665816974
100
AcDbArc
 50
190.9662208074298
 51
264.4526423655914
  0
LWPOLYLINE
  5
46F
330
18
100
AcDbEntity
  8
0
100
AcDbPolyline
 90
        5
 70
     0
 43
0.0
 10
1.302016328159209
 20
21.83862218358679
 10
2.145049227881816
 20
21.83862218358678
 42
-0.3321053948249863
 10
2.604426751611976
 20
21.33360589694183
 10
2.604426751611976
 20
20.7488501966161
 10
2.976544015455625
 20
20.7488501966161
  0
ARC
  5
476
330
18
100
AcDbEntity
  8
0
100
AcDbCircle
 10
2.089443038256926
 20
19.32018570150209
 30
0.0
 40
0.5947602485093715
100
AcDbArc
 50
276.092771657336
 51
359.3598503304769
  0
LINE
  5
477
330
18
100
AcDbEntity
  8
0
100
AcDbLine
 10
2.604426751611974
 20
19.36670035948255
 30
0.0
 11
2.604426751611974
 21
19.95145605980828
 31
0.0
  0
LINE
  5
478
330
18
100
AcDbEntity
  8
0
100
AcDbLine
 10
2.684166165292756
 20
19.31354075036203
 30
0.0
 11
2.684166165292756
 21
19.8717166461275
 31
0.0
  0
LWPOLYLINE
  5
479
330
18
100
AcDbEntity
  8
0
100
AcDbPolyline
 90
        5
 70
     0
 43
0.0
 10
1.302016328159207
 20
18.8616840728376
 10
1.302016328159207
 20
19.7047169725602
 42
-0.3321053948249863
 10
1.80703261480416
 20
20.16409449629037
 10
2.391788315129889
 20
20.16409449629037
 10
2.391788315129889
 20
20.53621176013401
  0
LINE
  5
480
330
18
100
AcDbEntity
  8
0
100
AcDbLine
 10
1.302016328159207
 20
18.8616840728376
 30
0.0
 11
2.145049227881814
 21
18.8616840728376
 31
0.0
  0
ARC
  5
481
330
18
100
AcDbEntity
  8
0
100
AcDbCircle
 10
2.036504983956417
 20
19.42185880979822
 30
0.0
 40
0.5705940665816974
100
AcDbArc
 50
280.9662208074299
 51
354.4526423655915
  0
LINE
  5
482
330
18
100
AcDbEntity
  8
0
100
AcDbLine
 10
1.753873005683642
 20
20.45647234645323
 30
0.0
 11
2.312048901449114
 21
20.45647234645323
 31
0.0
  0
LINE
  5
483
330
18
100
AcDbEntity
  8
0
100
AcDbLine
 10
1.807032614804162
 20
20.53621176013401
 30
0.0
 11
2.391788315129891
 21
20.53621176013401
 31
0.0
  0
LINE
  5
484
330
18
100
AcDbEntity
  8
0
100
AcDbLine
 10
2.684166165292756
 20
19.8717166461275
 30
0.0
 11
2.604426751611974
 21
19.95145605980828
 31
0.0
  0
LINE
  5
485
330
18
100
AcDbEntity
  8
0
100
AcDbLine
 10
2.312048901449113
 20
20.24383390997114
 30
0.0
 11
2.391788315129889
 21
20.16409449629037
 31
0.0
  0
LINE
  5
486
330
18
100
AcDbEntity
  8
0
100
AcDbLine
 10
2.312048901449114
 20
20.45647234645323
 30
0.0
 11
2.391788315129889
 21
20.53621176013401
 31
0.0
  0
LINE
  5
487
330
18
100
AcDbEntity
  8
0
100
AcDbLine
 10
3.827097761383958
 20
20.24383390997115
 30
0.0
 11
3.268921865618485
 21
20.24383390997115
 31
0.0
  0
LINE
  5
488
330
18
100
AcDbEntity
  8
0
100
AcDbLine
 10
3.773938152263438
 20
20.16409449629037
 30
0.0
 11
3.189182451937708
 21
20.16409449629037
 31
0.0
  0
LINE
  5
489
330
18
100
AcDbEntity
  8
0
100
AcDbLine
 10
2.896804601774842
 20
19.8717166461275
 30
0.0
 11
2.976544015455622
 21
19.95145605980828
 31
0.0
  0
LINE
  5
48A
330
18
100
AcDbEntity
  8
0
100
AcDbLine
 10
3.189182451937709
 20
20.53621176013402
 30
0.0
 11
3.268921865618486
 21
20.45647234645323
 31
0.0
  0
LINE
  5
48B
330
18
100
AcDbEntity
  8
0
100
AcDbLine
 10
3.189182451937709
 20
20.16409449629037
 30
0.0
 11
3.268921865618486
 21
20.24383390997115
 31
0.0
  0
ARC
  5
48C
330
18
100
AcDbEntity
  8
0
100
AcDbCircle
 10
2.089443038256926
 20
22.83365879580251
 30
0.0
 40
0.5947602485093715
100
AcDbArc
 50
276.092771657336
 51
359.3598503304769
  0
LINE
  5
48D
330
18
100
AcDbEntity
  8
0
100
AcDbLine
 10
1.302016328159209
 20
21.83862218358679
 30
0.0
 11
1.302016328159209
 21
20.99558928386417
 31
0.0
  0
LINE
  5
48E
330
18
100
AcDbEntity
  8
0
100
AcDbLine
 10
1.302016328159207
 20
22.37515716713802
 30
0.0
 11
2.145049227881814
 21
22.37515716713802
 31
0.0
  0
LINE
  5
48F
330
18
100
AcDbEntity
  8
0
100
AcDbLine
 10
2.684166165292756
 20
22.82701384466245
 30
0.0
 11
2.684166165292756
 21
23.38518974042793
 31
0.0
  0
LINE
  5
490
330
18
100
AcDbEntity
  8
0
100
AcDbLine
 10
2.604426751611974
 20
22.88017345378297
 30
0.0
 11
2.604426751611974
 21
23.4649291541087
 31
0.0
  0
ARC
  5
491
330
18
100
AcDbEntity
  8
0
100
AcDbCircle
 10
2.036504983956417
 20
22.93533190409864
 30
0.0
 40
0.5705940665816974
100
AcDbArc
 50
280.9662208074299
 51
354.4526423655915
  0
LINE
  5
492
330
18
100
AcDbEntity
  8
0
100
AcDbLine
 10
2.684166165292756
 20
23.38518974042793
 30
0.0
 11
2.604426751611974
 21
23.4649291541087
 31
0.0
  0
ARC
  5
493
330
18
100
AcDbEntity
  8
0
100
AcDbCircle
 10
3.544465783111183
 20
21.27844744662616
 30
0.0
 40
0.5705940665816974
100
AcDbArc
 50
100.9662208074299
 51
174.4526423655914
  0
ARC
  5
494
330
18
100
AcDbEntity
  8
0
100
AcDbCircle
 10
3.491527728810673
 20
21.38012055492229
 30
0.0
 40
0.5947602485093715
100
AcDbArc
 50
96.09277165733601
 51
179.3598503304769
  0
LINE
  5
495
330
18
100
AcDbEntity
  8
0
100
AcDbLine
 10
2.896804601774844
 20
21.38676550606235
 30
0.0
 11
2.896804601774844
 21
20.82858961029688
 31
0.0
  0
LINE
  5
496
330
18
100
AcDbEntity
  8
0
100
AcDbLine
 10
2.896804601774842
 20
23.38518974042793
 30
0.0
 11
2.976544015455622
 21
23.4649291541087
 31
0.0
  0
LINE
  5
497
330
18
100
AcDbEntity
  8
0
100
AcDbLine
 10
1.169117305357905
 20
29.04651448156435
 30
0.0
 11
1.302016328159209
 21
28.91361545876305
 31
0.0
  0
LINE
  5
498
330
18
100
AcDbEntity
  8
0
100
AcDbLine
 10
1.169117305357905
 20
25.48499430068851
 30
0.0
 11
1.302016328159209
 21
25.35209527788721
 31
0.0
  0
LINE
  5
499
330
18
100
AcDbEntity
  8
0
100
AcDbLine
 10
1.169117305357903
 20
25.80377832521256
 30
0.0
 11
2.152570074087543
 21
25.80377832521256
 31
0.0
  0
LINE
  5
49A
330
18
100
AcDbEntity
  8
0
100
AcDbLine
 10
1.302016328159207
 20
25.93667734801387
 30
0.0
 11
1.169117305357903
 21
25.80377832521256
 31
0.0
  0
LWPOLYLINE
  5
49B
330
18
100
AcDbEntity
  8
0
100
AcDbPolyline
 90
        5
 70
     0
 43
0.0
 10
1.169117305357905
 20
25.48499430068851
 10
2.152570074087546
 20
25.48499430068851
 42
-0.3801993223490394
 10
2.684166165292757
 20
24.90023860036277
 10
2.684166165292757
 20
24.3420627045973
 10
2.896804601774843
 20
24.3420627045973
  0
LWPOLYLINE
  5
4A2
330
18
100
AcDbEntity
  8
0
100
AcDbPolyline
 90
        5
 70
     0
 43
0.0
 10
1.169117305357905
 20
29.04651448156435
 10
2.152570074087546
 20
29.04651448156435
 42
-0.3801993223490394
 10
2.684166165292757
 20
28.46175878123862
 10
2.684166165292757
 20
27.90358288547315
 10
2.896804601774843
 20
27.90358288547315
  0
LWPOLYLINE
  5
4A9
330
18
100
AcDbEntity
  8
0
100
AcDbPolyline
 90
        5
 70
     0
 43
0.0
 10
1.169117305357903
 20
25.80377832521256
 10
1.169117305357903
 20
26.7872310939422
 42
-0.3801993223490394
 10
1.75387300568364
 20
27.31882718514741
 10
2.312048901449113
 20
27.31882718514741
 10
2.312048901449113
 20
27.5314656216295
  0
ARC
  5
4B0
330
18
100
AcDbEntity
  8
0
100
AcDbCircle
 10
1.7605179568237
 20
28.12618874866533
 30
0.0
 40
0.5947602485093715
100
AcDbArc
 50
186.092771657336
 51
269.3598503304769
  0
ARC
  5
4B1
330
18
100
AcDbEntity
  8
0
100
AcDbCircle
 10
1.7605179568237
 20
24.56466856778948
 30
0.0
 40
0.5947602485093715
100
AcDbArc
 50
186.092771657336
 51
269.3598503304769
  0
ARC
  5
4B2
330
18
100
AcDbEntity
  8
0
100
AcDbCircle
 10
-1.500699888769477
 20
26.49685208497449
 30
0.0
 40
0.5705940665816974
100
AcDbArc
 50
280.9662208074299
 51
354.4526423655915
  0
LINE
  5
4B3
330
18
100
AcDbEntity
  8
0
100
AcDbLine
 10
0.8746485889838005
 20
25.80377832521256
 30
0.0
 11
0.8746485889838005
 21
26.7872310939422
 31
0.0
  0
LINE
  5
4B4
330
18
100
AcDbEntity
  8
0
100
AcDbLine
 10
0.7417495661824969
 20
25.93667734801387
 30
0.0
 11
0.7417495661824965
 21
26.77971024773647
 31
0.0
  0
LINE
  5
4B5
330
18
100
AcDbEntity
  8
0
100
AcDbLine
 10
-0.8530387074331379
 20
26.3885340255383
 30
0.0
 11
-0.8530387074331379
 21
26.94670992130377
 31
0.0
  0
LWPOLYLINE
  5
4B6
330
18
100
AcDbEntity
  8
0
100
AcDbPolyline
 90
        5
 70
     0
 43
0.0
 10
0.8746485889838
 20
25.80377832521256
 10
-0.1088041797458401
 20
25.80377832521256
 42
-0.3801993223490394
 10
-0.6404002709510519
 20
26.3885340255383
 10
-0.6404002709510519
 20
26.94670992130377
 10
-0.8530387074331372
 20
26.94670992130377
  0
LWPOLYLINE
  5
4BD
330
18
100
AcDbEntity
  8
0
100
AcDbPolyline
 90
        5
 70
     0
 43
0.0
 10
0.7417495661824969
 20
25.93667734801387
 10
-0.1012833335401106
 20
25.93667734801387
 42
-0.3321053948249863
 10
-0.5606608572702707
 20
26.44169363465882
 10
-0.5606608572702707
 20
27.02644933498455
 10
-0.9327781211139193
 20
27.02644933498455
  0
ARC
  5
4C4
330
18
100
AcDbEntity
  8
0
100
AcDbCircle
 10
-0.0456771439152197
 20
24.89359364922271
 30
0.0
 40
0.5947602485093715
100
AcDbArc
 50
96.09277165733601
 51
179.3598503304769
  0
ARC
  5
4C5
330
18
100
AcDbEntity
  8
0
100
AcDbCircle
 10
0.0072609103852894
 20
24.79192054092658
 30
0.0
 40
0.5705940665816974
100
AcDbArc
 50
100.9662208074299
 51
174.4526423655914
  0
LINE
  5
4C6
330
18
100
AcDbEntity
  8
0
100
AcDbLine
 10
-1.730172257921731
 20
24.04968485443443
 30
0.0
 11
-1.145416557596002
 21
24.04968485443443
 31
0.0
  0
LINE
  5
4C7
330
18
100
AcDbEntity
  8
0
100
AcDbLine
 10
-1.783331867042251
 20
23.96994544075365
 30
0.0
 11
-1.225155971276778
 21
23.96994544075365
 31
0.0
  0
LINE
  5
4C8
330
18
100
AcDbEntity
  8
0
100
AcDbLine
 10
-1.225155971276778
 20
23.96994544075365
 30
0.0
 11
-1.145416557596003
 21
24.04968485443443
 31
0.0
  0
LINE
  5
4C9
330
18
100
AcDbEntity
  8
0
100
AcDbLine
 10
-1.225155971276779
 20
23.75730700427157
 30
0.0
 11
-1.145416557596003
 21
23.67756759059079
 31
0.0
  0
LINE
  5
4CA
330
18
100
AcDbEntity
  8
0
100
AcDbLine
 10
-0.5606608572702685
 20
24.84707899124225
 30
0.0
 11
-0.5606608572702685
 21
24.26232329091652
 31
0.0
  0
LINE
  5
4CB
330
18
100
AcDbEntity
  8
0
100
AcDbLine
 10
-0.6404002709510506
 20
24.3420627045973
 30
0.0
 11
-0.5606608572702685
 21
24.26232329091652
 31
0.0
  0
LINE
  5
4CC
330
18
100
AcDbEntity
  8
0
100
AcDbLine
 10
-0.8530387074331358
 20
24.3420627045973
 30
0.0
 11
-0.932778121113917
 21
24.26232329091652
 31
0.0
  0
LINE
  5
4CD
330
18
100
AcDbEntity
  8
0
100
AcDbLine
 10
-0.6404002709510497
 20
24.90023860036277
 30
0.0
 11
-0.6404002709510497
 21
24.3420627045973
 31
0.0
  0
ARC
  5
4CE
330
18
100
AcDbEntity
  8
0
100
AcDbCircle
 10
-1.447761834468967
 20
26.39517897667836
 30
0.0
 40
0.5947602485093715
100
AcDbArc
 50
276.092771657336
 51
359.3598503304769
  0
LINE
  5
4CF
330
18
100
AcDbEntity
  8
0
100
AcDbLine
 10
1.169117305357905
 20
25.48499430068851
 30
0.0
 11
1.169117305357905
 21
24.50154153195887
 31
0.0
  0
LWPOLYLINE
  5
4D0
330
18
100
AcDbEntity
  8
0
100
AcDbPolyline
 90
        5
 70
     0
 43
0.0
 10
0.7417495661824982
 20
25.35209527788721
 10
0.7417495661824978
 20
24.5090623781646
 42
-0.3321053948249863
 10
0.2367332795375452
 20
24.04968485443444
 10
-0.3480224207881841
 20
24.04968485443444
 10
-0.3480224207881841
 20
23.67756759059079
  0
LWPOLYLINE
  5
4D7
330
18
100
AcDbEntity
  8
0
100
AcDbPolyline
 90
        5
 70
     0
 43
0.0
 10
0.8746485889838023
 20
25.48499430068851
 10
0.8746485889838018
 20
24.50154153195887
 42
-0.3801993223490394
 10
0.2898928886580654
 20
23.96994544075366
 10
-0.2682830071074074
 20
23.96994544075366
 10
-0.2682830071074074
 20
23.75730700427157
  0
LINE
  5
4DE
330
18
100
AcDbEntity
  8
0
100
AcDbLine
 10
0.2367332795375434
 20
23.67756759059079
 30
0.0
 11
-0.3480224207881859
 21
23.67756759059079
 31
0.0
  0
LINE
  5
4DF
330
18
100
AcDbEntity
  8
0
100
AcDbLine
 10
0.2898928886580636
 20
23.75730700427157
 30
0.0
 11
-0.2682830071074091
 21
23.75730700427157
 31
0.0
  0
LINE
  5
4E0
330
18
100
AcDbEntity
  8
0
100
AcDbLine
 10
-0.3480224207881841
 20
24.04968485443444
 30
0.0
 11
-0.2682830071074074
 21
23.96994544075366
 31
0.0
  0
LINE
  5
4E1
330
18
100
AcDbEntity
  8
0
100
AcDbLine
 10
-0.3480224207881841
 20
23.67756759059079
 30
0.0
 11
-0.2682830071074074
 21
23.75730700427157
 31
0.0
  0
LINE
  5
4E2
330
18
100
AcDbEntity
  8
0
100
AcDbLine
 10
0.7417495661824982
 20
25.35209527788721
 30
0.0
 11
-0.1012833335401089
 21
25.35209527788721
 31
0.0
  0
LINE
  5
4E3
330
18
100
AcDbEntity
  8
0
100
AcDbLine
 10
0.8746485889838023
 20
25.48499430068851
 30
0.0
 11
-0.1088041797458379
 21
25.48499430068851
 31
0.0
  0
LINE
  5
4E4
330
18
100
AcDbEntity
  8
0
100
AcDbLine
 10
0.9012283935440636
 20
25.48499430068851
 30
0.0
 11
0.7417495661824982
 21
25.35209527788721
 31
0.0
  0
LINE
  5
4E5
330
18
100
AcDbEntity
  8
0
100
AcDbLine
 10
0.7417495661824969
 20
25.93667734801387
 30
0.0
 11
0.8746485889838
 21
25.80377832521256
 31
0.0
  0
ARC
  5
4E6
330
18
100
AcDbEntity
  8
0
100
AcDbCircle
 10
-0.0456771439152202
 20
28.45511383009856
 30
0.0
 40
0.5947602485093715
100
AcDbArc
 50
96.09277165733601
 51
179.3598503304769
  0
ARC
  5
4E7
330
18
100
AcDbEntity
  8
0
100
AcDbCircle
 10
0.0072609103852894
 20
28.35344072180243
 30
0.0
 40
0.5705940665816974
100
AcDbArc
 50
100.9662208074299
 51
174.4526423655914
  0
LINE
  5
4E8
330
18
100
AcDbEntity
  8
0
100
AcDbLine
 10
-0.6404002709510506
 20
27.90358288547315
 30
0.0
 11
-0.5606608572702685
 21
27.82384347179237
 31
0.0
  0
LINE
  5
4E9
330
18
100
AcDbEntity
  8
0
100
AcDbLine
 10
-0.8530387074331358
 20
27.90358288547315
 30
0.0
 11
-0.932778121113917
 21
27.82384347179237
 31
0.0
  0
LINE
  5
4EA
330
18
100
AcDbEntity
  8
0
100
AcDbLine
 10
-0.5606608572702685
 20
28.4085991721181
 30
0.0
 11
-0.5606608572702685
 21
27.82384347179237
 31
0.0
  0
LINE
  5
4EB
330
18
100
AcDbEntity
  8
0
100
AcDbLine
 10
-1.783331867042251
 20
27.5314656216295
 30
0.0
 11
-1.225155971276778
 21
27.5314656216295
 31
0.0
  0
LINE
  5
4EC
330
18
100
AcDbEntity
  8
0
100
AcDbLine
 10
-1.730172257921731
 20
27.61120503531028
 30
0.0
 11
-1.145416557596002
 21
27.61120503531028
 31
0.0
  0
LINE
  5
4ED
330
18
100
AcDbEntity
  8
0
100
AcDbLine
 10
-1.225155971276778
 20
27.5314656216295
 30
0.0
 11
-1.145416557596003
 21
27.61120503531028
 31
0.0
  0
LINE
  5
4EE
330
18
100
AcDbEntity
  8
0
100
AcDbLine
 10
-1.22515597127678
 20
27.31882718514741
 30
0.0
 11
-1.145416557596003
 21
27.23908777146663
 31
0.0
  0
LINE
  5
4EF
330
18
100
AcDbEntity
  8
0
100
AcDbLine
 10
-0.8530387074331379
 20
26.94670992130377
 30
0.0
 11
-0.9327781211139193
 21
27.02644933498455
 31
0.0
  0
LINE
  5
4F0
330
18
100
AcDbEntity
  8
0
100
AcDbLine
 10
-0.9327781211139193
 20
26.44169363465882
 30
0.0
 11
-0.9327781211139193
 21
27.02644933498455
 31
0.0
  0
LINE
  5
4F1
330
18
100
AcDbEntity
  8
0
100
AcDbLine
 10
-0.6404002709510519
 20
26.94670992130377
 30
0.0
 11
-0.5606608572702707
 21
27.02644933498455
 31
0.0
  0
LINE
  5
4F2
330
18
100
AcDbEntity
  8
0
100
AcDbLine
 10
-0.6404002709510497
 20
28.46175878123862
 30
0.0
 11
-0.6404002709510497
 21
27.90358288547315
 31
0.0
  0
LWPOLYLINE
  5
4F3
330
18
100
AcDbEntity
  8
0
100
AcDbPolyline
 90
        5
 70
     0
 43
0.0
 10
0.8746485889838023
 20
29.04651448156435
 10
0.8746485889838018
 20
28.06306171283472
 42
-0.3801993223490394
 10
0.2898928886580654
 20
27.5314656216295
 10
-0.2682830071074074
 20
27.5314656216295
 10
-0.2682830071074074
 20
27.31882718514742
  0
LWPOLYLINE
  5
4FA
330
18
100
AcDbEntity
  8
0
100
AcDbPolyline
 90
        5
 70
     0
 43
0.0
 10
0.7417495661824982
 20
28.91361545876305
 10
0.7417495661824978
 20
28.07058255904045
 42
-0.3321053948249863
 10
0.2367332795375452
 20
27.61120503531028
 10
-0.3480224207881841
 20
27.61120503531028
 10
-0.3480224207881841
 20
27.23908777146664
  0
ARC
  5
501
330
18
100
AcDbEntity
  8
0
100
AcDbCircle
 10
0.2832479375180048
 20
26.72410405811159
 30
0.0
 40
0.5947602485093715
100
AcDbArc
 50
6.092771657336005
 51
89.35985033047691
  0
ARC
  5
502
330
18
100
AcDbEntity
  8
0
100
AcDbCircle
 10
0.1815748292218755
 20
26.67116600381108
 30
0.0
 40
0.5705940665816974
100
AcDbArc
 50
10.96622080742993
 51
84.45264236559145
  0
LINE
  5
503
330
18
100
AcDbEntity
  8
0
100
AcDbLine
 10
0.2898928886580641
 20
27.31882718514742
 30
0.0
 11
-0.2682830071074087
 21
27.31882718514742
 31
0.0
  0
LINE
  5
504
330
18
100
AcDbEntity
  8
0
100
AcDbLine
 10
0.2367332795375439
 20
27.23908777146664
 30
0.0
 11
-0.3480224207881855
 21
27.23908777146664
 31
0.0
  0
LINE
  5
505
330
18
100
AcDbEntity
  8
0
100
AcDbLine
 10
-0.3480224207881841
 20
27.61120503531028
 30
0.0
 11
-0.2682830071074074
 21
27.5314656216295
 31
0.0
  0
LINE
  5
506
330
18
100
AcDbEntity
  8
0
100
AcDbLine
 10
-0.3480224207881841
 20
27.23908777146664
 30
0.0
 11
-0.2682830071074074
 21
27.31882718514742
 31
0.0
  0
LINE
  5
507
330
18
100
AcDbEntity
  8
0
100
AcDbLine
 10
0.8746485889838023
 20
29.04651448156435
 30
0.0
 11
-0.1088041797458383
 21
29.04651448156435
 31
0.0
  0
LINE
  5
508
330
18
100
AcDbEntity
  8
0
100
AcDbLine
 10
0.7417495661824982
 20
28.91361545876305
 30
0.0
 11
-0.1012833335401084
 21
28.91361545876305
 31
0.0
  0
LINE
  5
509
330
18
100
AcDbEntity
  8
0
100
AcDbLine
 10
1.169117305357905
 20
29.04651448156435
 30
0.0
 11
1.169117305357905
 21
28.06306171283472
 31
0.0
  0
LINE
  5
50A
330
18
100
AcDbEntity
  8
0
100
AcDbLine
 10
0.9012283935440636
 20
29.04651448156435
 30
0.0
 11
0.7417495661824982
 21
28.91361545876305
 31
0.0
  0
ARC
  5
50B
330
18
100
AcDbEntity
  8
0
100
AcDbCircle
 10
2.036504983956417
 20
26.49685208497449
 30
0.0
 40
0.5705940665816974
100
AcDbArc
 50
280.9662208074299
 51
354.4526423655915
  0
LWPOLYLINE
  5
50C
330
18
100
AcDbEntity
  8
0
100
AcDbPolyline
 90
        5
 70
     0
 43
0.0
 10
1.302016328159207
 20
25.93667734801387
 10
1.302016328159207
 20
26.77971024773647
 42
-0.3321053948249863
 10
1.80703261480416
 20
27.23908777146663
 10
2.391788315129889
 20
27.23908777146663
 10
2.391788315129889
 20
27.61120503531028
  0
LINE
  5
513
330
18
100
AcDbEntity
  8
0
100
AcDbLine
 10
2.684166165292756
 20
26.3885340255383
 30
0.0
 11
2.684166165292756
 21
26.94670992130377
 31
0.0
  0
ARC
  5
514
330
18
100
AcDbEntity
  8
0
100
AcDbCircle
 10
2.089443038256926
 20
26.39517897667836
 30
0.0
 40
0.5947602485093715
100
AcDbArc
 50
276.092771657336
 51
359.3598503304769
  0
LWPOLYLINE
  5
515
330
18
100
AcDbEntity
  8
0
100
AcDbPolyline
 90
        5
 70
     0
 43
0.0
 10
1.302016328159209
 20
25.35209527788721
 10
2.145049227881816
 20
25.35209527788721
 42
-0.3321053948249863
 10
2.604426751611976
 20
24.84707899124225
 10
2.604426751611976
 20
24.26232329091652
 10
2.976544015455625
 20
24.26232329091652
  0
LINE
  5
51C
330
18
100
AcDbEntity
  8
0
100
AcDbLine
 10
1.302016328159209
 20
25.35209527788721
 30
0.0
 11
1.302016328159209
 21
24.5090623781646
 31
0.0
  0
LINE
  5
51D
330
18
100
AcDbEntity
  8
0
100
AcDbLine
 10
1.753873005683642
 20
23.96994544075365
 30
0.0
 11
2.312048901449114
 21
23.96994544075365
 31
0.0
  0
LINE
  5
51E
330
18
100
AcDbEntity
  8
0
100
AcDbLine
 10
1.807032614804162
 20
24.04968485443443
 30
0.0
 11
2.391788315129891
 21
24.04968485443443
 31
0.0
  0
ARC
  5
51F
330
18
100
AcDbEntity
  8
0
100
AcDbCircle
 10
1.86219106511983
 20
24.61760662209
 30
0.0
 40
0.5705940665816974
100
AcDbArc
 50
190.9662208074298
 51
264.4526423655914
  0
LINE
  5
520
330
18
100
AcDbEntity
  8
0
100
AcDbLine
 10
2.684166165292757
 20
24.3420627045973
 30
0.0
 11
2.604426751611976
 21
24.26232329091652
 31
0.0
  0
LINE
  5
521
330
18
100
AcDbEntity
  8
0
100
AcDbLine
 10
2.312048901449114
 20
23.96994544075365
 30
0.0
 11
2.391788315129889
 21
24.04968485443443
 31
0.0
  0
LINE
  5
522
330
18
100
AcDbEntity
  8
0
100
AcDbLine
 10
2.312048901449113
 20
23.75730700427157
 30
0.0
 11
2.391788315129889
 21
23.67756759059079
 31
0.0
  0
LINE
  5
523
330
18
100
AcDbEntity
  8
0
100
AcDbLine
 10
1.302016328159207
 20
25.93667734801387
 30
0.0
 11
2.145049227881814
 21
25.93667734801387
 31
0.0
  0
ARC
  5
524
330
18
100
AcDbEntity
  8
0
100
AcDbCircle
 10
3.544465783111183
 20
24.79192054092658
 30
0.0
 40
0.5705940665816974
100
AcDbArc
 50
100.9662208074299
 51
174.4526423655914
  0
ARC
  5
525
330
18
100
AcDbEntity
  8
0
100
AcDbCircle
 10
3.491527728810673
 20
24.89359364922271
 30
0.0
 40
0.5947602485093715
100
AcDbArc
 50
96.09277165733601
 51
179.3598503304769
  0
LINE
  5
526
330
18
100
AcDbEntity
  8
0
100
AcDbLine
 10
3.827097761383958
 20
23.75730700427157
 30
0.0
 11
3.268921865618485
 21
23.75730700427157
 31
0.0
  0
LINE
  5
527
330
18
100
AcDbEntity
  8
0
100
AcDbLine
 10
3.773938152263438
 20
23.67756759059079
 30
0.0
 11
3.189182451937708
 21
23.67756759059079
 31
0.0
  0
LINE
  5
528
330
18
100
AcDbEntity
  8
0
100
AcDbLine
 10
2.976544015455625
 20
24.84707899124225
 30
0.0
 11
2.976544015455625
 21
24.26232329091652
 31
0.0
  0
LINE
  5
529
330
18
100
AcDbEntity
  8
0
100
AcDbLine
 10
2.896804601774843
 20
24.3420627045973
 30
0.0
 11
2.976544015455625
 21
24.26232329091652
 31
0.0
  0
LINE
  5
52A
330
18
100
AcDbEntity
  8
0
100
AcDbLine
 10
3.189182451937709
 20
24.04968485443444
 30
0.0
 11
3.268921865618486
 21
23.96994544075366
 31
0.0
  0
LINE
  5
52B
330
18
100
AcDbEntity
  8
0
100
AcDbLine
 10
3.189182451937709
 20
23.67756759059079
 30
0.0
 11
3.268921865618486
 21
23.75730700427157
 31
0.0
  0
LINE
  5
52C
330
18
100
AcDbEntity
  8
0
100
AcDbLine
 10
2.896804601774844
 20
24.90023860036277
 30
0.0
 11
2.896804601774844
 21
24.3420627045973
 31
0.0
  0
LWPOLYLINE
  5
52D
330
18
100
AcDbEntity
  8
0
100
AcDbPolyline
 90
        5
 70
     0
 43
0.0
 10
1.302016328159209
 20
28.91361545876305
 10
2.145049227881816
 20
28.91361545876305
 42
-0.3321053948249863
 10
2.604426751611976
 20
28.4085991721181
 10
2.604426751611976
 20
27.82384347179237
 10
2.976544015455625
 20
27.82384347179237
  0
LINE
  5
534
330
18
100
AcDbEntity
  8
0
100
AcDbLine
 10
2.684166165292757
 20
27.90358288547315
 30
0.0
 11
2.604426751611976
 21
27.82384347179237
 31
0.0
  0
ARC
  5
535
330
18
100
AcDbEntity
  8
0
100
AcDbCircle
 10
1.86219106511983
 20
28.17912680296584
 30
0.0
 40
0.5705940665816974
100
AcDbArc
 50
190.9662208074298
 51
264.4526423655914
  0
LINE
  5
536
330
18
100
AcDbEntity
  8
0
100
AcDbLine
 10
1.807032614804162
 20
27.61120503531028
 30
0.0
 11
2.391788315129891
 21
27.61120503531028
 31
0.0
  0
LINE
  5
537
330
18
100
AcDbEntity
  8
0
100
AcDbLine
 10
1.753873005683642
 20
27.5314656216295
 30
0.0
 11
2.312048901449114
 21
27.5314656216295
 31
0.0
  0
LINE
  5
538
330
18
100
AcDbEntity
  8
0
100
AcDbLine
 10
2.684166165292756
 20
26.94670992130377
 30
0.0
 11
2.604426751611974
 21
27.02644933498455
 31
0.0
  0
LINE
  5
539
330
18
100
AcDbEntity
  8
0
100
AcDbLine
 10
2.604426751611974
 20
26.44169363465882
 30
0.0
 11
2.604426751611974
 21
27.02644933498455
 31
0.0
  0
LINE
  5
53A
330
18
100
AcDbEntity
  8
0
100
AcDbLine
 10
2.312048901449114
 20
27.5314656216295
 30
0.0
 11
2.391788315129889
 21
27.61120503531028
 31
0.0
  0
LINE
  5
53B
330
18
100
AcDbEntity
  8
0
100
AcDbLine
 10
2.312048901449113
 20
27.31882718514741
 30
0.0
 11
2.391788315129889
 21
27.23908777146663
 31
0.0
  0
LINE
  5
53C
330
18
100
AcDbEntity
  8
0
100
AcDbLine
 10
1.302016328159209
 20
28.91361545876305
 30
0.0
 11
1.302016328159209
 21
28.07058255904044
 31
0.0
  0
LINE
  5
53D
330
18
100
AcDbEntity
  8
0
100
AcDbLine
 10
2.896804601774843
 20
27.90358288547315
 30
0.0
 11
2.976544015455625
 21
27.82384347179237
 31
0.0
  0
LINE
  5
53E
330
18
100
AcDbEntity
  8
0
100
AcDbLine
 10
2.976544015455625
 20
28.4085991721181
 30
0.0
 11
2.976544015455625
 21
27.82384347179237
 31
0.0
  0
LINE
  5
53F
330
18
100
AcDbEntity
  8
0
100
AcDbLine
 10
3.773938152263438
 20
27.23908777146664
 30
0.0
 11
3.189182451937708
 21
27.23908777146664
 31
0.0
  0
LINE
  5
540
330
18
100
AcDbEntity
  8
0
100
AcDbLine
 10
3.827097761383958
 20
27.31882718514742
 30
0.0
 11
3.268921865618485
 21
27.31882718514742
 31
0.0
  0
LINE
  5
541
330
18
100
AcDbEntity
  8
0
100
AcDbLine
 10
2.896804601774842
 20
26.94670992130377
 30
0.0
 11
2.976544015455622
 21
27.02644933498455
 31
0.0
  0
LINE
  5
542
330
18
100
AcDbEntity
  8
0
100
AcDbLine
 10
3.189182451937709
 20
27.61120503531028
 30
0.0
 11
3.268921865618486
 21
27.5314656216295
 31
0.0
  0
LINE
  5
543
330
18
100
AcDbEntity
  8
0
100
AcDbLine
 10
3.189182451937709
 20
27.23908777146664
 30
0.0
 11
3.268921865618486
 21
27.31882718514742
 31
0.0
  0
ARC
  5
544
330
18
100
AcDbEntity
  8
0
100
AcDbCircle
 10
3.544465783111183
 20
28.35344072180243
 30
0.0
 40
0.5705940665816974
100
AcDbArc
 50
100.9662208074299
 51
174.4526423655914
  0
ARC
  5
545
330
18
100
AcDbEntity
  8
0
100
AcDbCircle
 10
3.491527728810673
 20
28.45511383009856
 30
0.0
 40
0.5947602485093715
100
AcDbArc
 50
96.09277165733601
 51
179.3598503304769
  0
LINE
  5
546
330
18
100
AcDbEntity
  8
0
100
AcDbLine
 10
2.896804601774844
 20
28.46175878123862
 30
0.0
 11
2.896804601774844
 21
27.90358288547315
 31
0.0
  0
LINE
  5
547
330
18
100
AcDbEntity
  8
0
 62
     7
100
AcDbLine
 10
-1.392866874211617
 20
29.57811057276957
 30
0.0
 11
-2.973713779749076
 21
29.57811057276956
 31
0.0
  0
LINE
  5
548
330
18
100
AcDbEntity
  8
0
 62
     7
100
AcDbLine
 10
-2.681335929586212
 20
29.2857327226067
 30
0.0
 11
-1.400489024048753
 21
29.2857327226067
 31
0.0
  0
LINE
  5
549
330
18
100
AcDbEntity
  8
0
 62
     7
100
AcDbLine
 10
-1.383388046850054
 20
29.418631745408
 30
0.0
 11
-2.681335929586212
 21
29.418631745408
 31
0.0
  0
LINE
  5
54A
330
18
100
AcDbEntity
  8
0
 62
     7
100
AcDbLine
 10
-2.681335929586212
 20
29.418631745408
 30
0.0
 11
-2.761075343266992
 21
29.418631745408
 31
0.0
  0
LINE
  5
54B
330
18
100
AcDbEntity
  8
0
 62
     7
100
AcDbLine
 10
-2.761075343266992
 20
29.418631745408
 30
0.0
 11
-2.814234952387516
 21
29.418631745408
 31
0.0
  0
LINE
  5
54C
330
18
100
AcDbEntity
  8
0
 62
     7
100
AcDbLine
 10
2.953582637189032
 20
35.6210665988282
 30
0.0
 11
2.953582637189032
 21
29.7857327226067
 31
0.0
  0
LINE
  5
54D
330
18
100
AcDbEntity
  8
0
 62
     7
100
AcDbLine
 10
3.086481659990336
 20
29.768631745408
 30
0.0
 11
3.086481659990336
 21
35.6210665988282
 31
0.0
  0
LINE
  5
54E
330
18
100
AcDbEntity
  8
0
 62
     7
100
AcDbLine
 10
2.528305764224863
 20
35.6210665988282
 30
0.0
 11
2.528305764224862
 21
29.768631745408
 31
0.0
  0
LINE
  5
54F
330
18
100
AcDbEntity
  8
0
 62
     7
100
AcDbLine
 10
2.634624982465904
 20
29.7857327226067
 30
0.0
 11
2.634624982465904
 21
35.6210665988282
 31
0.0
  0
LINE
  5
550
330
18
100
AcDbEntity
  8
0
 62
     7
100
AcDbLine
 10
2.368826936863299
 20
35.6210665988282
 30
0.0
 11
2.368826936863299
 21
29.77811057276957
 31
0.0
  0
LINE
  5
551
330
18
100
AcDbEntity
  8
0
 62
     7
100
AcDbLine
 10
3.245960487351901
 20
29.77811057276957
 30
0.0
 11
3.2459604873519
 21
35.6210665988282
 31
0.0
  0
LINE
  5
552
330
18
100
AcDbEntity
  8
0
 62
     7
100
AcDbLine
 10
-1.033388046850054
 20
35.6210665988282
 30
0.0
 11
-1.033388046850054
 21
29.768631745408
 31
0.0
  0
LINE
  5
553
330
18
100
AcDbEntity
  8
0
 62
     7
100
AcDbLine
 10
-0.9004890240487535
 20
29.78573272260669
 30
0.0
 11
-0.9004890240487535
 21
35.6210665988282
 31
0.0
  0
LINE
  5
554
330
18
100
AcDbEntity
  8
0
 62
     7
100
AcDbLine
 10
-0.6081111738858854
 20
35.6210665988282
 30
0.0
 11
-0.6081111738858854
 21
29.7857327226067
 31
0.0
  0
LINE
  5
555
330
18
100
AcDbEntity
  8
0
 62
     7
100
AcDbLine
 10
-0.4752121510845813
 20
29.768631745408
 30
0.0
 11
-0.4752121510845813
 21
35.6210665988282
 31
0.0
  0
LINE
  5
556
330
18
100
AcDbEntity
  8
0
 62
     7
100
AcDbLine
 10
-1.192866874211618
 20
35.6210665988282
 30
0.0
 11
-1.192866874211617
 21
29.77811057276957
 31
0.0
  0
LINE
  5
557
330
18
100
AcDbEntity
  8
0
 62
     7
100
AcDbLine
 10
-0.3157333237230206
 20
29.77811057276957
 30
0.0
 11
-0.3157333237230206
 21
35.6210665988282
 31
0.0
  0
LINE
  5
558
330
18
100
AcDbEntity
  8
0
 62
     7
100
AcDbLine
 10
2.168826936863299
 20
29.57811057276956
 30
0.0
 11
-0.1339264563827158
 21
29.57811057276956
 31
0.0
  0
LINE
  5
559
330
18
100
AcDbEntity
  8
0
 62
     7
100
AcDbLine
 10
2.178305764224863
 20
29.418631745408
 30
0.0
 11
-0.1101748594821568
 21
29.418631745408
 31
0.0
  0
LINE
  5
55A
330
18
100
AcDbEntity
  8
0
 62
     7
100
AcDbLine
 10
-0.1339264563827158
 20
29.2857327226067
 30
0.0
 11
2.134624982465904
 21
29.2857327226067
 31
0.0
  0
ARC
  5
55B
330
18
100
AcDbEntity
  8
0
 62
     7
100
AcDbCircle
 10
-0.1157333237230205
 20
29.77811057276957
 30
0.0
 40
0.2
100
AcDbArc
 50
180.0
 51
270.0
  0
ARC
  5
55C
330
18
100
AcDbEntity
  8
0
 62
     7
100
AcDbCircle
 10
-0.1252121510845812
 20
29.768631745408
 30
0.0
 40
0.35
100
AcDbArc
 50
180.0
 51
270.0
  0
ARC
  5
55D
330
18
100
AcDbEntity
  8
0
 62
     7
100
AcDbCircle
 10
-1.383388046850054
 20
29.768631745408
 30
0.0
 40
0.35
100
AcDbArc
 50
270.0
 51
0.0
  0
ARC
  5
55E
330
18
100
AcDbEntity
  8
0
 62
     7
100
AcDbCircle
 10
-1.392866874211617
 20
29.77811057276957
 30
0.0
 40
0.2
100
AcDbArc
 50
270.0
 51
0.0
  0
ARC
  5
55F
330
18
100
AcDbEntity
  8
0
 62
     7
100
AcDbCircle
 10
2.168826936863299
 20
29.77811057276957
 30
0.0
 40
0.2
100
AcDbArc
 50
270.0
 51
0.0
  0
ARC
  5
560
330
18
100
AcDbEntity
  8
0
 62
     7
100
AcDbCircle
 10
2.178305764224863
 20
29.768631745408
 30
0.0
 40
0.35
100
AcDbArc
 50
270.0
 51
0.0
  0
ARC
  5
561
330
18
100
AcDbEntity
  8
0
 62
     7
100
AcDbCircle
 10
3.436481659990336
 20
29.768631745408
 30
0.0
 40
0.35
100
AcDbArc
 50
180.0
 51
270.0
  0
ARC
  5
562
330
18
100
AcDbEntity
  8
0
 62
     7
100
AcDbCircle
 10
3.445960487351901
 20
29.77811057276957
 30
0.0
 40
0.2
100
AcDbArc
 50
180.0
 51
270.0
  0
LINE
  5
563
330
18
100
AcDbEntity
  8
ADP1DETAIL
100
AcDbLine
 10
-1.192866874211618
 20
35.6210665988282
 30
0.0
 11
-0.3157333237230206
 21
35.6210665988282
 31
0.0
  0
LINE
  5
564
330
18
100
AcDbEntity
  8
ADP1DETAIL
100
AcDbLine
 10
2.368826936863299
 20
35.6210665988282
 30
0.0
 11
3.245960487351897
 21
35.6210665988282
 31
0.0
  0
LINE
  5
565
330
18
100
AcDbEntity
  8
0
100
AcDbLine
 10
4.411853461709695
 20
18.72878505003629
 30
0.0
 11
4.411853461709695
 21
19.71223781876593
 31
0.0
  0
LINE
  5
566
330
18
100
AcDbEntity
  8
0
100
AcDbLine
 10
4.278954438908391
 20
18.8616840728376
 30
0.0
 11
4.278954438908391
 21
19.7047169725602
 31
0.0
  0
LINE
  5
567
330
18
100
AcDbEntity
  8
0
100
AcDbLine
 10
4.438433266269957
 20
18.45804811208766
 30
0.0
 11
4.278954438908392
 21
18.32514908928636
 31
0.0
  0
LINE
  5
568
330
18
100
AcDbEntity
  8
0
100
AcDbLine
 10
4.278954438908391
 20
18.8616840728376
 30
0.0
 11
4.411853461709693
 21
18.72878505003629
 31
0.0
  0
LINE
  5
569
330
18
100
AcDbEntity
  8
0
100
AcDbLine
 10
4.438433266269957
 20
21.97152120638809
 30
0.0
 11
4.278954438908392
 21
21.83862218358678
 31
0.0
  0
LINE
  5
56A
330
18
100
AcDbEntity
  8
0
100
AcDbLine
 10
4.411853461709695
 20
22.24225814433672
 30
0.0
 11
4.411853461709695
 21
23.22571091306636
 31
0.0
  0
LINE
  5
56B
330
18
100
AcDbEntity
  8
0
100
AcDbLine
 10
4.278954438908391
 20
22.37515716713802
 30
0.0
 11
4.278954438908391
 21
23.21819006686063
 31
0.0
  0
LINE
  5
56C
330
18
100
AcDbEntity
  8
0
100
AcDbLine
 10
4.278954438908391
 20
22.37515716713802
 30
0.0
 11
4.411853461709693
 21
22.24225814433672
 31
0.0
  0
LINE
  5
56D
330
18
100
AcDbEntity
  8
0
100
AcDbLine
 10
4.278954438908391
 20
25.93667734801387
 30
0.0
 11
4.278954438908391
 21
26.77971024773647
 31
0.0
  0
LINE
  5
56E
330
18
100
AcDbEntity
  8
0
100
AcDbLine
 10
4.411853461709695
 20
25.80377832521256
 30
0.0
 11
4.411853461709695
 21
26.7872310939422
 31
0.0
  0
LINE
  5
56F
330
18
100
AcDbEntity
  8
0
100
AcDbLine
 10
4.438433266269957
 20
25.48499430068851
 30
0.0
 11
4.278954438908392
 21
25.35209527788721
 31
0.0
  0
LINE
  5
570
330
18
100
AcDbEntity
  8
0
100
AcDbLine
 10
4.278954438908391
 20
25.93667734801387
 30
0.0
 11
4.411853461709693
 21
25.80377832521256
 31
0.0
  0
LINE
  5
571
330
18
100
AcDbEntity
  8
0
100
AcDbLine
 10
4.438433266269957
 20
29.04651448156435
 30
0.0
 11
4.278954438908392
 21
28.91361545876305
 31
0.0
  0
LINE
  5
572
330
18
100
AcDbEntity
  8
0
 62
     7
100
AcDbLine
 10
4.787589151847011
 20
29.418631745408
 30
0.0
 11
4.707849738166231
 21
29.418631745408
 31
0.0
  0
LINE
  5
573
330
18
100
AcDbEntity
  8
0
 62
     7
100
AcDbLine
 10
4.814168956407275
 20
29.418631745408
 30
0.0
 11
4.787589151847011
 21
29.418631745408
 31
0.0
  0
LINE
  5
574
330
18
100
AcDbEntity
  8
0
 62
     7
100
AcDbLine
 10
4.787589151847011
 20
29.418631745408
 30
0.0
 11
4.787589151847011
 21
29.418631745408
 31
0.0
  0
LINE
  5
575
330
18
100
AcDbEntity
  8
0
 62
     7
100
AcDbLine
 10
5.000227588329099
 20
29.57811057276956
 30
0.0
 11
5.000227588329099
 21
29.57811057276956
 31
0.0
  0
TEXT
  5
583
330
18
100
AcDbEntity
  8
ADPDIM
100
AcDbText
 10
-31.02438666316261
 20
-1.363960791483616
 30
0.0
 40
0.625
  1
J U L I U S  B L U M  &  C O . ,  I N C .      ( 8 0 0 )  5 2 6 - 6 2 9 3        W W W . J U L I U S B L U M . C O M        P A R T  N o .  9 6 2
 41
1.25
  7
ARIAL_WIDE
 72
     1
 11
1.14915102442265
 21
-0.7389607914836161
 31
0.0
100
AcDbText
 73
     3
  0
ENDSEC
  0
SECTION
  2
OBJECTS
  0
DICTIONARY
  5
C
330
0
100
AcDbDictionary
  3
ACAD_GROUP
350
D
  3
ACAD_LAYOUT
350
57C
  3
ACAD_MLINESTYLE
350
E
  3
ACAD_PLOTSETTINGS
350
57D
  3
ACAD_PLOTSTYLENAME
350
57A
  3
ACDBHEADERROUNDTRIPXREC
350
6C7
  3
ACDBVARIABLEDICTIONARY
350
5DD
  0
DICTIONARY
  5
5D7
330
18
100
AcDbDictionary
280
     1
  3
ACAD_LAYOUTSELFREF
360
6E8
  0
DICTIONARY
  5
5D5
330
15
100
AcDbDictionary
280
     1
  3
ACAD_LAYOUTSELFREF
360
6E7
  0
DICTIONARY
  5
D
102
{ACAD_REACTORS
330
C
102
}
330
C
100
AcDbDictionary
  0
DICTIONARY
  5
57C
102
{ACAD_REACTORS
330
C
102
}
330
C
100
AcDbDictionary
  0
DICTIONARY
  5
E
102
{ACAD_REACTORS
330
C
102
}
330
C
100
AcDbDictionary
  3
STANDARD
350
1B
  0
DICTIONARY
  5
57D
102
{ACAD_REACTORS
330
C
102
}
330
C
100
AcDbDictionary
  0
ACDBDICTIONARYWDFLT
  5
57A
102
{ACAD_REACTORS
330
C
102
}
330
C
100
AcDbDictionary
281
     1
  3
Normal
350
57B
100
AcDbDictionaryWithDefault
340
57B
  0
DICTIONARY
  5
6C7
102
{ACAD_REACTORS
330
C
102
}
330
C
100
AcDbDictionary
  3
CEPSNTYPE
350
6D1
  3
FINGERPRINTGUID
350
6D2
  3
HYPERLINKBASE
350
6CA
  3
INSUNITS
350
6D0
  3
LAYOUTDICT
350
6CC
  3
LWETCUNION
350
6CF
  3
PLOTSETDICT
350
6CD
  3
PLOTSTYLNAMDICT
350
6CE
  3
PSVPSCALE
350
6D4
  3
PUCSBASE
350
6D7
  3
PUCSORGBACK
350
6DD
  3
PUCSORGBOTTOM
350
6D9
  3
PUCSORGFRONT
350
6DC
  3
PUCSORGLEFT
350
6DA
  3
PUCSORGRIGHT
350
6DB
  3
PUCSORGTOP
350
6D8
  3
PUCSORTHOREF
350
6D5
  3
PUCSORTHOVIEW
350
6D6
  3
STYLESHEET
350
6CB
  3
TSTACKALIGN
350
6C8
  3
TSTACKSIZE
350
6C9
  3
UCSBASE
350
6E0
  3
UCSORGBACK
350
6E6
  3
UCSORGBOTTOM
350
6E2
  3
UCSORGFRONT
350
6E5
  3
UCSORGLEFT
350
6E3
  3
UCSORGRIGHT
350
6E4
  3
UCSORGTOP
350
6E1
  3
UCSORTHOREF
350
6DE
  3
UCSORTHOVIEW
350
6DF
  3
VERSIONGUID
350
6D3
  0
DICTIONARY
  5
5DD
102
{ACAD_REACTORS
330
C
102
}
330
C
100
AcDbDictionary
  3
DIMASSOC
350
5DE
  0
XRECORD
  5
6E8
102
{ACAD_REACTORS
330
5D7
102
}
330
5D7
100
AcDbXrecord
340
18
  0
XRECORD
  5
6E7
102
{ACAD_REACTORS
330
5D5
102
}
330
5D5
100
AcDbXrecord
340
15
  0
MLINESTYLE
  5
1B
102
{ACAD_REACTORS
330
E
102
}
330
E
100
AcDbMlineStyle
  2
STANDARD
 70
     0
  3

 62
     0
 51
90.0
 52
90.0
 71
     2
 49
0.5
 62
   256
  6
BYLAYER
 49
-0.5
 62
   256
  6
BYLAYER
  0
ACDBPLACEHOLDER
  5
57B
102
{ACAD_REACTORS
330
57A
102
}
330
57A
100
AcDbPlaceHolder
280
     0
  0
XRECORD
  5
6D1
102
{ACAD_REACTORS
330
6C7
102
}
330
6C7
100
AcDbXrecord
 90
        0
  0
XRECORD
  5
6D2
102
{ACAD_REACTORS
330
6C7
102
}
330
6C7
100
AcDbXrecord
  1
{79013074-F44D-4198-841B-F8223B981366}
  0
XRECORD
  5
6CA
102
{ACAD_REACTORS
330
6C7
102
}
330
6C7
100
AcDbXrecord
  1

  0
XRECORD
  5
6D0
102
{ACAD_REACTORS
330
6C7
102
}
330
6C7
100
AcDbXrecord
 90
        0
  0
XRECORD
  5
6CC
102
{ACAD_REACTORS
330
6C7
102
}
330
6C7
100
AcDbXrecord
340
57C
  0
XRECORD
  5
6CF
102
{ACAD_REACTORS
330
6C7
102
}
330
6C7
100
AcDbXrecord
 90
    14877
  0
XRECORD
  5
6CD
102
{ACAD_REACTORS
330
6C7
102
}
330
6C7
100
AcDbXrecord
340
57D
  0
XRECORD
  5
6CE
102
{ACAD_REACTORS
330
6C7
102
}
330
6C7
100
AcDbXrecord
340
57A
  0
XRECORD
  5
6D4
102
{ACAD_REACTORS
330
6C7
102
}
330
6C7
100
AcDbXrecord
 40
0.0
  0
XRECORD
  5
6D7
102
{ACAD_REACTORS
330
6C7
102
}
330
6C7
100
AcDbXrecord
340
0
  0
XRECORD
  5
6DD
102
{ACAD_REACTORS
330
6C7
102
}
330
6C7
100
AcDbXrecord
 10
0.0
 20
0.0
 30
0.0
  0
XRECORD
  5
6D9
102
{ACAD_REACTORS
330
6C7
102
}
330
6C7
100
AcDbXrecord
 10
0.0
 20
0.0
 30
0.0
  0
XRECORD
  5
6DC
102
{ACAD_REACTORS
330
6C7
102
}
330
6C7
100
AcDbXrecord
 10
0.0
 20
0.0
 30
0.0
  0
XRECORD
  5
6DA
102
{ACAD_REACTORS
330
6C7
102
}
330
6C7
100
AcDbXrecord
 10
0.0
 20
0.0
 30
0.0
  0
XRECORD
  5
6DB
102
{ACAD_REACTORS
330
6C7
102
}
330
6C7
100
AcDbXrecord
 10
0.0
 20
0.0
 30
0.0
  0
XRECORD
  5
6D8
102
{ACAD_REACTORS
330
6C7
102
}
330
6C7
100
AcDbXrecord
 10
0.0
 20
0.0
 30
0.0
  0
XRECORD
  5
6D5
102
{ACAD_REACTORS
330
6C7
102
}
330
6C7
100
AcDbXrecord
340
0
  0
XRECORD
  5
6D6
102
{ACAD_REACTORS
330
6C7
102
}
330
6C7
100
AcDbXrecord
 70
     0
  0
XRECORD
  5
6CB
102
{ACAD_REACTORS
330
6C7
102
}
330
6C7
100
AcDbXrecord
  1

  0
XRECORD
  5
6C8
102
{ACAD_REACTORS
330
6C7
102
}
330
6C7
100
AcDbXrecord
 90
        1
  0
XRECORD
  5
6C9
102
{ACAD_REACTORS
330
6C7
102
}
330
6C7
100
AcDbXrecord
 90
       70
  0
XRECORD
  5
6E0
102
{ACAD_REACTORS
330
6C7
102
}
330
6C7
100
AcDbXrecord
340
0
  0
XRECORD
  5
6E6
102
{ACAD_REACTORS
330
6C7
102
}
330
6C7
100
AcDbXrecord
 10
0.0
 20
0.0
 30
0.0
  0
XRECORD
  5
6E2
102
{ACAD_REACTORS
330
6C7
102
}
330
6C7
100
AcDbXrecord
 10
0.0
 20
0.0
 30
0.0
  0
XRECORD
  5
6E5
102
{ACAD_REACTORS
330
6C7
102
}
330
6C7
100
AcDbXrecord
 10
0.0
 20
0.0
 30
0.0
  0
XRECORD
  5
6E3
102
{ACAD_REACTORS
330
6C7
102
}
330
6C7
100
AcDbXrecord
 10
0.0
 20
0.0
 30
0.0
  0
XRECORD
  5
6E4
102
{ACAD_REACTORS
330
6C7
102
}
330
6C7
100
AcDbXrecord
 10
0.0
 20
0.0
 30
0.0
  0
XRECORD
  5
6E1
102
{ACAD_REACTORS
330
6C7
102
}
330
6C7
100
AcDbXrecord
 10
0.0
 20
0.0
 30
0.0
  0
XRECORD
  5
6DE
102
{ACAD_REACTORS
330
6C7
102
}
330
6C7
100
AcDbXrecord
340
0
  0
XRECORD
  5
6DF
102
{ACAD_REACTORS
330
6C7
102
}
330
6C7
100
AcDbXrecord
 70
     0
  0
XRECORD
  5
6D3
102
{ACAD_REACTORS
330
6C7
102
}
330
6C7
100
AcDbXrecord
  1
{B9E13EBE-91E5-49C0-B329-A406B2F2C385}
  0
DICTIONARYVAR
  5
5DE
102
{ACAD_REACTORS
330
5DD
102
}
330
5DD
100
DictionaryVariables
280
     0
  1
1
  0
ENDSEC
  0
EOF
