  0
SECTION
  2
HEADER
  9
$ACADVER
  1
AC1014
  9
$ACADMAINTVER
 70
     9
  9
$DWGCODEPAGE
  3
ANSI_1252
  9
$INSBASE
 10
-85.47504178465898
 20
104.0667781806614
 30
0.0
  9
$EXTMIN
 10
-104.5690049441601
 20
95.56557668378514
 30
0.0
  9
$EXTMAX
 10
-71.9403598213771
 20
113.5274854407067
 30
0.0
  9
$LIMMIN
 10
0.0
 20
0.0
  9
$LIMMAX
 10
36.0
 20
36.0
  9
$ORTHOMODE
 70
     1
  9
$REGENMODE
 70
     1
  9
$FILLMODE
 70
     1
  9
$QTEXTMODE
 70
     0
  9
$MIRRTEXT
 70
     1
  9
$DRAGMODE
 70
     0
  9
$LTSCALE
 40
1.0
  9
$OSMODE
 70
    37
  9
$ATTMODE
 70
     1
  9
$TEXTSIZE
 40
0.2
  9
$TRACEWID
 40
0.05
  9
$TEXTSTYLE
  7
STANDARD
  9
$CLAYER
  8
0
  9
$CELTYPE
  6
BYLAYER
  9
$CECOLOR
 62
   256
  9
$CELTSCALE
 40
1.0
  9
$DELOBJ
 70
     1
  9
$DISPSILH
 70
     0
  9
$DIMSCALE
 40
1.0
  9
$DIMASZ
 40
0.125
  9
$DIMEXO
 40
0.0625
  9
$DIMDLI
 40
0.38
  9
$DIMRND
 40
0.0
  9
$DIMDLE
 40
0.0
  9
$DIMEXE
 40
0.18
  9
$DIMTP
 40
0.0
  9
$DIMTM
 40
0.0
  9
$DIMTXT
 40
0.125
  9
$DIMCEN
 40
0.1875
  9
$DIMTSZ
 40
0.125
  9
$DIMTOL
 70
     0
  9
$DIMLIM
 70
     0
  9
$DIMTIH
 70
     0
  9
$DIMTOH
 70
     0
  9
$DIMSE1
 70
     0
  9
$DIMSE2
 70
     0
  9
$DIMTAD
 70
     0
  9
$DIMZIN
 70
     3
  9
$DIMBLK
  1

  9
$DIMASO
 70
     1
  9
$DIMSHO
 70
     1
  9
$DIMPOST
  1

  9
$DIMAPOST
  1

  9
$DIMALT
 70
     0
  9
$DIMALTD
 70
     1
  9
$DIMALTF
 40
25.4
  9
$DIMLFAC
 40
1.0
  9
$DIMTOFL
 70
     0
  9
$DIMTVP
 40
0.0
  9
$DIMTIX
 70
     0
  9
$DIMSOXD
 70
     0
  9
$DIMSAH
 70
     0
  9
$DIMBLK1
  1

  9
$DIMBLK2
  1

  9
$DIMSTYLE
  2
STANDARD
  9
$DIMCLRD
 70
     0
  9
$DIMCLRE
 70
     0
  9
$DIMCLRT
 70
     0
  9
$DIMTFAC
 40
1.0
  9
$DIMGAP
 40
0.125
  9
$DIMJUST
 70
     0
  9
$DIMSD1
 70
     0
  9
$DIMSD2
 70
     0
  9
$DIMTOLJ
 70
     1
  9
$DIMTZIN
 70
     3
  9
$DIMALTZ
 70
     3
  9
$DIMALTTZ
 70
     3
  9
$DIMFIT
 70
     5
  9
$DIMUPT
 70
     0
  9
$DIMUNIT
 70
     5
  9
$DIMDEC
 70
     4
  9
$DIMTDEC
 70
     4
  9
$DIMALTU
 70
     5
  9
$DIMALTTD
 70
     1
  9
$DIMTXSTY
  7
STANDARD
  9
$DIMAUNIT
 70
     0
  9
$LUNITS
 70
     5
  9
$LUPREC
 70
     4
  9
$SKETCHINC
 40
0.1
  9
$FILLETRAD
 40
0.062
  9
$AUNITS
 70
     0
  9
$AUPREC
 70
     0
  9
$MENU
  1
acad
  9
$ELEVATION
 40
0.0
  9
$PELEVATION
 40
0.0
  9
$THICKNESS
 40
0.0
  9
$LIMCHECK
 70
     0
  9
$BLIPMODE
 70
     0
  9
$CHAMFERA
 40
0.0
  9
$CHAMFERB
 40
0.0
  9
$CHAMFERC
 40
0.0
  9
$CHAMFERD
 40
0.0
  9
$SKPOLY
 70
     0
  9
$TDCREATE
 40
2450387.543829467
  9
$TDUPDATE
 40
2452297.105491713
  9
$TDINDWG
 40
0.0048464352
  9
$TDUSRTIMER
 40
0.0048464352
  9
$USRTIMER
 70
     1
  9
$ANGBASE
 50
0.0
  9
$ANGDIR
 70
     0
  9
$PDMODE
 70
     0
  9
$PDSIZE
 40
0.0
  9
$PLINEWID
 40
0.0
  9
$COORDS
 70
     2
  9
$SPLFRAME
 70
     0
  9
$SPLINETYPE
 70
     6
  9
$SPLINESEGS
 70
     8
  9
$ATTDIA
 70
     0
  9
$ATTREQ
 70
     1
  9
$HANDLING
 70
 22529
  9
$HANDSEED
  5
64B
  9
$SURFTAB1
 70
     6
  9
$SURFTAB2
 70
     6
  9
$SURFTYPE
 70
     6
  9
$SURFU
 70
     6
  9
$SURFV
 70
     6
  9
$UCSNAME
  2

  9
$UCSORG
 10
0.0
 20
0.0
 30
0.0
  9
$UCSXDIR
 10
1.0
 20
0.0
 30
0.0
  9
$UCSYDIR
 10
0.0
 20
1.0
 30
0.0
  9
$PUCSNAME
  2

  9
$PUCSORG
 10
0.0
 20
0.0
 30
0.0
  9
$PUCSXDIR
 10
1.0
 20
0.0
 30
0.0
  9
$PUCSYDIR
 10
0.0
 20
1.0
 30
0.0
  9
$USERI1
 70
     0
  9
$USERI2
 70
     0
  9
$USERI3
 70
     0
  9
$USERI4
 70
     0
  9
$USERI5
 70
     0
  9
$USERR1
 40
0.0
  9
$USERR2
 40
0.0
  9
$USERR3
 40
0.0
  9
$USERR4
 40
0.0
  9
$USERR5
 40
0.0
  9
$WORLDVIEW
 70
     1
  9
$SHADEDGE
 70
     3
  9
$SHADEDIF
 70
    70
  9
$TILEMODE
 70
     1
  9
$MAXACTVP
 70
    15
  9
$PINSBASE
 10
0.0
 20
0.0
 30
0.0
  9
$PLIMCHECK
 70
     0
  9
$PEXTMIN
 10
1.000000000000000E+20
 20
1.000000000000000E+20
 30
1.000000000000000E+20
  9
$PEXTMAX
 10
-1.000000000000000E+20
 20
-1.000000000000000E+20
 30
-1.000000000000000E+20
  9
$PLIMMIN
 10
0.0
 20
0.0
  9
$PLIMMAX
 10
12.0
 20
9.0
  9
$UNITMODE
 70
     0
  9
$VISRETAIN
 70
     0
  9
$PLINEGEN
 70
     0
  9
$PSLTSCALE
 70
     1
  9
$TREEDEPTH
 70
  3020
  9
$PICKSTYLE
 70
     1
  9
$CMLSTYLE
  2
STANDARD
  9
$CMLJUST
 70
     0
  9
$CMLSCALE
 40
1.0
  9
$PROXYGRAPHICS
 70
     1
  9
$MEASUREMENT
 70
     0
  0
ENDSEC
  0
SECTION
  2
CLASSES
  0
CLASS
  1
ACDBDICTIONARYWDFLT
  2
AcDbDictionaryWithDefault
  3
AutoCAD 2000
 90
        0
280
     0
281
     0
  0
CLASS
  1
ACDBPLACEHOLDER
  2
AcDbPlaceHolder
  3
AutoCAD 2000
 90
        0
280
     0
281
     0
  0
CLASS
  1
LAYOUT
  2
AcDbLayout
  3
AutoCAD 2000
 90
        0
280
     0
281
     0
  0
CLASS
  1
DICTIONARYVAR
  2
AcDbDictionaryVar
  3
AutoCAD 2000
 90
        0
280
     0
281
     0
  0
CLASS
  1
LONG_TRANSACTION
  2
AcDbLongTransaction
  3
AutoCAD 2000
 90
        0
280
     0
281
     0
  0
CLASS
  1
LWPOLYLINE
  2
AcDbPolyline
  3
AutoCAD 2000
 90
        0
280
     0
281
     1
  0
CLASS
  1
HATCH
  2
AcDbHatch
  3
AutoCAD 2000
 90
        0
280
     0
281
     1
  0
CLASS
  1
XRECORD
  2
AcDbXrecord
  3
AutoCAD 2000
 90
        0
280
     0
281
     0
  0
CLASS
  1
LONG_TRANSACTION
  2
AcDbLongTransaction
  3
AutoCAD 2000
 90
        0
280
     0
281
     0
  0
CLASS
  1
LWPOLYLINE
  2
AcDbPolyline
  3
AutoCAD 2000
 90
        0
280
     0
281
     1
  0
CLASS
  1
HATCH
  2
AcDbHatch
  3
AutoCAD 2000
 90
        0
280
     0
281
     1
  0
CLASS
  1
XRECORD
  2
AcDbXrecord
  3
AutoCAD 2000
 90
        0
280
     0
281
     0
  0
CLASS
  1
LONG_TRANSACTION
  2
AcDbLongTransaction
  3
AutoCAD 2000
 90
        0
280
     0
281
     0
  0
CLASS
  1
LWPOLYLINE
  2
AcDbPolyline
  3
AutoCAD 2000
 90
        0
280
     0
281
     1
  0
CLASS
  1
HATCH
  2
AcDbHatch
  3
AutoCAD 2000
 90
        0
280
     0
281
     1
  0
CLASS
  1
XRECORD
  2
AcDbXrecord
  3
AutoCAD 2000
 90
        0
280
     0
281
     0
  0
CLASS
  1
LONG_TRANSACTION
  2
AcDbLongTransaction
  3
AutoCAD 2000
 90
        0
280
     0
281
     0
  0
CLASS
  1
LWPOLYLINE
  2
AcDbPolyline
  3
AutoCAD 2000
 90
        0
280
     0
281
     1
  0
CLASS
  1
HATCH
  2
AcDbHatch
  3
AutoCAD 2000
 90
        0
280
     0
281
     1
  0
CLASS
  1
XRECORD
  2
AcDbXrecord
  3
AutoCAD 2000
 90
        0
280
     0
281
     0
  0
CLASS
  1
LONG_TRANSACTION
  2
AcDbLongTransaction
  3
AutoCAD 2000
 90
        0
280
     0
281
     0
  0
CLASS
  1
LWPOLYLINE
  2
AcDbPolyline
  3
AutoCAD 2000
 90
        0
280
     0
281
     1
  0
CLASS
  1
HATCH
  2
AcDbHatch
  3
AutoCAD 2000
 90
        0
280
     0
281
     1
  0
CLASS
  1
XRECORD
  2
AcDbXrecord
  3
AutoCAD 2000
 90
        0
280
     0
281
     0
  0
CLASS
  1
LONG_TRANSACTION
  2
AcDbLongTransaction
  3
AutoCAD 2000
 90
        0
280
     0
281
     0
  0
CLASS
  1
LWPOLYLINE
  2
AcDbPolyline
  3
AutoCAD 2000
 90
        0
280
     0
281
     1
  0
CLASS
  1
HATCH
  2
AcDbHatch
  3
AutoCAD 2000
 90
        0
280
     0
281
     1
  0
CLASS
  1
XRECORD
  2
AcDbXrecord
  3
AutoCAD 2000
 90
        0
280
     0
281
     0
  0
CLASS
  1
LONG_TRANSACTION
  2
AcDbLongTransaction
  3
AutoCAD 2000
 90
        0
280
     0
281
     0
  0
CLASS
  1
LWPOLYLINE
  2
AcDbPolyline
  3
AutoCAD 2000
 90
        0
280
     0
281
     1
  0
CLASS
  1
HATCH
  2
AcDbHatch
  3
AutoCAD 2000
 90
        0
280
     0
281
     1
  0
CLASS
  1
XRECORD
  2
AcDbXrecord
  3
AutoCAD 2000
 90
        0
280
     0
281
     0
  0
CLASS
  1
LONG_TRANSACTION
  2
AcDbLongTransaction
  3
AutoCAD 2000
 90
        0
280
     0
281
     0
  0
CLASS
  1
LWPOLYLINE
  2
AcDbPolyline
  3
AutoCAD 2000
 90
        0
280
     0
281
     1
  0
CLASS
  1
HATCH
  2
AcDbHatch
  3
AutoCAD 2000
 90
        0
280
     0
281
     1
  0
CLASS
  1
XRECORD
  2
AcDbXrecord
  3
AutoCAD 2000
 90
        0
280
     0
281
     0
  0
ENDSEC
  0
SECTION
  2
TABLES
  0
TABLE
  2
VPORT
  5
8
330
0
100
AcDbSymbolTable
 70
     2
  0
VPORT
  5
627
330
8
100
AcDbSymbolTableRecord
100
AcDbViewportTableRecord
  2
*ACTIVE
 70
     0
 10
0.0
 20
0.0
 11
1.0
 21
1.0
 12
-88.22569776639737
 22
104.5479145564447
 13
0.0
 23
0.0
 14
0.5740882589684922
 24
0.5740882589684922
 15
0.5
 25
0.5
 16
0.0
 26
0.0
 36
1.0
 17
0.0
 27
0.0
 37
0.0
 40
20.91424422601026
 41
1.570528967254408
 42
50.0
 43
0.0
 44
0.0
 50
0.0
 51
0.0
 71
     0
 72
   100
 73
     1
 74
     0
 75
     0
 76
     0
 77
     0
 78
     0
  0
ENDTAB
  0
TABLE
  2
LTYPE
  5
5
330
0
100
AcDbSymbolTable
 70
     2
  0
LTYPE
  5
13
330
5
100
AcDbSymbolTableRecord
100
AcDbLinetypeTableRecord
  2
BYBLOCK
 70
     0
  3

 72
    65
 73
     0
 40
0.0
  0
LTYPE
  5
14
330
5
100
AcDbSymbolTableRecord
100
AcDbLinetypeTableRecord
  2
BYLAYER
 70
     0
  3

 72
    65
 73
     0
 40
0.0
  0
LTYPE
  5
15
330
5
100
AcDbSymbolTableRecord
100
AcDbLinetypeTableRecord
  2
CONTINUOUS
 70
     0
  3
Solid line
 72
    65
 73
     0
 40
0.0
  0
LTYPE
  5
352
330
5
100
AcDbSymbolTableRecord
100
AcDbLinetypeTableRecord
  2
CENTER2
 70
     0
  3
___ _ ___ _ ___ _ ___ _ ___ _ ___ _ ___ _ ___ _
 72
    65
 73
     4
 40
1.125
 49
0.75
 74
     0
 49
-0.125
 74
     0
 49
0.125
 74
     0
 49
-0.125
 74
     0
  0
ENDTAB
  0
TABLE
  2
LAYER
  5
2
330
0
100
AcDbSymbolTable
 70
     5
  0
LAYER
  5
10
330
2
100
AcDbSymbolTableRecord
100
AcDbLayerTableRecord
  2
0
 70
     0
 62
     7
  6
CONTINUOUS
  0
LAYER
  5
353
330
2
100
AcDbSymbolTableRecord
100
AcDbLayerTableRecord
  2
ADP1DETAIL
 70
     0
 62
     7
  6
CONTINUOUS
  0
LAYER
  5
354
330
2
100
AcDbSymbolTableRecord
100
AcDbLayerTableRecord
  2
DEFPOINTS
 70
     0
 62
     7
  6
CONTINUOUS
  0
LAYER
  5
358
330
2
100
AcDbSymbolTableRecord
100
AcDbLayerTableRecord
  2
ADP3DETAIL
 70
     0
 62
     1
  6
CONTINUOUS
  0
LAYER
  5
35D
330
2
100
AcDbSymbolTableRecord
100
AcDbLayerTableRecord
  2
ADPDIM
 70
     0
 62
     3
  6
CONTINUOUS
  0
ENDTAB
  0
TABLE
  2
STYLE
  5
3
330
0
100
AcDbSymbolTable
 70
     2
  0
STYLE
  5
11
330
3
100
AcDbSymbolTableRecord
100
AcDbTextStyleTableRecord
  2
STANDARD
 70
     0
 40
0.0
 41
1.0
 50
0.0
 71
     0
 42
0.2
  3
txt
  4

  0
STYLE
  5
3AF
330
3
100
AcDbSymbolTableRecord
100
AcDbTextStyleTableRecord
  2
ARIAL_WIDE
 70
     0
 40
0.0
 41
1.25
 50
0.0
 71
     0
 42
0.2
  3
ARIAL.TTF
  4

1001
ACAD
1000
Arial
1071
       34
  0
ENDTAB
  0
TABLE
  2
VIEW
  5
6
330
0
100
AcDbSymbolTable
 70
     0
  0
ENDTAB
  0
TABLE
  2
UCS
  5
7
330
0
100
AcDbSymbolTable
 70
     0
  0
ENDTAB
  0
TABLE
  2
APPID
  5
9
330
0
100
AcDbSymbolTable
 70
     1
  0
APPID
  5
12
330
9
100
AcDbSymbolTableRecord
100
AcDbRegAppTableRecord
  2
ACAD
 70
     0
  0
ENDTAB
  0
TABLE
  2
DIMSTYLE
  5
A
330
0
100
AcDbSymbolTable
 70
     1
  0
DIMSTYLE
105
3AD
330
A
100
AcDbSymbolTableRecord
100
AcDbDimStyleTableRecord
  2
STANDARD
 70
     0
  3

  4

  5

  6

  7

 40
1.0
 41
0.18
 42
0.0625
 43
0.38
 44
0.18
 45
0.0
 46
0.0
 47
0.0
 48
0.0
140
0.18
141
0.09
142
0.0
143
25.4
144
1.0
145
0.0
146
1.0
147
0.09
 71
     0
 72
     0
 73
     1
 74
     1
 75
     0
 76
     0
 77
     0
 78
     0
170
     0
171
     2
172
     0
173
     0
174
     0
175
     0
176
     0
177
     0
178
     0
270
     2
271
     4
272
     4
273
     2
274
     2
340
11
275
     0
280
     0
281
     0
282
     0
283
     1
284
     0
285
     0
286
     0
287
     3
288
     0
  0
ENDTAB
  0
TABLE
  2
BLOCK_RECORD
  5
1
330
0
100
AcDbSymbolTable
 70
     5
  0
BLOCK_RECORD
  5
1E
102
{ACAD_XDICTIONARY
360
3EC
102
}
330
1
100
AcDbSymbolTableRecord
100
AcDbBlockTableRecord
  2
*MODEL_SPACE
  0
BLOCK_RECORD
  5
1A
102
{ACAD_XDICTIONARY
360
3EE
102
}
330
1
100
AcDbSymbolTableRecord
100
AcDbBlockTableRecord
  2
*PAPER_SPACE
  0
BLOCK_RECORD
  5
338
330
1
100
AcDbSymbolTableRecord
100
AcDbBlockTableRecord
  2
*D0
  0
BLOCK_RECORD
  5
34D
330
1
100
AcDbSymbolTableRecord
100
AcDbBlockTableRecord
  2
*D1
  0
BLOCK_RECORD
  5
34E
330
1
100
AcDbSymbolTableRecord
100
AcDbBlockTableRecord
  2
*D2
  0
BLOCK_RECORD
  5
34F
330
1
100
AcDbSymbolTableRecord
100
AcDbBlockTableRecord
  2
*D3
  0
BLOCK_RECORD
  5
350
330
1
100
AcDbSymbolTableRecord
100
AcDbBlockTableRecord
  2
*D4
  0
ENDTAB
  0
ENDSEC
  0
SECTION
  2
BLOCKS
  0
BLOCK
  5
360
330
1E
100
AcDbEntity
  8
0
100
AcDbBlockBegin
  2
*MODEL_SPACE
 70
     0
 10
0.0
 20
0.0
 30
0.0
  3
*MODEL_SPACE
  1

  0
ENDBLK
  5
361
330
1E
100
AcDbEntity
  8
0
100
AcDbBlockEnd
  0
BLOCK
  5
35E
330
1A
100
AcDbEntity
 67
     1
  8
0
100
AcDbBlockBegin
  2
*PAPER_SPACE
 70
     0
 10
0.0
 20
0.0
 30
0.0
  3
*PAPER_SPACE
  1

  0
ENDBLK
  5
35F
330
1A
100
AcDbEntity
 67
     1
  8
0
100
AcDbBlockEnd
  0
BLOCK
  5
363
330
338
100
AcDbEntity
  8
0
100
AcDbBlockBegin
  2
*D0
 70
     1
 10
0.0
 20
0.0
 30
0.0
  3
*D0
  1

  0
LINE
  5
364
330
338
100
AcDbEntity
  8
0
  6
BYBLOCK
 62
     0
100
AcDbLine
 10
-85.55395886436251
 20
97.43114773717502
 30
0.0
 11
-85.55395886436251
 21
97.54864773717503
 31
0.0
  0
LINE
  5
365
330
338
100
AcDbEntity
  8
0
  6
BYBLOCK
 62
     0
100
AcDbLine
 10
-85.49145886436251
 20
97.43114773717502
 30
0.0
 11
-85.49145886436251
 21
97.54864773717503
 31
0.0
  0
LINE
  5
366
330
338
100
AcDbEntity
  8
0
  6
BYBLOCK
 62
     0
100
AcDbLine
 10
-85.55395886436251
 20
97.36864773717503
 30
0.0
 11
-85.80395886436251
 21
97.36864773717503
 31
0.0
  0
LINE
  5
367
330
338
100
AcDbEntity
  8
0
  6
BYBLOCK
 62
     0
100
AcDbLine
 10
-85.49145886436251
 20
97.36864773717503
 30
0.0
 11
-85.24145886436251
 21
97.36864773717503
 31
0.0
  0
LINE
  5
368
330
338
100
AcDbEntity
  8
0
  6
BYBLOCK
 62
     0
100
AcDbLine
 10
-85.67895886436252
 20
97.24364773717503
 30
0.0
 11
-85.42895886436252
 21
97.49364773717502
 31
0.0
  0
LINE
  5
369
330
338
100
AcDbEntity
  8
0
  6
BYBLOCK
 62
     0
100
AcDbLine
 10
-85.61645886436251
 20
97.24364773717503
 30
0.0
 11
-85.36645886436252
 21
97.49364773717502
 31
0.0
  0
TEXT
  5
36A
330
338
100
AcDbEntity
  8
0
  6
BYBLOCK
 62
     0
100
AcDbText
 10
-85.11645886436252
 20
97.30614773717503
 30
0.0
 40
0.125
  1
1/16
 72
     1
 11
-84.92895886436251
 21
97.36864773717503
 31
0.0
100
AcDbText
 73
     2
  0
POINT
  5
36C
330
338
100
AcDbEntity
  8
DEFPOINTS
  6
BYBLOCK
 62
     0
100
AcDbPoint
 10
-85.55395886436251
 20
97.36864773717503
 30
0.0
  0
POINT
  5
36D
330
338
100
AcDbEntity
  8
DEFPOINTS
  6
BYBLOCK
 62
     0
100
AcDbPoint
 10
-85.49145886436251
 20
97.36864773717503
 30
0.0
  0
POINT
  5
36E
330
338
100
AcDbEntity
  8
DEFPOINTS
  6
BYBLOCK
 62
     0
100
AcDbPoint
 10
-85.49145886436251
 20
97.36864773717503
 30
0.0
  0
ENDBLK
  5
36F
330
338
100
AcDbEntity
  8
0
100
AcDbBlockEnd
  0
BLOCK
  5
370
330
34D
100
AcDbEntity
  8
0
100
AcDbBlockBegin
  2
*D1
 70
     1
 10
0.0
 20
0.0
 30
0.0
  3
*D1
  1

  0
LINE
  5
371
330
34D
100
AcDbEntity
  8
0
  6
BYBLOCK
 62
     0
100
AcDbLine
 10
-93.45575496601155
 20
108.3066363928932
 30
0.0
 11
-94.19291669763355
 21
109.6365113600979
 31
0.0
  0
LINE
  5
372
330
34D
100
AcDbEntity
  8
0
  6
BYBLOCK
 62
     0
100
AcDbLine
 10
-86.45879730889639
 20
112.1851133548639
 30
0.0
 11
-87.19595904051839
 21
113.5149883220686
 31
0.0
  0
LINE
  5
373
330
34D
100
AcDbEntity
  8
0
  6
BYBLOCK
 62
     0
100
AcDbLine
 10
-94.1056509659892
 20
109.4790798128128
 30
0.0
 11
-90.75294208862151
 21
111.3375166904238
 31
0.0
  0
LINE
  5
374
330
34D
100
AcDbEntity
  8
0
  6
BYBLOCK
 62
     0
100
AcDbLine
 10
-87.10869330887405
 20
113.3575567747835
 30
0.0
 11
-90.46140218624172
 21
111.4991198971725
 31
0.0
  0
LINE
  5
375
330
34D
100
AcDbEntity
  8
0
  6
BYBLOCK
 62
     0
100
AcDbLine
 10
-94.15437722685084
 20
109.3091511468896
 30
0.0
 11
-94.05692470512757
 21
109.649008478736
 31
0.0
  0
LINE
  5
376
330
34D
100
AcDbEntity
  8
0
  6
BYBLOCK
 62
     0
100
AcDbLine
 10
-87.15741956973568
 20
113.1876281088603
 30
0.0
 11
-87.05996704801242
 21
113.5274854407067
 31
0.0
  0
TEXT
  5
377
330
34D
100
AcDbEntity
  8
0
  6
BYBLOCK
 62
     0
100
AcDbText
 10
-90.61331402396371
 20
111.3434541612583
 30
0.0
 40
0.125
  1
8
 50
28.99999999999998
 72
     1
 11
-90.60717213743163
 21
111.4183182937982
 31
0.0
100
AcDbText
 73
     2
  0
POINT
  5
378
330
34D
100
AcDbEntity
  8
DEFPOINTS
  6
BYBLOCK
 62
     0
100
AcDbPoint
 10
-93.42545436474615
 20
108.251972661197
 30
0.0
  0
POINT
  5
379
330
34D
100
AcDbEntity
  8
DEFPOINTS
  6
BYBLOCK
 62
     0
100
AcDbPoint
 10
-86.428496707631
 20
112.1304496231677
 30
0.0
  0
POINT
  5
37A
330
34D
100
AcDbEntity
  8
DEFPOINTS
  6
BYBLOCK
 62
     0
100
AcDbPoint
 10
-87.10869330887405
 20
113.3575567747835
 30
0.0
  0
ENDBLK
  5
37B
330
34D
100
AcDbEntity
  8
0
100
AcDbBlockEnd
  0
BLOCK
  5
37C
330
34E
100
AcDbEntity
  8
0
100
AcDbBlockBegin
  2
*D2
 70
     1
 10
0.0
 20
0.0
 30
0.0
  3
*D2
  1

  0
LINE
  5
37D
330
34E
100
AcDbEntity
  8
0
  6
BYBLOCK
 62
     0
100
AcDbLine
 10
-85.41254178465896
 20
104.1292781806614
 30
0.0
 11
-84.7864237827634
 21
104.1292781806614
 31
0.0
  0
LINE
  5
37E
330
34E
100
AcDbEntity
  8
0
  6
BYBLOCK
 62
     0
100
AcDbLine
 10
-86.36222607771786
 20
112.1292781806614
 30
0.0
 11
-84.7864237827634
 21
112.1292781806614
 31
0.0
  0
LINE
  5
37F
330
34E
100
AcDbEntity
  8
0
  6
BYBLOCK
 62
     0
100
AcDbLine
 10
-84.96642378276341
 20
104.1292781806614
 30
0.0
 11
-84.96642378276341
 21
107.9626115139947
 31
0.0
  0
LINE
  5
380
330
34E
100
AcDbEntity
  8
0
  6
BYBLOCK
 62
     0
100
AcDbLine
 10
-84.96642378276341
 20
112.1292781806614
 30
0.0
 11
-84.96642378276341
 21
108.2959448473281
 31
0.0
  0
LINE
  5
381
330
34E
100
AcDbEntity
  8
0
  6
BYBLOCK
 62
     0
100
AcDbLine
 10
-84.84142378276342
 20
104.0042781806614
 30
0.0
 11
-85.09142378276342
 21
104.2542781806614
 31
0.0
  0
LINE
  5
382
330
34E
100
AcDbEntity
  8
0
  6
BYBLOCK
 62
     0
100
AcDbLine
 10
-84.84142378276342
 20
112.0042781806614
 30
0.0
 11
-85.09142378276342
 21
112.2542781806614
 31
0.0
  0
TEXT
  5
383
330
34E
100
AcDbEntity
  8
0
  6
BYBLOCK
 62
     0
100
AcDbText
 10
-84.90392378276341
 20
108.0876115139947
 30
0.0
 40
0.125
  1
8
 50
90.0
 72
     1
 11
-84.96642378276341
 21
108.1292781806614
 31
0.0
100
AcDbText
 73
     2
  0
POINT
  5
384
330
34E
100
AcDbEntity
  8
DEFPOINTS
  6
BYBLOCK
 62
     0
100
AcDbPoint
 10
-85.47504178465898
 20
104.1292781806614
 30
0.0
  0
POINT
  5
385
330
34E
100
AcDbEntity
  8
DEFPOINTS
  6
BYBLOCK
 62
     0
100
AcDbPoint
 10
-86.42472607771786
 20
112.1292781806614
 30
0.0
  0
POINT
  5
386
330
34E
100
AcDbEntity
  8
DEFPOINTS
  6
BYBLOCK
 62
     0
100
AcDbPoint
 10
-84.96642378276341
 20
112.1292781806614
 30
0.0
  0
ENDBLK
  5
387
330
34E
100
AcDbEntity
  8
0
100
AcDbBlockEnd
  0
BLOCK
  5
388
330
34F
100
AcDbEntity
  8
0
100
AcDbBlockBegin
  2
*D3
 70
     1
 10
0.0
 20
0.0
 30
0.0
  3
*D3
  1

  0
LINE
  5
389
330
34F
100
AcDbEntity
  8
0
  6
BYBLOCK
 62
     0
100
AcDbLine
 10
-87.3750409990663
 20
104.0685059687158
 30
0.0
 11
-87.3750409990663
 21
103.12513183784
 31
0.0
  0
LINE
  5
38A
330
34F
100
AcDbEntity
  8
0
  6
BYBLOCK
 62
     0
100
AcDbLine
 10
-85.47504178465898
 20
104.0667781806614
 30
0.0
 11
-85.47504178465898
 21
103.12513183784
 31
0.0
  0
LINE
  5
38B
330
34F
100
AcDbEntity
  8
0
  6
BYBLOCK
 62
     0
100
AcDbLine
 10
-87.3750409990663
 20
103.30513183784
 30
0.0
 11
-86.75837472519596
 21
103.30513183784
 31
0.0
  0
LINE
  5
38C
330
34F
100
AcDbEntity
  8
0
  6
BYBLOCK
 62
     0
100
AcDbLine
 10
-85.47504178465898
 20
103.30513183784
 30
0.0
 11
-86.09170805852931
 21
103.30513183784
 31
0.0
  0
LINE
  5
38D
330
34F
100
AcDbEntity
  8
0
  6
BYBLOCK
 62
     0
100
AcDbLine
 10
-87.50004099906631
 20
103.18013183784
 30
0.0
 11
-87.2500409990663
 21
103.43013183784
 31
0.0
  0
LINE
  5
38E
330
34F
100
AcDbEntity
  8
0
  6
BYBLOCK
 62
     0
100
AcDbLine
 10
-85.60004178465897
 20
103.18013183784
 30
0.0
 11
-85.35004178465896
 21
103.43013183784
 31
0.0
  0
TEXT
  5
38F
330
34F
100
AcDbEntity
  8
0
  6
BYBLOCK
 62
     0
100
AcDbText
 10
-86.63337472519597
 20
103.24263183784
 30
0.0
 40
0.125
  1
1.900
 72
     1
 11
-86.42504139186263
 21
103.30513183784
 31
0.0
100
AcDbText
 73
     2
  0
POINT
  5
390
330
34F
100
AcDbEntity
  8
DEFPOINTS
  6
BYBLOCK
 62
     0
100
AcDbPoint
 10
-87.3750409990663
 20
104.1310059687158
 30
0.0
  0
POINT
  5
391
330
34F
100
AcDbEntity
  8
DEFPOINTS
  6
BYBLOCK
 62
     0
100
AcDbPoint
 10
-85.47504178465898
 20
104.1292781806614
 30
0.0
  0
POINT
  5
392
330
34F
100
AcDbEntity
  8
DEFPOINTS
  6
BYBLOCK
 62
     0
100
AcDbPoint
 10
-85.47504178465898
 20
103.30513183784
 30
0.0
  0
ENDBLK
  5
393
330
34F
100
AcDbEntity
  8
0
100
AcDbBlockEnd
  0
BLOCK
  5
394
330
350
100
AcDbEntity
  8
0
100
AcDbBlockBegin
  2
*D4
 70
     1
 10
0.0
 20
0.0
 30
0.0
  3
*D4
  1

  0
LINE
  5
395
330
350
100
AcDbEntity
  8
0
  6
BYBLOCK
 62
     0
100
AcDbLine
 10
-87.44883027488709
 20
109.2945923874818
 30
0.0
 11
-89.41277879467589
 21
107.0529606555662
 31
0.0
  0
LINE
  5
396
330
350
100
AcDbEntity
  8
0
  6
BYBLOCK
 62
     0
100
AcDbLine
 10
-87.43718354263824
 20
109.1181997753124
 30
0.0
 11
-87.46047700713594
 21
109.4709849996511
 31
0.0
  0
TEXT
  5
397
330
350
100
AcDbEntity
  8
0
  6
BYBLOCK
 62
     0
100
AcDbText
 10
-89.58543013179868
 20
106.7610550596952
 30
0.0
 40
0.125
  1
R3
 50
48.77760377239458
 72
     1
 11
-89.56379585126969
 21
106.8805912565162
 31
0.0
100
AcDbText
 73
     2
  0
POINT
  5
398
330
350
100
AcDbEntity
  8
DEFPOINTS
  6
BYBLOCK
 62
     0
100
AcDbPoint
 10
-87.44883027488709
 20
109.2945923874818
 30
0.0
  0
POINT
  5
399
330
350
100
AcDbEntity
  8
DEFPOINTS
  6
BYBLOCK
 62
     0
100
AcDbPoint
 10
-89.42578083393312
 20
107.0381202544636
 30
0.0
  0
ENDBLK
  5
39A
330
350
100
AcDbEntity
  8
0
100
AcDbBlockEnd
  0
ENDSEC
  0
SECTION
  2
ENTITIES
  0
DIMENSION
  5
39B
330
1E
100
AcDbEntity
  8
ADPDIM
100
AcDbDimension
  2
*D1
 10
-87.10869330887405
 20
113.3575567747835
 30
0.0
 11
-90.60717213743163
 21
111.4183182937982
 31
0.0
 70
     1
100
AcDbAlignedDimension
 13
-93.42545436474615
 23
108.251972661197
 33
0.0
 14
-86.428496707631
 24
112.1304496231677
 34
0.0
  0
LINE
  5
39C
330
1E
100
AcDbEntity
  8
ADP3DETAIL
  6
CENTER2
100
AcDbLine
 10
-90.87965339099035
 20
109.662287662964
 30
0.0
 11
-93.93083274496211
 21
107.9718368498681
 31
0.0
  0
LINE
  5
39D
330
1E
100
AcDbEntity
  8
ADP1DETAIL
100
AcDbLine
 10
-91.33989800989187
 20
110.4933369335613
 30
0.0
 11
-93.88526773480768
 21
109.0832798635673
 31
0.0
  0
LINE
  5
39E
330
1E
100
AcDbEntity
  8
ADP1DETAIL
100
AcDbLine
 10
-93.88526773480768
 20
109.0832798635673
 30
0.0
 11
-92.96564099468467
 21
107.4206654588268
 31
0.0
  0
DIMENSION
  5
39F
330
1E
100
AcDbEntity
  8
ADPDIM
100
AcDbDimension
  2
*D2
 10
-84.96642378276341
 20
112.1292781806614
 30
0.0
 11
-84.96642378276341
 21
108.1292781806614
 31
0.0
100
AcDbAlignedDimension
 13
-85.47504178465898
 23
104.1292781806614
 33
0.0
 14
-86.42472607771786
 24
112.1292781806614
 34
0.0
 50
90.0
100
AcDbRotatedDimension
  0
LINE
  5
3A0
330
1E
100
AcDbEntity
  8
ADP3DETAIL
  6
CENTER2
100
AcDbLine
 10
-86.42578090135222
 20
107.03875626917
 30
0.0
 11
-86.42504139253317
 21
103.5505878594274
 31
0.0
  0
LINE
  5
3A1
330
1E
100
AcDbEntity
  8
ADP1DETAIL
100
AcDbLine
 10
-85.47579781277395
 20
107.0391179366582
 30
0.0
 11
-85.47504178465898
 21
104.1292781806614
 31
0.0
  0
LINE
  5
3A2
330
1E
100
AcDbEntity
  8
ADP1DETAIL
100
AcDbLine
 10
-87.3757964503171
 20
107.0386254603249
 30
0.0
 11
-87.3750409990663
 21
104.1310059687158
 31
0.0
  0
DIMENSION
  5
3A3
330
1E
100
AcDbEntity
  8
ADPDIM
100
AcDbDimension
  2
*D3
 10
-85.47504178465898
 20
103.30513183784
 30
0.0
 11
-86.42504139186263
 21
103.30513183784
 31
0.0
  1
1.900
100
AcDbAlignedDimension
 13
-87.3750409990663
 23
104.1310059687158
 33
0.0
 14
-85.47504178465898
 24
104.1292781806614
 34
0.0
100
AcDbRotatedDimension
  0
LINE
  5
3A4
330
1E
100
AcDbEntity
  8
ADP1DETAIL
100
AcDbLine
 10
-85.47504178465898
 20
104.1292781806614
 30
0.0
 11
-87.3750409990663
 21
104.127550392607
 31
0.0
  0
ARC
  5
3A5
330
1E
100
AcDbEntity
  8
ADP1DETAIL
100
AcDbCircle
 10
-89.42579767945103
 20
107.0380916564491
 30
0.0
 40
3.95
100
AcDbArc
 50
0.0148864620868423
 51
118.9851135379131
  0
DIMENSION
  5
3A6
330
1E
100
AcDbEntity
  8
ADPDIM
100
AcDbDimension
  2
*D4
 10
-89.42578083393312
 20
107.0381202544636
 30
0.0
 11
-89.56379585126969
 21
106.8805912565162
 31
0.0
 70
     4
100
AcDbRadialDimension
 15
-87.44883027488709
 25
109.2945923874818
 35
0.0
 40
-2.980269553230275
  0
LINE
  5
3A7
330
1E
100
AcDbEntity
  8
ADP1DETAIL
100
AcDbLine
 10
-90.41919022350487
 20
108.8313213954265
 30
0.0
 11
-92.96564099468467
 21
107.4206654588268
 31
0.0
  0
ARC
  5
3A8
330
1E
100
AcDbEntity
  8
ADP1DETAIL
100
AcDbCircle
 10
-89.42579638112418
 20
107.0380928338872
 30
0.0
 40
2.049999999999999
100
AcDbArc
 50
0.0148864620868169
 51
118.9851135379131
  0
ARC
  5
3A9
330
1E
100
AcDbEntity
  8
ADP3DETAIL
  6
CENTER2
100
AcDbCircle
 10
-89.42578083393311
 20
107.0381202544636
 30
0.0
 40
3.0
100
AcDbArc
 50
0.0121469862209876
 51
118.9878530137789
  0
DIMENSION
  5
3AA
330
1E
100
AcDbEntity
  8
ADPDIM
100
AcDbDimension
  2
*D0
 10
-85.49145886436251
 20
97.36864773717503
 30
0.0
 11
-84.92895886436251
 21
97.36864773717503
 31
0.0
100
AcDbAlignedDimension
 13
-85.55395886436251
 23
97.36864773717503
 33
0.0
 14
-85.49145886436251
 24
97.36864773717503
 34
0.0
100
AcDbRotatedDimension
  0
CIRCLE
  5
3AB
330
1E
100
AcDbEntity
  8
ADP1DETAIL
100
AcDbCircle
 10
-86.42504139186263
 20
97.38905228587563
 30
0.0
 40
0.95
  0
CIRCLE
  5
3AC
330
1E
100
AcDbEntity
  8
ADP1DETAIL
100
AcDbCircle
 10
-86.42504139186263
 20
97.38905228587563
 30
0.0
 40
0.8875
  0
TEXT
  5
462
330
1E
100
AcDbEntity
  8
ADPDIM
100
AcDbText
 10
-104.5690049441601
 20
95.65809032634993
 30
0.0
 40
0.3125
  1
J U L I U S  B L U M  &  C O . ,  I N C .      ( 8 0 0 )  5 2 6 - 6 2 9 3        W W W . J U L I U S B L U M . C O M        P A R T  N o .  9 3 7 9
 41
1.25
  7
ARIAL_WIDE
 72
     1
 11
-88.25468238276863
 21
95.97059032634993
 31
0.0
100
AcDbText
 73
     3
  0
ENDSEC
  0
SECTION
  2
OBJECTS
  0
DICTIONARY
  5
C
330
0
100
AcDbDictionary
  3
ACAD_GROUP
350
D
  3
ACAD_LAYOUT
350
19
  3
ACAD_MLINESTYLE
350
16
  3
ACAD_PLOTSETTINGS
350
18
  3
ACAD_PLOTSTYLENAME
350
E
  3
ACDBHEADERROUNDTRIPXREC
350
628
  3
ACDBVARIABLEDICTIONARY
350
421
  0
DICTIONARY
  5
3EC
330
1E
100
AcDbDictionary
280
     1
  3
ACAD_LAYOUTSELFREF
360
64A
  0
DICTIONARY
  5
3EE
330
1A
100
AcDbDictionary
280
     1
  3
ACAD_LAYOUTSELFREF
360
649
  0
DICTIONARY
  5
D
102
{ACAD_REACTORS
330
C
102
}
330
C
100
AcDbDictionary
  0
DICTIONARY
  5
19
102
{ACAD_REACTORS
330
C
102
}
330
C
100
AcDbDictionary
  0
DICTIONARY
  5
16
102
{ACAD_REACTORS
330
C
102
}
330
C
100
AcDbDictionary
  3
STANDARD
350
17
  0
DICTIONARY
  5
18
102
{ACAD_REACTORS
330
C
102
}
330
C
100
AcDbDictionary
  0
ACDBDICTIONARYWDFLT
  5
E
102
{ACAD_REACTORS
330
C
102
}
330
C
100
AcDbDictionary
281
     1
  3
Normal
350
F
100
AcDbDictionaryWithDefault
340
F
  0
DICTIONARY
  5
628
102
{ACAD_REACTORS
330
C
102
}
330
C
100
AcDbDictionary
  3
CEPSNTYPE
350
632
  3
DIMSTYLEDATA
350
636
  3
FINGERPRINTGUID
350
633
  3
HYPERLINKBASE
350
62B
  3
INSUNITS
350
631
  3
LAYOUTDICT
350
62D
  3
LWETCUNION
350
630
  3
PLOTSETDICT
350
62E
  3
PLOTSTYLNAMDICT
350
62F
  3
PSVPSCALE
350
635
  3
PUCSBASE
350
639
  3
PUCSORGBACK
350
63F
  3
PUCSORGBOTTOM
350
63B
  3
PUCSORGFRONT
350
63E
  3
PUCSORGLEFT
350
63C
  3
PUCSORGRIGHT
350
63D
  3
PUCSORGTOP
350
63A
  3
PUCSORTHOREF
350
637
  3
PUCSORTHOVIEW
350
638
  3
STYLESHEET
350
62C
  3
TSTACKALIGN
350
629
  3
TSTACKSIZE
350
62A
  3
UCSBASE
350
642
  3
UCSORGBACK
350
648
  3
UCSORGBOTTOM
350
644
  3
UCSORGFRONT
350
647
  3
UCSORGLEFT
350
645
  3
UCSORGRIGHT
350
646
  3
UCSORGTOP
350
643
  3
UCSORTHOREF
350
640
  3
UCSORTHOVIEW
350
641
  3
VERSIONGUID
350
634
  0
DICTIONARY
  5
421
102
{ACAD_REACTORS
330
C
102
}
330
C
100
AcDbDictionary
  3
DIMASSOC
350
423
  3
HIDETEXT
350
422
  0
XRECORD
  5
64A
102
{ACAD_REACTORS
330
3EC
102
}
330
3EC
100
AcDbXrecord
340
1E
  0
XRECORD
  5
649
102
{ACAD_REACTORS
330
3EE
102
}
330
3EE
100
AcDbXrecord
340
1A
  0
MLINESTYLE
  5
17
102
{ACAD_REACTORS
330
16
102
}
330
16
100
AcDbMlineStyle
  2
STANDARD
 70
     0
  3

 62
   256
 51
90.0
 52
90.0
 71
     2
 49
0.5
 62
   256
  6
BYLAYER
 49
-0.5
 62
   256
  6
BYLAYER
  0
ACDBPLACEHOLDER
  5
F
102
{ACAD_REACTORS
330
E
102
}
330
E
100
AcDbPlaceHolder
280
     0
  0
XRECORD
  5
632
102
{ACAD_REACTORS
330
628
102
}
330
628
100
AcDbXrecord
 90
        0
  0
XRECORD
  5
636
102
{ACAD_REACTORS
330
628
102
}
330
628
100
AcDbXrecord
1000
DSTYLE
1002
{
1070
   277
 70
     5
1070
   279
 70
     2
1002
}
  0
XRECORD
  5
633
102
{ACAD_REACTORS
330
628
102
}
330
628
100
AcDbXrecord
  1
{FEF45D32-8ABB-40E1-A1BA-5F98BDFC6797}
  0
XRECORD
  5
62B
102
{ACAD_REACTORS
330
628
102
}
330
628
100
AcDbXrecord
  1

  0
XRECORD
  5
631
102
{ACAD_REACTORS
330
628
102
}
330
628
100
AcDbXrecord
 90
        0
  0
XRECORD
  5
62D
102
{ACAD_REACTORS
330
628
102
}
330
628
100
AcDbXrecord
340
19
  0
XRECORD
  5
630
102
{ACAD_REACTORS
330
628
102
}
330
628
100
AcDbXrecord
 90
    14877
  0
XRECORD
  5
62E
102
{ACAD_REACTORS
330
628
102
}
330
628
100
AcDbXrecord
340
18
  0
XRECORD
  5
62F
102
{ACAD_REACTORS
330
628
102
}
330
628
100
AcDbXrecord
340
E
  0
XRECORD
  5
635
102
{ACAD_REACTORS
330
628
102
}
330
628
100
AcDbXrecord
 40
0.0
  0
XRECORD
  5
639
102
{ACAD_REACTORS
330
628
102
}
330
628
100
AcDbXrecord
340
0
  0
XRECORD
  5
63F
102
{ACAD_REACTORS
330
628
102
}
330
628
100
AcDbXrecord
 10
0.0
 20
0.0
 30
0.0
  0
XRECORD
  5
63B
102
{ACAD_REACTORS
330
628
102
}
330
628
100
AcDbXrecord
 10
0.0
 20
0.0
 30
0.0
  0
XRECORD
  5
63E
102
{ACAD_REACTORS
330
628
102
}
330
628
100
AcDbXrecord
 10
0.0
 20
0.0
 30
0.0
  0
XRECORD
  5
63C
102
{ACAD_REACTORS
330
628
102
}
330
628
100
AcDbXrecord
 10
0.0
 20
0.0
 30
0.0
  0
XRECORD
  5
63D
102
{ACAD_REACTORS
330
628
102
}
330
628
100
AcDbXrecord
 10
0.0
 20
0.0
 30
0.0
  0
XRECORD
  5
63A
102
{ACAD_REACTORS
330
628
102
}
330
628
100
AcDbXrecord
 10
0.0
 20
0.0
 30
0.0
  0
XRECORD
  5
637
102
{ACAD_REACTORS
330
628
102
}
330
628
100
AcDbXrecord
340
0
  0
XRECORD
  5
638
102
{ACAD_REACTORS
330
628
102
}
330
628
100
AcDbXrecord
 70
     0
  0
XRECORD
  5
62C
102
{ACAD_REACTORS
330
628
102
}
330
628
100
AcDbXrecord
  1

  0
XRECORD
  5
629
102
{ACAD_REACTORS
330
628
102
}
330
628
100
AcDbXrecord
 90
        1
  0
XRECORD
  5
62A
102
{ACAD_REACTORS
330
628
102
}
330
628
100
AcDbXrecord
 90
       70
  0
XRECORD
  5
642
102
{ACAD_REACTORS
330
628
102
}
330
628
100
AcDbXrecord
340
0
  0
XRECORD
  5
648
102
{ACAD_REACTORS
330
628
102
}
330
628
100
AcDbXrecord
 10
0.0
 20
0.0
 30
0.0
  0
XRECORD
  5
644
102
{ACAD_REACTORS
330
628
102
}
330
628
100
AcDbXrecord
 10
0.0
 20
0.0
 30
0.0
  0
XRECORD
  5
647
102
{ACAD_REACTORS
330
628
102
}
330
628
100
AcDbXrecord
 10
0.0
 20
0.0
 30
0.0
  0
XRECORD
  5
645
102
{ACAD_REACTORS
330
628
102
}
330
628
100
AcDbXrecord
 10
0.0
 20
0.0
 30
0.0
  0
XRECORD
  5
646
102
{ACAD_REACTORS
330
628
102
}
330
628
100
AcDbXrecord
 10
0.0
 20
0.0
 30
0.0
  0
XRECORD
  5
643
102
{ACAD_REACTORS
330
628
102
}
330
628
100
AcDbXrecord
 10
0.0
 20
0.0
 30
0.0
  0
XRECORD
  5
640
102
{ACAD_REACTORS
330
628
102
}
330
628
100
AcDbXrecord
340
0
  0
XRECORD
  5
641
102
{ACAD_REACTORS
330
628
102
}
330
628
100
AcDbXrecord
 70
     0
  0
XRECORD
  5
634
102
{ACAD_REACTORS
330
628
102
}
330
628
100
AcDbXrecord
  1
{A7A2B65C-837C-483D-A2B4-0712E0AB0C30}
  0
DICTIONARYVAR
  5
423
102
{ACAD_REACTORS
330
421
102
}
330
421
100
DictionaryVariables
280
     0
  1
2
  0
DICTIONARYVAR
  5
422
102
{ACAD_REACTORS
330
421
102
}
330
421
100
DictionaryVariables
280
     0
  1
1
  0
ENDSEC
  0
EOF
