  0
SECTION
  2
HEADER
  9
$ACADVER
  1
AC1014
  9
$ACADMAINTVER
 70
     9
  9
$DWGCODEPAGE
  3
ANSI_1252
  9
$INSBASE
 10
7.627261729495754
 20
3.352423155473692
 30
0.0
  9
$EXTMIN
 10
-3.402167348007262
 20
0.1561221697591252
 30
0.0
  9
$EXTMAX
 10
16.17501972566258
 20
5.987594327630154
 30
0.0
  9
$LIMMIN
 10
0.0
 20
0.0
  9
$LIMMAX
 10
36.0
 20
36.0
  9
$ORTHOMODE
 70
     1
  9
$REGENMODE
 70
     1
  9
$FILLMODE
 70
     1
  9
$QTEXTMODE
 70
     0
  9
$MIRRTEXT
 70
     1
  9
$DRAGMODE
 70
     0
  9
$LTSCALE
 40
1.0
  9
$OSMODE
 70
    37
  9
$ATTMODE
 70
     1
  9
$TEXTSIZE
 40
0.2
  9
$TRACEWID
 40
0.05
  9
$TEXTSTYLE
  7
STANDARD
  9
$CLAYER
  8
0
  9
$CELTYPE
  6
BYLAYER
  9
$CECOLOR
 62
   256
  9
$CELTSCALE
 40
1.0
  9
$DELOBJ
 70
     1
  9
$DISPSILH
 70
     0
  9
$DIMSCALE
 40
1.0
  9
$DIMASZ
 40
0.125
  9
$DIMEXO
 40
0.0625
  9
$DIMDLI
 40
0.38
  9
$DIMRND
 40
0.0
  9
$DIMDLE
 40
0.0
  9
$DIMEXE
 40
0.18
  9
$DIMTP
 40
0.0
  9
$DIMTM
 40
0.0
  9
$DIMTXT
 40
0.125
  9
$DIMCEN
 40
0.1875
  9
$DIMTSZ
 40
0.125
  9
$DIMTOL
 70
     0
  9
$DIMLIM
 70
     0
  9
$DIMTIH
 70
     0
  9
$DIMTOH
 70
     0
  9
$DIMSE1
 70
     0
  9
$DIMSE2
 70
     0
  9
$DIMTAD
 70
     0
  9
$DIMZIN
 70
     3
  9
$DIMBLK
  1

  9
$DIMASO
 70
     1
  9
$DIMSHO
 70
     1
  9
$DIMPOST
  1

  9
$DIMAPOST
  1

  9
$DIMALT
 70
     0
  9
$DIMALTD
 70
     1
  9
$DIMALTF
 40
25.4
  9
$DIMLFAC
 40
1.0
  9
$DIMTOFL
 70
     0
  9
$DIMTVP
 40
0.0
  9
$DIMTIX
 70
     0
  9
$DIMSOXD
 70
     0
  9
$DIMSAH
 70
     0
  9
$DIMBLK1
  1

  9
$DIMBLK2
  1

  9
$DIMSTYLE
  2
STANDARD
  9
$DIMCLRD
 70
     0
  9
$DIMCLRE
 70
     0
  9
$DIMCLRT
 70
     0
  9
$DIMTFAC
 40
1.0
  9
$DIMGAP
 40
0.125
  9
$DIMJUST
 70
     0
  9
$DIMSD1
 70
     0
  9
$DIMSD2
 70
     0
  9
$DIMTOLJ
 70
     1
  9
$DIMTZIN
 70
     3
  9
$DIMALTZ
 70
     3
  9
$DIMALTTZ
 70
     3
  9
$DIMFIT
 70
     5
  9
$DIMUPT
 70
     0
  9
$DIMUNIT
 70
     5
  9
$DIMDEC
 70
     4
  9
$DIMTDEC
 70
     4
  9
$DIMALTU
 70
     5
  9
$DIMALTTD
 70
     1
  9
$DIMTXSTY
  7
STANDARD
  9
$DIMAUNIT
 70
     0
  9
$LUNITS
 70
     5
  9
$LUPREC
 70
     4
  9
$SKETCHINC
 40
0.1
  9
$FILLETRAD
 40
0.062
  9
$AUNITS
 70
     0
  9
$AUPREC
 70
     0
  9
$MENU
  1
acad
  9
$ELEVATION
 40
0.0
  9
$PELEVATION
 40
0.0
  9
$THICKNESS
 40
0.0
  9
$LIMCHECK
 70
     0
  9
$BLIPMODE
 70
     0
  9
$CHAMFERA
 40
0.0
  9
$CHAMFERB
 40
0.0
  9
$CHAMFERC
 40
0.0
  9
$CHAMFERD
 40
0.0
  9
$SKPOLY
 70
     0
  9
$TDCREATE
 40
2450387.531025845
  9
$TDUPDATE
 40
2452297.104963460
  9
$TDINDWG
 40
0.0140912500
  9
$TDUSRTIMER
 40
0.0140912500
  9
$USRTIMER
 70
     1
  9
$ANGBASE
 50
0.0
  9
$ANGDIR
 70
     0
  9
$PDMODE
 70
     0
  9
$PDSIZE
 40
0.0
  9
$PLINEWID
 40
0.0
  9
$COORDS
 70
     2
  9
$SPLFRAME
 70
     0
  9
$SPLINETYPE
 70
     6
  9
$SPLINESEGS
 70
     8
  9
$ATTDIA
 70
     0
  9
$ATTREQ
 70
     1
  9
$HANDLING
 70
 22529
  9
$HANDSEED
  5
5C6
  9
$SURFTAB1
 70
     6
  9
$SURFTAB2
 70
     6
  9
$SURFTYPE
 70
     6
  9
$SURFU
 70
     6
  9
$SURFV
 70
     6
  9
$UCSNAME
  2

  9
$UCSORG
 10
0.0
 20
0.0
 30
0.0
  9
$UCSXDIR
 10
1.0
 20
0.0
 30
0.0
  9
$UCSYDIR
 10
0.0
 20
1.0
 30
0.0
  9
$PUCSNAME
  2

  9
$PUCSORG
 10
0.0
 20
0.0
 30
0.0
  9
$PUCSXDIR
 10
1.0
 20
0.0
 30
0.0
  9
$PUCSYDIR
 10
0.0
 20
1.0
 30
0.0
  9
$USERI1
 70
     0
  9
$USERI2
 70
     0
  9
$USERI3
 70
     0
  9
$USERI4
 70
     0
  9
$USERI5
 70
     0
  9
$USERR1
 40
0.0
  9
$USERR2
 40
0.0
  9
$USERR3
 40
0.0
  9
$USERR4
 40
0.0
  9
$USERR5
 40
0.0
  9
$WORLDVIEW
 70
     1
  9
$SHADEDGE
 70
     3
  9
$SHADEDIF
 70
    70
  9
$TILEMODE
 70
     1
  9
$MAXACTVP
 70
    15
  9
$PINSBASE
 10
0.0
 20
0.0
 30
0.0
  9
$PLIMCHECK
 70
     0
  9
$PEXTMIN
 10
1.000000000000000E+20
 20
1.000000000000000E+20
 30
1.000000000000000E+20
  9
$PEXTMAX
 10
-1.000000000000000E+20
 20
-1.000000000000000E+20
 30
-1.000000000000000E+20
  9
$PLIMMIN
 10
0.0
 20
0.0
  9
$PLIMMAX
 10
12.0
 20
9.0
  9
$UNITMODE
 70
     0
  9
$VISRETAIN
 70
     0
  9
$PLINEGEN
 70
     0
  9
$PSLTSCALE
 70
     1
  9
$TREEDEPTH
 70
  3020
  9
$PICKSTYLE
 70
     1
  9
$CMLSTYLE
  2
STANDARD
  9
$CMLJUST
 70
     0
  9
$CMLSCALE
 40
1.0
  9
$PROXYGRAPHICS
 70
     1
  9
$MEASUREMENT
 70
     0
  0
ENDSEC
  0
SECTION
  2
CLASSES
  0
CLASS
  1
ACDBDICTIONARYWDFLT
  2
AcDbDictionaryWithDefault
  3
AutoCAD 2000
 90
        0
280
     0
281
     0
  0
CLASS
  1
ACDBPLACEHOLDER
  2
AcDbPlaceHolder
  3
AutoCAD 2000
 90
        0
280
     0
281
     0
  0
CLASS
  1
LAYOUT
  2
AcDbLayout
  3
AutoCAD 2000
 90
        0
280
     0
281
     0
  0
CLASS
  1
DICTIONARYVAR
  2
AcDbDictionaryVar
  3
AutoCAD 2000
 90
        0
280
     0
281
     0
  0
CLASS
  1
LONG_TRANSACTION
  2
AcDbLongTransaction
  3
AutoCAD 2000
 90
        0
280
     0
281
     0
  0
CLASS
  1
LWPOLYLINE
  2
AcDbPolyline
  3
AutoCAD 2000
 90
        0
280
     0
281
     1
  0
CLASS
  1
HATCH
  2
AcDbHatch
  3
AutoCAD 2000
 90
        0
280
     0
281
     1
  0
CLASS
  1
XRECORD
  2
AcDbXrecord
  3
AutoCAD 2000
 90
        0
280
     0
281
     0
  0
CLASS
  1
LONG_TRANSACTION
  2
AcDbLongTransaction
  3
AutoCAD 2000
 90
        0
280
     0
281
     0
  0
CLASS
  1
LWPOLYLINE
  2
AcDbPolyline
  3
AutoCAD 2000
 90
        0
280
     0
281
     1
  0
CLASS
  1
HATCH
  2
AcDbHatch
  3
AutoCAD 2000
 90
        0
280
     0
281
     1
  0
CLASS
  1
XRECORD
  2
AcDbXrecord
  3
AutoCAD 2000
 90
        0
280
     0
281
     0
  0
CLASS
  1
LONG_TRANSACTION
  2
AcDbLongTransaction
  3
AutoCAD 2000
 90
        0
280
     0
281
     0
  0
CLASS
  1
LWPOLYLINE
  2
AcDbPolyline
  3
AutoCAD 2000
 90
        0
280
     0
281
     1
  0
CLASS
  1
HATCH
  2
AcDbHatch
  3
AutoCAD 2000
 90
        0
280
     0
281
     1
  0
CLASS
  1
XRECORD
  2
AcDbXrecord
  3
AutoCAD 2000
 90
        0
280
     0
281
     0
  0
CLASS
  1
LONG_TRANSACTION
  2
AcDbLongTransaction
  3
AutoCAD 2000
 90
        0
280
     0
281
     0
  0
CLASS
  1
LWPOLYLINE
  2
AcDbPolyline
  3
AutoCAD 2000
 90
        0
280
     0
281
     1
  0
CLASS
  1
HATCH
  2
AcDbHatch
  3
AutoCAD 2000
 90
        0
280
     0
281
     1
  0
CLASS
  1
XRECORD
  2
AcDbXrecord
  3
AutoCAD 2000
 90
        0
280
     0
281
     0
  0
CLASS
  1
LONG_TRANSACTION
  2
AcDbLongTransaction
  3
AutoCAD 2000
 90
        0
280
     0
281
     0
  0
CLASS
  1
LWPOLYLINE
  2
AcDbPolyline
  3
AutoCAD 2000
 90
        0
280
     0
281
     1
  0
CLASS
  1
HATCH
  2
AcDbHatch
  3
AutoCAD 2000
 90
        0
280
     0
281
     1
  0
CLASS
  1
XRECORD
  2
AcDbXrecord
  3
AutoCAD 2000
 90
        0
280
     0
281
     0
  0
CLASS
  1
LONG_TRANSACTION
  2
AcDbLongTransaction
  3
AutoCAD 2000
 90
        0
280
     0
281
     0
  0
CLASS
  1
LWPOLYLINE
  2
AcDbPolyline
  3
AutoCAD 2000
 90
        0
280
     0
281
     1
  0
CLASS
  1
HATCH
  2
AcDbHatch
  3
AutoCAD 2000
 90
        0
280
     0
281
     1
  0
CLASS
  1
XRECORD
  2
AcDbXrecord
  3
AutoCAD 2000
 90
        0
280
     0
281
     0
  0
CLASS
  1
LONG_TRANSACTION
  2
AcDbLongTransaction
  3
AutoCAD 2000
 90
        0
280
     0
281
     0
  0
CLASS
  1
LWPOLYLINE
  2
AcDbPolyline
  3
AutoCAD 2000
 90
        0
280
     0
281
     1
  0
CLASS
  1
HATCH
  2
AcDbHatch
  3
AutoCAD 2000
 90
        0
280
     0
281
     1
  0
CLASS
  1
XRECORD
  2
AcDbXrecord
  3
AutoCAD 2000
 90
        0
280
     0
281
     0
  0
CLASS
  1
LONG_TRANSACTION
  2
AcDbLongTransaction
  3
AutoCAD 2000
 90
        0
280
     0
281
     0
  0
CLASS
  1
LWPOLYLINE
  2
AcDbPolyline
  3
AutoCAD 2000
 90
        0
280
     0
281
     1
  0
CLASS
  1
HATCH
  2
AcDbHatch
  3
AutoCAD 2000
 90
        0
280
     0
281
     1
  0
CLASS
  1
XRECORD
  2
AcDbXrecord
  3
AutoCAD 2000
 90
        0
280
     0
281
     0
  0
ENDSEC
  0
SECTION
  2
TABLES
  0
TABLE
  2
VPORT
  5
8
330
0
100
AcDbSymbolTable
 70
     2
  0
VPORT
  5
5A2
330
8
100
AcDbSymbolTableRecord
100
AcDbViewportTableRecord
  2
*ACTIVE
 70
     0
 10
0.0
 20
0.0
 11
1.0
 21
1.0
 12
6.401700123904102
 22
3.072064492012439
 13
0.0
 23
0.0
 14
0.5740882589684922
 24
0.5740882589684922
 15
0.5
 25
0.5
 16
0.0
 26
0.0
 36
1.0
 17
0.0
 27
0.0
 37
0.0
 40
12.54675465867197
 41
1.570528967254408
 42
50.0
 43
0.0
 44
0.0
 50
0.0
 51
0.0
 71
     0
 72
   100
 73
     1
 74
     0
 75
     0
 76
     0
 77
     0
 78
     0
  0
ENDTAB
  0
TABLE
  2
LTYPE
  5
5
330
0
100
AcDbSymbolTable
 70
     2
  0
LTYPE
  5
13
330
5
100
AcDbSymbolTableRecord
100
AcDbLinetypeTableRecord
  2
BYBLOCK
 70
     0
  3

 72
    65
 73
     0
 40
0.0
  0
LTYPE
  5
14
330
5
100
AcDbSymbolTableRecord
100
AcDbLinetypeTableRecord
  2
BYLAYER
 70
     0
  3

 72
    65
 73
     0
 40
0.0
  0
LTYPE
  5
15
330
5
100
AcDbSymbolTableRecord
100
AcDbLinetypeTableRecord
  2
CONTINUOUS
 70
     0
  3
Solid line
 72
    65
 73
     0
 40
0.0
  0
LTYPE
  5
2CF
330
5
100
AcDbSymbolTableRecord
100
AcDbLinetypeTableRecord
  2
CENTER2
 70
     0
  3
___ _ ___ _ ___ _ ___ _ ___ _ ___ _ ___ _ ___ _
 72
    65
 73
     4
 40
1.125
 49
0.75
 74
     0
 49
-0.125
 74
     0
 49
0.125
 74
     0
 49
-0.125
 74
     0
  0
ENDTAB
  0
TABLE
  2
LAYER
  5
2
330
0
100
AcDbSymbolTable
 70
     5
  0
LAYER
  5
10
330
2
100
AcDbSymbolTableRecord
100
AcDbLayerTableRecord
  2
0
 70
     0
 62
     7
  6
CONTINUOUS
  0
LAYER
  5
2D0
330
2
100
AcDbSymbolTableRecord
100
AcDbLayerTableRecord
  2
ADP1DETAIL
 70
     0
 62
     7
  6
CONTINUOUS
  0
LAYER
  5
2D1
330
2
100
AcDbSymbolTableRecord
100
AcDbLayerTableRecord
  2
DEFPOINTS
 70
     0
 62
     7
  6
CONTINUOUS
  0
LAYER
  5
2D5
330
2
100
AcDbSymbolTableRecord
100
AcDbLayerTableRecord
  2
ADP3DETAIL
 70
     0
 62
     1
  6
CONTINUOUS
  0
LAYER
  5
2D8
330
2
100
AcDbSymbolTableRecord
100
AcDbLayerTableRecord
  2
ADPDIM
 70
     0
 62
     3
  6
CONTINUOUS
  0
ENDTAB
  0
TABLE
  2
STYLE
  5
3
330
0
100
AcDbSymbolTable
 70
     2
  0
STYLE
  5
11
330
3
100
AcDbSymbolTableRecord
100
AcDbTextStyleTableRecord
  2
STANDARD
 70
     0
 40
0.0
 41
1.0
 50
0.0
 71
     0
 42
0.2
  3
txt
  4

  0
STYLE
  5
32A
330
3
100
AcDbSymbolTableRecord
100
AcDbTextStyleTableRecord
  2
ARIAL_WIDE
 70
     0
 40
0.0
 41
1.25
 50
0.0
 71
     0
 42
0.2
  3
ARIAL.TTF
  4

1001
ACAD
1000
Arial
1071
       34
  0
ENDTAB
  0
TABLE
  2
VIEW
  5
6
330
0
100
AcDbSymbolTable
 70
     0
  0
ENDTAB
  0
TABLE
  2
UCS
  5
7
330
0
100
AcDbSymbolTable
 70
     0
  0
ENDTAB
  0
TABLE
  2
APPID
  5
9
330
0
100
AcDbSymbolTable
 70
     1
  0
APPID
  5
12
330
9
100
AcDbSymbolTableRecord
100
AcDbRegAppTableRecord
  2
ACAD
 70
     0
  0
ENDTAB
  0
TABLE
  2
DIMSTYLE
  5
A
330
0
100
AcDbSymbolTable
 70
     1
  0
DIMSTYLE
105
328
330
A
100
AcDbSymbolTableRecord
100
AcDbDimStyleTableRecord
  2
STANDARD
 70
     0
  3

  4

  5

  6

  7

 40
1.0
 41
0.18
 42
0.0625
 43
0.38
 44
0.18
 45
0.0
 46
0.0
 47
0.0
 48
0.0
140
0.18
141
0.09
142
0.0
143
25.4
144
1.0
145
0.0
146
1.0
147
0.09
 71
     0
 72
     0
 73
     1
 74
     1
 75
     0
 76
     0
 77
     0
 78
     0
170
     0
171
     2
172
     0
173
     0
174
     0
175
     0
176
     0
177
     0
178
     0
270
     2
271
     4
272
     4
273
     2
274
     2
340
11
275
     0
280
     0
281
     0
282
     0
283
     1
284
     0
285
     0
286
     0
287
     3
288
     0
  0
ENDTAB
  0
TABLE
  2
BLOCK_RECORD
  5
1
330
0
100
AcDbSymbolTable
 70
     5
  0
BLOCK_RECORD
  5
1E
102
{ACAD_XDICTIONARY
360
367
102
}
330
1
100
AcDbSymbolTableRecord
100
AcDbBlockTableRecord
  2
*MODEL_SPACE
  0
BLOCK_RECORD
  5
1A
102
{ACAD_XDICTIONARY
360
369
102
}
330
1
100
AcDbSymbolTableRecord
100
AcDbBlockTableRecord
  2
*PAPER_SPACE
  0
BLOCK_RECORD
  5
22F
330
1
100
AcDbSymbolTableRecord
100
AcDbBlockTableRecord
  2
*D0
  0
BLOCK_RECORD
  5
2CA
330
1
100
AcDbSymbolTableRecord
100
AcDbBlockTableRecord
  2
*D1
  0
BLOCK_RECORD
  5
2CB
330
1
100
AcDbSymbolTableRecord
100
AcDbBlockTableRecord
  2
*D2
  0
BLOCK_RECORD
  5
2CC
330
1
100
AcDbSymbolTableRecord
100
AcDbBlockTableRecord
  2
*D3
  0
BLOCK_RECORD
  5
2CD
330
1
100
AcDbSymbolTableRecord
100
AcDbBlockTableRecord
  2
*D4
  0
ENDTAB
  0
ENDSEC
  0
SECTION
  2
BLOCKS
  0
BLOCK
  5
2DB
330
1E
100
AcDbEntity
  8
0
100
AcDbBlockBegin
  2
*MODEL_SPACE
 70
     0
 10
0.0
 20
0.0
 30
0.0
  3
*MODEL_SPACE
  1

  0
ENDBLK
  5
2DC
330
1E
100
AcDbEntity
  8
0
100
AcDbBlockEnd
  0
BLOCK
  5
2D9
330
1A
100
AcDbEntity
 67
     1
  8
0
100
AcDbBlockBegin
  2
*PAPER_SPACE
 70
     0
 10
0.0
 20
0.0
 30
0.0
  3
*PAPER_SPACE
  1

  0
ENDBLK
  5
2DA
330
1A
100
AcDbEntity
 67
     1
  8
0
100
AcDbBlockEnd
  0
BLOCK
  5
2DE
330
22F
100
AcDbEntity
  8
0
100
AcDbBlockBegin
  2
*D0
 70
     1
 10
0.0
 20
0.0
 30
0.0
  3
*D0
  1

  0
LINE
  5
2DF
330
22F
100
AcDbEntity
  8
0
  6
BYBLOCK
 62
     0
100
AcDbLine
 10
14.60633076642123
 20
5.175112511058264
 30
0.0
 11
14.72383072312775
 21
5.175213377146765
 31
0.0
  0
LINE
  5
2E0
330
22F
100
AcDbEntity
  8
0
  6
BYBLOCK
 62
     0
100
AcDbLine
 10
14.6062771142465
 20
5.237612488029812
 30
0.0
 11
14.72377707095302
 21
5.237713354118313
 31
0.0
  0
LINE
  5
2E1
330
22F
100
AcDbEntity
  8
0
  6
BYBLOCK
 62
     0
100
AcDbLine
 10
14.54383078944969
 20
5.175058858883529
 30
0.0
 11
14.54404539814863
 21
4.925058950997334
 31
0.0
  0
LINE
  5
2E2
330
22F
100
AcDbEntity
  8
0
  6
BYBLOCK
 62
     0
100
AcDbLine
 10
14.54377713727495
 20
5.237558835855077
 30
0.0
 11
14.54356252857602
 21
5.487558743741273
 31
0.0
  0
LINE
  5
2E3
330
22F
100
AcDbEntity
  8
0
  6
BYBLOCK
 62
     0
100
AcDbLine
 10
14.41872353115712
 20
5.299951508477158
 30
0.0
 11
14.66893804774226
 21
5.050166209289901
 31
0.0
  0
LINE
  5
2E4
330
22F
100
AcDbEntity
  8
0
  6
BYBLOCK
 62
     0
100
AcDbLine
 10
14.41866987898239
 20
5.362451485448706
 30
0.0
 11
14.66888439556752
 21
5.112666186261449
 31
0.0
  0
TEXT
  5
2E5
330
22F
100
AcDbEntity
  8
0
  6
BYBLOCK
 62
     0
100
AcDbText
 10
14.48063333420659
 20
5.987504907338929
 30
0.0
 40
0.125
  1
1/16
 50
270.0491846968248
 72
     1
 11
14.54329426770234
 21
5.800058628599018
 31
0.0
100
AcDbText
 73
     2
  0
POINT
  5
2E7
330
22F
100
AcDbEntity
  8
DEFPOINTS
  6
BYBLOCK
 62
     0
100
AcDbPoint
 10
14.54383078944968
 20
5.175058858883529
 30
0.0
  0
POINT
  5
2E8
330
22F
100
AcDbEntity
  8
DEFPOINTS
  6
BYBLOCK
 62
     0
100
AcDbPoint
 10
14.54377713727495
 20
5.237558835855077
 30
0.0
  0
POINT
  5
2E9
330
22F
100
AcDbEntity
  8
DEFPOINTS
  6
BYBLOCK
 62
     0
100
AcDbPoint
 10
14.54377713727495
 20
5.237558835855077
 30
0.0
  0
ENDBLK
  5
2EA
330
22F
100
AcDbEntity
  8
0
100
AcDbBlockEnd
  0
BLOCK
  5
2EB
330
2CA
100
AcDbEntity
  8
0
100
AcDbBlockBegin
  2
*D1
 70
     1
 10
0.0
 20
0.0
 30
0.0
  3
*D1
  1

  0
LINE
  5
2EC
330
2CA
100
AcDbEntity
  8
0
  6
BYBLOCK
 62
     0
100
AcDbLine
 10
7.625533941441351
 20
5.314922369881015
 30
0.0
 11
7.625533941441351
 21
5.908915836107485
 31
0.0
  0
LINE
  5
2ED
330
2CA
100
AcDbEntity
  8
0
  6
BYBLOCK
 62
     0
100
AcDbLine
 10
0.6261925797818721
 20
4.709974340641428
 30
0.0
 11
0.6261925797818721
 21
5.908915836107485
 31
0.0
  0
LINE
  5
2EE
330
2CA
100
AcDbEntity
  8
0
  6
BYBLOCK
 62
     0
100
AcDbLine
 10
7.625533941441351
 20
5.728915836107486
 30
0.0
 11
4.292529927278279
 21
5.728915836107486
 31
0.0
  0
LINE
  5
2EF
330
2CA
100
AcDbEntity
  8
0
  6
BYBLOCK
 62
     0
100
AcDbLine
 10
0.6261925797818721
 20
5.728915836107486
 30
0.0
 11
3.959196593944945
 21
5.728915836107486
 31
0.0
  0
LINE
  5
2F0
330
2CA
100
AcDbEntity
  8
0
  6
BYBLOCK
 62
     0
100
AcDbLine
 10
7.500533941441351
 20
5.603915836107486
 30
0.0
 11
7.750533941441351
 21
5.853915836107486
 31
0.0
  0
LINE
  5
2F1
330
2CA
100
AcDbEntity
  8
0
  6
BYBLOCK
 62
     0
100
AcDbLine
 10
0.5011925797818721
 20
5.603915836107486
 30
0.0
 11
0.7511925797818721
 21
5.853915836107486
 31
0.0
  0
TEXT
  5
2F2
330
2CA
100
AcDbEntity
  8
0
  6
BYBLOCK
 62
     0
100
AcDbText
 10
4.084196593944945
 20
5.666415836107486
 30
0.0
 40
0.125
  1
7
 72
     1
 11
4.125863260611612
 21
5.728915836107486
 31
0.0
100
AcDbText
 73
     2
  0
POINT
  5
2F3
330
2CA
100
AcDbEntity
  8
DEFPOINTS
  6
BYBLOCK
 62
     0
100
AcDbPoint
 10
7.625533941441351
 20
5.252422369881015
 30
0.0
  0
POINT
  5
2F4
330
2CA
100
AcDbEntity
  8
DEFPOINTS
  6
BYBLOCK
 62
     0
100
AcDbPoint
 10
0.6261925797818721
 20
4.647474340641428
 30
0.0
  0
POINT
  5
2F5
330
2CA
100
AcDbEntity
  8
DEFPOINTS
  6
BYBLOCK
 62
     0
100
AcDbPoint
 10
0.6261925797818721
 20
5.728915836107486
 30
0.0
  0
ENDBLK
  5
2F6
330
2CA
100
AcDbEntity
  8
0
100
AcDbBlockEnd
  0
BLOCK
  5
2F7
330
2CB
100
AcDbEntity
  8
0
100
AcDbBlockBegin
  2
*D2
 70
     1
 10
0.0
 20
0.0
 30
0.0
  3
*D2
  1

  0
LINE
  5
2F8
330
2CB
100
AcDbEntity
  8
0
  6
BYBLOCK
 62
     0
100
AcDbLine
 10
0.8859797647872419
 20
4.199130948414889
 30
0.0
 11
1.659616014648405
 21
1.304394059758498
 31
0.0
  0
LINE
  5
2F9
330
2CB
100
AcDbEntity
  8
0
  6
BYBLOCK
 62
     0
100
AcDbLine
 10
0.7329438508226441
 20
4.287618286701337
 30
0.0
 11
1.039015678751839
 21
4.110643610128442
 31
0.0
  0
TEXT
  5
2FA
330
2CB
100
AcDbEntity
  8
0
  6
BYBLOCK
 62
     0
100
AcDbText
 10
1.631509489424719
 20
1.167495289713438
 30
0.0
 40
0.125
  1
R3
 50
284.9629453912935
 72
     1
 11
1.718785542353377
 21
1.08299774519504
 31
0.0
100
AcDbText
 73
     2
  0
POINT
  5
2FB
330
2CB
100
AcDbEntity
  8
DEFPOINTS
  6
BYBLOCK
 62
     0
100
AcDbPoint
 10
0.8859797647872419
 20
4.199130948414889
 30
0.0
  0
POINT
  5
2FC
330
2CB
100
AcDbEntity
  8
DEFPOINTS
  6
BYBLOCK
 62
     0
100
AcDbPoint
 10
1.660562672925047
 20
1.300851921402346
 30
0.0
  0
ENDBLK
  5
2FD
330
2CB
100
AcDbEntity
  8
0
100
AcDbBlockEnd
  0
BLOCK
  5
2FE
330
2CC
100
AcDbEntity
  8
0
100
AcDbBlockBegin
  2
*D3
 70
     1
 10
0.0
 20
0.0
 30
0.0
  3
*D3
  1

  0
LINE
  5
2FF
330
2CC
100
AcDbEntity
  8
0
  6
BYBLOCK
 62
     0
100
AcDbLine
 10
-1.775248546592606
 20
2.502870283862467
 30
0.0
 11
-2.681312230548518
 21
3.662578914375871
 31
0.0
  0
LINE
  5
300
330
2CC
100
AcDbEntity
  8
0
  6
BYBLOCK
 62
     0
100
AcDbLine
 10
0.5887837142275596
 20
4.349854709839442
 30
0.0
 11
-0.3172799697283524
 21
5.509563340352846
 31
0.0
  0
LINE
  5
301
330
2CC
100
AcDbEntity
  8
0
  6
BYBLOCK
 62
     0
100
AcDbLine
 10
-2.5704931649899
 20
3.520736978726662
 30
0.0
 11
-1.519812160180937
 21
4.341618945827539
 31
0.0
  0
LINE
  5
302
330
2CC
100
AcDbEntity
  8
0
  6
BYBLOCK
 62
     0
100
AcDbLine
 10
-0.2064609041697341
 20
5.367721404703636
 30
0.0
 11
-1.257141908978696
 21
4.546839437602758
 31
0.0
  0
LINE
  5
303
330
2CC
100
AcDbEntity
  8
0
  6
BYBLOCK
 62
     0
100
AcDbLine
 10
-2.592036824775032
 20
3.345277950110114
 30
0.0
 11
-2.548949505204767
 21
3.696196007343209
 31
0.0
  0
LINE
  5
304
330
2CC
100
AcDbEntity
  8
0
  6
BYBLOCK
 62
     0
100
AcDbLine
 10
-0.2280045639548671
 20
5.192262376087088
 30
0.0
 11
-0.1849172443846011
 21
5.543180433320183
 31
0.0
  0
TEXT
  5
305
330
2CC
100
AcDbEntity
  8
0
  6
BYBLOCK
 62
     0
100
AcDbText
 10
-1.382831973772243
 20
4.369325958142826
 30
0.0
 40
0.125
  1
3
 50
37.99999999999999
 72
     1
 11
-1.388477034579817
 21
4.444229191715149
 31
0.0
100
AcDbText
 73
     2
  0
POINT
  5
306
330
2CC
100
AcDbEntity
  8
DEFPOINTS
  6
BYBLOCK
 62
     0
100
AcDbPoint
 10
-1.736769704384752
 20
2.453619611762047
 30
0.0
  0
POINT
  5
307
330
2CC
100
AcDbEntity
  8
DEFPOINTS
  6
BYBLOCK
 62
     0
100
AcDbPoint
 10
0.6272625564354132
 20
4.300604037739022
 30
0.0
  0
POINT
  5
308
330
2CC
100
AcDbEntity
  8
DEFPOINTS
  6
BYBLOCK
 62
     0
100
AcDbPoint
 10
-0.2064609041697341
 20
5.367721404703636
 30
0.0
  0
ENDBLK
  5
309
330
2CC
100
AcDbEntity
  8
0
100
AcDbBlockEnd
  0
BLOCK
  5
30A
330
2CD
100
AcDbEntity
  8
0
100
AcDbBlockBegin
  2
*D4
 70
     1
 10
0.0
 20
0.0
 30
0.0
  3
*D4
  1

  0
LINE
  5
30B
330
2CD
100
AcDbEntity
  8
0
  6
BYBLOCK
 62
     0
100
AcDbLine
 10
7.688033941441351
 20
5.252422369881015
 30
0.0
 11
8.502496862334199
 21
5.252422369881015
 31
0.0
  0
LINE
  5
30C
330
2CD
100
AcDbEntity
  8
0
  6
BYBLOCK
 62
     0
100
AcDbLine
 10
7.688033941441351
 20
3.352423155473692
 30
0.0
 11
8.502496862334199
 21
3.352423155473692
 31
0.0
  0
LINE
  5
30D
330
2CD
100
AcDbEntity
  8
0
  6
BYBLOCK
 62
     0
100
AcDbLine
 10
8.322496862334199
 20
5.252422369881015
 30
0.0
 11
8.322496862334199
 21
4.635756096010687
 31
0.0
  0
LINE
  5
30E
330
2CD
100
AcDbEntity
  8
0
  6
BYBLOCK
 62
     0
100
AcDbLine
 10
8.322496862334199
 20
3.352423155473692
 30
0.0
 11
8.322496862334199
 21
3.969089429344021
 31
0.0
  0
LINE
  5
30F
330
2CD
100
AcDbEntity
  8
0
  6
BYBLOCK
 62
     0
100
AcDbLine
 10
8.447496862334199
 20
5.127422369881015
 30
0.0
 11
8.197496862334199
 21
5.377422369881015
 31
0.0
  0
LINE
  5
310
330
2CD
100
AcDbEntity
  8
0
  6
BYBLOCK
 62
     0
100
AcDbLine
 10
8.447496862334199
 20
3.227423155473692
 30
0.0
 11
8.197496862334199
 21
3.477423155473692
 31
0.0
  0
TEXT
  5
311
330
2CD
100
AcDbEntity
  8
0
  6
BYBLOCK
 62
     0
100
AcDbText
 10
8.384996862334199
 20
4.094089429344021
 30
0.0
 40
0.125
  1
1.900
 50
90.0
 72
     1
 11
8.322496862334199
 21
4.302422762677354
 31
0.0
100
AcDbText
 73
     2
  0
POINT
  5
312
330
2CD
100
AcDbEntity
  8
DEFPOINTS
  6
BYBLOCK
 62
     0
100
AcDbPoint
 10
7.625533941441351
 20
5.252422369881015
 30
0.0
  0
POINT
  5
313
330
2CD
100
AcDbEntity
  8
DEFPOINTS
  6
BYBLOCK
 62
     0
100
AcDbPoint
 10
7.625533941441351
 20
3.352423155473692
 30
0.0
  0
POINT
  5
314
330
2CD
100
AcDbEntity
  8
DEFPOINTS
  6
BYBLOCK
 62
     0
100
AcDbPoint
 10
8.322496862334199
 20
3.352423155473692
 30
0.0
  0
ENDBLK
  5
315
330
2CD
100
AcDbEntity
  8
0
100
AcDbBlockEnd
  0
ENDSEC
  0
SECTION
  2
ENTITIES
  0
DIMENSION
  5
316
330
1E
100
AcDbEntity
  8
ADPDIM
100
AcDbDimension
  2
*D1
 10
0.6261925797818721
 20
5.728915836107486
 30
0.0
 11
4.125863260611612
 21
5.728915836107486
 31
0.0
100
AcDbAlignedDimension
 13
7.625533941441351
 23
5.252422369881015
 33
0.0
 14
0.6261925797818721
 24
4.647474340641428
 34
0.0
100
AcDbRotatedDimension
  0
LINE
  5
317
330
1E
100
AcDbEntity
  8
ADP3DETAIL
  6
CENTER2
100
AcDbLine
 10
1.659842736760573
 20
4.300851835017665
 30
0.0
 11
7.791717291797481
 21
4.300596623134785
 31
0.0
  0
LINE
  5
318
330
1E
100
AcDbEntity
  8
ADP1DETAIL
100
AcDbLine
 10
1.332109963589819
 20
5.250514178737004
 30
0.0
 11
7.627261729495754
 21
5.252422369881013
 31
0.0
  0
LINE
  5
319
330
1E
100
AcDbEntity
  8
ADP1DETAIL
100
AcDbLine
 10
1.681406601881205
 20
3.364011533495022
 30
0.0
 11
7.627261729495754
 21
3.352423155473692
 31
0.0
  0
ARC
  5
31A
330
1E
100
AcDbEntity
  8
ADP1DETAIL
100
AcDbCircle
 10
1.677411191748499
 20
1.314015426987044
 30
0.0
 40
2.049999999999999
100
AcDbArc
 50
89.88833156929045
 51
127.9999999999999
  0
LINE
  5
31B
330
1E
100
AcDbEntity
  8
ADP3DETAIL
  6
CENTER2
100
AcDbLine
 10
-2.076311592711163
 20
2.188340414815668
 30
0.0
 11
-0.186421753051927
 21
3.664884182222511
 31
0.0
  0
DIMENSION
  5
31C
330
1E
100
AcDbEntity
  8
ADPDIM
100
AcDbDimension
  2
*D3
 10
-0.2064609041697341
 20
5.367721404703636
 30
0.0
 11
-1.388477034579817
 21
4.444229191715149
 31
0.0
 70
     1
100
AcDbAlignedDimension
 13
-1.736769704384752
 23
2.453619611762047
 33
0.0
 14
0.6272625564354133
 24
4.300604037739022
 34
0.0
  0
LINE
  5
31D
330
1E
100
AcDbEntity
  8
ADP1DETAIL
100
AcDbLine
 10
-2.321648105944126
 20
3.202229827688432
 30
0.0
 11
-0.5139651001697054
 21
4.614546577380448
 31
0.0
  0
DIMENSION
  5
31E
330
1E
100
AcDbEntity
  8
ADPDIM
100
AcDbDimension
  2
*D2
 10
1.660562672925047
 20
1.300851921402346
 30
0.0
 11
1.718785542353377
 21
1.08299774519504
 31
0.0
 70
     4
100
AcDbRadialDimension
 15
0.8859797647872419
 25
4.199130948414889
 35
0.0
 40
-2.996333543123551
  0
LINE
  5
31F
330
1E
100
AcDbEntity
  8
ADP1DETAIL
100
AcDbLine
 10
0.4153051673309019
 20
2.929437471880824
 30
0.0
 11
-1.151891302825377
 21
1.705009395835662
 31
0.0
  0
LINE
  5
320
330
1E
100
AcDbEntity
  8
ADP1DETAIL
100
AcDbLine
 10
-1.151891302825377
 20
1.705009395835662
 30
0.0
 11
-2.321648105944126
 21
3.202229827688432
 31
0.0
  0
ARC
  5
321
330
1E
100
AcDbEntity
  8
ADP3DETAIL
  6
CENTER2
100
AcDbCircle
 10
1.660562672925048
 20
1.300851921402346
 30
0.0
 40
3.0
100
AcDbArc
 50
90.01374976804639
 51
127.9999999999999
  0
ARC
  5
322
330
1E
100
AcDbEntity
  8
ADP1DETAIL
100
AcDbCircle
 10
1.33301932580727
 20
2.250514316560281
 30
0.0
 40
3.0
100
AcDbArc
 50
90.01736753930215
 51
127.9999999999999
  0
LINE
  5
323
330
1E
100
AcDbEntity
  8
ADP1DETAIL
100
AcDbLine
 10
7.625533941441351
 20
5.252422369881015
 30
0.0
 11
7.627261729495754
 21
3.352423155473692
 31
0.0
  0
DIMENSION
  5
324
330
1E
100
AcDbEntity
  8
ADPDIM
100
AcDbDimension
  2
*D4
 10
8.322496862334199
 20
3.352423155473692
 30
0.0
 11
8.322496862334199
 21
4.302422762677354
 31
0.0
  1
1.900
100
AcDbAlignedDimension
 13
7.625533941441351
 23
5.252422369881015
 33
0.0
 14
7.625533941441351
 24
3.352423155473692
 34
0.0
 50
90.0
100
AcDbRotatedDimension
  0
CIRCLE
  5
325
330
1E
100
AcDbEntity
  8
ADP1DETAIL
100
AcDbCircle
 10
14.52417401581882
 20
4.303959136363712
 30
0.0
 40
0.95
  0
CIRCLE
  5
326
330
1E
100
AcDbEntity
  8
ADP1DETAIL
100
AcDbCircle
 10
14.52417401581882
 20
4.303959136363712
 30
0.0
 40
0.8875
  0
DIMENSION
  5
327
330
1E
100
AcDbEntity
  8
ADPDIM
100
AcDbDimension
  2
*D0
 10
14.54377713727495
 20
5.237558835855077
 30
0.0
 11
14.54329426770234
 21
5.800058628599018
 31
0.0
100
AcDbAlignedDimension
 13
14.54383078944968
 23
5.175058858883529
 33
0.0
 14
14.54377713727495
 24
5.237558835855077
 34
0.0
 50
90.04918469682484
100
AcDbRotatedDimension
  0
TEXT
  5
3DD
330
1E
100
AcDbEntity
  8
ADPDIM
100
AcDbText
 10
-3.402167348007262
 20
0.2116303552980066
 30
0.0
 40
0.1875
  1
J U L I U S  B L U M  &  C O . ,  I N C .      ( 8 0 0 )  5 2 6 - 6 2 9 3        W W W . J U L I U S B L U M . C O M        P A R T  N o .  9 3 1 8
 41
1.25
  7
ARIAL_WIDE
 72
     1
 11
6.386426188827662
 21
0.3991303552980065
 31
0.0
100
AcDbText
 73
     3
  0
ENDSEC
  0
SECTION
  2
OBJECTS
  0
DICTIONARY
  5
C
330
0
100
AcDbDictionary
  3
ACAD_GROUP
350
D
  3
ACAD_LAYOUT
350
19
  3
ACAD_MLINESTYLE
350
16
  3
ACAD_PLOTSETTINGS
350
18
  3
ACAD_PLOTSTYLENAME
350
E
  3
ACDBHEADERROUNDTRIPXREC
350
5A3
  3
ACDBVARIABLEDICTIONARY
350
39C
  0
DICTIONARY
  5
367
330
1E
100
AcDbDictionary
280
     1
  3
ACAD_LAYOUTSELFREF
360
5C5
  0
DICTIONARY
  5
369
330
1A
100
AcDbDictionary
280
     1
  3
ACAD_LAYOUTSELFREF
360
5C4
  0
DICTIONARY
  5
D
102
{ACAD_REACTORS
330
C
102
}
330
C
100
AcDbDictionary
  0
DICTIONARY
  5
19
102
{ACAD_REACTORS
330
C
102
}
330
C
100
AcDbDictionary
  0
DICTIONARY
  5
16
102
{ACAD_REACTORS
330
C
102
}
330
C
100
AcDbDictionary
  3
STANDARD
350
17
  0
DICTIONARY
  5
18
102
{ACAD_REACTORS
330
C
102
}
330
C
100
AcDbDictionary
  0
ACDBDICTIONARYWDFLT
  5
E
102
{ACAD_REACTORS
330
C
102
}
330
C
100
AcDbDictionary
281
     1
  3
Normal
350
F
100
AcDbDictionaryWithDefault
340
F
  0
DICTIONARY
  5
5A3
102
{ACAD_REACTORS
330
C
102
}
330
C
100
AcDbDictionary
  3
CEPSNTYPE
350
5AD
  3
DIMSTYLEDATA
350
5B1
  3
FINGERPRINTGUID
350
5AE
  3
HYPERLINKBASE
350
5A6
  3
INSUNITS
350
5AC
  3
LAYOUTDICT
350
5A8
  3
LWETCUNION
350
5AB
  3
PLOTSETDICT
350
5A9
  3
PLOTSTYLNAMDICT
350
5AA
  3
PSVPSCALE
350
5B0
  3
PUCSBASE
350
5B4
  3
PUCSORGBACK
350
5BA
  3
PUCSORGBOTTOM
350
5B6
  3
PUCSORGFRONT
350
5B9
  3
PUCSORGLEFT
350
5B7
  3
PUCSORGRIGHT
350
5B8
  3
PUCSORGTOP
350
5B5
  3
PUCSORTHOREF
350
5B2
  3
PUCSORTHOVIEW
350
5B3
  3
STYLESHEET
350
5A7
  3
TSTACKALIGN
350
5A4
  3
TSTACKSIZE
350
5A5
  3
UCSBASE
350
5BD
  3
UCSORGBACK
350
5C3
  3
UCSORGBOTTOM
350
5BF
  3
UCSORGFRONT
350
5C2
  3
UCSORGLEFT
350
5C0
  3
UCSORGRIGHT
350
5C1
  3
UCSORGTOP
350
5BE
  3
UCSORTHOREF
350
5BB
  3
UCSORTHOVIEW
350
5BC
  3
VERSIONGUID
350
5AF
  0
DICTIONARY
  5
39C
102
{ACAD_REACTORS
330
C
102
}
330
C
100
AcDbDictionary
  3
DIMASSOC
350
39E
  3
HIDETEXT
350
39D
  0
XRECORD
  5
5C5
102
{ACAD_REACTORS
330
367
102
}
330
367
100
AcDbXrecord
340
1E
  0
XRECORD
  5
5C4
102
{ACAD_REACTORS
330
369
102
}
330
369
100
AcDbXrecord
340
1A
  0
MLINESTYLE
  5
17
102
{ACAD_REACTORS
330
16
102
}
330
16
100
AcDbMlineStyle
  2
STANDARD
 70
     0
  3

 62
   256
 51
90.0
 52
90.0
 71
     2
 49
0.5
 62
   256
  6
BYLAYER
 49
-0.5
 62
   256
  6
BYLAYER
  0
ACDBPLACEHOLDER
  5
F
102
{ACAD_REACTORS
330
E
102
}
330
E
100
AcDbPlaceHolder
280
     0
  0
XRECORD
  5
5AD
102
{ACAD_REACTORS
330
5A3
102
}
330
5A3
100
AcDbXrecord
 90
        0
  0
XRECORD
  5
5B1
102
{ACAD_REACTORS
330
5A3
102
}
330
5A3
100
AcDbXrecord
1000
DSTYLE
1002
{
1070
   277
 70
     5
1070
   279
 70
     2
1002
}
  0
XRECORD
  5
5AE
102
{ACAD_REACTORS
330
5A3
102
}
330
5A3
100
AcDbXrecord
  1
{096068B7-582E-4228-A0E4-E1A89C3C9977}
  0
XRECORD
  5
5A6
102
{ACAD_REACTORS
330
5A3
102
}
330
5A3
100
AcDbXrecord
  1

  0
XRECORD
  5
5AC
102
{ACAD_REACTORS
330
5A3
102
}
330
5A3
100
AcDbXrecord
 90
        0
  0
XRECORD
  5
5A8
102
{ACAD_REACTORS
330
5A3
102
}
330
5A3
100
AcDbXrecord
340
19
  0
XRECORD
  5
5AB
102
{ACAD_REACTORS
330
5A3
102
}
330
5A3
100
AcDbXrecord
 90
    14877
  0
XRECORD
  5
5A9
102
{ACAD_REACTORS
330
5A3
102
}
330
5A3
100
AcDbXrecord
340
18
  0
XRECORD
  5
5AA
102
{ACAD_REACTORS
330
5A3
102
}
330
5A3
100
AcDbXrecord
340
E
  0
XRECORD
  5
5B0
102
{ACAD_REACTORS
330
5A3
102
}
330
5A3
100
AcDbXrecord
 40
0.0
  0
XRECORD
  5
5B4
102
{ACAD_REACTORS
330
5A3
102
}
330
5A3
100
AcDbXrecord
340
0
  0
XRECORD
  5
5BA
102
{ACAD_REACTORS
330
5A3
102
}
330
5A3
100
AcDbXrecord
 10
0.0
 20
0.0
 30
0.0
  0
XRECORD
  5
5B6
102
{ACAD_REACTORS
330
5A3
102
}
330
5A3
100
AcDbXrecord
 10
0.0
 20
0.0
 30
0.0
  0
XRECORD
  5
5B9
102
{ACAD_REACTORS
330
5A3
102
}
330
5A3
100
AcDbXrecord
 10
0.0
 20
0.0
 30
0.0
  0
XRECORD
  5
5B7
102
{ACAD_REACTORS
330
5A3
102
}
330
5A3
100
AcDbXrecord
 10
0.0
 20
0.0
 30
0.0
  0
XRECORD
  5
5B8
102
{ACAD_REACTORS
330
5A3
102
}
330
5A3
100
AcDbXrecord
 10
0.0
 20
0.0
 30
0.0
  0
XRECORD
  5
5B5
102
{ACAD_REACTORS
330
5A3
102
}
330
5A3
100
AcDbXrecord
 10
0.0
 20
0.0
 30
0.0
  0
XRECORD
  5
5B2
102
{ACAD_REACTORS
330
5A3
102
}
330
5A3
100
AcDbXrecord
340
0
  0
XRECORD
  5
5B3
102
{ACAD_REACTORS
330
5A3
102
}
330
5A3
100
AcDbXrecord
 70
     0
  0
XRECORD
  5
5A7
102
{ACAD_REACTORS
330
5A3
102
}
330
5A3
100
AcDbXrecord
  1

  0
XRECORD
  5
5A4
102
{ACAD_REACTORS
330
5A3
102
}
330
5A3
100
AcDbXrecord
 90
        1
  0
XRECORD
  5
5A5
102
{ACAD_REACTORS
330
5A3
102
}
330
5A3
100
AcDbXrecord
 90
       70
  0
XRECORD
  5
5BD
102
{ACAD_REACTORS
330
5A3
102
}
330
5A3
100
AcDbXrecord
340
0
  0
XRECORD
  5
5C3
102
{ACAD_REACTORS
330
5A3
102
}
330
5A3
100
AcDbXrecord
 10
0.0
 20
0.0
 30
0.0
  0
XRECORD
  5
5BF
102
{ACAD_REACTORS
330
5A3
102
}
330
5A3
100
AcDbXrecord
 10
0.0
 20
0.0
 30
0.0
  0
XRECORD
  5
5C2
102
{ACAD_REACTORS
330
5A3
102
}
330
5A3
100
AcDbXrecord
 10
0.0
 20
0.0
 30
0.0
  0
XRECORD
  5
5C0
102
{ACAD_REACTORS
330
5A3
102
}
330
5A3
100
AcDbXrecord
 10
0.0
 20
0.0
 30
0.0
  0
XRECORD
  5
5C1
102
{ACAD_REACTORS
330
5A3
102
}
330
5A3
100
AcDbXrecord
 10
0.0
 20
0.0
 30
0.0
  0
XRECORD
  5
5BE
102
{ACAD_REACTORS
330
5A3
102
}
330
5A3
100
AcDbXrecord
 10
0.0
 20
0.0
 30
0.0
  0
XRECORD
  5
5BB
102
{ACAD_REACTORS
330
5A3
102
}
330
5A3
100
AcDbXrecord
340
0
  0
XRECORD
  5
5BC
102
{ACAD_REACTORS
330
5A3
102
}
330
5A3
100
AcDbXrecord
 70
     0
  0
XRECORD
  5
5AF
102
{ACAD_REACTORS
330
5A3
102
}
330
5A3
100
AcDbXrecord
  1
{3BC2B212-D979-419C-AE5E-6DB9C3C067DB}
  0
DICTIONARYVAR
  5
39E
102
{ACAD_REACTORS
330
39C
102
}
330
39C
100
DictionaryVariables
280
     0
  1
2
  0
DICTIONARYVAR
  5
39D
102
{ACAD_REACTORS
330
39C
102
}
330
39C
100
DictionaryVariables
280
     0
  1
1
  0
ENDSEC
  0
EOF
