  0
SECTION
  2
HEADER
  9
$ACADVER
  1
AC1015
  9
$ACADMAINTVER
 70
    20
  9
$DWGCODEPAGE
  3
ANSI_1252
  9
$INSBASE
 10
-7.942552205839255
 20
-0.5788633193440314
 30
0.0
  9
$EXTMIN
 10
-13.88380360194388
 20
-1.840904559981811
 30
0.0
  9
$EXTMAX
 10
-1.014388526909774
 20
2.820410309780167
 30
0.0
  9
$LIMMIN
 10
0.0
 20
0.0
  9
$LIMMAX
 10
36.0
 20
36.0
  9
$ORTHOMODE
 70
     0
  9
$REGENMODE
 70
     1
  9
$FILLMODE
 70
     1
  9
$QTEXTMODE
 70
     0
  9
$MIRRTEXT
 70
     1
  9
$LTSCALE
 40
1.0
  9
$ATTMODE
 70
     1
  9
$TEXTSIZE
 40
0.2
  9
$TRACEWID
 40
0.05
  9
$TEXTSTYLE
  7
STANDARD
  9
$CLAYER
  8
ADPDIM
  9
$CELTYPE
  6
BYLAYER
  9
$CECOLOR
 62
   256
  9
$CELTSCALE
 40
1.0
  9
$DISPSILH
 70
     0
  9
$DIMSCALE
 40
1.0
  9
$DIMASZ
 40
0.125
  9
$DIMEXO
 40
0.0625
  9
$DIMDLI
 40
0.38
  9
$DIMRND
 40
0.0
  9
$DIMDLE
 40
0.0
  9
$DIMEXE
 40
0.18
  9
$DIMTP
 40
0.0
  9
$DIMTM
 40
0.0
  9
$DIMTXT
 40
0.125
  9
$DIMCEN
 40
0.1875
  9
$DIMTSZ
 40
0.125
  9
$DIMTOL
 70
     0
  9
$DIMLIM
 70
     0
  9
$DIMTIH
 70
     0
  9
$DIMTOH
 70
     0
  9
$DIMSE1
 70
     0
  9
$DIMSE2
 70
     0
  9
$DIMTAD
 70
     0
  9
$DIMZIN
 70
     3
  9
$DIMBLK
  1

  9
$DIMASO
 70
     1
  9
$DIMSHO
 70
     1
  9
$DIMPOST
  1

  9
$DIMAPOST
  1

  9
$DIMALT
 70
     0
  9
$DIMALTD
 70
     1
  9
$DIMALTF
 40
25.4
  9
$DIMLFAC
 40
1.0
  9
$DIMTOFL
 70
     0
  9
$DIMTVP
 40
0.0
  9
$DIMTIX
 70
     0
  9
$DIMSOXD
 70
     0
  9
$DIMSAH
 70
     0
  9
$DIMBLK1
  1

  9
$DIMBLK2
  1

  9
$DIMSTYLE
  2
STANDARD
  9
$DIMCLRD
 70
     0
  9
$DIMCLRE
 70
     0
  9
$DIMCLRT
 70
     0
  9
$DIMTFAC
 40
1.0
  9
$DIMGAP
 40
0.125
  9
$DIMJUST
 70
     0
  9
$DIMSD1
 70
     0
  9
$DIMSD2
 70
     0
  9
$DIMTOLJ
 70
     1
  9
$DIMTZIN
 70
     0
  9
$DIMALTZ
 70
     0
  9
$DIMALTTZ
 70
     0
  9
$DIMUPT
 70
     0
  9
$DIMDEC
 70
     4
  9
$DIMTDEC
 70
     4
  9
$DIMALTU
 70
     2
  9
$DIMALTTD
 70
     2
  9
$DIMTXSTY
  7
STANDARD
  9
$DIMAUNIT
 70
     0
  9
$DIMADEC
 70
     0
  9
$DIMALTRND
 40
0.0
  9
$DIMAZIN
 70
     0
  9
$DIMDSEP
 70
    46
  9
$DIMATFIT
 70
     3
  9
$DIMFRAC
 70
     0
  9
$DIMLDRBLK
  1

  9
$DIMLUNIT
 70
     2
  9
$DIMLWD
 70
    -2
  9
$DIMLWE
 70
    -2
  9
$DIMTMOVE
 70
     0
  9
$LUNITS
 70
     5
  9
$LUPREC
 70
     4
  9
$SKETCHINC
 40
0.1
  9
$FILLETRAD
 40
0.0
  9
$AUNITS
 70
     0
  9
$AUPREC
 70
     0
  9
$MENU
  1
acad
  9
$ELEVATION
 40
0.0
  9
$PELEVATION
 40
0.0
  9
$THICKNESS
 40
0.0
  9
$LIMCHECK
 70
     0
  9
$CHAMFERA
 40
0.0
  9
$CHAMFERB
 40
0.0
  9
$CHAMFERC
 40
0.0
  9
$CHAMFERD
 40
0.0
  9
$SKPOLY
 70
     0
  9
$TDCREATE
 40
2450333.471885023
  9
$TDUCREATE
 40
2450333.638551690
  9
$TDUPDATE
 40
2453949.920138356
  9
$TDUUPDATE
 40
2453950.086805023
  9
$TDINDWG
 40
0.0623819676
  9
$TDUSRTIMER
 40
0.0623819676
  9
$USRTIMER
 70
     1
  9
$ANGBASE
 50
0.0
  9
$ANGDIR
 70
     0
  9
$PDMODE
 70
     0
  9
$PDSIZE
 40
0.0
  9
$PLINEWID
 40
0.0
  9
$SPLFRAME
 70
     0
  9
$SPLINETYPE
 70
     6
  9
$SPLINESEGS
 70
     8
  9
$HANDSEED
  5
3E7
  9
$SURFTAB1
 70
     6
  9
$SURFTAB2
 70
     6
  9
$SURFTYPE
 70
     6
  9
$SURFU
 70
     6
  9
$SURFV
 70
     6
  9
$UCSBASE
  2

  9
$UCSNAME
  2

  9
$UCSORG
 10
0.0
 20
0.0
 30
0.0
  9
$UCSXDIR
 10
1.0
 20
0.0
 30
0.0
  9
$UCSYDIR
 10
0.0
 20
1.0
 30
0.0
  9
$UCSORTHOREF
  2

  9
$UCSORTHOVIEW
 70
     0
  9
$UCSORGTOP
 10
0.0
 20
0.0
 30
0.0
  9
$UCSORGBOTTOM
 10
0.0
 20
0.0
 30
0.0
  9
$UCSORGLEFT
 10
0.0
 20
0.0
 30
0.0
  9
$UCSORGRIGHT
 10
0.0
 20
0.0
 30
0.0
  9
$UCSORGFRONT
 10
0.0
 20
0.0
 30
0.0
  9
$UCSORGBACK
 10
0.0
 20
0.0
 30
0.0
  9
$PUCSBASE
  2

  9
$PUCSNAME
  2

  9
$PUCSORG
 10
0.0
 20
0.0
 30
0.0
  9
$PUCSXDIR
 10
1.0
 20
0.0
 30
0.0
  9
$PUCSYDIR
 10
0.0
 20
1.0
 30
0.0
  9
$PUCSORTHOREF
  2

  9
$PUCSORTHOVIEW
 70
     0
  9
$PUCSORGTOP
 10
0.0
 20
0.0
 30
0.0
  9
$PUCSORGBOTTOM
 10
0.0
 20
0.0
 30
0.0
  9
$PUCSORGLEFT
 10
0.0
 20
0.0
 30
0.0
  9
$PUCSORGRIGHT
 10
0.0
 20
0.0
 30
0.0
  9
$PUCSORGFRONT
 10
0.0
 20
0.0
 30
0.0
  9
$PUCSORGBACK
 10
0.0
 20
0.0
 30
0.0
  9
$USERI1
 70
     0
  9
$USERI2
 70
     0
  9
$USERI3
 70
     0
  9
$USERI4
 70
     0
  9
$USERI5
 70
     0
  9
$USERR1
 40
0.0
  9
$USERR2
 40
0.0
  9
$USERR3
 40
0.0
  9
$USERR4
 40
0.0
  9
$USERR5
 40
0.0
  9
$WORLDVIEW
 70
     1
  9
$SHADEDGE
 70
     3
  9
$SHADEDIF
 70
    70
  9
$TILEMODE
 70
     1
  9
$MAXACTVP
 70
    15
  9
$PINSBASE
 10
0.0
 20
0.0
 30
0.0
  9
$PLIMCHECK
 70
     0
  9
$PEXTMIN
 10
1.000000000000000E+20
 20
1.000000000000000E+20
 30
1.000000000000000E+20
  9
$PEXTMAX
 10
-1.000000000000000E+20
 20
-1.000000000000000E+20
 30
-1.000000000000000E+20
  9
$PLIMMIN
 10
0.0
 20
0.0
  9
$PLIMMAX
 10
12.0
 20
9.0
  9
$UNITMODE
 70
     0
  9
$VISRETAIN
 70
     0
  9
$PLINEGEN
 70
     0
  9
$PSLTSCALE
 70
     1
  9
$TREEDEPTH
 70
  3020
  9
$CMLSTYLE
  2
STANDARD
  9
$CMLJUST
 70
     0
  9
$CMLSCALE
 40
1.0
  9
$PROXYGRAPHICS
 70
     1
  9
$MEASUREMENT
 70
     0
  9
$CELWEIGHT
370
    -1
  9
$ENDCAPS
280
     0
  9
$JOINSTYLE
280
     0
  9
$LWDISPLAY
290
     0
  9
$INSUNITS
 70
     0
  9
$HYPERLINKBASE
  1

  9
$STYLESHEET
  1

  9
$XEDIT
290
     1
  9
$CEPSNTYPE
380
     0
  9
$PSTYLEMODE
290
     1
  9
$FINGERPRINTGUID
  2
{68A42EFC-6F16-49C3-AE16-A044C69306E6}
  9
$VERSIONGUID
  2
{6C01D9B2-CFAF-4436-98C8-19AF64502B24}
  9
$EXTNAMES
290
     1
  9
$PSVPSCALE
 40
0.0
  9
$OLESTARTUP
290
     0
  0
ENDSEC
  0
SECTION
  2
CLASSES
  0
CLASS
  1
ACDBDICTIONARYWDFLT
  2
AcDbDictionaryWithDefault
  3
ObjectDBX Classes
 90
        0
280
     0
281
     0
  0
CLASS
  1
ACDBPLACEHOLDER
  2
AcDbPlaceHolder
  3
ObjectDBX Classes
 90
        0
280
     0
281
     0
  0
CLASS
  1
LAYOUT
  2
AcDbLayout
  3
ObjectDBX Classes
 90
        0
280
     0
281
     0
  0
CLASS
  1
DICTIONARYVAR
  2
AcDbDictionaryVar
  3
ObjectDBX Classes
 90
        0
280
     0
281
     0
  0
CLASS
  1
MATERIAL
  2
AcDbMaterial
  3
ObjectDBX Classes
 90
     1024
280
     0
281
     0
  0
CLASS
  1
VISUALSTYLE
  2
AcDbVisualStyle
  3
ObjectDBX Classes
 90
     4095
280
     0
281
     0
  0
CLASS
  1
TABLESTYLE
  2
AcDbTableStyle
  3
ObjectDBX Classes
 90
     4095
280
     0
281
     0
  0
ENDSEC
  0
SECTION
  2
TABLES
  0
TABLE
  2
VPORT
  5
8
102
{ACAD_XDICTIONARY
360
3A1
102
}
330
0
100
AcDbSymbolTable
 70
     1
  0
VPORT
  5
326
330
8
100
AcDbSymbolTableRecord
100
AcDbViewportTableRecord
  2
*Active
 70
     0
 10
0.0
 20
0.0
 11
1.0
 21
1.0
 12
-4.27935294099945
 22
0.5937177420000248
 13
0.0
 23
0.0
 14
0.5740882589684922
 24
0.5740882589684922
 15
0.5
 25
0.5
 16
0.0
 26
0.0
 36
1.0
 17
0.0
 27
0.0
 37
0.0
 40
8.211315003492147
 41
2.023012552301255
 42
50.0
 43
0.0
 44
0.0
 50
0.0
 51
0.0
 71
     0
 72
   100
 73
     1
 74
     1
 75
     0
 76
     0
 77
     0
 78
     0
281
     0
 65
     1
110
0.0
120
0.0
130
0.0
111
1.0
121
0.0
131
0.0
112
0.0
122
1.0
132
0.0
 79
     0
146
0.0
  0
ENDTAB
  0
TABLE
  2
LTYPE
  5
5
330
0
100
AcDbSymbolTable
 70
     3
  0
LTYPE
  5
12
330
5
100
AcDbSymbolTableRecord
100
AcDbLinetypeTableRecord
  2
BYBLOCK
 70
     0
  3

 72
    65
 73
     0
 40
0.0
  0
LTYPE
  5
13
330
5
100
AcDbSymbolTableRecord
100
AcDbLinetypeTableRecord
  2
BYLAYER
 70
     0
  3

 72
    65
 73
     0
 40
0.0
  0
LTYPE
  5
14
330
5
100
AcDbSymbolTableRecord
100
AcDbLinetypeTableRecord
  2
CONTINUOUS
 70
     0
  3
Solid line
 72
    65
 73
     0
 40
0.0
  0
LTYPE
  5
86
330
5
100
AcDbSymbolTableRecord
100
AcDbLinetypeTableRecord
  2
HIDDEN
 70
     0
  3
__ __ __ __ __ __ __ __ __ __ __ __ __ __ __ __
 72
    65
 73
     2
 40
0.375
 49
0.25
 74
     0
 49
-0.125
 74
     0
  0
LTYPE
  5
87
330
5
100
AcDbSymbolTableRecord
100
AcDbLinetypeTableRecord
  2
HIDDEN2
 70
     0
  3
_ _ _ _ _ _ _ _ _ _ _ _ _ _ _ _ _ _ _ _ _ _ _ _
 72
    65
 73
     2
 40
0.1875
 49
0.125
 74
     0
 49
-0.0625
 74
     0
  0
ENDTAB
  0
TABLE
  2
LAYER
  5
2
330
0
100
AcDbSymbolTable
 70
     6
  0
LAYER
  5
F
330
2
100
AcDbSymbolTableRecord
100
AcDbLayerTableRecord
  2
0
 70
     0
 62
     7
  6
CONTINUOUS
370
    -3
390
20A
  0
LAYER
  5
88
330
2
100
AcDbSymbolTableRecord
100
AcDbLayerTableRecord
  2
ADP2DETAIL
 70
     0
 62
     5
  6
CONTINUOUS
370
    -3
390
20A
  0
LAYER
  5
89
330
2
100
AcDbSymbolTableRecord
100
AcDbLayerTableRecord
  2
ADPDIM
 70
     0
 62
     3
  6
CONTINUOUS
370
    -3
390
20A
  0
LAYER
  5
8B
330
2
100
AcDbSymbolTableRecord
100
AcDbLayerTableRecord
  2
ADP1DETAIL
 70
     0
 62
     7
  6
CONTINUOUS
370
    -3
390
20A
  0
LAYER
  5
8D
330
2
100
AcDbSymbolTableRecord
100
AcDbLayerTableRecord
  2
DEFPOINTS
 70
     0
 62
     7
  6
CONTINUOUS
290
     0
370
    -3
390
20A
  0
LAYER
  5
91
330
2
100
AcDbSymbolTableRecord
100
AcDbLayerTableRecord
  2
HIDDEN
 70
     0
 62
     5
  6
HIDDEN
370
    -3
390
20A
  0
ENDTAB
  0
TABLE
  2
STYLE
  5
3
330
0
100
AcDbSymbolTable
 70
     2
  0
STYLE
  5
10
330
3
100
AcDbSymbolTableRecord
100
AcDbTextStyleTableRecord
  2
STANDARD
 70
     0
 40
0.0
 41
1.0
 50
0.0
 71
     0
 42
0.2
  3
txt
  4

  0
STYLE
  5
211
330
3
100
AcDbSymbolTableRecord
100
AcDbTextStyleTableRecord
  2
ARIAL_WIDE
 70
     0
 40
0.0
 41
1.25
 50
0.0
 71
     0
 42
0.2
  3
ARIAL.TTF
  4

1001
ACAD
1000
Arial
1071
       34
  0
ENDTAB
  0
TABLE
  2
VIEW
  5
6
330
0
100
AcDbSymbolTable
 70
     0
  0
ENDTAB
  0
TABLE
  2
UCS
  5
7
330
0
100
AcDbSymbolTable
 70
     0
  0
ENDTAB
  0
TABLE
  2
APPID
  5
9
330
0
100
AcDbSymbolTable
 70
     2
  0
APPID
  5
11
330
9
100
AcDbSymbolTableRecord
100
AcDbRegAppTableRecord
  2
ACAD
 70
     0
  0
APPID
  5
36F
330
9
100
AcDbSymbolTableRecord
100
AcDbRegAppTableRecord
  2
DCO15
 70
     0
  0
ENDTAB
  0
TABLE
  2
DIMSTYLE
  5
A
330
0
100
AcDbSymbolTable
 70
     1
100
AcDbDimStyleTable
 71
     0
  0
DIMSTYLE
105
205
330
A
100
AcDbSymbolTableRecord
100
AcDbDimStyleTableRecord
  2
STANDARD
 70
     0
340
10
  0
ENDTAB
  0
TABLE
  2
BLOCK_RECORD
  5
1
330
0
100
AcDbSymbolTable
 70
     1
  0
BLOCK_RECORD
  5
18
102
{ACAD_XDICTIONARY
360
266
102
}
330
1
100
AcDbSymbolTableRecord
100
AcDbBlockTableRecord
  2
*MODEL_SPACE
340
20D
  0
BLOCK_RECORD
  5
15
102
{ACAD_XDICTIONARY
360
264
102
}
330
1
100
AcDbSymbolTableRecord
100
AcDbBlockTableRecord
  2
*PAPER_SPACE
340
20E
  0
BLOCK_RECORD
  5
73
330
1
100
AcDbSymbolTableRecord
100
AcDbBlockTableRecord
  2
*D0
340
0
  0
ENDTAB
  0
ENDSEC
  0
SECTION
  2
BLOCKS
  0
BLOCK
  5
94
330
18
100
AcDbEntity
  8
0
100
AcDbBlockBegin
  2
*MODEL_SPACE
 70
     0
 10
0.0
 20
0.0
 30
0.0
  3
*MODEL_SPACE
  1

  0
ENDBLK
  5
95
330
18
100
AcDbEntity
  8
0
100
AcDbBlockEnd
  0
BLOCK
  5
92
330
15
100
AcDbEntity
 67
     1
  8
0
100
AcDbBlockBegin
  2
*PAPER_SPACE
 70
     0
 10
0.0
 20
0.0
 30
0.0
  3
*PAPER_SPACE
  1

  0
ENDBLK
  5
93
330
15
100
AcDbEntity
 67
     1
  8
0
100
AcDbBlockEnd
  0
BLOCK
  5
97
330
73
100
AcDbEntity
  8
0
100
AcDbBlockBegin
  2
*D0
 70
     1
 10
0.0
 20
0.0
 30
0.0
  3
*D0
  1
AVE_RENDER
  0
LINE
  5
98
330
73
100
AcDbEntity
  8
0
  6
ByBlock
 62
     0
100
AcDbLine
 10
-7.942552205839255
 20
-0.6413633193440314
 30
0.0
 11
-7.942552205839255
 21
-1.128111857967859
 31
0.0
  0
LINE
  5
99
330
73
100
AcDbEntity
  8
0
  6
ByBlock
 62
     0
100
AcDbLine
 10
-6.442552205839255
 20
-0.8113633193440312
 30
0.0
 11
-6.442552205839255
 21
-1.128111857967859
 31
0.0
  0
LINE
  5
9A
330
73
100
AcDbEntity
  8
0
  6
ByBlock
 62
     0
100
AcDbLine
 10
-7.942552205839255
 20
-0.9481118579678595
 30
0.0
 11
-7.567552205839255
 21
-0.9481118579678595
 31
0.0
  0
LINE
  5
9B
330
73
100
AcDbEntity
  8
0
  6
ByBlock
 62
     0
100
AcDbLine
 10
-6.442552205839255
 20
-0.9481118579678595
 30
0.0
 11
-6.817552205839255
 21
-0.9481118579678595
 31
0.0
  0
LINE
  5
9C
330
73
100
AcDbEntity
  8
0
  6
ByBlock
 62
     0
100
AcDbLine
 10
-8.067552205839255
 20
-1.073111857967859
 30
0.0
 11
-7.817552205839255
 21
-0.8231118579678595
 31
0.0
  0
LINE
  5
9D
330
73
100
AcDbEntity
  8
0
  6
ByBlock
 62
     0
100
AcDbLine
 10
-6.567552205839255
 20
-1.073111857967859
 30
0.0
 11
-6.317552205839255
 21
-0.8231118579678595
 31
0.0
  0
TEXT
  5
9E
330
73
100
AcDbEntity
  8
0
  6
ByBlock
 62
     0
100
AcDbText
 10
-7.442552205839255
 20
-1.010611857967859
 30
0.0
 40
0.125
  1
1 1/2
 72
     1
 11
-7.192552205839255
 21
-0.9481118579678595
 31
0.0
100
AcDbText
 73
     2
  0
POINT
  5
9F
330
73
100
AcDbEntity
  8
DEFPOINTS
  6
ByBlock
 62
     0
100
AcDbPoint
 10
-7.942552205839255
 20
-0.5788633193440314
 30
0.0
  0
POINT
  5
A0
330
73
100
AcDbEntity
  8
DEFPOINTS
  6
ByBlock
 62
     0
100
AcDbPoint
 10
-6.442552205839255
 20
-0.7488633193440313
 30
0.0
  0
POINT
  5
A1
330
73
100
AcDbEntity
  8
DEFPOINTS
  6
ByBlock
 62
     0
100
AcDbPoint
 10
-6.442552205839255
 20
-0.9481118579678595
 30
0.0
  0
ENDBLK
  5
A2
330
73
100
AcDbEntity
  8
0
100
AcDbBlockEnd
  0
ENDSEC
  0
SECTION
  2
ENTITIES
  0
DIMENSION
  5
A3
330
18
100
AcDbEntity
  8
ADPDIM
100
AcDbDimension
  2
*D0
 10
-6.442552205839255
 20
-0.9481118579678595
 30
0.0
 11
-7.192552205839255
 21
-0.9481118579678595
 31
0.0
 71
     5
 42
-1.0
100
AcDbAlignedDimension
 13
-7.942552205839255
 23
-0.5788633193440314
 33
0.0
 14
-6.442552205839255
 24
-0.7488633193440313
 34
0.0
100
AcDbRotatedDimension
  0
LINE
  5
A4
330
18
100
AcDbEntity
  8
ADP1DETAIL
100
AcDbLine
 10
-4.192552205839255
 20
0.4811366806559692
 30
0.0
 11
-7.942552205839255
 21
0.4811366806559687
 31
0.0
  0
LINE
  5
A5
330
18
100
AcDbEntity
  8
ADP1DETAIL
100
AcDbLine
 10
-6.067552205839255
 20
-0.5788633193440314
 30
0.0
 11
-7.942552205839255
 21
-0.5788633193440314
 31
0.0
  0
LINE
  5
A6
330
18
100
AcDbEntity
  8
ADP1DETAIL
100
AcDbLine
 10
-6.067552205839255
 20
-0.0788633193440314
 30
0.0
 11
-7.942552205839255
 21
-0.0788633193440314
 31
0.0
  0
LINE
  5
A7
330
18
100
AcDbEntity
  8
ADP1DETAIL
100
AcDbLine
 10
-6.067552205839255
 20
-0.2388633193440319
 30
0.0
 11
-7.942552205839255
 21
-0.2388633193440315
 31
0.0
  0
LINE
  5
A8
330
18
100
AcDbEntity
  8
ADP1DETAIL
100
AcDbLine
 10
-7.942552205839255
 20
2.820410309780167
 30
0.0
 11
-4.192552205839256
 21
2.820410309780167
 31
0.0
  0
LINE
  5
A9
330
18
100
AcDbEntity
  8
ADP1DETAIL
100
AcDbLine
 10
-7.942552205839255
 20
1.525410309780167
 30
0.0
 11
-4.192552205839256
 21
1.525410309780166
 31
0.0
  0
LINE
  5
AA
330
18
100
AcDbEntity
  8
ADP1DETAIL
100
AcDbLine
 10
-7.942552205839255
 20
1.570410309780167
 30
0.0
 11
-4.192552205839256
 21
1.570410309780167
 31
0.0
  0
LINE
  5
AB
330
18
100
AcDbEntity
  8
ADP1DETAIL
100
AcDbLine
 10
-7.942552205839255
 20
2.030410309780167
 30
0.0
 11
-4.192552205839256
 21
2.030410309780163
 31
0.0
  0
LINE
  5
AC
330
18
100
AcDbEntity
  8
ADP1DETAIL
100
AcDbLine
 10
-7.942552205839255
 20
2.350410309780167
 30
0.0
 11
-4.192552205839256
 21
2.350410309780167
 31
0.0
  0
LINE
  5
AD
330
18
100
AcDbEntity
  8
ADP2DETAIL
  6
HIDDEN2
100
AcDbLine
 10
-6.592141758078062
 20
-0.4742633193440314
 30
0.0
 11
-7.942552205839255
 21
-0.4742633193440314
 31
0.0
  0
LINE
  5
AE
330
18
100
AcDbEntity
  8
ADP2DETAIL
  6
HIDDEN2
100
AcDbLine
 10
-6.760052205839254
 20
-0.3182633193440316
 30
0.0
 11
-7.942552205839255
 21
-0.3182633193440321
 31
0.0
  0
LINE
  5
AF
330
18
100
AcDbEntity
  8
ADP2DETAIL
  6
HIDDEN2
100
AcDbLine
 10
-6.630052205839255
 20
-0.4228633193440312
 30
0.0
 11
-7.942552205839255
 21
-0.4228633193440308
 31
0.0
  0
LINE
  5
B0
330
18
100
AcDbEntity
  8
ADP2DETAIL
  6
HIDDEN2
100
AcDbLine
 10
-6.991529744145301
 20
-0.303494944499906
 30
0.0
 11
-7.009046058485113
 21
-0.2388633193440315
 31
0.0
  0
LINE
  5
B1
330
18
100
AcDbEntity
  8
ADP2DETAIL
  6
HIDDEN2
100
AcDbLine
 10
-6.067552205839255
 20
0.3765366806559687
 30
0.0
 11
-7.942552205839255
 21
0.3765366806559687
 31
0.0
  0
LINE
  5
B2
330
18
100
AcDbEntity
  8
ADP2DETAIL
  6
HIDDEN2
100
AcDbLine
 10
-6.067552205839255
 20
0.3251366806559681
 30
0.0
 11
-7.942552205839255
 21
0.3251366806559686
 31
0.0
  0
LINE
  5
B3
330
18
100
AcDbEntity
  8
ADP2DETAIL
  6
HIDDEN2
100
AcDbLine
 10
-6.067552205839255
 20
0.2205366806559681
 30
0.0
 11
-7.942552205839255
 21
0.2205366806559685
 31
0.0
  0
LINE
  5
B4
330
18
100
AcDbEntity
  8
ADP2DETAIL
  6
HIDDEN2
100
AcDbLine
 10
-7.942552205839255
 20
1.925810309780167
 30
0.0
 11
-4.192552205839256
 21
1.925810309780163
 31
0.0
  0
LINE
  5
B5
330
18
100
AcDbEntity
  8
ADP2DETAIL
  6
HIDDEN2
100
AcDbLine
 10
-7.942552205839255
 20
1.675010309780167
 30
0.0
 11
-4.192552205839256
 21
1.675010309780167
 31
0.0
  0
LINE
  5
B6
330
18
100
AcDbEntity
  8
ADP2DETAIL
  6
HIDDEN2
100
AcDbLine
 10
-7.942552205839255
 20
2.715810309780168
 30
0.0
 11
-4.192552205839256
 21
2.715810309780168
 31
0.0
  0
LINE
  5
B7
330
18
100
AcDbEntity
  8
ADP2DETAIL
  6
HIDDEN2
100
AcDbLine
 10
-7.942552205839255
 20
2.455010309780167
 30
0.0
 11
-4.192552205839256
 21
2.455010309780167
 31
0.0
  0
LINE
  5
B8
330
18
100
AcDbEntity
  8
ADP1DETAIL
100
AcDbLine
 10
-7.067552205839255
 20
2.280410309780167
 30
0.0
 11
-7.067552205839255
 21
2.100410309780166
 31
0.0
  0
LINE
  5
B9
330
18
100
AcDbEntity
  8
ADP1DETAIL
100
AcDbLine
 10
-7.328813267786158
 20
2.070410309780167
 30
0.0
 11
-7.328813267786158
 21
2.310410309780168
 31
0.0
  0
LINE
  5
BA
330
18
100
AcDbEntity
  8
ADP1DETAIL
100
AcDbLine
 10
-7.227855287349582
 20
2.070410309780167
 30
0.0
 11
-7.227855287349582
 21
2.310410309780167
 31
0.0
  0
LINE
  5
BB
330
18
100
AcDbEntity
  8
ADP1DETAIL
  6
HIDDEN2
100
AcDbLine
 10
-10.31396977864526
 20
-0.0320633193440316
 30
0.0
 11
-10.27396977864526
 21
0.0011366806559683
 31
0.0
  0
LINE
  5
BC
330
18
100
AcDbEntity
  8
ADP1DETAIL
  6
HIDDEN2
100
AcDbLine
 10
-10.60896977864526
 20
0.0043366806559684
 30
0.0
 11
-10.64896977864526
 21
-0.028863319344032
 31
0.0
  0
LINE
  5
BD
330
18
100
AcDbEntity
  8
ADP1DETAIL
100
AcDbLine
 10
-11.11646977864526
 20
-0.0188633193440313
 30
0.0
 11
-10.97596694218228
 21
-0.4862859898959196
 31
0.0
  0
LINE
  5
BE
330
18
100
AcDbEntity
  8
ADP1DETAIL
100
AcDbLine
 10
-11.01629744552239
 20
0.0112475371154108
 30
0.0
 11
-10.87579460905942
 21
-0.4561751334364775
 31
0.0
  0
LINE
  5
BF
330
18
100
AcDbEntity
  8
ADP1DETAIL
100
AcDbLine
 10
-10.33146977864526
 20
0.5684980802211906
 30
0.0
 11
-10.33146977864526
 21
-0.4228633193440308
 31
0.0
  0
LINE
  5
C0
330
18
100
AcDbEntity
  8
ADP1DETAIL
100
AcDbLine
 10
-10.59146977864526
 20
0.5684980802211906
 30
0.0
 11
-10.59146977864526
 21
-0.4228633193440308
 31
0.0
  0
LINE
  5
C1
330
18
100
AcDbEntity
  8
ADP1DETAIL
100
AcDbLine
 10
-10.99822869026754
 20
-0.0488633193440311
 30
0.0
 11
-10.87579460905942
 21
0.3584484947484148
 31
0.0
  0
LINE
  5
C2
330
18
100
AcDbEntity
  8
ADP1DETAIL
100
AcDbLine
 10
-9.906642111768128
 20
-0.1089741758034735
 30
0.0
 11
-10.0471449482311
 21
0.3584484947484148
 31
0.0
  0
LINE
  5
C3
330
18
100
AcDbEntity
  8
ADP1DETAIL
100
AcDbLine
 10
-9.80646977864526
 20
-0.0788633193440314
 30
0.0
 11
-9.946972615108235
 21
0.3885593512078569
 31
0.0
  0
LINE
  5
C4
330
18
100
AcDbEntity
  8
ADP1DETAIL
100
AcDbLine
 10
-10.27396977864526
 20
-0.7488633193440313
 30
0.0
 11
-10.64896977864526
 21
-0.7488633193440313
 31
0.0
  0
LINE
  5
C5
330
18
100
AcDbEntity
  8
ADP1DETAIL
100
AcDbLine
 10
-10.66266019113685
 20
-0.4228633193440312
 30
0.0
 11
-10.26027936615366
 21
-0.4228633193440317
 31
0.0
  0
LINE
  5
C6
330
18
100
AcDbEntity
  8
ADP1DETAIL
100
AcDbLine
 10
-10.64896977864526
 20
-0.4488633193440315
 30
0.0
 11
-10.27396977864526
 21
-0.4188633193440321
 31
0.0
  0
LINE
  5
C7
330
18
100
AcDbEntity
  8
ADP1DETAIL
100
AcDbLine
 10
-10.60896977864526
 20
-0.4756633193440312
 30
0.0
 11
-10.31396977864526
 21
-0.4520633193440311
 31
0.0
  0
LINE
  5
C8
330
18
100
AcDbEntity
  8
ADP1DETAIL
100
AcDbLine
 10
-10.64896977864526
 20
-0.5088633193440315
 30
0.0
 11
-10.27396977864526
 21
-0.4788633193440317
 31
0.0
  0
LINE
  5
C9
330
18
100
AcDbEntity
  8
ADP1DETAIL
100
AcDbLine
 10
-10.60896977864526
 20
-0.5356633193440313
 30
0.0
 11
-10.31396977864526
 21
-0.5120633193440312
 31
0.0
  0
LINE
  5
CA
330
18
100
AcDbEntity
  8
ADP1DETAIL
100
AcDbLine
 10
-10.64896977864526
 20
-0.5688633193440316
 30
0.0
 11
-10.27396977864526
 21
-0.5388633193440318
 31
0.0
  0
LINE
  5
CB
330
18
100
AcDbEntity
  8
ADP1DETAIL
100
AcDbLine
 10
-10.60896977864526
 20
-0.5956633193440313
 30
0.0
 11
-10.31396977864526
 21
-0.5720633193440312
 31
0.0
  0
LINE
  5
CC
330
18
100
AcDbEntity
  8
ADP1DETAIL
100
AcDbLine
 10
-10.60896977864526
 20
-0.5956633193440318
 30
0.0
 11
-10.31396977864526
 21
-0.5720633193440317
 31
0.0
  0
LINE
  5
CD
330
18
100
AcDbEntity
  8
ADP1DETAIL
100
AcDbLine
 10
-10.64896977864526
 20
-0.6288633193440317
 30
0.0
 11
-10.27396977864526
 21
-0.5988633193440318
 31
0.0
  0
LINE
  5
CE
330
18
100
AcDbEntity
  8
ADP1DETAIL
100
AcDbLine
 10
-10.60896977864526
 20
-0.6556633193440314
 30
0.0
 11
-10.31396977864526
 21
-0.6320633193440313
 31
0.0
  0
LINE
  5
CF
330
18
100
AcDbEntity
  8
ADP1DETAIL
100
AcDbLine
 10
-10.60896977864526
 20
-0.6556633193440318
 30
0.0
 11
-10.31396977864526
 21
-0.6320633193440317
 31
0.0
  0
LINE
  5
D0
330
18
100
AcDbEntity
  8
ADP1DETAIL
100
AcDbLine
 10
-10.64896977864526
 20
-0.6888633193440317
 30
0.0
 11
-10.27396977864526
 21
-0.6588633193440319
 31
0.0
  0
LINE
  5
D1
330
18
100
AcDbEntity
  8
ADP1DETAIL
100
AcDbLine
 10
-10.60896977864526
 20
-0.7156633193440314
 30
0.0
 11
-10.31396977864526
 21
-0.6920633193440314
 31
0.0
  0
LINE
  5
D3
330
18
100
AcDbEntity
  8
ADP1DETAIL
100
AcDbLine
 10
-10.60896977864526
 20
-0.5356633193440317
 30
0.0
 11
-10.31396977864526
 21
-0.5120633193440316
 31
0.0
  0
LINE
  5
D4
330
18
100
AcDbEntity
  8
ADP1DETAIL
100
AcDbLine
 10
-10.60896977864526
 20
-0.4756633193440316
 30
0.0
 11
-10.31396977864526
 21
-0.4520633193440316
 31
0.0
  0
LINE
  5
D5
330
18
100
AcDbEntity
  8
ADP1DETAIL
  6
HIDDEN2
100
AcDbLine
 10
-10.64896977864526
 20
-0.0288633193440315
 30
0.0
 11
-10.59146977864526
 21
-0.0242633193440316
 31
0.0
  0
LINE
  5
D6
330
18
100
AcDbEntity
  8
ADP1DETAIL
  6
HIDDEN2
100
AcDbLine
 10
-10.60896977864526
 20
-0.0556633193440312
 30
0.0
 11
-10.59146977864526
 21
-0.0542633193440314
 31
0.0
  0
LINE
  5
D7
330
18
100
AcDbEntity
  8
ADP1DETAIL
  6
HIDDEN2
100
AcDbLine
 10
-10.60896977864526
 20
-0.0556633193440317
 30
0.0
 11
-10.59146977864526
 21
-0.0542633193440318
 31
0.0
  0
LINE
  5
D8
330
18
100
AcDbEntity
  8
ADP1DETAIL
  6
HIDDEN2
100
AcDbLine
 10
-10.64896977864526
 20
-0.0888633193440316
 30
0.0
 11
-10.59146977864526
 21
-0.0842633193440312
 31
0.0
  0
LINE
  5
D9
330
18
100
AcDbEntity
  8
ADP1DETAIL
  6
HIDDEN2
100
AcDbLine
 10
-10.64896977864526
 20
-0.028863319344032
 30
0.0
 11
-10.60896977864526
 21
-0.0556633193440312
 31
0.0
  0
LINE
  5
DA
330
18
100
AcDbEntity
  8
ADP1DETAIL
  6
HIDDEN2
100
AcDbLine
 10
-10.60896977864526
 20
-0.0556633193440317
 30
0.0
 11
-10.64896977864526
 21
-0.088863319344032
 31
0.0
  0
ARC
  5
DB
330
18
100
AcDbEntity
  8
ADP1DETAIL
  6
HIDDEN2
100
AcDbCircle
 10
-10.7177516776534
 20
-0.2882633193440318
 30
0.0
 40
0.03
100
AcDbArc
 50
270.0
 51
0.0
  0
LINE
  5
DC
330
18
100
AcDbEntity
  8
ADP1DETAIL
  6
HIDDEN2
100
AcDbLine
 10
-10.6877516776534
 20
-0.2388633193440319
 30
0.0
 11
-10.6877516776534
 21
-0.2882633193440318
 31
0.0
  0
LINE
  5
DD
330
18
100
AcDbEntity
  8
ADP2DETAIL
  6
HIDDEN2
100
AcDbLine
 10
-10.60896977864526
 20
-0.2356633193440314
 30
0.0
 11
-10.59146977864526
 21
-0.2342633193440315
 31
0.0
  0
LINE
  5
DE
330
18
100
AcDbEntity
  8
ADP2DETAIL
  6
HIDDEN2
100
AcDbLine
 10
-10.64896977864526
 20
-0.2688633193440317
 30
0.0
 11
-10.59146977864526
 21
-0.2642633193440318
 31
0.0
  0
LINE
  5
DF
330
18
100
AcDbEntity
  8
ADP2DETAIL
  6
HIDDEN2
100
AcDbLine
 10
-10.60896977864526
 20
-0.2956633193440314
 30
0.0
 11
-10.59146977864526
 21
-0.2942633193440311
 31
0.0
  0
LINE
  5
E0
330
18
100
AcDbEntity
  8
ADP2DETAIL
  6
HIDDEN2
100
AcDbLine
 10
-10.60896977864526
 20
-0.2956633193440319
 30
0.0
 11
-10.59146977864526
 21
-0.294263319344032
 31
0.0
  0
LINE
  5
E1
330
18
100
AcDbEntity
  8
ADP2DETAIL
  6
HIDDEN2
100
AcDbLine
 10
-10.64896977864526
 20
-0.3288633193440318
 30
0.0
 11
-10.59146977864526
 21
-0.3242633193440318
 31
0.0
  0
LINE
  5
E2
330
18
100
AcDbEntity
  8
ADP2DETAIL
  6
HIDDEN2
100
AcDbLine
 10
-10.60896977864526
 20
-0.3556633193440315
 30
0.0
 11
-10.59146977864526
 21
-0.3542633193440317
 31
0.0
  0
LINE
  5
E3
330
18
100
AcDbEntity
  8
ADP2DETAIL
  6
HIDDEN2
100
AcDbLine
 10
-10.60896977864526
 20
-0.3556633193440319
 30
0.0
 11
-10.59146977864526
 21
-0.3542633193440321
 31
0.0
  0
LINE
  5
E4
330
18
100
AcDbEntity
  8
ADP2DETAIL
  6
HIDDEN2
100
AcDbLine
 10
-10.64896977864526
 20
-0.3888633193440318
 30
0.0
 11
-10.59146977864526
 21
-0.3842633193440319
 31
0.0
  0
LINE
  5
E5
330
18
100
AcDbEntity
  8
ADP2DETAIL
  6
HIDDEN2
100
AcDbLine
 10
-10.60896977864526
 20
-0.4156633193440316
 30
0.0
 11
-10.59146977864526
 21
-0.4142633193440317
 31
0.0
  0
LINE
  5
E6
330
18
100
AcDbEntity
  8
ADP2DETAIL
  6
HIDDEN2
100
AcDbLine
 10
-10.60896977864526
 20
-0.4156633193440316
 30
0.0
 11
-10.59146977864526
 21
-0.4142633193440317
 31
0.0
  0
LINE
  5
E7
330
18
100
AcDbEntity
  8
ADP2DETAIL
  6
HIDDEN2
100
AcDbLine
 10
-10.60896977864526
 20
-0.3556633193440319
 30
0.0
 11
-10.64896977864526
 21
-0.3888633193440323
 31
0.0
  0
LINE
  5
E8
330
18
100
AcDbEntity
  8
ADP2DETAIL
  6
HIDDEN2
100
AcDbLine
 10
-10.64896977864526
 20
-0.3888633193440323
 30
0.0
 11
-10.60896977864526
 21
-0.4156633193440316
 31
0.0
  0
LINE
  5
E9
330
18
100
AcDbEntity
  8
ADP2DETAIL
  6
HIDDEN2
100
AcDbLine
 10
-10.60896977864526
 20
-0.2356633193440318
 30
0.0
 11
-10.64896977864526
 21
-0.2688633193440322
 31
0.0
  0
LINE
  5
EA
330
18
100
AcDbEntity
  8
ADP2DETAIL
  6
HIDDEN2
100
AcDbLine
 10
-10.64896977864526
 20
-0.2688633193440322
 30
0.0
 11
-10.60896977864526
 21
-0.2956633193440314
 31
0.0
  0
LINE
  5
EB
330
18
100
AcDbEntity
  8
ADP2DETAIL
  6
HIDDEN2
100
AcDbLine
 10
-10.60896977864526
 20
-0.2956633193440319
 30
0.0
 11
-10.64896977864526
 21
-0.3288633193440322
 31
0.0
  0
LINE
  5
EC
330
18
100
AcDbEntity
  8
ADP2DETAIL
  6
HIDDEN2
100
AcDbLine
 10
-10.64896977864526
 20
-0.3288633193440322
 30
0.0
 11
-10.60896977864526
 21
-0.3556633193440315
 31
0.0
  0
LINE
  5
ED
330
18
100
AcDbEntity
  8
ADP2DETAIL
  6
HIDDEN2
100
AcDbLine
 10
-10.66266019113685
 20
-0.3182633193440312
 30
0.0
 11
-10.57993972609548
 21
-0.3182633193440312
 31
0.0
  0
LINE
  5
EE
330
18
100
AcDbEntity
  8
ADP1DETAIL
  6
HIDDEN2
100
AcDbLine
 10
-10.60896977864526
 20
-0.4156633193440316
 30
0.0
 11
-10.64896977864526
 21
-0.4488633193440324
 31
0.0
  0
LINE
  5
EF
330
18
100
AcDbEntity
  8
ADP1DETAIL
  6
HIDDEN2
100
AcDbLine
 10
-10.64896977864526
 20
-0.4488633193440324
 30
0.0
 11
-10.60896977864526
 21
-0.4756633193440312
 31
0.0
  0
LINE
  5
F0
330
18
100
AcDbEntity
  8
ADP1DETAIL
  6
HIDDEN2
100
AcDbLine
 10
-10.60896977864526
 20
-0.4756633193440316
 30
0.0
 11
-10.64896977864526
 21
-0.508863319344032
 31
0.0
  0
LINE
  5
F1
330
18
100
AcDbEntity
  8
ADP1DETAIL
  6
HIDDEN2
100
AcDbLine
 10
-10.60896977864526
 20
-0.5356633193440317
 30
0.0
 11
-10.64896977864526
 21
-0.568863319344032
 31
0.0
  0
LINE
  5
F2
330
18
100
AcDbEntity
  8
ADP1DETAIL
  6
HIDDEN2
100
AcDbLine
 10
-10.64896977864526
 20
-0.508863319344032
 30
0.0
 11
-10.60896977864526
 21
-0.5356633193440313
 31
0.0
  0
LINE
  5
F3
330
18
100
AcDbEntity
  8
ADP1DETAIL
100
AcDbLine
 10
-10.64896977864526
 20
-0.6888633193440317
 30
0.0
 11
-10.64896977864526
 21
-0.7488633193440313
 31
0.0
  0
LINE
  5
F4
330
18
100
AcDbEntity
  8
ADP1DETAIL
100
AcDbLine
 10
-10.64896977864526
 20
-0.568863319344032
 30
0.0
 11
-10.60896977864526
 21
-0.5956633193440313
 31
0.0
  0
LINE
  5
F5
330
18
100
AcDbEntity
  8
ADP1DETAIL
100
AcDbLine
 10
-10.60896977864526
 20
-0.5956633193440318
 30
0.0
 11
-10.64896977864526
 21
-0.6288633193440321
 31
0.0
  0
LINE
  5
F6
330
18
100
AcDbEntity
  8
ADP1DETAIL
100
AcDbLine
 10
-10.64896977864526
 20
-0.6288633193440321
 30
0.0
 11
-10.60896977864526
 21
-0.6556633193440314
 31
0.0
  0
LINE
  5
F7
330
18
100
AcDbEntity
  8
ADP1DETAIL
100
AcDbLine
 10
-10.64896977864526
 20
-0.6888633193440321
 30
0.0
 11
-10.60896977864526
 21
-0.7156633193440314
 31
0.0
  0
LINE
  5
F8
330
18
100
AcDbEntity
  8
ADP1DETAIL
100
AcDbLine
 10
-10.60896977864526
 20
-0.6556633193440318
 30
0.0
 11
-10.64896977864526
 21
-0.6888633193440321
 31
0.0
  0
LINE
  5
F9
330
18
100
AcDbEntity
  8
ADP1DETAIL
100
AcDbLine
 10
-10.69274205580754
 20
-0.4396020916798538
 30
0.0
 11
-10.74099965414837
 21
-0.5173932514441182
 31
0.0
  0
LINE
  5
FA
330
18
100
AcDbEntity
  8
ADP1DETAIL
100
AcDbLine
 10
-10.64896977864526
 20
-0.2088633193440321
 30
0.0
 11
-10.60896977864526
 21
-0.2356633193440314
 31
0.0
  0
LINE
  5
FB
330
18
100
AcDbEntity
  8
ADP1DETAIL
100
AcDbLine
 10
-10.64896977864526
 20
-0.088863319344032
 30
0.0
 11
-10.60896977864526
 21
-0.1156633193440313
 31
0.0
  0
LINE
  5
FC
330
18
100
AcDbEntity
  8
ADP1DETAIL
100
AcDbLine
 10
-10.60896977864526
 20
-0.1156633193440313
 30
0.0
 11
-10.59146977864526
 21
-0.1142633193440314
 31
0.0
  0
LINE
  5
FD
330
18
100
AcDbEntity
  8
ADP1DETAIL
100
AcDbLine
 10
-10.60896977864526
 20
-0.1156633193440317
 30
0.0
 11
-10.59146977864526
 21
-0.1142633193440319
 31
0.0
  0
LINE
  5
FE
330
18
100
AcDbEntity
  8
ADP1DETAIL
100
AcDbLine
 10
-10.64896977864526
 20
-0.1488633193440316
 30
0.0
 11
-10.59146977864526
 21
-0.1442633193440317
 31
0.0
  0
LINE
  5
FF
330
18
100
AcDbEntity
  8
ADP1DETAIL
100
AcDbLine
 10
-10.60896977864526
 20
-0.1756633193440313
 30
0.0
 11
-10.59146977864526
 21
-0.1742633193440315
 31
0.0
  0
LINE
  5
100
330
18
100
AcDbEntity
  8
ADP1DETAIL
100
AcDbLine
 10
-10.60896977864526
 20
-0.1756633193440318
 30
0.0
 11
-10.59146977864526
 21
-0.1742633193440315
 31
0.0
  0
LINE
  5
101
330
18
100
AcDbEntity
  8
ADP1DETAIL
100
AcDbLine
 10
-10.64896977864526
 20
-0.2088633193440317
 30
0.0
 11
-10.59146977864526
 21
-0.2042633193440317
 31
0.0
  0
LINE
  5
102
330
18
100
AcDbEntity
  8
ADP1DETAIL
100
AcDbLine
 10
-10.60896977864526
 20
-0.1156633193440317
 30
0.0
 11
-10.64896977864526
 21
-0.1488633193440321
 31
0.0
  0
LINE
  5
103
330
18
100
AcDbEntity
  8
ADP1DETAIL
100
AcDbLine
 10
-10.64896977864526
 20
-0.1488633193440321
 30
0.0
 11
-10.60896977864526
 21
-0.1756633193440313
 31
0.0
  0
LINE
  5
104
330
18
100
AcDbEntity
  8
ADP1DETAIL
100
AcDbLine
 10
-10.60896977864526
 20
-0.1756633193440318
 30
0.0
 11
-10.64896977864526
 21
-0.2088633193440321
 31
0.0
  0
LINE
  5
105
330
18
100
AcDbEntity
  8
ADP1DETAIL
100
AcDbLine
 10
-10.6877516776534
 20
-0.2388633193440319
 30
0.0
 11
-10.60896977864526
 21
-0.2388633193440324
 31
0.0
  0
ARC
  5
106
330
18
100
AcDbEntity
  8
ADP1DETAIL
100
AcDbCircle
 10
-10.66266019113685
 20
-0.4582633193440313
 30
0.0
 40
0.0354
100
AcDbArc
 50
90.0
 51
148.186682605274
  0
ARC
  5
107
330
18
100
AcDbEntity
  8
ADP1DETAIL
100
AcDbCircle
 10
-10.85146977864526
 20
-0.4488633193440315
 30
0.0
 40
0.13
100
AcDbArc
 50
196.7302812783535
 51
328.1866826052741
  0
LINE
  5
108
330
18
100
AcDbEntity
  8
ADP1DETAIL
100
AcDbLine
 10
-10.78162801751812
 20
-0.3844618540054765
 30
0.0
 11
-10.82988561585894
 21
-0.462253013769741
 31
0.0
  0
ARC
  5
109
330
18
100
AcDbEntity
  8
ADP1DETAIL
100
AcDbCircle
 10
-10.85146977864526
 20
-0.4488633193440315
 30
0.0
 40
0.0254
100
AcDbArc
 50
196.7302812783535
 51
328.1866826052741
  0
ARC
  5
10A
330
18
100
AcDbEntity
  8
ADP1DETAIL
100
AcDbCircle
 10
-10.66266019113685
 20
-0.4582633193440313
 30
0.0
 40
0.14
100
AcDbArc
 50
90.0
 51
148.186682605274
  0
LINE
  5
10B
330
18
100
AcDbEntity
  8
ADP1DETAIL
100
AcDbLine
 10
-9.826296663256302
 20
-0.0848230934448173
 30
0.0
 11
-9.946972615108235
 21
-0.4862859898959196
 31
0.0
  0
LINE
  5
10C
330
18
100
AcDbEntity
  8
ADP1DETAIL
100
AcDbLine
 10
-9.906642111768128
 20
-0.1089741758034735
 30
0.0
 11
-9.80646977864526
 21
-0.0788633193440314
 31
0.0
  0
LINE
  5
10D
330
18
100
AcDbEntity
  8
ADP1DETAIL
  6
HIDDEN2
100
AcDbLine
 10
-10.27396977864526
 20
-0.0588633193440318
 30
0.0
 11
-10.31396977864526
 21
-0.0320633193440321
 31
0.0
  0
LINE
  5
10E
330
18
100
AcDbEntity
  8
ADP1DETAIL
  6
HIDDEN2
100
AcDbLine
 10
-10.33146977864526
 20
-0.0634633193440317
 30
0.0
 11
-10.27396977864526
 21
-0.0588633193440318
 31
0.0
  0
LINE
  5
10F
330
18
100
AcDbEntity
  8
ADP1DETAIL
  6
HIDDEN2
100
AcDbLine
 10
-10.33146977864526
 20
-0.0334633193440319
 30
0.0
 11
-10.31396977864526
 21
-0.0320633193440316
 31
0.0
  0
LINE
  5
110
330
18
100
AcDbEntity
  8
ADP1DETAIL
  6
HIDDEN2
100
AcDbLine
 10
-10.33146977864526
 20
-0.0334633193440315
 30
0.0
 11
-10.31396977864526
 21
-0.0320633193440312
 31
0.0
  0
ARC
  5
111
330
18
100
AcDbEntity
  8
ADP1DETAIL
  6
HIDDEN2
100
AcDbCircle
 10
-10.20518787963711
 20
-0.2882633193440309
 30
0.0
 40
0.03
100
AcDbArc
 50
180.0000000000006
 51
270.0
  0
LINE
  5
112
330
18
100
AcDbEntity
  8
ADP1DETAIL
  6
HIDDEN2
100
AcDbLine
 10
-10.23518787963711
 20
-0.2388633193440324
 30
0.0
 11
-10.23518787963711
 21
-0.2882633193440314
 31
0.0
  0
LINE
  5
113
330
18
100
AcDbEntity
  8
ADP2DETAIL
  6
HIDDEN2
100
AcDbLine
 10
-10.31396977864526
 20
-0.3920633193440319
 30
0.0
 11
-10.27396977864526
 21
-0.358863319344032
 31
0.0
  0
LINE
  5
114
330
18
100
AcDbEntity
  8
ADP2DETAIL
  6
HIDDEN2
100
AcDbLine
 10
-10.27396977864526
 20
-0.4188633193440321
 30
0.0
 11
-10.31396977864526
 21
-0.3920633193440324
 31
0.0
  0
LINE
  5
115
330
18
100
AcDbEntity
  8
ADP2DETAIL
  6
HIDDEN2
100
AcDbLine
 10
-10.31396977864526
 20
-0.2720633193440318
 30
0.0
 11
-10.27396977864526
 21
-0.2388633193440319
 31
0.0
  0
LINE
  5
116
330
18
100
AcDbEntity
  8
ADP2DETAIL
  6
HIDDEN2
100
AcDbLine
 10
-10.31396977864526
 20
-0.3320633193440319
 30
0.0
 11
-10.27396977864526
 21
-0.298863319344032
 31
0.0
  0
LINE
  5
117
330
18
100
AcDbEntity
  8
ADP2DETAIL
  6
HIDDEN2
100
AcDbLine
 10
-10.27396977864526
 20
-0.298863319344032
 30
0.0
 11
-10.31396977864526
 21
-0.2720633193440323
 31
0.0
  0
LINE
  5
118
330
18
100
AcDbEntity
  8
ADP2DETAIL
  6
HIDDEN2
100
AcDbLine
 10
-10.27396977864526
 20
-0.358863319344032
 30
0.0
 11
-10.31396977864526
 21
-0.3320633193440323
 31
0.0
  0
LINE
  5
119
330
18
100
AcDbEntity
  8
ADP2DETAIL
  6
HIDDEN2
100
AcDbLine
 10
-10.33146977864526
 20
-0.2434633193440319
 30
0.0
 11
-10.27396977864526
 21
-0.2388633193440319
 31
0.0
  0
LINE
  5
11A
330
18
100
AcDbEntity
  8
ADP2DETAIL
  6
HIDDEN2
100
AcDbLine
 10
-10.33146977864526
 20
-0.2734633193440321
 30
0.0
 11
-10.31396977864526
 21
-0.2720633193440318
 31
0.0
  0
LINE
  5
11B
330
18
100
AcDbEntity
  8
ADP2DETAIL
  6
HIDDEN2
100
AcDbLine
 10
-10.33146977864526
 20
-0.3034633193440319
 30
0.0
 11
-10.27396977864526
 21
-0.298863319344032
 31
0.0
  0
LINE
  5
11C
330
18
100
AcDbEntity
  8
ADP2DETAIL
  6
HIDDEN2
100
AcDbLine
 10
-10.33146977864526
 20
-0.3334633193440322
 30
0.0
 11
-10.31396977864526
 21
-0.3320633193440319
 31
0.0
  0
LINE
  5
11D
330
18
100
AcDbEntity
  8
ADP2DETAIL
  6
HIDDEN2
100
AcDbLine
 10
-10.33146977864526
 20
-0.363463319344032
 30
0.0
 11
-10.27396977864526
 21
-0.358863319344032
 31
0.0
  0
LINE
  5
11E
330
18
100
AcDbEntity
  8
ADP2DETAIL
  6
HIDDEN2
100
AcDbLine
 10
-10.33146977864526
 20
-0.3934633193440318
 30
0.0
 11
-10.31396977864526
 21
-0.3920633193440315
 31
0.0
  0
LINE
  5
11F
330
18
100
AcDbEntity
  8
ADP2DETAIL
  6
HIDDEN2
100
AcDbLine
 10
-10.33146977864526
 20
-0.2734633193440312
 30
0.0
 11
-10.31396977864526
 21
-0.2720633193440314
 31
0.0
  0
LINE
  5
120
330
18
100
AcDbEntity
  8
ADP2DETAIL
  6
HIDDEN2
100
AcDbLine
 10
-10.33146977864526
 20
-0.3334633193440317
 30
0.0
 11
-10.31396977864526
 21
-0.3320633193440314
 31
0.0
  0
LINE
  5
121
330
18
100
AcDbEntity
  8
ADP2DETAIL
  6
HIDDEN2
100
AcDbLine
 10
-10.33146977864526
 20
-0.3934633193440318
 30
0.0
 11
-10.31396977864526
 21
-0.3920633193440315
 31
0.0
  0
LINE
  5
122
330
18
100
AcDbEntity
  8
ADP1DETAIL
  6
HIDDEN2
100
AcDbLine
 10
-10.31396977864526
 20
-0.5720633193440317
 30
0.0
 11
-10.27396977864526
 21
-0.5388633193440318
 31
0.0
  0
LINE
  5
123
330
18
100
AcDbEntity
  8
ADP1DETAIL
  6
HIDDEN2
100
AcDbLine
 10
-10.27396977864526
 20
-0.5388633193440318
 30
0.0
 11
-10.31396977864526
 21
-0.5120633193440321
 31
0.0
  0
LINE
  5
124
330
18
100
AcDbEntity
  8
ADP1DETAIL
  6
HIDDEN2
100
AcDbLine
 10
-10.31396977864526
 20
-0.5120633193440316
 30
0.0
 11
-10.27396977864526
 21
-0.4788633193440317
 31
0.0
  0
LINE
  5
125
330
18
100
AcDbEntity
  8
ADP1DETAIL
  6
HIDDEN2
100
AcDbLine
 10
-10.27396977864526
 20
-0.4788633193440317
 30
0.0
 11
-10.31396977864526
 21
-0.452063319344032
 31
0.0
  0
LINE
  5
126
330
18
100
AcDbEntity
  8
ADP1DETAIL
  6
HIDDEN2
100
AcDbLine
 10
-10.31396977864526
 20
-0.452063319344032
 30
0.0
 11
-10.27396977864526
 21
-0.4188633193440321
 31
0.0
  0
LINE
  5
127
330
18
100
AcDbEntity
  8
ADP1DETAIL
100
AcDbLine
 10
-10.27396977864526
 20
-0.6588633193440319
 30
0.0
 11
-10.27396977864526
 21
-0.7488633193440313
 31
0.0
  0
LINE
  5
128
330
18
100
AcDbEntity
  8
ADP1DETAIL
100
AcDbLine
 10
-10.31396977864526
 20
-0.6320633193440317
 30
0.0
 11
-10.27396977864526
 21
-0.5988633193440318
 31
0.0
  0
LINE
  5
129
330
18
100
AcDbEntity
  8
ADP1DETAIL
100
AcDbLine
 10
-10.27396977864526
 20
-0.5988633193440318
 30
0.0
 11
-10.31396977864526
 21
-0.5720633193440321
 31
0.0
  0
LINE
  5
12A
330
18
100
AcDbEntity
  8
ADP1DETAIL
100
AcDbLine
 10
-10.27396977864526
 20
-0.6588633193440319
 30
0.0
 11
-10.31396977864526
 21
-0.6320633193440322
 31
0.0
  0
LINE
  5
12B
330
18
100
AcDbEntity
  8
ADP1DETAIL
100
AcDbLine
 10
-10.31396977864526
 20
-0.6920633193440318
 30
0.0
 11
-10.27396977864526
 21
-0.6588633193440319
 31
0.0
  0
ARC
  5
12C
330
18
100
AcDbEntity
  8
ADP1DETAIL
100
AcDbCircle
 10
-10.26027936615366
 20
-0.4582633193440318
 30
0.0
 40
0.0354
100
AcDbArc
 50
31.81331739472588
 51
90.0
  0
LINE
  5
12D
330
18
100
AcDbEntity
  8
ADP1DETAIL
100
AcDbLine
 10
-10.23019750148297
 20
-0.4396020916798542
 30
0.0
 11
-10.18193990314214
 21
-0.5173932514441182
 31
0.0
  0
LINE
  5
12E
330
18
100
AcDbEntity
  8
ADP1DETAIL
100
AcDbLine
 10
-10.31396977864526
 20
-0.0920633193440317
 30
0.0
 11
-10.27396977864526
 21
-0.0588633193440318
 31
0.0
  0
LINE
  5
12F
330
18
100
AcDbEntity
  8
ADP1DETAIL
100
AcDbLine
 10
-10.27396977864526
 20
-0.2388633193440319
 30
0.0
 11
-10.31396977864526
 21
-0.2120633193440322
 31
0.0
  0
LINE
  5
130
330
18
100
AcDbEntity
  8
ADP1DETAIL
100
AcDbLine
 10
-10.31396977864526
 20
-0.2388633193440324
 30
0.0
 11
-10.23518787963711
 21
-0.2388633193440324
 31
0.0
  0
LINE
  5
131
330
18
100
AcDbEntity
  8
ADP1DETAIL
100
AcDbLine
 10
-10.3480953128058
 20
-0.3182633193440316
 30
0.0
 11
-10.26027936615366
 21
-0.3182633193440316
 31
0.0
  0
LINE
  5
132
330
18
100
AcDbEntity
  8
ADP1DETAIL
100
AcDbLine
 10
-10.31396977864526
 20
-0.2120633193440318
 30
0.0
 11
-10.27396977864526
 21
-0.1788633193440319
 31
0.0
  0
LINE
  5
133
330
18
100
AcDbEntity
  8
ADP1DETAIL
100
AcDbLine
 10
-10.31396977864526
 20
-0.1520633193440317
 30
0.0
 11
-10.27396977864526
 21
-0.1188633193440318
 31
0.0
  0
LINE
  5
134
330
18
100
AcDbEntity
  8
ADP1DETAIL
100
AcDbLine
 10
-10.27396977864526
 20
-0.1188633193440318
 30
0.0
 11
-10.31396977864526
 21
-0.0920633193440321
 31
0.0
  0
LINE
  5
135
330
18
100
AcDbEntity
  8
ADP1DETAIL
100
AcDbLine
 10
-10.27396977864526
 20
-0.1788633193440319
 30
0.0
 11
-10.31396977864526
 21
-0.1520633193440322
 31
0.0
  0
LINE
  5
136
330
18
100
AcDbEntity
  8
ADP1DETAIL
100
AcDbLine
 10
-10.33146977864526
 20
-0.093463319344032
 30
0.0
 11
-10.31396977864526
 21
-0.0920633193440317
 31
0.0
  0
LINE
  5
137
330
18
100
AcDbEntity
  8
ADP1DETAIL
100
AcDbLine
 10
-10.33146977864526
 20
-0.1234633193440318
 30
0.0
 11
-10.27396977864526
 21
-0.1188633193440318
 31
0.0
  0
LINE
  5
138
330
18
100
AcDbEntity
  8
ADP1DETAIL
100
AcDbLine
 10
-10.33146977864526
 20
-0.1534633193440316
 30
0.0
 11
-10.31396977864526
 21
-0.1520633193440317
 31
0.0
  0
LINE
  5
139
330
18
100
AcDbEntity
  8
ADP1DETAIL
100
AcDbLine
 10
-10.33146977864526
 20
-0.1834633193440318
 30
0.0
 11
-10.27396977864526
 21
-0.1788633193440319
 31
0.0
  0
LINE
  5
13A
330
18
100
AcDbEntity
  8
ADP1DETAIL
100
AcDbLine
 10
-10.33146977864526
 20
-0.2134633193440321
 30
0.0
 11
-10.31396977864526
 21
-0.2120633193440318
 31
0.0
  0
LINE
  5
13B
330
18
100
AcDbEntity
  8
ADP1DETAIL
100
AcDbLine
 10
-10.33146977864526
 20
-0.0934633193440315
 30
0.0
 11
-10.31396977864526
 21
-0.0920633193440312
 31
0.0
  0
LINE
  5
13C
330
18
100
AcDbEntity
  8
ADP1DETAIL
100
AcDbLine
 10
-10.33146977864526
 20
-0.1534633193440316
 30
0.0
 11
-10.31396977864526
 21
-0.1520633193440313
 31
0.0
  0
LINE
  5
13D
330
18
100
AcDbEntity
  8
ADP1DETAIL
100
AcDbLine
 10
-10.33146977864526
 20
-0.2134633193440316
 30
0.0
 11
-10.31396977864526
 21
-0.2120633193440313
 31
0.0
  0
ARC
  5
13E
330
18
100
AcDbEntity
  8
ADP1DETAIL
100
AcDbCircle
 10
-10.07146977864526
 20
-0.4488633193440315
 30
0.0
 40
0.13
100
AcDbArc
 50
211.8133173947259
 51
343.2697187216465
  0
LINE
  5
13F
330
18
100
AcDbEntity
  8
ADP1DETAIL
100
AcDbLine
 10
-9.924710867022978
 20
-0.0488633193440311
 30
0.0
 11
-10.0471449482311
 21
-0.4561751334364775
 31
0.0
  0
LINE
  5
140
330
18
100
AcDbEntity
  8
ADP1DETAIL
100
AcDbLine
 10
-10.1413115397724
 20
-0.3844618540054769
 30
0.0
 11
-10.09305394143157
 21
-0.462253013769741
 31
0.0
  0
ARC
  5
141
330
18
100
AcDbEntity
  8
ADP1DETAIL
100
AcDbCircle
 10
-10.07146977864526
 20
-0.4488633193440315
 30
0.0
 40
0.0254
100
AcDbArc
 50
211.8133173947259
 51
343.2697187216465
  0
ARC
  5
142
330
18
100
AcDbEntity
  8
ADP1DETAIL
100
AcDbCircle
 10
-10.26027936615366
 20
-0.4582633193440318
 30
0.0
 40
0.14
100
AcDbArc
 50
31.81331739472588
 51
90.0
  0
LINE
  5
143
330
18
100
AcDbEntity
  8
ADP1DETAIL
100
AcDbLine
 10
-9.972772032221833
 20
-0.2087524628845898
 30
0.0
 11
-9.872599699098964
 21
-0.2388633193440319
 31
0.0
  0
LINE
  5
145
330
18
100
AcDbEntity
  8
ADP1DETAIL
100
AcDbLine
 10
-10.33146977864526
 20
0.5684980802211906
 30
0.0
 11
-10.59146977864526
 21
0.5684980802211906
 31
0.0
  0
LINE
  5
146
330
18
100
AcDbEntity
  8
ADP1DETAIL
100
AcDbLine
 10
-10.33146977864526
 20
0.5411366806559684
 30
0.0
 11
-10.59146977864526
 21
0.5411366806559684
 31
0.0
  0
LINE
  5
148
330
18
100
AcDbEntity
  8
ADP1DETAIL
100
AcDbLine
 10
-10.95016752506869
 20
0.1110258241965272
 30
0.0
 11
-11.05033985819155
 21
0.1411366806559693
 31
0.0
  0
LINE
  5
149
330
18
100
AcDbEntity
  8
ADP1DETAIL
100
AcDbLine
 10
-11.09664289403422
 20
-0.0129035452432449
 30
0.0
 11
-10.97596694218228
 21
0.3885593512078569
 31
0.0
  0
LINE
  5
14A
330
18
100
AcDbEntity
  8
ADP1DETAIL
100
AcDbLine
 10
-11.01629744552239
 20
0.0112475371154108
 30
0.0
 11
-11.11646977864526
 21
-0.0188633193440313
 31
0.0
  0
LINE
  5
14B
330
18
100
AcDbEntity
  8
ADP1DETAIL
  6
HIDDEN2
100
AcDbLine
 10
-10.64896977864526
 20
0.1511366806559682
 30
0.0
 11
-10.60896977864526
 21
0.1243366806559689
 31
0.0
  0
LINE
  5
14C
330
18
100
AcDbEntity
  8
ADP1DETAIL
  6
HIDDEN2
100
AcDbLine
 10
-10.60896977864526
 20
0.1243366806559689
 30
0.0
 11
-10.59146977864526
 21
0.1257366806559688
 31
0.0
  0
LINE
  5
14D
330
18
100
AcDbEntity
  8
ADP1DETAIL
  6
HIDDEN2
100
AcDbLine
 10
-10.60896977864526
 20
0.1243366806559685
 30
0.0
 11
-10.59146977864526
 21
0.1257366806559683
 31
0.0
  0
LINE
  5
14E
330
18
100
AcDbEntity
  8
ADP1DETAIL
  6
HIDDEN2
100
AcDbLine
 10
-10.64896977864526
 20
0.0911366806559686
 30
0.0
 11
-10.59146977864526
 21
0.0957366806559685
 31
0.0
  0
LINE
  5
14F
330
18
100
AcDbEntity
  8
ADP1DETAIL
  6
HIDDEN2
100
AcDbLine
 10
-10.60896977864526
 20
0.0643366806559689
 30
0.0
 11
-10.59146977864526
 21
0.0657366806559687
 31
0.0
  0
LINE
  5
150
330
18
100
AcDbEntity
  8
ADP1DETAIL
  6
HIDDEN2
100
AcDbLine
 10
-10.60896977864526
 20
0.0643366806559684
 30
0.0
 11
-10.59146977864526
 21
0.0657366806559683
 31
0.0
  0
LINE
  5
151
330
18
100
AcDbEntity
  8
ADP1DETAIL
  6
HIDDEN2
100
AcDbLine
 10
-10.64896977864526
 20
0.0311366806559685
 30
0.0
 11
-10.59146977864526
 21
0.0357366806559685
 31
0.0
  0
LINE
  5
152
330
18
100
AcDbEntity
  8
ADP1DETAIL
  6
HIDDEN2
100
AcDbLine
 10
-10.60896977864526
 20
0.0043366806559688
 30
0.0
 11
-10.59146977864526
 21
0.0057366806559691
 31
0.0
  0
LINE
  5
153
330
18
100
AcDbEntity
  8
ADP1DETAIL
  6
HIDDEN2
100
AcDbLine
 10
-10.60896977864526
 20
0.0043366806559684
 30
0.0
 11
-10.59146977864526
 21
0.0057366806559687
 31
0.0
  0
LINE
  5
154
330
18
100
AcDbEntity
  8
ADP1DETAIL
  6
HIDDEN2
100
AcDbLine
 10
-10.60896977864526
 20
0.1243366806559685
 30
0.0
 11
-10.64896977864526
 21
0.0911366806559682
 31
0.0
  0
LINE
  5
155
330
18
100
AcDbEntity
  8
ADP1DETAIL
  6
HIDDEN2
100
AcDbLine
 10
-10.64896977864526
 20
0.0911366806559682
 30
0.0
 11
-10.60896977864526
 21
0.0643366806559689
 31
0.0
  0
LINE
  5
156
330
18
100
AcDbEntity
  8
ADP1DETAIL
  6
HIDDEN2
100
AcDbLine
 10
-10.60896977864526
 20
0.0643366806559684
 30
0.0
 11
-10.64896977864526
 21
0.0311366806559681
 31
0.0
  0
LINE
  5
157
330
18
100
AcDbEntity
  8
ADP1DETAIL
  6
HIDDEN2
100
AcDbLine
 10
-10.64896977864526
 20
0.0311366806559681
 30
0.0
 11
-10.60896977864526
 21
0.0043366806559688
 31
0.0
  0
LINE
  5
158
330
18
100
AcDbEntity
  8
ADP1DETAIL
  6
HIDDEN2
100
AcDbLine
 10
-10.59146977864526
 20
0.2148921587353025
 30
0.0
 11
-10.64832525672459
 21
0.1580366806559694
 31
0.0
  0
LINE
  5
159
330
18
100
AcDbEntity
  8
ADP1DETAIL
  6
HIDDEN2
100
AcDbLine
 10
-10.64896977864526
 20
0.1580366806559694
 30
0.0
 11
-10.61746977864526
 21
0.1580366806559694
 31
0.0
  0
LINE
  5
15A
330
18
100
AcDbEntity
  8
ADP1DETAIL
100
AcDbLine
 10
-10.59146977864526
 20
0.220536680655969
 30
0.0
 11
-10.66266019113685
 21
0.220536680655969
 31
0.0
  0
ARC
  5
15B
330
18
100
AcDbEntity
  8
ADP1DETAIL
100
AcDbCircle
 10
-10.66266019113685
 20
0.3605366806559691
 30
0.0
 40
0.14
100
AcDbArc
 50
211.8133173947259
 51
270.0
  0
LINE
  5
15C
330
18
100
AcDbEntity
  8
ADP1DETAIL
100
AcDbLine
 10
-10.61746977864526
 20
0.3251366806559695
 30
0.0
 11
-10.61746977864526
 21
0.220536680655969
 31
0.0
  0
ARC
  5
15D
330
18
100
AcDbEntity
  8
ADP1DETAIL
100
AcDbCircle
 10
-10.85146977864526
 20
0.3511366806559688
 30
0.0
 40
0.13
100
AcDbArc
 50
31.81331739472593
 51
163.2697187216465
  0
LINE
  5
15E
330
18
100
AcDbEntity
  8
ADP1DETAIL
100
AcDbLine
 10
-10.78162801751812
 20
0.2867352153174143
 30
0.0
 11
-10.82988561585894
 21
0.3645263750816783
 31
0.0
  0
ARC
  5
15F
330
18
100
AcDbEntity
  8
ADP1DETAIL
100
AcDbCircle
 10
-10.85146977864526
 20
0.3511366806559688
 30
0.0
 40
0.0254
100
AcDbArc
 50
31.81331739472593
 51
163.2697187216465
  0
LINE
  5
160
330
18
100
AcDbEntity
  8
ADP1DETAIL
100
AcDbLine
 10
-10.69274205580754
 20
0.3418754529917916
 30
0.0
 11
-10.74099965414837
 21
0.4196666127560556
 31
0.0
  0
ARC
  5
161
330
18
100
AcDbEntity
  8
ADP1DETAIL
100
AcDbCircle
 10
-10.66266019113685
 20
0.3605366806559691
 30
0.0
 40
0.0354
100
AcDbArc
 50
211.8133173947259
 51
270.0
  0
LINE
  5
162
330
18
100
AcDbEntity
  8
ADP1DETAIL
100
AcDbLine
 10
-10.59146977864526
 20
0.3251366806559699
 30
0.0
 11
-10.66266019113685
 21
0.325136680655969
 31
0.0
  0
LINE
  5
163
330
18
100
AcDbEntity
  8
ADP1DETAIL
  6
HIDDEN2
100
AcDbLine
 10
-10.27396977864526
 20
0.1211366806559684
 30
0.0
 11
-10.31396977864526
 21
0.1479366806559681
 31
0.0
  0
LINE
  5
164
330
18
100
AcDbEntity
  8
ADP1DETAIL
  6
HIDDEN2
100
AcDbLine
 10
-10.31396977864526
 20
0.0879366806559685
 30
0.0
 11
-10.27396977864526
 21
0.1211366806559684
 31
0.0
  0
LINE
  5
165
330
18
100
AcDbEntity
  8
ADP1DETAIL
  6
HIDDEN2
100
AcDbLine
 10
-10.31396977864526
 20
0.0279366806559684
 30
0.0
 11
-10.27396977864526
 21
0.0611366806559683
 31
0.0
  0
LINE
  5
166
330
18
100
AcDbEntity
  8
ADP1DETAIL
  6
HIDDEN2
100
AcDbLine
 10
-10.27396977864526
 20
0.0611366806559683
 30
0.0
 11
-10.31396977864526
 21
0.0879366806559681
 31
0.0
  0
LINE
  5
167
330
18
100
AcDbEntity
  8
ADP1DETAIL
  6
HIDDEN2
100
AcDbLine
 10
-10.27396977864526
 20
0.0011366806559683
 30
0.0
 11
-10.31396977864526
 21
0.027936680655968
 31
0.0
  0
LINE
  5
168
330
18
100
AcDbEntity
  8
ADP1DETAIL
  6
HIDDEN2
100
AcDbLine
 10
-10.33146977864526
 20
0.1465366806559682
 30
0.0
 11
-10.31396977864526
 21
0.1479366806559685
 31
0.0
  0
LINE
  5
169
330
18
100
AcDbEntity
  8
ADP1DETAIL
  6
HIDDEN2
100
AcDbLine
 10
-10.33146977864526
 20
0.116536680655968
 30
0.0
 11
-10.27396977864526
 21
0.1211366806559684
 31
0.0
  0
LINE
  5
16A
330
18
100
AcDbEntity
  8
ADP1DETAIL
  6
HIDDEN2
100
AcDbLine
 10
-10.33146977864526
 20
0.0865366806559682
 30
0.0
 11
-10.31396977864526
 21
0.0879366806559685
 31
0.0
  0
LINE
  5
16B
330
18
100
AcDbEntity
  8
ADP1DETAIL
  6
HIDDEN2
100
AcDbLine
 10
-10.33146977864526
 20
0.0565366806559684
 30
0.0
 11
-10.27396977864526
 21
0.0611366806559683
 31
0.0
  0
LINE
  5
16C
330
18
100
AcDbEntity
  8
ADP1DETAIL
  6
HIDDEN2
100
AcDbLine
 10
-10.33146977864526
 20
0.0265366806559686
 30
0.0
 11
-10.31396977864526
 21
0.0279366806559684
 31
0.0
  0
LINE
  5
16D
330
18
100
AcDbEntity
  8
ADP1DETAIL
  6
HIDDEN2
100
AcDbLine
 10
-10.33146977864526
 20
-0.0034633193440317
 30
0.0
 11
-10.27396977864526
 21
0.0011366806559683
 31
0.0
  0
LINE
  5
16E
330
18
100
AcDbEntity
  8
ADP1DETAIL
  6
HIDDEN2
100
AcDbLine
 10
-10.33146977864526
 20
0.1465366806559687
 30
0.0
 11
-10.31396977864526
 21
0.147936680655969
 31
0.0
  0
LINE
  5
16F
330
18
100
AcDbEntity
  8
ADP1DETAIL
  6
HIDDEN2
100
AcDbLine
 10
-10.33146977864526
 20
0.0865366806559687
 30
0.0
 11
-10.31396977864526
 21
0.087936680655969
 31
0.0
  0
LINE
  5
170
330
18
100
AcDbEntity
  8
ADP1DETAIL
  6
HIDDEN2
100
AcDbLine
 10
-10.33146977864526
 20
0.0265366806559686
 30
0.0
 11
-10.31396977864526
 21
0.0279366806559689
 31
0.0
  0
LINE
  5
171
330
18
100
AcDbEntity
  8
ADP1DETAIL
  6
HIDDEN2
100
AcDbLine
 10
-10.33146977864526
 20
0.2161812025766348
 30
0.0
 11
-10.27332525672459
 21
0.1580366806559676
 31
0.0
  0
LINE
  5
172
330
18
100
AcDbEntity
  8
ADP1DETAIL
  6
HIDDEN2
100
AcDbLine
 10
-10.30546977864526
 20
0.1580366806559676
 30
0.0
 11
-10.27396977864526
 21
0.1580366806559676
 31
0.0
  0
LINE
  5
173
330
18
100
AcDbEntity
  8
ADP1DETAIL
100
AcDbLine
 10
-10.26027936615366
 20
0.2205366806559685
 30
0.0
 11
-10.33146977864526
 21
0.2205366806559685
 31
0.0
  0
LINE
  5
174
330
18
100
AcDbEntity
  8
ADP1DETAIL
100
AcDbLine
 10
-10.30546977864526
 20
0.3251366806559686
 30
0.0
 11
-10.30546977864526
 21
0.2205366806559685
 31
0.0
  0
LINE
  5
175
330
18
100
AcDbEntity
  8
ADP1DETAIL
100
AcDbLine
 10
-10.26027936615366
 20
0.3251366806559686
 30
0.0
 11
-10.33146977864526
 21
0.3251366806559695
 31
0.0
  0
LINE
  5
176
330
18
100
AcDbEntity
  8
ADP1DETAIL
100
AcDbLine
 10
-10.23019750148297
 20
0.3418754529917911
 30
0.0
 11
-10.18193990314214
 21
0.4196666127560556
 31
0.0
  0
ARC
  5
177
330
18
100
AcDbEntity
  8
ADP1DETAIL
100
AcDbCircle
 10
-10.26027936615366
 20
0.3605366806559687
 30
0.0
 40
0.0354
100
AcDbArc
 50
270.0
 51
328.1866826052741
  0
ARC
  5
178
330
18
100
AcDbEntity
  8
ADP1DETAIL
100
AcDbCircle
 10
-10.07146977864526
 20
0.3511366806559688
 30
0.0
 40
0.13
100
AcDbArc
 50
16.73028127835348
 51
148.186682605274
  0
ARC
  5
179
330
18
100
AcDbEntity
  8
ADP1DETAIL
100
AcDbCircle
 10
-10.26027936615366
 20
0.3605366806559687
 30
0.0
 40
0.14
100
AcDbArc
 50
270.0
 51
328.1866826052741
  0
LINE
  5
17A
330
18
100
AcDbEntity
  8
ADP1DETAIL
100
AcDbLine
 10
-10.1413115397724
 20
0.2867352153174138
 30
0.0
 11
-10.09305394143157
 21
0.3645263750816783
 31
0.0
  0
ARC
  5
17B
330
18
100
AcDbEntity
  8
ADP1DETAIL
100
AcDbCircle
 10
-10.07146977864526
 20
0.3511366806559688
 30
0.0
 40
0.0254
100
AcDbArc
 50
16.73028127835348
 51
148.186682605274
  0
LINE
  5
17C
330
18
100
AcDbEntity
  8
ADP1DETAIL
100
AcDbLine
 10
-7.942552205839255
 20
-0.0788633193440314
 30
0.0
 11
-7.942552205839255
 21
0.4811366806559687
 31
0.0
  0
LINE
  5
17D
330
18
100
AcDbEntity
  8
ADP2DETAIL
  6
HIDDEN2
100
AcDbLine
 10
-7.05240889034352
 20
-0.0788633193440314
 30
0.0
 11
-7.204178801847946
 21
0.4811366806559687
 31
0.0
  0
LINE
  5
17E
330
18
100
AcDbEntity
  8
ADP2DETAIL
  6
HIDDEN2
100
AcDbLine
 10
-7.160782294334831
 20
-0.0788633193440314
 30
0.0
 11
-7.312552205839256
 21
0.4811366806559683
 31
0.0
  0
LINE
  5
17F
330
18
100
AcDbEntity
  8
ADP1DETAIL
100
AcDbLine
 10
-7.942552205839255
 20
-0.5788633193440314
 30
0.0
 11
-7.942552205839255
 21
-0.2388633193440315
 31
0.0
  0
LINE
  5
180
330
18
100
AcDbEntity
  8
ADP1DETAIL
100
AcDbLine
 10
-7.009046058485113
 20
-0.2388633193440315
 30
0.0
 11
-7.05240889034352
 21
-0.0788633193440314
 31
0.0
  0
LINE
  5
181
330
18
100
AcDbEntity
  8
ADP1DETAIL
100
AcDbLine
 10
-7.117419462476424
 20
-0.2388633193440315
 30
0.0
 11
-7.160782294334831
 21
-0.0788633193440314
 31
0.0
  0
LINE
  5
182
330
18
100
AcDbEntity
  8
ADP2DETAIL
  6
HIDDEN2
100
AcDbLine
 10
-7.079559678749026
 20
-0.3785581948116543
 30
0.0
 11
-7.117419462476424
 21
-0.2388633193440315
 31
0.0
  0
ARC
  5
183
330
18
100
AcDbEntity
  8
ADP2DETAIL
  6
HIDDEN2
100
AcDbCircle
 10
-7.021648791309307
 20
-0.3628633193440311
 30
0.0
 40
0.06
100
AcDbArc
 50
195.1639090927068
 51
270.0
  0
LINE
  5
184
330
18
100
AcDbEntity
  8
ADP1DETAIL
100
AcDbLine
 10
-7.328813267786158
 20
0.5411366806559684
 30
0.0
 11
-7.227855287349582
 21
0.568498080221191
 31
0.0
  0
LINE
  5
185
330
18
100
AcDbEntity
  8
ADP1DETAIL
100
AcDbLine
 10
-7.204178801847946
 20
0.4811366806559687
 30
0.0
 11
-7.227855287349582
 21
0.568498080221191
 31
0.0
  0
LINE
  5
186
330
18
100
AcDbEntity
  8
ADP1DETAIL
100
AcDbLine
 10
-7.312552205839256
 20
0.4811366806559683
 30
0.0
 11
-7.328813267786158
 21
0.5411366806559684
 31
0.0
  0
LINE
  5
187
330
18
100
AcDbEntity
  8
ADP1DETAIL
100
AcDbLine
 10
-7.942552205839255
 20
2.030410309780167
 30
0.0
 11
-7.942552205839255
 21
1.525410309780167
 31
0.0
  0
LINE
  5
188
330
18
100
AcDbEntity
  8
ADP1DETAIL
100
AcDbLine
 10
-7.328813267786158
 20
2.070410309780167
 30
0.0
 11
-7.074306652635888
 21
2.070410309780167
 31
0.0
  0
ARC
  5
189
330
18
100
AcDbEntity
  8
ADP1DETAIL
100
AcDbCircle
 10
-7.137552205839256
 20
2.100410309780166
 30
0.0
 40
0.07
100
AcDbArc
 50
269.9999999999999
 51
0.0
  0
LINE
  5
18A
330
18
100
AcDbEntity
  8
ADP1DETAIL
100
AcDbLine
 10
-7.942552205839255
 20
2.820410309780167
 30
0.0
 11
-7.942552205839255
 21
2.350410309780167
 31
0.0
  0
LINE
  5
18B
330
18
100
AcDbEntity
  8
ADP1DETAIL
100
AcDbLine
 10
-7.328813267786158
 20
2.310410309780167
 30
0.0
 11
-7.074306652635888
 21
2.310410309780167
 31
0.0
  0
ARC
  5
18C
330
18
100
AcDbEntity
  8
ADP1DETAIL
100
AcDbCircle
 10
-7.137552205839256
 20
2.280410309780167
 30
0.0
 40
0.07
100
AcDbArc
 50
0.0
 51
90.0
  0
LINE
  5
18D
330
18
100
AcDbEntity
  8
ADP1DETAIL
100
AcDbLine
 10
-4.806291143892354
 20
2.070410309780166
 30
0.0
 11
-4.806291143892353
 21
2.310410309780167
 31
0.0
  0
CIRCLE
  5
18E
330
18
100
AcDbEntity
  8
ADP2DETAIL
  6
HIDDEN2
100
AcDbCircle
 10
-6.442552205839255
 20
2.190410309780166
 30
0.0
 40
0.1875
  0
CIRCLE
  5
18F
330
18
100
AcDbEntity
  8
ADP2DETAIL
  6
HIDDEN2
100
AcDbCircle
 10
-6.442552205839255
 20
2.190410309780166
 30
0.0
 40
0.15
  0
LINE
  5
190
330
18
100
AcDbEntity
  8
ADP1DETAIL
100
AcDbLine
 10
-6.067552205839255
 20
-0.5788633193440305
 30
0.0
 11
-4.192552205839255
 21
-0.5788633193440309
 31
0.0
  0
LINE
  5
191
330
18
100
AcDbEntity
  8
ADP1DETAIL
100
AcDbLine
 10
-6.067552205839255
 20
-0.0188633193440309
 30
0.0
 11
-4.192552205839255
 21
-0.0188633193440309
 31
0.0
  0
LINE
  5
192
330
18
100
AcDbEntity
  8
ADP1DETAIL
100
AcDbLine
 10
-6.067552205839255
 20
0.1411366806559697
 30
0.0
 11
-4.192552205839255
 21
0.1411366806559693
 31
0.0
  0
LINE
  5
193
330
18
100
AcDbEntity
  8
ADP2DETAIL
  6
HIDDEN2
100
AcDbLine
 10
-6.067552205839255
 20
0.3765366806559691
 30
0.0
 11
-4.192552205839255
 21
0.3765366806559691
 31
0.0
  0
LINE
  5
194
330
18
100
AcDbEntity
  8
ADP2DETAIL
  6
HIDDEN2
100
AcDbLine
 10
-6.067552205839255
 20
0.325136680655969
 30
0.0
 11
-4.192552205839255
 21
0.325136680655969
 31
0.0
  0
LINE
  5
195
330
18
100
AcDbEntity
  8
ADP2DETAIL
  6
HIDDEN2
100
AcDbLine
 10
-6.067552205839255
 20
0.220536680655969
 30
0.0
 11
-4.192552205839255
 21
0.2205366806559694
 31
0.0
  0
LINE
  5
196
330
18
100
AcDbEntity
  8
ADP2DETAIL
  6
HIDDEN2
100
AcDbLine
 10
-6.067552205839255
 20
-0.4742633193440309
 30
0.0
 11
-4.192552205839255
 21
-0.4742633193440309
 31
0.0
  0
LINE
  5
197
330
18
100
AcDbEntity
  8
ADP2DETAIL
  6
HIDDEN2
100
AcDbLine
 10
-6.067552205839255
 20
-0.4228633193440304
 30
0.0
 11
-4.192552205839255
 21
-0.4228633193440308
 31
0.0
  0
LINE
  5
198
330
18
100
AcDbEntity
  8
ADP2DETAIL
  6
HIDDEN2
100
AcDbLine
 10
-6.067552205839255
 20
-0.3182633193440303
 30
0.0
 11
-4.192552205839255
 21
-0.3182633193440307
 31
0.0
  0
LINE
  5
199
330
18
100
AcDbEntity
  8
ADP1DETAIL
100
AcDbLine
 10
-6.067552205839255
 20
0.1411366806559693
 30
0.0
 11
-6.067552205839255
 21
-0.2388633193440319
 31
0.0
  0
LINE
  5
19A
330
18
100
AcDbEntity
  8
HIDDEN
100
AcDbLine
 10
-6.295052205839255
 20
-0.0320633193440316
 30
0.0
 11
-6.255052205839255
 21
0.0011366806559683
 31
0.0
  0
LINE
  5
19B
330
18
100
AcDbEntity
  8
HIDDEN
100
AcDbLine
 10
-5.082695521334992
 20
-0.0188633193440309
 30
0.0
 11
-4.930925609830566
 21
-0.5788633193440309
 31
0.0
  0
LINE
  5
19C
330
18
100
AcDbEntity
  8
HIDDEN
100
AcDbLine
 10
-4.974322117343682
 20
-0.0188633193440309
 30
0.0
 11
-4.822552205839256
 21
-0.5788633193440309
 31
0.0
  0
LINE
  5
19D
330
18
100
AcDbEntity
  8
HIDDEN
100
AcDbLine
 10
-6.590052205839256
 20
0.0043366806559684
 30
0.0
 11
-6.630052205839255
 21
-0.028863319344032
 31
0.0
  0
LINE
  5
19E
330
18
100
AcDbEntity
  8
ADP1DETAIL
100
AcDbLine
 10
-6.630052205839255
 20
-0.2088633193440317
 30
0.0
 11
-6.255052205839255
 21
-0.1788633193440319
 31
0.0
  0
LINE
  5
19F
330
18
100
AcDbEntity
  8
ADP1DETAIL
100
AcDbLine
 10
-6.630052205839255
 20
-0.1488633193440316
 30
0.0
 11
-6.255052205839255
 21
-0.1188633193440318
 31
0.0
  0
LINE
  5
1A0
330
18
100
AcDbEntity
  8
ADP1DETAIL
100
AcDbLine
 10
-6.590052205839256
 20
-0.2356633193440318
 30
0.0
 11
-6.295052205839255
 21
-0.2120633193440318
 31
0.0
  0
LINE
  5
1A1
330
18
100
AcDbEntity
  8
ADP1DETAIL
100
AcDbLine
 10
-6.590052205839256
 20
-0.2356633193440314
 30
0.0
 11
-6.295052205839255
 21
-0.2120633193440313
 31
0.0
  0
LINE
  5
1A2
330
18
100
AcDbEntity
  8
ADP1DETAIL
100
AcDbLine
 10
-6.590052205839256
 20
-0.1756633193440318
 30
0.0
 11
-6.295052205839255
 21
-0.1520633193440317
 31
0.0
  0
LINE
  5
1A3
330
18
100
AcDbEntity
  8
ADP1DETAIL
100
AcDbLine
 10
-6.590052205839256
 20
-0.1756633193440313
 30
0.0
 11
-6.295052205839255
 21
-0.1520633193440313
 31
0.0
  0
LINE
  5
1A4
330
18
100
AcDbEntity
  8
ADP1DETAIL
100
AcDbLine
 10
-6.590052205839256
 20
-0.1156633193440317
 30
0.0
 11
-6.295052205839255
 21
-0.0920633193440317
 31
0.0
  0
LINE
  5
1A5
330
18
100
AcDbEntity
  8
ADP1DETAIL
100
AcDbLine
 10
-6.590052205839256
 20
-0.1156633193440313
 30
0.0
 11
-6.295052205839255
 21
-0.0920633193440312
 31
0.0
  0
LINE
  5
1A6
330
18
100
AcDbEntity
  8
ADP1DETAIL
100
AcDbLine
 10
-6.255052205839255
 20
-0.7488633193440313
 30
0.0
 11
-6.630052205839255
 21
-0.7488633193440313
 31
0.0
  0
LINE
  5
1A7
330
18
100
AcDbEntity
  8
ADP1DETAIL
100
AcDbLine
 10
-6.630052205839255
 20
-0.6888633193440317
 30
0.0
 11
-6.255052205839255
 21
-0.6588633193440319
 31
0.0
  0
LINE
  5
1A8
330
18
100
AcDbEntity
  8
ADP1DETAIL
100
AcDbLine
 10
-6.630052205839255
 20
-0.6288633193440317
 30
0.0
 11
-6.255052205839255
 21
-0.5988633193440318
 31
0.0
  0
LINE
  5
1A9
330
18
100
AcDbEntity
  8
ADP1DETAIL
100
AcDbLine
 10
-6.590052205839256
 20
-0.7156633193440314
 30
0.0
 11
-6.295052205839255
 21
-0.6920633193440314
 31
0.0
  0
LINE
  5
1AA
330
18
100
AcDbEntity
  8
ADP1DETAIL
100
AcDbLine
 10
-6.590052205839256
 20
-0.6556633193440318
 30
0.0
 11
-6.295052205839255
 21
-0.6320633193440317
 31
0.0
  0
LINE
  5
1AB
330
18
100
AcDbEntity
  8
ADP1DETAIL
100
AcDbLine
 10
-6.590052205839256
 20
-0.6556633193440314
 30
0.0
 11
-6.295052205839255
 21
-0.6320633193440313
 31
0.0
  0
LINE
  5
1AC
330
18
100
AcDbEntity
  8
ADP1DETAIL
100
AcDbLine
 10
-6.590052205839256
 20
-0.5956633193440318
 30
0.0
 11
-6.295052205839255
 21
-0.5720633193440317
 31
0.0
  0
LINE
  5
1AD
330
18
100
AcDbEntity
  8
ADP1DETAIL
100
AcDbLine
 10
-6.590052205839256
 20
-0.5956633193440313
 30
0.0
 11
-6.295052205839255
 21
-0.5720633193440312
 31
0.0
  0
LINE
  5
1AE
330
18
100
AcDbEntity
  8
ADP1DETAIL
100
AcDbLine
 10
-6.630052205839255
 20
-0.2088633193440321
 30
0.0
 11
-6.590052205839256
 21
-0.2356633193440314
 31
0.0
  0
LINE
  5
1AF
330
18
100
AcDbEntity
  8
ADP1DETAIL
100
AcDbLine
 10
-6.590052205839256
 20
-0.1756633193440318
 30
0.0
 11
-6.630052205839255
 21
-0.2088633193440321
 31
0.0
  0
LINE
  5
1B0
330
18
100
AcDbEntity
  8
ADP1DETAIL
100
AcDbLine
 10
-6.630052205839255
 20
-0.1488633193440321
 30
0.0
 11
-6.590052205839256
 21
-0.1756633193440313
 31
0.0
  0
LINE
  5
1B1
330
18
100
AcDbEntity
  8
ADP1DETAIL
100
AcDbLine
 10
-6.590052205839256
 20
-0.1156633193440317
 30
0.0
 11
-6.630052205839255
 21
-0.1488633193440321
 31
0.0
  0
LINE
  5
1B2
330
18
100
AcDbEntity
  8
ADP1DETAIL
100
AcDbLine
 10
-6.630052205839255
 20
-0.088863319344032
 30
0.0
 11
-6.590052205839256
 21
-0.1156633193440313
 31
0.0
  0
LINE
  5
1B4
330
18
100
AcDbEntity
  8
ADP1DETAIL
100
AcDbLine
 10
-6.590052205839256
 20
-0.6556633193440318
 30
0.0
 11
-6.630052205839255
 21
-0.6888633193440321
 31
0.0
  0
LINE
  5
1B5
330
18
100
AcDbEntity
  8
ADP1DETAIL
100
AcDbLine
 10
-6.630052205839255
 20
-0.6888633193440321
 30
0.0
 11
-6.590052205839256
 21
-0.7156633193440314
 31
0.0
  0
LINE
  5
1B6
330
18
100
AcDbEntity
  8
ADP1DETAIL
100
AcDbLine
 10
-6.630052205839255
 20
-0.6288633193440321
 30
0.0
 11
-6.590052205839256
 21
-0.6556633193440314
 31
0.0
  0
LINE
  5
1B7
330
18
100
AcDbEntity
  8
ADP1DETAIL
100
AcDbLine
 10
-6.590052205839256
 20
-0.5956633193440318
 30
0.0
 11
-6.630052205839255
 21
-0.6288633193440321
 31
0.0
  0
LINE
  5
1B8
330
18
100
AcDbEntity
  8
ADP1DETAIL
100
AcDbLine
 10
-6.630052205839255
 20
-0.568863319344032
 30
0.0
 11
-6.590052205839256
 21
-0.5956633193440313
 31
0.0
  0
LINE
  5
1B9
330
18
100
AcDbEntity
  8
ADP1DETAIL
100
AcDbLine
 10
-6.630052205839255
 20
-0.6888633193440317
 30
0.0
 11
-6.630052205839255
 21
-0.7488633193440313
 31
0.0
  0
ARC
  5
1BA
330
18
100
AcDbEntity
  8
ADP2DETAIL
  6
HIDDEN2
100
AcDbCircle
 10
-6.972226114998728
 20
-0.2982633193440316
 30
0.0
 40
0.02
100
AcDbArc
 50
195.1639090927068
 51
270.0
  0
ARC
  5
1BB
330
18
100
AcDbEntity
  8
HIDDEN
100
AcDbCircle
 10
-6.698834104847401
 20
-0.2882633193440318
 30
0.0
 40
0.03
100
AcDbArc
 50
270.0
 51
0.0
  0
LINE
  5
1BC
330
18
100
AcDbEntity
  8
HIDDEN
100
AcDbLine
 10
-6.668834104847401
 20
-0.2388633193440319
 30
0.0
 11
-6.668834104847401
 21
-0.2882633193440318
 31
0.0
  0
LINE
  5
1BD
330
18
100
AcDbEntity
  8
HIDDEN
100
AcDbLine
 10
-6.630052205839255
 20
-0.028863319344032
 30
0.0
 11
-6.590052205839256
 21
-0.0556633193440312
 31
0.0
  0
LINE
  5
1BE
330
18
100
AcDbEntity
  8
HIDDEN
100
AcDbLine
 10
-6.590052205839256
 20
-0.0556633193440317
 30
0.0
 11
-6.630052205839255
 21
-0.088863319344032
 31
0.0
  0
LINE
  5
1BF
330
18
100
AcDbEntity
  8
HIDDEN
100
AcDbLine
 10
-6.590052205839256
 20
-0.2356633193440318
 30
0.0
 11
-6.630052205839255
 21
-0.2688633193440322
 31
0.0
  0
LINE
  5
1C0
330
18
100
AcDbEntity
  8
HIDDEN
100
AcDbLine
 10
-6.630052205839255
 20
-0.2688633193440322
 30
0.0
 11
-6.590052205839256
 21
-0.2956633193440314
 31
0.0
  0
LINE
  5
1C1
330
18
100
AcDbEntity
  8
HIDDEN
100
AcDbLine
 10
-6.590052205839256
 20
-0.2956633193440319
 30
0.0
 11
-6.630052205839255
 21
-0.3288633193440322
 31
0.0
  0
LINE
  5
1C2
330
18
100
AcDbEntity
  8
HIDDEN
100
AcDbLine
 10
-6.630052205839255
 20
-0.3288633193440322
 30
0.0
 11
-6.590052205839256
 21
-0.3556633193440315
 31
0.0
  0
LINE
  5
1C3
330
18
100
AcDbEntity
  8
HIDDEN
100
AcDbLine
 10
-6.590052205839256
 20
-0.3556633193440319
 30
0.0
 11
-6.630052205839255
 21
-0.3888633193440323
 31
0.0
  0
LINE
  5
1C4
330
18
100
AcDbEntity
  8
HIDDEN
100
AcDbLine
 10
-6.630052205839255
 20
-0.3888633193440323
 30
0.0
 11
-6.590052205839256
 21
-0.4156633193440316
 31
0.0
  0
LINE
  5
1C5
330
18
100
AcDbEntity
  8
HIDDEN
100
AcDbLine
 10
-6.590052205839256
 20
-0.4156633193440316
 30
0.0
 11
-6.630052205839255
 21
-0.4488633193440324
 31
0.0
  0
LINE
  5
1C6
330
18
100
AcDbEntity
  8
HIDDEN
100
AcDbLine
 10
-6.630052205839255
 20
-0.4488633193440324
 30
0.0
 11
-6.590052205839256
 21
-0.4756633193440312
 31
0.0
  0
LINE
  5
1C7
330
18
100
AcDbEntity
  8
HIDDEN
100
AcDbLine
 10
-6.590052205839256
 20
-0.4756633193440316
 30
0.0
 11
-6.630052205839255
 21
-0.508863319344032
 31
0.0
  0
LINE
  5
1C8
330
18
100
AcDbEntity
  8
HIDDEN
100
AcDbLine
 10
-6.630052205839255
 20
-0.508863319344032
 30
0.0
 11
-6.590052205839256
 21
-0.5356633193440313
 31
0.0
  0
LINE
  5
1C9
330
18
100
AcDbEntity
  8
HIDDEN
100
AcDbLine
 10
-6.590052205839256
 20
-0.5356633193440317
 30
0.0
 11
-6.630052205839255
 21
-0.568863319344032
 31
0.0
  0
LINE
  5
1CB
330
18
100
AcDbEntity
  8
ADP1DETAIL
100
AcDbLine
 10
-6.255052205839255
 20
-0.2388633193440319
 30
0.0
 11
-6.295052205839255
 21
-0.2120633193440322
 31
0.0
  0
LINE
  5
1CC
330
18
100
AcDbEntity
  8
ADP1DETAIL
100
AcDbLine
 10
-6.255052205839255
 20
-0.1788633193440319
 30
0.0
 11
-6.295052205839255
 21
-0.1520633193440322
 31
0.0
  0
LINE
  5
1CD
330
18
100
AcDbEntity
  8
ADP1DETAIL
100
AcDbLine
 10
-6.295052205839255
 20
-0.2120633193440318
 30
0.0
 11
-6.255052205839255
 21
-0.1788633193440319
 31
0.0
  0
LINE
  5
1CE
330
18
100
AcDbEntity
  8
ADP1DETAIL
100
AcDbLine
 10
-6.255052205839255
 20
-0.1188633193440318
 30
0.0
 11
-6.295052205839255
 21
-0.0920633193440321
 31
0.0
  0
LINE
  5
1CF
330
18
100
AcDbEntity
  8
ADP1DETAIL
100
AcDbLine
 10
-6.295052205839255
 20
-0.1520633193440317
 30
0.0
 11
-6.255052205839255
 21
-0.1188633193440318
 31
0.0
  0
LINE
  5
1D0
330
18
100
AcDbEntity
  8
ADP1DETAIL
100
AcDbLine
 10
-6.295052205839255
 20
-0.0920633193440317
 30
0.0
 11
-6.255052205839255
 21
-0.0588633193440318
 31
0.0
  0
LINE
  5
1D1
330
18
100
AcDbEntity
  8
ADP1DETAIL
100
AcDbLine
 10
-6.255052205839255
 20
-0.6588633193440319
 30
0.0
 11
-6.255052205839255
 21
-0.7488633193440313
 31
0.0
  0
LINE
  5
1D2
330
18
100
AcDbEntity
  8
ADP1DETAIL
100
AcDbLine
 10
-6.295052205839255
 20
-0.6920633193440318
 30
0.0
 11
-6.255052205839255
 21
-0.6588633193440319
 31
0.0
  0
LINE
  5
1D3
330
18
100
AcDbEntity
  8
ADP1DETAIL
100
AcDbLine
 10
-6.255052205839255
 20
-0.6588633193440319
 30
0.0
 11
-6.295052205839255
 21
-0.6320633193440322
 31
0.0
  0
LINE
  5
1D4
330
18
100
AcDbEntity
  8
ADP1DETAIL
100
AcDbLine
 10
-6.255052205839255
 20
-0.5988633193440318
 30
0.0
 11
-6.295052205839255
 21
-0.5720633193440321
 31
0.0
  0
LINE
  5
1D5
330
18
100
AcDbEntity
  8
ADP1DETAIL
100
AcDbLine
 10
-6.295052205839255
 20
-0.6320633193440317
 30
0.0
 11
-6.255052205839255
 21
-0.5988633193440318
 31
0.0
  0
LINE
  5
1D6
330
18
100
AcDbEntity
  8
HIDDEN
100
AcDbLine
 10
-6.255052205839255
 20
-0.0588633193440318
 30
0.0
 11
-6.295052205839255
 21
-0.0320633193440321
 31
0.0
  0
LINE
  5
1D7
330
18
100
AcDbEntity
  8
HIDDEN
100
AcDbLine
 10
-6.295052205839255
 20
-0.2720633193440318
 30
0.0
 11
-6.255052205839255
 21
-0.2388633193440319
 31
0.0
  0
LINE
  5
1D8
330
18
100
AcDbEntity
  8
HIDDEN
100
AcDbLine
 10
-6.295052205839255
 20
-0.3320633193440319
 30
0.0
 11
-6.255052205839255
 21
-0.298863319344032
 31
0.0
  0
LINE
  5
1D9
330
18
100
AcDbEntity
  8
HIDDEN
100
AcDbLine
 10
-6.255052205839255
 20
-0.298863319344032
 30
0.0
 11
-6.295052205839255
 21
-0.2720633193440323
 31
0.0
  0
LINE
  5
1DA
330
18
100
AcDbEntity
  8
HIDDEN
100
AcDbLine
 10
-6.295052205839255
 20
-0.3920633193440319
 30
0.0
 11
-6.255052205839255
 21
-0.358863319344032
 31
0.0
  0
LINE
  5
1DB
330
18
100
AcDbEntity
  8
HIDDEN
100
AcDbLine
 10
-6.255052205839255
 20
-0.358863319344032
 30
0.0
 11
-6.295052205839255
 21
-0.3320633193440323
 31
0.0
  0
LINE
  5
1DC
330
18
100
AcDbEntity
  8
HIDDEN
100
AcDbLine
 10
-6.295052205839255
 20
-0.452063319344032
 30
0.0
 11
-6.255052205839255
 21
-0.4188633193440321
 31
0.0
  0
LINE
  5
1DD
330
18
100
AcDbEntity
  8
HIDDEN
100
AcDbLine
 10
-6.255052205839255
 20
-0.4188633193440321
 30
0.0
 11
-6.295052205839255
 21
-0.3920633193440324
 31
0.0
  0
LINE
  5
1DE
330
18
100
AcDbEntity
  8
HIDDEN
100
AcDbLine
 10
-6.295052205839255
 20
-0.5120633193440316
 30
0.0
 11
-6.255052205839255
 21
-0.4788633193440317
 31
0.0
  0
LINE
  5
1DF
330
18
100
AcDbEntity
  8
HIDDEN
100
AcDbLine
 10
-6.255052205839255
 20
-0.4788633193440317
 30
0.0
 11
-6.295052205839255
 21
-0.452063319344032
 31
0.0
  0
LINE
  5
1E0
330
18
100
AcDbEntity
  8
HIDDEN
100
AcDbLine
 10
-6.295052205839255
 20
-0.5720633193440317
 30
0.0
 11
-6.255052205839255
 21
-0.5388633193440318
 31
0.0
  0
LINE
  5
1E1
330
18
100
AcDbEntity
  8
HIDDEN
100
AcDbLine
 10
-6.255052205839255
 20
-0.5388633193440318
 30
0.0
 11
-6.295052205839255
 21
-0.5120633193440321
 31
0.0
  0
ARC
  5
1E2
330
18
100
AcDbEntity
  8
HIDDEN
100
AcDbCircle
 10
-6.18627030683111
 20
-0.2882633193440309
 30
0.0
 40
0.03
100
AcDbArc
 50
180.0000000000006
 51
270.0
  0
LINE
  5
1E3
330
18
100
AcDbEntity
  8
HIDDEN
100
AcDbLine
 10
-6.21627030683111
 20
-0.2388633193440324
 30
0.0
 11
-6.21627030683111
 21
-0.2882633193440314
 31
0.0
  0
LINE
  5
1E4
330
18
100
AcDbEntity
  8
HIDDEN
100
AcDbLine
 10
-6.067552205839255
 20
-0.3182633193440312
 30
0.0
 11
-6.125052205839256
 21
-0.3182633193440307
 31
0.0
  0
LINE
  5
1E5
330
18
100
AcDbEntity
  8
HIDDEN
100
AcDbLine
 10
-6.067552205839255
 20
-0.4228633193440312
 30
0.0
 11
-6.255052205839255
 21
-0.4228633193440317
 31
0.0
  0
LINE
  5
1E6
330
18
100
AcDbEntity
  8
HIDDEN
100
AcDbLine
 10
-6.067552205839255
 20
-0.4742633193440314
 30
0.0
 11
-6.261917877481048
 21
-0.4742633193440314
 31
0.0
  0
LINE
  5
1E7
330
18
100
AcDbEntity
  8
ADP1DETAIL
100
AcDbLine
 10
-4.930925609830566
 20
-0.5788633193440309
 30
0.0
 11
-4.907249124328931
 21
-0.6662247189092536
 31
0.0
  0
LINE
  5
1E8
330
18
100
AcDbEntity
  8
ADP1DETAIL
100
AcDbLine
 10
-4.907249124328931
 20
-0.6662247189092536
 30
0.0
 11
-4.806291143892353
 21
-0.638863319344031
 31
0.0
  0
LINE
  5
1E9
330
18
100
AcDbEntity
  8
ADP1DETAIL
100
AcDbLine
 10
-4.822552205839256
 20
-0.5788633193440309
 30
0.0
 11
-4.806291143892353
 21
-0.638863319344031
 31
0.0
  0
LINE
  5
1EB
330
18
100
AcDbEntity
  8
HIDDEN
100
AcDbLine
 10
-6.630052205839255
 20
0.1511366806559682
 30
0.0
 11
-6.590052205839256
 21
0.1243366806559689
 31
0.0
  0
LINE
  5
1EC
330
18
100
AcDbEntity
  8
HIDDEN
100
AcDbLine
 10
-6.590052205839256
 20
0.1243366806559685
 30
0.0
 11
-6.630052205839255
 21
0.0911366806559682
 31
0.0
  0
LINE
  5
1ED
330
18
100
AcDbEntity
  8
HIDDEN
100
AcDbLine
 10
-6.630052205839255
 20
0.0911366806559682
 30
0.0
 11
-6.590052205839256
 21
0.0643366806559689
 31
0.0
  0
LINE
  5
1EE
330
18
100
AcDbEntity
  8
HIDDEN
100
AcDbLine
 10
-6.590052205839256
 20
0.0643366806559684
 30
0.0
 11
-6.630052205839255
 21
0.0311366806559681
 31
0.0
  0
LINE
  5
1EF
330
18
100
AcDbEntity
  8
HIDDEN
100
AcDbLine
 10
-6.630052205839255
 20
0.0311366806559681
 30
0.0
 11
-6.590052205839256
 21
0.0043366806559688
 31
0.0
  0
LINE
  5
1F0
330
18
100
AcDbEntity
  8
HIDDEN
100
AcDbLine
 10
-6.567552205839255
 20
0.2205366806559685
 30
0.0
 11
-6.630052205839255
 21
0.1580366806559694
 31
0.0
  0
LINE
  5
1F1
330
18
100
AcDbEntity
  8
HIDDEN
100
AcDbLine
 10
-6.295052205839255
 20
0.0879366806559685
 30
0.0
 11
-6.255052205839255
 21
0.1211366806559684
 31
0.0
  0
LINE
  5
1F2
330
18
100
AcDbEntity
  8
HIDDEN
100
AcDbLine
 10
-6.255052205839255
 20
0.1211366806559684
 30
0.0
 11
-6.295052205839255
 21
0.1479366806559681
 31
0.0
  0
LINE
  5
1F3
330
18
100
AcDbEntity
  8
HIDDEN
100
AcDbLine
 10
-6.295052205839255
 20
0.0279366806559684
 30
0.0
 11
-6.255052205839255
 21
0.0611366806559683
 31
0.0
  0
LINE
  5
1F4
330
18
100
AcDbEntity
  8
HIDDEN
100
AcDbLine
 10
-6.255052205839255
 20
0.0611366806559683
 30
0.0
 11
-6.295052205839255
 21
0.0879366806559681
 31
0.0
  0
LINE
  5
1F5
330
18
100
AcDbEntity
  8
HIDDEN
100
AcDbLine
 10
-6.255052205839255
 20
0.0011366806559683
 30
0.0
 11
-6.295052205839255
 21
0.027936680655968
 31
0.0
  0
LINE
  5
1F6
330
18
100
AcDbEntity
  8
HIDDEN
100
AcDbLine
 10
-6.317552205839255
 20
0.2205366806559685
 30
0.0
 11
-6.255052205839255
 21
0.1580366806559676
 31
0.0
  0
LINE
  5
1F7
330
18
100
AcDbEntity
  8
ADP1DETAIL
100
AcDbLine
 10
-5.017684949202088
 20
0.1411366806559693
 30
0.0
 11
-4.974322117343682
 21
-0.0188633193440309
 31
0.0
  0
LINE
  5
1F8
330
18
100
AcDbEntity
  8
ADP1DETAIL
100
AcDbLine
 10
-5.126058353193398
 20
0.1411366806559693
 30
0.0
 11
-5.082695521334992
 21
-0.0188633193440309
 31
0.0
  0
ARC
  5
1F9
330
18
100
AcDbEntity
  8
HIDDEN
100
AcDbCircle
 10
-5.113455620369204
 20
0.265136680655969
 30
0.0
 40
0.06
100
AcDbArc
 50
15.16390909270684
 51
90.0
  0
ARC
  5
1FA
330
18
100
AcDbEntity
  8
HIDDEN
100
AcDbCircle
 10
-5.162878296679782
 20
0.200536680655969
 30
0.0
 40
0.02
100
AcDbArc
 50
15.16390909270684
 51
90.0
  0
LINE
  5
1FB
330
18
100
AcDbEntity
  8
HIDDEN
100
AcDbLine
 10
-5.143574667533209
 20
0.2057683058118433
 30
0.0
 11
-5.126058353193398
 21
0.1411366806559693
 31
0.0
  0
LINE
  5
1FC
330
18
100
AcDbEntity
  8
HIDDEN
100
AcDbLine
 10
-5.055544732929487
 20
0.2808315561235917
 30
0.0
 11
-5.017684949202088
 21
0.1411366806559693
 31
0.0
  0
LINE
  5
1FD
330
18
100
AcDbEntity
  8
ADP1DETAIL
100
AcDbLine
 10
-5.067552205839256
 20
2.070410309780167
 30
0.0
 11
-4.806291143892353
 21
2.070410309780167
 31
0.0
  0
LINE
  5
1FE
330
18
100
AcDbEntity
  8
ADP1DETAIL
100
AcDbLine
 10
-5.067552205839256
 20
2.070410309780167
 30
0.0
 11
-5.067552205839256
 21
2.030410309780167
 31
0.0
  0
LINE
  5
1FF
330
18
100
AcDbEntity
  8
ADP1DETAIL
100
AcDbLine
 10
-4.192552205839255
 20
-0.0188633193440309
 30
0.0
 11
-4.192552205839255
 21
-0.5788633193440309
 31
0.0
  0
LINE
  5
200
330
18
100
AcDbEntity
  8
ADP1DETAIL
100
AcDbLine
 10
-4.192552205839255
 20
0.4811366806559692
 30
0.0
 11
-4.192552205839255
 21
0.1411366806559693
 31
0.0
  0
LINE
  5
201
330
18
100
AcDbEntity
  8
ADP1DETAIL
100
AcDbLine
 10
-4.192552205839255
 20
2.030410309780163
 30
0.0
 11
-4.192552205839256
 21
1.525410309780166
 31
0.0
  0
LINE
  5
202
330
18
100
AcDbEntity
  8
ADP1DETAIL
100
AcDbLine
 10
-5.067552205839256
 20
2.310410309780167
 30
0.0
 11
-4.806291143892353
 21
2.310410309780167
 31
0.0
  0
LINE
  5
203
330
18
100
AcDbEntity
  8
ADP1DETAIL
100
AcDbLine
 10
-5.067552205839256
 20
2.350410309780167
 30
0.0
 11
-5.067552205839256
 21
2.310410309780167
 31
0.0
  0
LINE
  5
204
330
18
100
AcDbEntity
  8
ADP1DETAIL
100
AcDbLine
 10
-4.192552205839256
 20
2.820410309780167
 30
0.0
 11
-4.192552205839255
 21
2.350410309780167
 31
0.0
  0
TEXT
  5
212
330
18
100
AcDbEntity
  8
ADPDIM
100
AcDbText
 10
-13.88380360194388
 20
-1.80389910295589
 30
0.0
 40
0.125
  1
J U L I U S  B L U M  &  C O . ,  I N C .      ( 8 0 0 )  5 2 6 - 6 2 9 3        W W W . J U L I U S B L U M . C O M        P A R T  N o .  9 2 4
 41
1.25
  7
ARIAL_WIDE
 72
     1
 11
-7.449096064426827
 21
-1.67889910295589
 31
0.0
100
AcDbText
 73
     3
  0
ENDSEC
  0
SECTION
  2
OBJECTS
  0
DICTIONARY
  5
C
330
0
100
AcDbDictionary
281
     1
  3
ACAD_COLOR
350
367
  3
ACAD_GROUP
350
D
  3
ACAD_LAYOUT
350
20B
  3
ACAD_MATERIAL
350
352
  3
ACAD_MLINESTYLE
350
E
  3
ACAD_PLOTSETTINGS
350
20C
  3
ACAD_PLOTSTYLENAME
350
209
  3
ACAD_TABLESTYLE
350
368
  3
ACAD_VISUALSTYLE
350
356
  3
AcDbVariableDictionary
350
26C
  3
ASE_INDEX_DICTIONARY
350
36E
  3
DWGPROPS
350
3DA
  0
DICTIONARY
  5
3A1
330
8
100
AcDbDictionary
280
     1
281
     1
  0
DICTIONARY
  5
266
330
18
100
AcDbDictionary
280
     1
281
     1
  3
ACAD_LAYOUTSELFREF
360
34C
  0
DICTIONARY
  5
264
330
15
100
AcDbDictionary
280
     1
281
     1
  3
ACAD_LAYOUTSELFREF
360
34B
  0
DICTIONARY
  5
367
102
{ACAD_REACTORS
330
C
102
}
330
C
100
AcDbDictionary
281
     1
  0
DICTIONARY
  5
D
102
{ACAD_REACTORS
330
C
102
}
330
C
100
AcDbDictionary
281
     1
  0
DICTIONARY
  5
20B
102
{ACAD_REACTORS
330
C
102
}
330
C
100
AcDbDictionary
281
     1
  3
Layout1
350
20E
  3
Model
350
20D
  0
DICTIONARY
  5
352
102
{ACAD_REACTORS
330
C
102
}
330
C
100
AcDbDictionary
281
     1
  3
ByBlock
350
354
  3
ByLayer
350
353
  3
Global
350
355
  0
DICTIONARY
  5
E
102
{ACAD_REACTORS
330
C
102
}
330
C
100
AcDbDictionary
281
     1
  3
STANDARD
350
1B
  0
DICTIONARY
  5
20C
102
{ACAD_REACTORS
330
C
102
}
330
C
100
AcDbDictionary
281
     1
  0
ACDBDICTIONARYWDFLT
  5
209
102
{ACAD_REACTORS
330
C
102
}
330
C
100
AcDbDictionary
281
     1
  3
Normal
350
20A
100
AcDbDictionaryWithDefault
340
20A
  0
DICTIONARY
  5
368
102
{ACAD_REACTORS
330
C
102
}
330
C
100
AcDbDictionary
281
     1
  3
Standard
350
369
  0
DICTIONARY
  5
356
102
{ACAD_REACTORS
330
C
102
}
330
C
100
AcDbDictionary
281
     1
  3
2dWireframe
350
35C
  3
3D Hidden
350
35E
  3
3dWireframe
350
35D
  3
Basic
350
35B
  3
Brighten
350
362
  3
ColorChange
350
366
  3
Conceptual
350
35F
  3
Dim
350
361
  3
Facepattern
350
365
  3
Flat
350
357
  3
FlatWithEdges
350
358
  3
Gouraud
350
359
  3
GouraudWithEdges
350
35A
  3
Linepattern
350
364
  3
Realistic
350
360
  3
Thicken
350
363
  0
DICTIONARY
  5
26C
102
{ACAD_REACTORS
330
C
102
}
330
C
100
AcDbDictionary
281
     1
  3
CTABLESTYLE
350
38F
  3
DIMASSOC
350
26D
  3
INDEXCTL
350
391
  3
SORTENTS
350
390
  0
DICTIONARY
  5
36E
102
{ACAD_REACTORS
330
C
102
}
330
C
100
AcDbDictionary
281
     1
  3
ASEBlockHierarchyIndexRecord
350
370
1001
DCO15
1040
1567875595.954
  0
XRECORD
  5
3DA
102
{ACAD_REACTORS
330
C
102
}
330
C
100
AcDbXrecord
280
     1
  1
DWGPROPS COOKIE
  2

  3

  4

  6

  7

  8
Yu Hu
  9

300
=
301
=
302
=
303
=
304
=
305
=
306
=
307
=
308
=
309
=
 40
0.0623819675925926
 41
2450333.471885023
 42
2453949.920138356
  1

 90
        0
  0
XRECORD
  5
34C
102
{ACAD_REACTORS
330
266
102
}
330
266
100
AcDbXrecord
280
     1
340
18
  0
XRECORD
  5
34B
102
{ACAD_REACTORS
330
264
102
}
330
264
100
AcDbXrecord
280
     1
340
15
  0
LAYOUT
  5
20E
102
{ACAD_XDICTIONARY
360
3DD
102
}
102
{ACAD_REACTORS
330
20B
102
}
330
20B
100
AcDbPlotSettings
  1

  2
Fax
  4

  6

 40
0.0
 41
0.0
 42
0.0
 43
0.0
 44
0.0
 45
0.0
 46
0.0
 47
0.0
 48
0.0
 49
0.0
140
0.0
141
0.0
142
1.0
143
1.0
 70
   688
 72
     0
 73
     0
 74
     5
  7
Default R14 pen assignments.ctb
 75
    16
147
1.0
148
0.0
149
0.0
100
AcDbLayout
  1
Layout1
 70
     1
 71
     1
 10
0.0
 20
0.0
 11
12.0
 21
9.0
 12
0.0
 22
0.0
 32
0.0
 14
1.000000000000000E+20
 24
1.000000000000000E+20
 34
1.000000000000000E+20
 15
-1.000000000000000E+20
 25
-1.000000000000000E+20
 35
-1.000000000000000E+20
146
0.0
 13
0.0
 23
0.0
 33
0.0
 16
1.0
 26
0.0
 36
0.0
 17
0.0
 27
1.0
 37
0.0
 76
     0
330
15
  0
LAYOUT
  5
20D
102
{ACAD_XDICTIONARY
360
3DB
102
}
102
{ACAD_REACTORS
330
20B
102
}
330
20B
100
AcDbPlotSettings
  1

  2
Fax
  4

  6

 40
0.0
 41
0.0
 42
0.0
 43
0.0
 44
0.0
 45
0.0
 46
0.0
 47
0.0
 48
0.0
 49
0.0
140
0.0
141
0.0
142
1.0
143
1.0
 70
  1712
 72
     0
 73
     0
 74
     0
  7
Default R14 pen assignments.ctb
 75
     0
147
1.0
148
0.0
149
0.0
100
AcDbLayout
  1
Model
 70
     1
 71
     0
 10
0.0
 20
0.0
 11
12.0
 21
9.0
 12
0.0
 22
0.0
 32
0.0
 14
0.0
 24
0.0
 34
0.0
 15
0.0
 25
0.0
 35
0.0
146
0.0
 13
0.0
 23
0.0
 33
0.0
 16
1.0
 26
0.0
 36
0.0
 17
0.0
 27
1.0
 37
0.0
 76
     0
330
18
331
326
  0
MATERIAL
  5
354
102
{ACAD_XDICTIONARY
360
3E1
102
}
102
{ACAD_REACTORS
330
352
102
}
330
352
100
AcDbMaterial
  1
ByBlock
  0
MATERIAL
  5
353
102
{ACAD_XDICTIONARY
360
3DF
102
}
102
{ACAD_REACTORS
330
352
102
}
330
352
100
AcDbMaterial
  1
ByLayer
  0
MATERIAL
  5
355
102
{ACAD_XDICTIONARY
360
3E3
102
}
102
{ACAD_REACTORS
330
352
102
}
330
352
100
AcDbMaterial
  1
Global
  0
MLINESTYLE
  5
1B
102
{ACAD_REACTORS
330
E
102
}
330
E
100
AcDbMlineStyle
  2
STANDARD
 70
     0
  3

 62
     0
 51
90.0
 52
90.0
 71
     2
 49
0.5
 62
   256
  6
BYLAYER
 49
-0.5
 62
   256
  6
BYLAYER
  0
ACDBPLACEHOLDER
  5
20A
102
{ACAD_REACTORS
330
209
102
}
330
209
  0
TABLESTYLE
  5
369
102
{ACAD_XDICTIONARY
360
3E5
102
}
102
{ACAD_REACTORS
330
368
102
}
330
368
100
AcDbTableStyle
  3
Standard
 70
     0
 71
     0
 40
0.06
 41
0.06
280
     0
281
     0
  7
STANDARD
140
0.18
170
     2
 62
     0
 63
     7
283
     0
274
    -2
284
     1
 64
     0
275
    -2
285
     1
 65
     0
276
    -2
286
     1
 66
     0
277
    -2
287
     1
 67
     0
278
    -2
288
     1
 68
     0
279
    -2
289
     1
 69
     0
  7
STANDARD
140
0.25
170
     5
 62
     0
 63
     7
283
     0
274
    -2
284
     1
 64
     0
275
    -2
285
     1
 65
     0
276
    -2
286
     1
 66
     0
277
    -2
287
     1
 67
     0
278
    -2
288
     1
 68
     0
279
    -2
289
     1
 69
     0
  7
STANDARD
140
0.18
170
     5
 62
     0
 63
     7
283
     0
274
    -2
284
     1
 64
     0
275
    -2
285
     1
 65
     0
276
    -2
286
     1
 66
     0
277
    -2
287
     1
 67
     0
278
    -2
288
     1
 68
     0
279
    -2
289
     1
 69
     0
  0
VISUALSTYLE
  5
35C
102
{ACAD_REACTORS
330
356
102
}
330
356
100
AcDbVisualStyle
  2
2dWireframe
 70
     4
 71
     0
 72
     2
 73
     0
 90
        0
 40
-0.6
 41
-30.0
 62
     5
 63
     7
 74
     1
 91
        4
 64
     7
 65
   257
 75
     1
175
     1
 42
1.0
 92
        0
 66
   257
 43
1.0
 76
     1
 77
     6
 78
     2
 67
     7
 79
     5
170
     0
171
     0
290
     0
174
     0
 93
        1
 44
0.0
173
     0
291
     0
 45
0.0
1001
ACAD
1000
AcDbSavedByObjectVersion
1070
     0
  0
VISUALSTYLE
  5
35E
102
{ACAD_REACTORS
330
356
102
}
330
356
100
AcDbVisualStyle
  2
3D Hidden
 70
     6
 71
     1
 72
     2
 73
     2
 90
        0
 40
-0.6
 41
-30.0
 62
     5
 63
     7
 74
     2
 91
        2
 64
     7
 65
   257
 75
     2
175
     1
 42
40.0
 92
        0
 66
   257
 43
1.0
 76
     1
 77
     6
 78
     2
 67
     7
 79
     3
170
     0
171
     0
290
     0
174
     0
 93
        1
 44
0.0
173
     0
291
     0
 45
0.0
1001
ACAD
1000
AcDbSavedByObjectVersion
1070
     0
  0
VISUALSTYLE
  5
35D
102
{ACAD_REACTORS
330
356
102
}
330
356
100
AcDbVisualStyle
  2
3dWireframe
 70
     5
 71
     0
 72
     2
 73
     0
 90
        0
 40
-0.6
 41
-30.0
 62
     5
 63
     7
 74
     1
 91
        4
 64
     7
 65
   257
 75
     1
175
     1
 42
1.0
 92
        0
 66
   257
 43
1.0
 76
     1
 77
     6
 78
     2
 67
     7
 79
     5
170
     0
171
     0
290
     0
174
     0
 93
        1
 44
0.0
173
     0
291
     0
 45
0.0
1001
ACAD
1000
AcDbSavedByObjectVersion
1070
     0
  0
VISUALSTYLE
  5
35B
102
{ACAD_REACTORS
330
356
102
}
330
356
100
AcDbVisualStyle
  2
Basic
 70
     7
 71
     1
 72
     0
 73
     1
 90
        0
 40
-0.6
 41
-30.0
 62
     5
 63
     7
 74
     0
 91
        4
 64
     7
 65
   257
 75
     1
175
     1
 42
1.0
 92
        8
 66
     7
 43
1.0
 76
     1
 77
     6
 78
     2
 67
     7
 79
     5
170
     0
171
     0
290
     0
174
     0
 93
        1
 44
0.0
173
     0
291
     1
 45
0.0
1001
ACAD
1000
AcDbSavedByObjectVersion
1070
     0
  0
VISUALSTYLE
  5
362
102
{ACAD_REACTORS
330
356
102
}
330
356
100
AcDbVisualStyle
  2
Brighten
 70
    12
 71
     2
 72
     2
 73
     0
 90
        0
 40
-0.6
 41
-30.0
 62
     5
 63
     7
 74
     1
 91
        4
 64
     7
 65
   257
 75
     1
175
     1
 42
1.0
 92
        8
 66
     7
 43
1.0
 76
     1
 77
     6
 78
     2
 67
     7
 79
     5
170
     0
171
     0
290
     0
174
     0
 93
        1
 44
50.0
173
     0
291
     1
 45
0.0
1001
ACAD
1000
AcDbSavedByObjectVersion
1070
     0
  0
VISUALSTYLE
  5
366
102
{ACAD_REACTORS
330
356
102
}
330
356
100
AcDbVisualStyle
  2
ColorChange
 70
    16
 71
     2
 72
     2
 73
     3
 90
        0
 40
-0.6
 41
-30.0
 62
     5
 63
     8
 74
     1
 91
        4
 64
     7
 65
   257
 75
     1
175
     1
 42
1.0
 92
        8
 66
     8
 43
1.0
 76
     1
 77
     6
 78
     2
 67
     7
 79
     5
170
     0
171
     0
290
     0
174
     0
 93
        1
 44
0.0
173
     0
291
     1
 45
0.0
1001
ACAD
1000
AcDbSavedByObjectVersion
1070
     0
  0
VISUALSTYLE
  5
35F
102
{ACAD_REACTORS
330
356
102
}
330
356
100
AcDbVisualStyle
  2
Conceptual
 70
     9
 71
     3
 72
     2
 73
     0
 90
        0
 40
-0.6
 41
-30.0
 62
     5
 63
     7
 74
     2
 91
        2
 64
     7
 65
   257
 75
     1
175
     1
 42
40.0
 92
        8
 66
     7
 43
1.0
 76
     1
 77
     6
 78
     2
 67
     7
 79
     3
170
     0
171
     0
290
     0
174
     0
 93
        1
 44
0.0
173
     0
291
     0
 45
0.0
1001
ACAD
1000
AcDbSavedByObjectVersion
1070
     0
  0
VISUALSTYLE
  5
361
102
{ACAD_REACTORS
330
356
102
}
330
356
100
AcDbVisualStyle
  2
Dim
 70
    11
 71
     2
 72
     2
 73
     0
 90
        0
 40
-0.6
 41
-30.0
 62
     5
 63
     7
 74
     1
 91
        4
 64
     7
 65
   257
 75
     1
175
     1
 42
1.0
 92
        8
 66
     7
 43
1.0
 76
     1
 77
     6
 78
     2
 67
     7
 79
     5
170
     0
171
     0
290
     0
174
     0
 93
        1
 44
-50.0
173
     0
291
     1
 45
0.0
1001
ACAD
1000
AcDbSavedByObjectVersion
1070
     0
  0
VISUALSTYLE
  5
365
102
{ACAD_REACTORS
330
356
102
}
330
356
100
AcDbVisualStyle
  2
Facepattern
 70
    15
 71
     2
 72
     2
 73
     0
 90
        0
 40
-0.6
 41
-30.0
 62
     5
 63
     7
 74
     1
 91
        4
 64
     7
 65
   257
 75
     1
175
     1
 42
1.0
 92
        8
 66
     7
 43
1.0
 76
     1
 77
     6
 78
     2
 67
     7
 79
     5
170
     0
171
     0
290
     0
174
     0
 93
        1
 44
0.0
173
     0
291
     1
 45
0.0
1001
ACAD
1000
AcDbSavedByObjectVersion
1070
     0
  0
VISUALSTYLE
  5
357
102
{ACAD_REACTORS
330
356
102
}
330
356
100
AcDbVisualStyle
  2
Flat
 70
     0
 71
     2
 72
     1
 73
     1
 90
        2
 40
-0.6
 41
30.0
 62
     5
 63
     7
 74
     0
 91
        4
 64
     7
 65
   257
 75
     1
175
     1
 42
1.0
 92
        8
 66
     7
 43
1.0
 76
     1
 77
     6
 78
     2
 67
     7
 79
     5
170
     0
171
     0
290
     0
174
     0
 93
       13
 44
0.0
173
     0
291
     1
 45
0.0
1001
ACAD
1000
AcDbSavedByObjectVersion
1070
     0
  0
VISUALSTYLE
  5
358
102
{ACAD_REACTORS
330
356
102
}
330
356
100
AcDbVisualStyle
  2
FlatWithEdges
 70
     1
 71
     2
 72
     1
 73
     1
 90
        2
 40
-0.6
 41
30.0
 62
     5
 63
     7
 74
     1
 91
        4
 64
     7
 65
   257
 75
     1
175
     1
 42
1.0
 92
        0
 66
   257
 43
1.0
 76
     1
 77
     6
 78
     2
 67
     7
 79
     5
170
     0
171
     0
290
     0
174
     0
 93
       13
 44
0.0
173
     0
291
     1
 45
0.0
1001
ACAD
1000
AcDbSavedByObjectVersion
1070
     0
  0
VISUALSTYLE
  5
359
102
{ACAD_REACTORS
330
356
102
}
330
356
100
AcDbVisualStyle
  2
Gouraud
 70
     2
 71
     2
 72
     2
 73
     1
 90
        2
 40
-0.6
 41
30.0
 62
     5
 63
     7
 74
     0
 91
        4
 64
     7
 65
   257
 75
     1
175
     1
 42
1.0
 92
        0
 66
     7
 43
1.0
 76
     1
 77
     6
 78
     2
 67
     7
 79
     5
170
     0
171
     0
290
     0
174
     0
 93
       13
 44
0.0
173
     0
291
     1
 45
0.0
1001
ACAD
1000
AcDbSavedByObjectVersion
1070
     0
  0
VISUALSTYLE
  5
35A
102
{ACAD_REACTORS
330
356
102
}
330
356
100
AcDbVisualStyle
  2
GouraudWithEdges
 70
     3
 71
     2
 72
     2
 73
     1
 90
        2
 40
-0.6
 41
30.0
 62
     5
 63
     7
 74
     1
 91
        4
 64
     7
 65
   257
 75
     1
175
     1
 42
1.0
 92
        0
 66
   257
 43
1.0
 76
     1
 77
     6
 78
     2
 67
     7
 79
     5
170
     0
171
     0
290
     0
174
     0
 93
       13
 44
0.0
173
     0
291
     1
 45
0.0
1001
ACAD
1000
AcDbSavedByObjectVersion
1070
     0
  0
VISUALSTYLE
  5
364
102
{ACAD_REACTORS
330
356
102
}
330
356
100
AcDbVisualStyle
  2
Linepattern
 70
    14
 71
     2
 72
     2
 73
     0
 90
        0
 40
-0.6
 41
-30.0
 62
     5
 63
     7
 74
     1
 91
        4
 64
     7
 65
   257
 75
     7
175
     7
 42
1.0
 92
        8
 66
     7
 43
1.0
 76
     1
 77
     6
 78
     2
 67
     7
 79
     5
170
     0
171
     0
290
     0
174
     0
 93
        1
 44
0.0
173
     0
291
     1
 45
0.0
1001
ACAD
1000
AcDbSavedByObjectVersion
1070
     0
  0
VISUALSTYLE
  5
360
102
{ACAD_REACTORS
330
356
102
}
330
356
100
AcDbVisualStyle
  2
Realistic
 70
     8
 71
     2
 72
     2
 73
     0
 90
        0
 40
-0.6
 41
-30.0
 62
     5
 63
     7
 74
     1
 91
        0
 64
     7
 65
   257
 75
     1
175
     1
 42
1.0
 92
        8
 66
     8
 43
1.0
 76
     1
 77
     6
 78
     2
 67
     7
 79
     5
170
     0
171
     0
290
     0
174
     0
 93
       13
 44
0.0
173
     0
291
     0
 45
0.0
1001
ACAD
1000
AcDbSavedByObjectVersion
1070
     0
  0
VISUALSTYLE
  5
363
102
{ACAD_REACTORS
330
356
102
}
330
356
100
AcDbVisualStyle
  2
Thicken
 70
    13
 71
     2
 72
     2
 73
     0
 90
        0
 40
-0.6
 41
-30.0
 62
     5
 63
     7
 74
     1
 91
        4
 64
     7
 65
   257
 75
     1
175
     1
 42
1.0
 92
       12
 66
     7
 43
1.0
 76
     1
 77
     6
 78
     2
 67
     7
 79
     5
170
     0
171
     0
290
     0
174
     0
 93
        1
 44
0.0
173
     0
291
     1
 45
0.0
1001
ACAD
1000
AcDbSavedByObjectVersion
1070
     0
  0
DICTIONARYVAR
  5
38F
102
{ACAD_REACTORS
330
26C
102
}
330
26C
100
DictionaryVariables
280
     0
  1
STANDARD
  0
DICTIONARYVAR
  5
26D
102
{ACAD_REACTORS
330
26C
102
}
330
26C
100
DictionaryVariables
280
     0
  1
1
  0
DICTIONARYVAR
  5
391
102
{ACAD_REACTORS
330
26C
102
}
330
26C
100
DictionaryVariables
280
     0
  1
0
  0
DICTIONARYVAR
  5
390
102
{ACAD_REACTORS
330
26C
102
}
330
26C
100
DictionaryVariables
280
     0
  1
127
  0
XRECORD
  5
370
102
{ACAD_REACTORS
330
36E
102
}
330
36E
100
AcDbXrecord
280
     1
  0
DICTIONARY
  5
3DD
330
20E
100
AcDbDictionary
280
     1
281
     1
  3
ACAD_XREC_ROUNDTRIP
360
3DE
  0
DICTIONARY
  5
3DB
330
20D
100
AcDbDictionary
280
     1
281
     1
  3
ACAD_XREC_ROUNDTRIP
360
3DC
  0
DICTIONARY
  5
3E1
330
354
100
AcDbDictionary
280
     1
281
     1
  3
ACAD_XREC_ROUNDTRIP
360
3E2
  0
DICTIONARY
  5
3DF
330
353
100
AcDbDictionary
280
     1
281
     1
  3
ACAD_XREC_ROUNDTRIP
360
3E0
  0
DICTIONARY
  5
3E3
330
355
100
AcDbDictionary
280
     1
281
     1
  3
ACAD_XREC_ROUNDTRIP
360
3E4
  0
DICTIONARY
  5
3E5
330
369
100
AcDbDictionary
280
     1
281
     1
  3
ACAD_XREC_ROUNDTRIP
360
3E6
  0
XRECORD
  5
3DE
102
{ACAD_REACTORS
330
3DD
102
}
330
3DD
100
AcDbXrecord
280
     1
102
SHADEPLOT
 70
     0
102
SHADEPLOTRESLEVEL
 70
     2
102
SHADEPLOTCUSTOMDPI
 70
   300
  0
XRECORD
  5
3DC
102
{ACAD_REACTORS
330
3DB
102
}
330
3DB
100
AcDbXrecord
280
     1
102
SHADEPLOT
 70
     0
102
SHADEPLOTRESLEVEL
 70
     2
102
SHADEPLOTCUSTOMDPI
 70
   300
  0
XRECORD
  5
3E2
102
{ACAD_REACTORS
330
3E1
102
}
330
3E1
100
AcDbXrecord
280
     1
102
MATERIAL
148
0.0
149
0.0
149
0.0
 93
        0
 94
       63
282
     0
 72
     1
 77
     1
171
     1
175
     1
179
     1
273
     0
  0
XRECORD
  5
3E0
102
{ACAD_REACTORS
330
3DF
102
}
330
3DF
100
AcDbXrecord
280
     1
102
MATERIAL
148
0.0
149
0.0
149
0.0
 93
        0
 94
       63
282
     0
 72
     1
 77
     1
171
     1
175
     1
179
     1
273
     0
  0
XRECORD
  5
3E4
102
{ACAD_REACTORS
330
3E3
102
}
330
3E3
100
AcDbXrecord
280
     1
102
MATERIAL
148
0.0
149
0.0
149
0.0
 93
        0
 94
       63
282
     0
 72
     1
 77
     1
171
     1
175
     1
179
     1
273
     0
  0
XRECORD
  5
3E6
102
{ACAD_REACTORS
330
3E5
102
}
330
3E5
100
AcDbXrecord
280
     1
102
ACAD_ROUNDTRIP_PRE2007_TABLESTYLE
 90
      512
 91
        0
  1

 92
      512
 93
        0
  2

 94
      512
 95
        0
  3

  0
ENDSEC
  0
EOF
