  0
SECTION
  2
HEADER
  9
$ACADVER
  1
AC1015
  9
$ACADMAINTVER
 70
    20
  9
$DWGCODEPAGE
  3
ANSI_1252
  9
$INSBASE
 10
0.0
 20
0.0
 30
0.0
  9
$EXTMIN
 10
-54.92377929687499
 20
164.3827311197916
 30
0.0
  9
$EXTMAX
 10
180.5691677517361
 20
253.8690863715277
 30
0.0
  9
$LIMMIN
 10
-55.03953450520833
 20
164.3816975911458
  9
$LIMMAX
 10
181.7081163194444
 20
253.9314425998264
  9
$ORTHOMODE
 70
     0
  9
$REGENMODE
 70
     1
  9
$FILLMODE
 70
     1
  9
$QTEXTMODE
 70
     0
  9
$MIRRTEXT
 70
     1
  9
$LTSCALE
 40
1.0
  9
$ATTMODE
 70
     1
  9
$TEXTSIZE
 40
0.0
  9
$TRACEWID
 40
0.05
  9
$TEXTSTYLE
  7
Standard
  9
$CLAYER
  8
0
  9
$CELTYPE
  6
Continuous
  9
$CECOLOR
 62
   256
  9
$CELTSCALE
 40
1.0
  9
$DISPSILH
 70
     0
  9
$DIMSCALE
 40
1.0
  9
$DIMASZ
 40
0.18
  9
$DIMEXO
 40
0.0625
  9
$DIMDLI
 40
0.38
  9
$DIMRND
 40
0.0
  9
$DIMDLE
 40
0.0
  9
$DIMEXE
 40
0.18
  9
$DIMTP
 40
0.0
  9
$DIMTM
 40
0.0
  9
$DIMTXT
 40
0.18
  9
$DIMCEN
 40
0.09
  9
$DIMTSZ
 40
0.0
  9
$DIMTOL
 70
     0
  9
$DIMLIM
 70
     0
  9
$DIMTIH
 70
     1
  9
$DIMTOH
 70
     1
  9
$DIMSE1
 70
     0
  9
$DIMSE2
 70
     0
  9
$DIMTAD
 70
     0
  9
$DIMZIN
 70
     0
  9
$DIMBLK
  1

  9
$DIMASO
 70
     1
  9
$DIMSHO
 70
     1
  9
$DIMPOST
  1

  9
$DIMAPOST
  1

  9
$DIMALT
 70
     0
  9
$DIMALTD
 70
     2
  9
$DIMALTF
 40
25.4
  9
$DIMLFAC
 40
1.0
  9
$DIMTOFL
 70
     0
  9
$DIMTVP
 40
0.0
  9
$DIMTIX
 70
     0
  9
$DIMSOXD
 70
     0
  9
$DIMSAH
 70
     0
  9
$DIMBLK1
  1

  9
$DIMBLK2
  1

  9
$DIMSTYLE
  2
Standard
  9
$DIMCLRD
 70
     0
  9
$DIMCLRE
 70
     0
  9
$DIMCLRT
 70
     0
  9
$DIMTFAC
 40
1.0
  9
$DIMGAP
 40
0.09
  9
$DIMJUST
 70
     0
  9
$DIMSD1
 70
     0
  9
$DIMSD2
 70
     0
  9
$DIMTOLJ
 70
     1
  9
$DIMTZIN
 70
     0
  9
$DIMALTZ
 70
     0
  9
$DIMALTTZ
 70
     0
  9
$DIMUPT
 70
     0
  9
$DIMDEC
 70
     4
  9
$DIMTDEC
 70
     4
  9
$DIMALTU
 70
     2
  9
$DIMALTTD
 70
     2
  9
$DIMTXSTY
  7
Standard
  9
$DIMAUNIT
 70
     0
  9
$DIMADEC
 70
     0
  9
$DIMALTRND
 40
0.0
  9
$DIMAZIN
 70
     0
  9
$DIMDSEP
 70
     0
  9
$DIMATFIT
 70
     3
  9
$DIMFRAC
 70
     0
  9
$DIMLDRBLK
  1

  9
$DIMLUNIT
 70
     2
  9
$DIMLWD
 70
     0
  9
$DIMLWE
 70
     0
  9
$DIMTMOVE
 70
     0
  9
$LUNITS
 70
     2
  9
$LUPREC
 70
     4
  9
$SKETCHINC
 40
0.1
  9
$FILLETRAD
 40
0.0
  9
$AUNITS
 70
     0
  9
$AUPREC
 70
     0
  9
$MENU
  1
acad
  9
$ELEVATION
 40
0.0
  9
$PELEVATION
 40
0.0
  9
$THICKNESS
 40
0.0
  9
$LIMCHECK
 70
     0
  9
$CHAMFERA
 40
0.0
  9
$CHAMFERB
 40
0.0
  9
$CHAMFERC
 40
0.0
  9
$CHAMFERD
 40
0.0
  9
$SKPOLY
 70
     0
  9
$TDCREATE
 40
2453958.965814896
  9
$TDUCREATE
 40
2453959.132481563
  9
$TDUPDATE
 40
2453958.972500428
  9
$TDUUPDATE
 40
2453959.139167095
  9
$TDINDWG
 40
0.0066954977
  9
$TDUSRTIMER
 40
0.0066954977
  9
$USRTIMER
 70
     1
  9
$ANGBASE
 50
0.0
  9
$ANGDIR
 70
     0
  9
$PDMODE
 70
     0
  9
$PDSIZE
 40
0.0
  9
$PLINEWID
 40
0.0
  9
$SPLFRAME
 70
     0
  9
$SPLINETYPE
 70
     6
  9
$SPLINESEGS
 70
     8
  9
$HANDSEED
  5
29F
  9
$SURFTAB1
 70
     6
  9
$SURFTAB2
 70
     6
  9
$SURFTYPE
 70
     6
  9
$SURFU
 70
     6
  9
$SURFV
 70
     6
  9
$UCSBASE
  2

  9
$UCSNAME
  2

  9
$UCSORG
 10
0.0
 20
0.0
 30
0.0
  9
$UCSXDIR
 10
1.0
 20
0.0
 30
0.0
  9
$UCSYDIR
 10
0.0
 20
1.0
 30
0.0
  9
$UCSORTHOREF
  2

  9
$UCSORTHOVIEW
 70
     0
  9
$UCSORGTOP
 10
0.0
 20
0.0
 30
0.0
  9
$UCSORGBOTTOM
 10
0.0
 20
0.0
 30
0.0
  9
$UCSORGLEFT
 10
0.0
 20
0.0
 30
0.0
  9
$UCSORGRIGHT
 10
0.0
 20
0.0
 30
0.0
  9
$UCSORGFRONT
 10
0.0
 20
0.0
 30
0.0
  9
$UCSORGBACK
 10
0.0
 20
0.0
 30
0.0
  9
$PUCSBASE
  2

  9
$PUCSNAME
  2

  9
$PUCSORG
 10
0.0
 20
0.0
 30
0.0
  9
$PUCSXDIR
 10
1.0
 20
0.0
 30
0.0
  9
$PUCSYDIR
 10
0.0
 20
1.0
 30
0.0
  9
$PUCSORTHOREF
  2

  9
$PUCSORTHOVIEW
 70
     0
  9
$PUCSORGTOP
 10
0.0
 20
0.0
 30
0.0
  9
$PUCSORGBOTTOM
 10
0.0
 20
0.0
 30
0.0
  9
$PUCSORGLEFT
 10
0.0
 20
0.0
 30
0.0
  9
$PUCSORGRIGHT
 10
0.0
 20
0.0
 30
0.0
  9
$PUCSORGFRONT
 10
0.0
 20
0.0
 30
0.0
  9
$PUCSORGBACK
 10
0.0
 20
0.0
 30
0.0
  9
$USERI1
 70
     0
  9
$USERI2
 70
     0
  9
$USERI3
 70
     0
  9
$USERI4
 70
     0
  9
$USERI5
 70
     0
  9
$USERR1
 40
0.0
  9
$USERR2
 40
0.0
  9
$USERR3
 40
0.0
  9
$USERR4
 40
0.0
  9
$USERR5
 40
0.0
  9
$WORLDVIEW
 70
     1
  9
$SHADEDGE
 70
     3
  9
$SHADEDIF
 70
    70
  9
$TILEMODE
 70
     1
  9
$MAXACTVP
 70
    16
  9
$PINSBASE
 10
0.0
 20
0.0
 30
0.0
  9
$PLIMCHECK
 70
     0
  9
$PEXTMIN
 10
1.000000000000000E+20
 20
1.000000000000000E+20
 30
1.000000000000000E+20
  9
$PEXTMAX
 10
-1.000000000000000E+20
 20
-1.000000000000000E+20
 30
-1.000000000000000E+20
  9
$PLIMMIN
 10
0.0
 20
0.0
  9
$PLIMMAX
 10
12.0
 20
9.0
  9
$UNITMODE
 70
     0
  9
$VISRETAIN
 70
     0
  9
$PLINEGEN
 70
     1
  9
$PSLTSCALE
 70
     0
  9
$TREEDEPTH
 70
  3020
  9
$CMLSTYLE
  2
Standard
  9
$CMLJUST
 70
     0
  9
$CMLSCALE
 40
1.0
  9
$PROXYGRAPHICS
 70
     0
  9
$MEASUREMENT
 70
     1
  9
$CELWEIGHT
370
     0
  9
$ENDCAPS
280
     0
  9
$JOINSTYLE
280
     0
  9
$LWDISPLAY
290
     0
  9
$INSUNITS
 70
     0
  9
$HYPERLINKBASE
  1

  9
$STYLESHEET
  1

  9
$XEDIT
290
     1
  9
$CEPSNTYPE
380
     0
  9
$PSTYLEMODE
290
     1
  9
$FINGERPRINTGUID
  2

  9
$VERSIONGUID
  2
{64EE0C6C-3D96-40E3-9328-55D721941775}
  9
$EXTNAMES
290
     1
  9
$PSVPSCALE
 40
0.0
  9
$OLESTARTUP
290
     0
  0
ENDSEC
  0
SECTION
  2
CLASSES
  0
CLASS
  1
IMAGE
  2
AcDbRasterImage
  3
ISM
 90
    34943
280
     0
281
     1
  0
CLASS
  1
DICTIONARYVAR
  2
AcDbDictionaryVar
  3
ObjectDBX Classes
 90
        0
280
     0
281
     0
  0
CLASS
  1
RASTERVARIABLES
  2
AcDbRasterVariables
  3
ISM
 90
    32768
280
     0
281
     0
  0
CLASS
  1
IMAGEDEF
  2
AcDbRasterImageDef
  3
ISM
 90
    32768
280
     0
281
     0
  0
CLASS
  1
IMAGEDEF_REACTOR
  2
AcDbRasterImageDefReactor
  3
ISM
 90
    32769
280
     0
281
     0
  0
CLASS
  1
IDBUFFER
  2
AcDbIdBuffer
  3
ObjectDBX Classes
 90
    32768
280
     0
281
     0
  0
CLASS
  1
SPATIAL_FILTER
  2
AcDbSpatialFilter
  3
ObjectDBX Classes
 90
    32768
280
     0
281
     0
  0
CLASS
  1
SORTENTSTABLE
  2
AcDbSortentsTable
  3
ObjectDBX Classes
 90
    32768
280
     0
281
     0
  0
CLASS
  1
LAYER_INDEX
  2
AcDbLayerIndex
  3
ObjectDBX Classes
 90
    32768
280
     0
281
     0
  0
CLASS
  1
SPATIAL_INDEX
  2
AcDbSpatialIndex
  3
ObjectDBX Classes
 90
    32768
280
     0
281
     0
  0
CLASS
  1
OBJECT_PTR
  2
CAseDLPNTableRecord
  3
ASE-LPNTableRecord
 90
    32769
280
     0
281
     0
  0
CLASS
  1
LAYOUT
  2
AcDbLayout
  3
ObjectDBX Classes
 90
        0
280
     0
281
     0
  0
CLASS
  1
PLOTSETTINGS
  2
AcDbPlotSettings
  3
ObjectDBX Classes
 90
    32768
280
     0
281
     0
  0
CLASS
  1
ACDBDICTIONARYWDFLT
  2
AcDbDictionaryWithDefault
  3
ObjectDBX Classes
 90
        0
280
     0
281
     0
  0
CLASS
  1
ACDBPLACEHOLDER
  2
AcDbPlaceHolder
  3
ObjectDBX Classes
 90
        0
280
     0
281
     0
  0
CLASS
  1
VBA_PROJECT
  2
AcDbVbaProject
  3
acad
 90
    32768
280
     0
281
     0
  0
CLASS
  1
WIPEOUT
  2
AcDbWipeout
  3
"WipeOut|Product Desc: Object Enabler for WipeOut entity                        |Company: Autodesk, Inc.                        |WEB Address: www.autodesk.com"
 90
    34943
280
     0
281
     1
  0
CLASS
  1
WIPEOUTVARIABLES
  2
AcDbWipeoutVariables
  3
"WipeOut|Product Desc:     WipeOut Dbx Application|Company:          Autodesk, Inc.|WEB Address:      www.autodesk.com"
 90
        0
280
     0
281
     0
  0
CLASS
  1
RTEXT
  2
RText
  3
RText|AutoCAD Express Tool|expresstools@autodesk.com
 90
    32768
280
     0
281
     1
  0
CLASS
  1
ARCALIGNEDTEXT
  2
AcDbArcAlignedText
  3
ATEXT|AutoCAD Express Tool|expresstools@autodesk.com
 90
    32768
280
     0
281
     1
  0
CLASS
  1
MATERIAL
  2
AcDbMaterial
  3
ObjectDBX Classes
 90
     1024
280
     0
281
     0
  0
CLASS
  1
VISUALSTYLE
  2
AcDbVisualStyle
  3
ObjectDBX Classes
 90
     4095
280
     0
281
     0
  0
CLASS
  1
TABLESTYLE
  2
AcDbTableStyle
  3
ObjectDBX Classes
 90
     4095
280
     0
281
     0
  0
ENDSEC
  0
SECTION
  2
TABLES
  0
TABLE
  2
VPORT
  5
7
330
0
100
AcDbSymbolTable
 70
     1
  0
VPORT
  5
15
330
7
100
AcDbSymbolTableRecord
100
AcDbViewportTableRecord
  2
*ACTIVE
 70
     0
 10
0.0
 20
0.0
 11
1.0
 21
1.0
 12
-4.741244355211224
 22
250.9846858233906
 13
0.0
 23
0.0
 14
1.0
 24
1.0
 15
0.0
 25
0.0
 16
0.0
 26
0.0
 36
1.0
 17
0.0
 27
0.0
 37
0.0
 40
12.12666556919282
 41
1.774011299435028
 42
50.0
 43
0.0
 44
0.0
 50
0.0
 51
0.0
 71
     0
 72
   100
 73
     1
 74
     1
 75
     0
 76
     0
 77
     0
 78
     0
281
     0
 65
     0
110
0.0
120
0.0
130
0.0
111
1.0
121
0.0
131
0.0
112
0.0
122
1.0
132
0.0
 79
     0
146
0.0
  0
ENDTAB
  0
TABLE
  2
LTYPE
  5
4
330
0
100
AcDbSymbolTable
 70
     2
  0
LTYPE
  5
11
330
4
100
AcDbSymbolTableRecord
100
AcDbLinetypeTableRecord
  2
ByBlock
 70
     0
  3

 72
    65
 73
     0
 40
0.0
  0
LTYPE
  5
12
330
4
100
AcDbSymbolTableRecord
100
AcDbLinetypeTableRecord
  2
ByLayer
 70
     0
  3

 72
    65
 73
     0
 40
0.0
  0
LTYPE
  5
13
330
4
100
AcDbSymbolTableRecord
100
AcDbLinetypeTableRecord
  2
Continuous
 70
     0
  3
Solid line
 72
    65
 73
     0
 40
0.0
  0
ENDTAB
  0
TABLE
  2
LAYER
  5
2
330
0
100
AcDbSymbolTable
 70
     6
  0
LAYER
  5
14
330
2
100
AcDbSymbolTableRecord
100
AcDbLayerTableRecord
  2
0
 70
     0
 62
     7
  6
Continuous
370
    -3
390
1D
  0
LAYER
  5
28
330
2
100
AcDbSymbolTableRecord
100
AcDbLayerTableRecord
  2
LAYER_2
 70
     0
 62
     1
  6
Continuous
370
    -3
390
1D
  0
LAYER
  5
A8
330
2
100
AcDbSymbolTableRecord
100
AcDbLayerTableRecord
  2
LAYER_1
 70
     0
 62
   160
  6
Continuous
370
    -3
390
1D
  0
LAYER
  5
12B
330
2
100
AcDbSymbolTableRecord
100
AcDbLayerTableRecord
  2
ADPDIM
 70
     0
 62
     3
  6
Continuous
370
    -3
390
1D
  0
LAYER
  5
12D
330
2
100
AcDbSymbolTableRecord
100
AcDbLayerTableRecord
  2
Defpoints
 70
     0
 62
     7
  6
Continuous
290
     0
370
    -3
390
1D
  0
LAYER
  5
25E
330
2
100
AcDbSymbolTableRecord
100
AcDbLayerTableRecord
  2
ADP1DETAIL
 70
     0
 62
     7
  6
Continuous
370
    -3
390
1D
  0
ENDTAB
  0
TABLE
  2
STYLE
  5
3
330
0
100
AcDbSymbolTable
 70
     6
  0
STYLE
  5
17
330
3
100
AcDbSymbolTableRecord
100
AcDbTextStyleTableRecord
  2
Standard
 70
     0
 40
0.0
 41
1.0
 50
0.0
 71
     0
 42
0.0
  3
txt
  4

  0
STYLE
  5
24
330
3
100
AcDbSymbolTableRecord
100
AcDbTextStyleTableRecord
  2
STD
 70
     0
 40
0.0
 41
1.0
 50
0.0
 71
     0
 42
0.0
  3
txt
  4

  0
STYLE
  5
25
330
3
100
AcDbSymbolTableRecord
100
AcDbTextStyleTableRecord
  2
TATESTD
 70
     4
 40
0.0
 41
1.0
 50
0.0
 71
     0
 42
0.0
  3
txt
  4

  0
STYLE
  5
26
330
3
100
AcDbSymbolTableRecord
100
AcDbTextStyleTableRecord
  2
KANJISTD
 70
     0
 40
0.0
 41
1.0
 50
0.0
 71
     0
 42
0.0
  3
txt
  4
extfont
  0
STYLE
  5
27
330
3
100
AcDbSymbolTableRecord
100
AcDbTextStyleTableRecord
  2
KANJITATE
 70
     4
 40
0.0
 41
1.0
 50
0.0
 71
     0
 42
0.0
  3
txt
  4
extfont
  0
STYLE
  5
25F
330
3
100
AcDbSymbolTableRecord
100
AcDbTextStyleTableRecord
  2
ARIAL_WIDE
 70
     0
 40
0.0
 41
1.25
 50
0.0
 71
     0
 42
0.2
  3
ARIAL.TTF
  4

1001
ACAD
1000
Arial
1071
       34
  0
ENDTAB
  0
TABLE
  2
VIEW
  5
5
330
0
100
AcDbSymbolTable
 70
     0
  0
ENDTAB
  0
TABLE
  2
UCS
  5
6
330
0
100
AcDbSymbolTable
 70
     0
  0
ENDTAB
  0
TABLE
  2
APPID
  5
8
330
0
100
AcDbSymbolTable
 70
     3
  0
APPID
  5
16
330
8
100
AcDbSymbolTableRecord
100
AcDbRegAppTableRecord
  2
ACAD
 70
     0
  0
APPID
  5
13C
330
8
100
AcDbSymbolTableRecord
100
AcDbRegAppTableRecord
  2
ACAD_EXEMPT_FROM_CAD_STANDARDS
 70
     0
  0
APPID
  5
260
330
8
100
AcDbSymbolTableRecord
100
AcDbRegAppTableRecord
  2
DCO15
 70
     0
  0
ENDTAB
  0
TABLE
  2
DIMSTYLE
  5
9
330
0
100
AcDbSymbolTable
 70
     2
100
AcDbDimStyleTable
 71
     1
340
18
  0
DIMSTYLE
105
18
102
{ACAD_REACTORS
330
12C
330
156
330
174
330
165
102
}
330
9
100
AcDbSymbolTableRecord
100
AcDbDimStyleTableRecord
  2
Standard
 70
     0
289
     0
340
17
  0
ENDTAB
  0
TABLE
  2
BLOCK_RECORD
  5
1
330
0
100
AcDbSymbolTable
 70
    15
  0
BLOCK_RECORD
  5
A
330
1
100
AcDbSymbolTableRecord
100
AcDbBlockTableRecord
  2
*MODEL_SPACE
340
20
  0
BLOCK_RECORD
  5
B
330
1
100
AcDbSymbolTableRecord
100
AcDbBlockTableRecord
  2
*PAPER_SPACE
340
21
  0
BLOCK_RECORD
  5
29
330
1
100
AcDbSymbolTableRecord
100
AcDbBlockTableRecord
  2
AI9-BLK1
340
0
102
{BLKREFS
331
2A
102
}
  0
BLOCK_RECORD
  5
2D
330
1
100
AcDbSymbolTableRecord
100
AcDbBlockTableRecord
  2
AI9-BLK2
340
0
  0
BLOCK_RECORD
  5
3A
330
1
100
AcDbSymbolTableRecord
100
AcDbBlockTableRecord
  2
AI9-BLK3
340
0
102
{BLKREFS
331
3B
102
}
  0
BLOCK_RECORD
  5
3E
330
1
100
AcDbSymbolTableRecord
100
AcDbBlockTableRecord
  2
AI9-BLK4
340
0
  0
BLOCK_RECORD
  5
46
330
1
100
AcDbSymbolTableRecord
100
AcDbBlockTableRecord
  2
AI9-BLK5
340
0
  0
BLOCK_RECORD
  5
55
330
1
100
AcDbSymbolTableRecord
100
AcDbBlockTableRecord
  2
AI9-BLK6
340
0
102
{BLKREFS
331
56
102
}
  0
BLOCK_RECORD
  5
59
330
1
100
AcDbSymbolTableRecord
100
AcDbBlockTableRecord
  2
AI9-BLK7
340
0
  0
BLOCK_RECORD
  5
68
330
1
100
AcDbSymbolTableRecord
100
AcDbBlockTableRecord
  2
AI9-BLK8
340
0
  0
BLOCK_RECORD
  5
A9
330
1
100
AcDbSymbolTableRecord
100
AcDbBlockTableRecord
  2
AI9-BLK9
340
0
102
{BLKREFS
331
AA
102
}
  0
BLOCK_RECORD
  5
12E
330
1
100
AcDbSymbolTableRecord
100
AcDbBlockTableRecord
  2
*D9
340
0
  0
BLOCK_RECORD
  5
157
330
1
100
AcDbSymbolTableRecord
100
AcDbBlockTableRecord
  2
*D11
340
0
  0
BLOCK_RECORD
  5
166
330
1
100
AcDbSymbolTableRecord
100
AcDbBlockTableRecord
  2
*D12
340
0
  0
BLOCK_RECORD
  5
175
330
1
100
AcDbSymbolTableRecord
100
AcDbBlockTableRecord
  2
*D13
340
0
  0
ENDTAB
  0
ENDSEC
  0
SECTION
  2
BLOCKS
  0
BLOCK
  5
D
330
A
100
AcDbEntity
  8
0
100
AcDbBlockBegin
  2
*MODEL_SPACE
 70
     0
 10
0.0
 20
0.0
 30
0.0
  3
*MODEL_SPACE
  1

  0
ENDBLK
  5
E
330
A
100
AcDbEntity
  8
0
100
AcDbBlockEnd
  0
BLOCK
  5
F
330
B
100
AcDbEntity
 67
     1
  8
0
100
AcDbBlockBegin
  2
*PAPER_SPACE
 70
     0
 10
0.0
 20
0.0
 30
0.0
  3
*PAPER_SPACE
  1

  0
ENDBLK
  5
10
330
B
100
AcDbEntity
 67
     1
  8
0
100
AcDbBlockEnd
  0
BLOCK
  5
2B
330
29
100
AcDbEntity
  8
LAYER_2
 62
     7
100
AcDbBlockBegin
  2
AI9-BLK1
 70
     0
 10
0.0
 20
0.0
 30
0.0
  3
AI9-BLK1
  1

  0
ENDBLK
  5
2C
330
29
100
AcDbEntity
  8
LAYER_2
100
AcDbBlockEnd
  0
BLOCK
  5
2F
330
2D
100
AcDbEntity
  8
LAYER_2
 62
     7
100
AcDbBlockBegin
  2
AI9-BLK2
 70
     0
 10
0.0
 20
0.0
 30
0.0
  3
AI9-BLK2
  1

  0
HATCH
  5
33
330
2D
100
AcDbEntity
  8
LAYER_2
 62
     3
100
AcDbHatch
 10
0.0
 20
0.0
 30
0.0
210
0.0
220
0.0
230
1.0
  2
SOLID
 70
     1
 71
     0
 91
        1
 92
        1
 93
        1
 72
     4
 94
        3
 73
     0
 74
     0
 95
       59
 96
       55
 40
0.0
 40
0.0
 40
0.0
 40
0.0
 40
1.0
 40
1.0
 40
1.0
 40
2.0
 40
2.0
 40
2.0
 40
3.0
 40
3.0
 40
3.0
 40
4.0
 40
4.0
 40
4.0
 40
5.0
 40
5.0
 40
5.0
 40
6.0
 40
6.0
 40
6.0
 40
7.0
 40
7.0
 40
7.0
 40
8.0
 40
8.0
 40
8.0
 40
9.0
 40
9.0
 40
9.0
 40
10.0
 40
10.0
 40
10.0
 40
11.0
 40
11.0
 40
11.0
 40
12.0
 40
12.0
 40
12.0
 40
13.0
 40
13.0
 40
13.0
 40
14.0
 40
14.0
 40
14.0
 40
15.0
 40
15.0
 40
15.0
 40
16.0
 40
16.0
 40
16.0
 40
17.0
 40
17.0
 40
17.0
 40
18.0
 40
18.0
 40
18.0
 40
18.0
 10
0.1185112847222222
 20
1.674230278862847
 10
0.1160997178819444
 20
1.642018636067708
 10
0.1160997178819444
 20
1.612390814887152
 10
0.1160997178819444
 20
1.582762993706596
 10
0.1160997178819444
 20
1.404996066623263
 10
0.21239013671875
 20
1.249450005425347
 10
0.4025594075520833
 20
1.249450005425347
 10
0.5853217230902778
 20
1.249450005425347
 10
0.6840237087673611
 20
1.382775200737847
 10
0.6840237087673611
 20
1.56054212782118
 10
0.6840237087673611
 20
1.790329996744791
 10
0.5086683485243056
 20
1.889031982421874
 10
0.3036851671006944
 20
1.891443549262152
 10
0.3036851671006944
 20
1.891443549262152
 10
0.3036851671006944
 20
2.101422119140624
 10
0.3036851671006944
 20
2.101422119140624
 10
0.63717041015625
 20
2.089019775390625
 10
0.8691975911458332
 20
1.911252848307291
 10
0.8691975911458332
 20
1.56054212782118
 10
0.8691975911458332
 20
1.256856960720486
 10
0.7234700520833333
 20
1.02724134657118
 10
0.3999755859375
 20
1.02724134657118
 10
0.2470133463541666
 20
1.02724134657118
 10
0.1135158962673611
 20
1.135934109157985
 10
0.0518486870659722
 20
1.269259304470486
 10
0.0518486870659722
 20
1.269259304470486
 10
0.0468532986111111
 20
1.269259304470486
 10
0.0468532986111111
 20
1.269259304470486
 10
0.0
 20
1.056869167751736
 10
-0.1679484049479166
 20
0.9531717936197916
 10
-0.3777547200520833
 20
0.9531717936197916
 10
-0.7284654405381944
 20
0.9531717936197916
 10
-0.9112277560763889
 20
1.22722913953993
 10
-0.9112277560763889
 20
1.555718994140624
 10
-0.9112277560763889
 20
1.911252848307291
 10
-0.7012491861979166
 20
2.145863850911458
 10
-0.3407199435763888
 20
2.138456895616319
 10
-0.3407199435763888
 20
2.138456895616319
 10
-0.3407199435763888
 20
1.928478325737847
 10
-0.3407199435763888
 20
1.928478325737847
 10
-0.5679239908854166
 20
1.921071370442708
 10
-0.7260538736979166
 20
1.795153130425346
 10
-0.7260538736979166
 20
1.555718994140624
 10
-0.7260538736979166
 20
1.350735812717013
 10
-0.6001356336805555
 20
1.175380452473958
 10
-0.3877454969618055
 20
1.175380452473958
 10
-0.1679484049479166
 20
1.175380452473958
 10
-0.0518486870659722
 20
1.340745035807291
 10
-0.0518486870659722
 20
1.548312038845486
 10
-0.0518486870659722
 20
1.590169949001736
 10
-0.05426025390625
 20
1.634611680772569
 10
-0.0592556423611111
 20
1.674230278862847
 10
-0.0592556423611111
 20
1.674230278862847
 10
0.1185112847222222
 20
1.674230278862847
 10
0.1185112847222222
 20
1.674230278862847
 97
        0
 75
     2
 76
     1
 98
        1
 10
0.0
 20
0.0
  0
HATCH
  5
32
330
2D
100
AcDbEntity
  8
LAYER_2
 62
     3
100
AcDbHatch
 10
0.0
 20
0.0
 30
0.0
210
0.0
220
0.0
230
1.0
  2
SOLID
 70
     1
 71
     0
 91
        1
 92
        1
 93
        1
 72
     4
 94
        3
 73
     0
 74
     0
 95
       17
 96
       13
 40
0.0
 40
0.0
 40
0.0
 40
0.0
 40
1.0
 40
1.0
 40
1.0
 40
2.0
 40
2.0
 40
2.0
 40
3.0
 40
3.0
 40
3.0
 40
4.0
 40
4.0
 40
4.0
 40
4.0
 10
0.9236300998263887
 20
0.1530483669704861
 10
0.9236300998263887
 20
0.1530483669704861
 10
0.9236300998263887
 20
-0.0273023817274306
 10
0.9236300998263887
 20
-0.0273023817274306
 10
0.9236300998263887
 20
-0.0273023817274306
 10
-0.9236300998263887
 20
0.7037468804253472
 10
-0.9236300998263887
 20
0.7037468804253472
 10
-0.9236300998263887
 20
0.7037468804253472
 10
-0.9236300998263887
 20
0.8839253743489582
 10
-0.9236300998263887
 20
0.8839253743489582
 10
-0.9236300998263887
 20
0.8839253743489582
 10
0.9236300998263887
 20
0.1530483669704861
 10
0.9236300998263887
 20
0.1530483669704861
 97
        0
 75
     2
 76
     1
 98
        1
 10
0.0
 20
0.0
  0
HATCH
  5
31
330
2D
100
AcDbEntity
  8
LAYER_2
 62
     3
100
AcDbHatch
 10
0.0
 20
0.0
 30
0.0
210
0.0
220
0.0
230
1.0
  2
SOLID
 70
     1
 71
     0
 91
        2
 92
       16
 93
        1
 72
     4
 94
        3
 73
     0
 74
     0
 95
       17
 96
       13
 40
0.0
 40
0.0
 40
0.0
 40
0.0
 40
1.0
 40
1.0
 40
1.0
 40
2.0
 40
2.0
 40
2.0
 40
3.0
 40
3.0
 40
3.0
 40
4.0
 40
4.0
 40
4.0
 40
4.0
 10
-0.2864596896701388
 20
-0.8198465983072916
 10
-0.2864596896701388
 20
-0.8198465983072916
 10
0.5705078125
 20
-0.8198465983072916
 10
0.5705078125
 20
-0.8198465983072916
 10
0.5705078125
 20
-0.8198465983072916
 10
0.5705078125
 20
-0.815023464626736
 10
0.5705078125
 20
-0.815023464626736
 10
0.5705078125
 20
-0.815023464626736
 10
-0.2864596896701388
 20
-0.2321133083767361
 10
-0.2864596896701388
 20
-0.2321133083767361
 10
-0.2864596896701388
 20
-0.2321133083767361
 10
-0.2864596896701388
 20
-0.8198465983072916
 10
-0.2864596896701388
 20
-0.8198465983072916
 97
        0
 92
        1
 93
        1
 72
     4
 94
        3
 73
     0
 74
     0
 95
       38
 96
       34
 40
0.0
 40
0.0
 40
0.0
 40
0.0
 40
1.0
 40
1.0
 40
1.0
 40
2.0
 40
2.0
 40
2.0
 40
3.0
 40
3.0
 40
3.0
 40
4.0
 40
4.0
 40
4.0
 40
5.0
 40
5.0
 40
5.0
 40
6.0
 40
6.0
 40
6.0
 40
7.0
 40
7.0
 40
7.0
 40
8.0
 40
8.0
 40
8.0
 40
9.0
 40
9.0
 40
9.0
 40
10.0
 40
10.0
 40
10.0
 40
11.0
 40
11.0
 40
11.0
 40
11.0
 10
-0.2864596896701388
 20
-1.017422824435763
 10
-0.2864596896701388
 20
-1.017422824435763
 10
-0.2864596896701388
 20
-1.254617648654513
 10
-0.2864596896701388
 20
-1.254617648654513
 10
-0.2864596896701388
 20
-1.254617648654513
 10
-0.4716335720486111
 20
-1.254617648654513
 10
-0.4716335720486111
 20
-1.254617648654513
 10
-0.4716335720486111
 20
-1.254617648654513
 10
-0.4716335720486111
 20
-1.017422824435763
 10
-0.4716335720486111
 20
-1.017422824435763
 10
-0.4716335720486111
 20
-1.017422824435763
 10
-0.8815999348958332
 20
-1.017422824435763
 10
-0.8815999348958332
 20
-1.017422824435763
 10
-0.8815999348958332
 20
-1.017422824435763
 10
-0.8815999348958332
 20
-0.8198465983072916
 10
-0.8815999348958332
 20
-0.8198465983072916
 10
-0.8815999348958332
 20
-0.8198465983072916
 10
-0.4716335720486111
 20
-0.8198465983072916
 10
-0.4716335720486111
 20
-0.8198465983072916
 10
-0.4716335720486111
 20
-0.8198465983072916
 10
-0.4716335720486111
 20
-0.051934814453125
 10
-0.4716335720486111
 20
-0.051934814453125
 10
-0.4716335720486111
 20
-0.051934814453125
 10
-0.2692342122395833
 20
-0.051934814453125
 10
-0.2692342122395833
 20
-0.051934814453125
 10
-0.2692342122395833
 20
-0.051934814453125
 10
0.8691975911458332
 20
-0.8494744194878471
 10
0.8691975911458332
 20
-0.8494744194878471
 10
0.8691975911458332
 20
-0.8494744194878471
 10
0.8691975911458332
 20
-1.017422824435763
 10
0.8691975911458332
 20
-1.017422824435763
 10
0.8691975911458332
 20
-1.017422824435763
 10
-0.2864596896701388
 20
-1.017422824435763
 10
-0.2864596896701388
 20
-1.017422824435763
 97
        0
 75
     2
 76
     1
 98
        1
 10
0.0
 20
0.0
  0
HATCH
  5
30
330
2D
100
AcDbEntity
  8
LAYER_2
 62
     3
100
AcDbHatch
 10
0.0
 20
0.0
 30
0.0
210
0.0
220
0.0
230
1.0
  2
SOLID
 70
     1
 71
     0
 91
        2
 92
        1
 93
        1
 72
     4
 94
        3
 73
     0
 74
     0
 95
       17
 96
       13
 40
0.0
 40
0.0
 40
0.0
 40
0.0
 40
1.0
 40
1.0
 40
1.0
 40
2.0
 40
2.0
 40
2.0
 40
3.0
 40
3.0
 40
3.0
 40
4.0
 40
4.0
 40
4.0
 40
4.0
 10
0.8815999348958332
 20
-1.970680745442708
 10
0.8815999348958332
 20
-1.970680745442708
 10
0.8815999348958332
 20
-2.138629150390624
 10
0.8815999348958332
 20
-2.138629150390624
 10
0.8815999348958332
 20
-2.138629150390624
 10
0.2444295247395833
 20
-2.138629150390624
 10
0.2444295247395833
 20
-2.138629150390624
 10
0.2444295247395833
 20
-2.138629150390624
 10
0.2444295247395833
 20
-1.970680745442708
 10
0.2444295247395833
 20
-1.970680745442708
 10
0.2444295247395833
 20
-1.970680745442708
 10
0.8815999348958332
 20
-1.970680745442708
 10
0.8815999348958332
 20
-1.970680745442708
 97
        0
 92
        1
 93
        1
 72
     4
 94
        3
 73
     0
 74
     0
 95
       17
 96
       13
 40
0.0
 40
0.0
 40
0.0
 40
0.0
 40
1.0
 40
1.0
 40
1.0
 40
2.0
 40
2.0
 40
2.0
 40
3.0
 40
3.0
 40
3.0
 40
4.0
 40
4.0
 40
4.0
 40
4.0
 10
0.8815999348958332
 20
-1.624965413411458
 10
0.8815999348958332
 20
-1.624965413411458
 10
0.8815999348958332
 20
-1.792913818359374
 10
0.8815999348958332
 20
-1.792913818359374
 10
0.8815999348958332
 20
-1.792913818359374
 10
0.2444295247395833
 20
-1.792913818359374
 10
0.2444295247395833
 20
-1.792913818359374
 10
0.2444295247395833
 20
-1.792913818359374
 10
0.2444295247395833
 20
-1.624965413411458
 10
0.2444295247395833
 20
-1.624965413411458
 10
0.2444295247395833
 20
-1.624965413411458
 10
0.8815999348958332
 20
-1.624965413411458
 10
0.8815999348958332
 20
-1.624965413411458
 97
        0
 75
     2
 76
     1
 98
        1
 10
0.0
 20
0.0
  0
ENDBLK
  5
34
330
2D
100
AcDbEntity
  8
LAYER_2
100
AcDbBlockEnd
  0
BLOCK
  5
3C
330
3A
100
AcDbEntity
  8
LAYER_2
 62
     7
100
AcDbBlockBegin
  2
AI9-BLK3
 70
     0
 10
0.0
 20
0.0
 30
0.0
  3
AI9-BLK3
  1

  0
ENDBLK
  5
3D
330
3A
100
AcDbEntity
  8
LAYER_2
100
AcDbBlockEnd
  0
BLOCK
  5
40
330
3E
100
AcDbEntity
  8
LAYER_2
 62
     7
100
AcDbBlockBegin
  2
AI9-BLK4
 70
     0
 10
0.0
 20
0.0
 30
0.0
  3
AI9-BLK4
  1

  0
HATCH
  5
44
330
3E
100
AcDbEntity
  8
LAYER_2
 62
     3
100
AcDbHatch
 10
0.0
 20
0.0
 30
0.0
210
0.0
220
0.0
230
1.0
  2
SOLID
 70
     1
 71
     0
 91
        1
 92
        1
 93
        1
 72
     4
 94
        3
 73
     0
 74
     0
 95
       26
 96
       22
 40
0.0
 40
0.0
 40
0.0
 40
0.0
 40
1.0
 40
1.0
 40
1.0
 40
2.0
 40
2.0
 40
2.0
 40
3.0
 40
3.0
 40
3.0
 40
4.0
 40
4.0
 40
4.0
 40
5.0
 40
5.0
 40
5.0
 40
6.0
 40
6.0
 40
6.0
 40
7.0
 40
7.0
 40
7.0
 40
7.0
 10
0.8815999348958332
 20
-1.403790283203124
 10
0.8815999348958332
 20
-1.403790283203124
 10
0.8815999348958332
 20
-1.613768853081596
 10
0.8815999348958332
 20
-1.613768853081596
 10
0.8815999348958332
 20
-1.613768853081596
 10
-0.3727593315972222
 20
-1.613768853081596
 10
-0.3727593315972222
 20
-1.613768853081596
 10
-0.3727593315972222
 20
-1.613768853081596
 10
-0.3727593315972222
 20
-2.068176947699652
 10
-0.3727593315972222
 20
-2.068176947699652
 10
-0.3727593315972222
 20
-2.068176947699652
 10
-0.5408799913194445
 20
-2.068176947699652
 10
-0.5408799913194445
 20
-2.068176947699652
 10
-0.5408799913194445
 20
-1.828570556640624
 10
-0.6049587673611111
 20
-1.611357286241319
 10
-0.8691975911458332
 20
-1.564331732855902
 10
-0.8691975911458332
 20
-1.564331732855902
 10
-0.8691975911458332
 20
-1.403790283203124
 10
-0.8691975911458332
 20
-1.403790283203124
 10
-0.8691975911458332
 20
-1.403790283203124
 10
0.8815999348958332
 20
-1.403790283203124
 10
0.8815999348958332
 20
-1.403790283203124
 97
        0
 75
     2
 76
     1
 98
        1
 10
0.0
 20
0.0
  0
HATCH
  5
43
330
3E
100
AcDbEntity
  8
LAYER_2
 62
     3
100
AcDbHatch
 10
0.0
 20
0.0
 30
0.0
210
0.0
220
0.0
230
1.0
  2
SOLID
 70
     1
 71
     0
 91
        1
 92
        1
 93
        1
 72
     4
 94
        3
 73
     0
 74
     0
 95
       17
 96
       13
 40
0.0
 40
0.0
 40
0.0
 40
0.0
 40
1.0
 40
1.0
 40
1.0
 40
2.0
 40
2.0
 40
2.0
 40
3.0
 40
3.0
 40
3.0
 40
4.0
 40
4.0
 40
4.0
 40
4.0
 10
-0.9236300998263887
 20
-0.2235005696614583
 10
-0.9236300998263887
 20
-0.2235005696614583
 10
-0.9236300998263887
 20
-0.0431498209635417
 10
-0.9236300998263887
 20
-0.0431498209635417
 10
-0.9236300998263887
 20
-0.0431498209635417
 10
0.9236300998263887
 20
-0.7741990831163194
 10
0.9236300998263887
 20
-0.7741990831163194
 10
0.9236300998263887
 20
-0.7741990831163194
 10
0.9236300998263887
 20
-0.9543775770399303
 10
0.9236300998263887
 20
-0.9543775770399303
 10
0.9236300998263887
 20
-0.9543775770399303
 10
-0.9236300998263887
 20
-0.2235005696614583
 10
-0.9236300998263887
 20
-0.2235005696614583
 97
        0
 75
     2
 76
     1
 98
        1
 10
0.0
 20
0.0
  0
HATCH
  5
42
330
3E
100
AcDbEntity
  8
LAYER_2
 62
     3
100
AcDbHatch
 10
0.0
 20
0.0
 30
0.0
210
0.0
220
0.0
230
1.0
  2
SOLID
 70
     1
 71
     0
 91
        2
 92
       16
 93
        1
 72
     4
 94
        3
 73
     0
 74
     0
 95
       17
 96
       13
 40
0.0
 40
0.0
 40
0.0
 40
0.0
 40
1.0
 40
1.0
 40
1.0
 40
2.0
 40
2.0
 40
2.0
 40
3.0
 40
3.0
 40
3.0
 40
4.0
 40
4.0
 40
4.0
 40
4.0
 10
0.2866319444444444
 20
0.7493943956163194
 10
0.2866319444444444
 20
0.7493943956163194
 10
-0.5705078125
 20
0.7493943956163194
 10
-0.5705078125
 20
0.7493943956163194
 10
-0.5705078125
 20
0.7493943956163194
 10
-0.5705078125
 20
0.7445712619357639
 10
-0.5705078125
 20
0.7445712619357639
 10
-0.5705078125
 20
0.7445712619357639
 10
0.2866319444444444
 20
0.1616611056857639
 10
0.2866319444444444
 20
0.1616611056857639
 10
0.2866319444444444
 20
0.1616611056857639
 10
0.2866319444444444
 20
0.7493943956163194
 10
0.2866319444444444
 20
0.7493943956163194
 97
        0
 92
        1
 93
        1
 72
     4
 94
        3
 73
     0
 74
     0
 95
       38
 96
       34
 40
0.0
 40
0.0
 40
0.0
 40
0.0
 40
1.0
 40
1.0
 40
1.0
 40
2.0
 40
2.0
 40
2.0
 40
3.0
 40
3.0
 40
3.0
 40
4.0
 40
4.0
 40
4.0
 40
5.0
 40
5.0
 40
5.0
 40
6.0
 40
6.0
 40
6.0
 40
7.0
 40
7.0
 40
7.0
 40
8.0
 40
8.0
 40
8.0
 40
9.0
 40
9.0
 40
9.0
 40
10.0
 40
10.0
 40
10.0
 40
11.0
 40
11.0
 40
11.0
 40
11.0
 10
0.2866319444444444
 20
0.9469706217447916
 10
0.2866319444444444
 20
0.9469706217447916
 10
0.2866319444444444
 20
1.184165445963541
 10
0.2866319444444444
 20
1.184165445963541
 10
0.2866319444444444
 20
1.184165445963541
 10
0.4716335720486111
 20
1.184165445963541
 10
0.4716335720486111
 20
1.184165445963541
 10
0.4716335720486111
 20
1.184165445963541
 10
0.4716335720486111
 20
0.9469706217447916
 10
0.4716335720486111
 20
0.9469706217447916
 10
0.4716335720486111
 20
0.9469706217447916
 10
0.8815999348958332
 20
0.9469706217447916
 10
0.8815999348958332
 20
0.9469706217447916
 10
0.8815999348958332
 20
0.9469706217447916
 10
0.8815999348958332
 20
0.7493943956163194
 10
0.8815999348958332
 20
0.7493943956163194
 10
0.8815999348958332
 20
0.7493943956163194
 10
0.4716335720486111
 20
0.7493943956163194
 10
0.4716335720486111
 20
0.7493943956163194
 10
0.4716335720486111
 20
0.7493943956163194
 10
0.4716335720486111
 20
-0.0185173882378472
 10
0.4716335720486111
 20
-0.0185173882378472
 10
0.4716335720486111
 20
-0.0185173882378472
 10
0.2690619574652778
 20
-0.0185173882378472
 10
0.2690619574652778
 20
-0.0185173882378472
 10
0.2690619574652778
 20
-0.0185173882378472
 10
-0.8691975911458332
 20
0.779022216796875
 10
-0.8691975911458332
 20
0.779022216796875
 10
-0.8691975911458332
 20
0.779022216796875
 10
-0.8691975911458332
 20
0.9469706217447916
 10
-0.8691975911458332
 20
0.9469706217447916
 10
-0.8691975911458332
 20
0.9469706217447916
 10
0.2866319444444444
 20
0.9469706217447916
 10
0.2866319444444444
 20
0.9469706217447916
 97
        0
 75
     2
 76
     1
 98
        1
 10
0.0
 20
0.0
  0
HATCH
  5
41
330
3E
100
AcDbEntity
  8
LAYER_2
 62
     3
100
AcDbHatch
 10
0.0
 20
0.0
 30
0.0
210
0.0
220
0.0
230
1.0
  2
SOLID
 70
     1
 71
     0
 91
        2
 92
        1
 93
        1
 72
     4
 94
        3
 73
     0
 74
     0
 95
       17
 96
       13
 40
0.0
 40
0.0
 40
0.0
 40
0.0
 40
1.0
 40
1.0
 40
1.0
 40
2.0
 40
2.0
 40
2.0
 40
3.0
 40
3.0
 40
3.0
 40
4.0
 40
4.0
 40
4.0
 40
4.0
 10
-0.8815999348958332
 20
1.554513210720485
 10
-0.8815999348958332
 20
1.554513210720485
 10
-0.8815999348958332
 20
1.722461615668402
 10
-0.8815999348958332
 20
1.722461615668402
 10
-0.8815999348958332
 20
1.722461615668402
 10
-0.2446017795138889
 20
1.722461615668402
 10
-0.2446017795138889
 20
1.722461615668402
 10
-0.2446017795138889
 20
1.722461615668402
 10
-0.2446017795138889
 20
1.554513210720485
 10
-0.2446017795138889
 20
1.554513210720485
 10
-0.2446017795138889
 20
1.554513210720485
 10
-0.8815999348958332
 20
1.554513210720485
 10
-0.8815999348958332
 20
1.554513210720485
 97
        0
 92
        1
 93
        1
 72
     4
 94
        3
 73
     0
 74
     0
 95
       17
 96
       13
 40
0.0
 40
0.0
 40
0.0
 40
0.0
 40
1.0
 40
1.0
 40
1.0
 40
2.0
 40
2.0
 40
2.0
 40
3.0
 40
3.0
 40
3.0
 40
4.0
 40
4.0
 40
4.0
 40
4.0
 10
-0.8815999348958332
 20
1.900228542751736
 10
-0.8815999348958332
 20
1.900228542751736
 10
-0.8815999348958332
 20
2.068176947699652
 10
-0.8815999348958332
 20
2.068176947699652
 10
-0.8815999348958332
 20
2.068176947699652
 10
-0.2446017795138889
 20
2.068176947699652
 10
-0.2446017795138889
 20
2.068176947699652
 10
-0.2446017795138889
 20
2.068176947699652
 10
-0.2446017795138889
 20
1.900228542751736
 10
-0.2446017795138889
 20
1.900228542751736
 10
-0.2446017795138889
 20
1.900228542751736
 10
-0.8815999348958332
 20
1.900228542751736
 10
-0.8815999348958332
 20
1.900228542751736
 97
        0
 75
     2
 76
     1
 98
        1
 10
0.0
 20
0.0
  0
ENDBLK
  5
45
330
3E
100
AcDbEntity
  8
LAYER_2
100
AcDbBlockEnd
  0
BLOCK
  5
48
330
46
100
AcDbEntity
  8
LAYER_2
 62
     7
100
AcDbBlockBegin
  2
AI9-BLK5
 70
     0
 10
0.0
 20
0.0
 30
0.0
  3
AI9-BLK5
  1

  0
HATCH
  5
4C
330
46
100
AcDbEntity
  8
LAYER_2
 62
     3
100
AcDbHatch
 10
0.0
 20
0.0
 30
0.0
210
0.0
220
0.0
230
1.0
  2
SOLID
 70
     1
 71
     0
 91
        1
 92
        1
 93
        1
 72
     4
 94
        3
 73
     0
 74
     0
 95
       26
 96
       22
 40
0.0
 40
0.0
 40
0.0
 40
0.0
 40
1.0
 40
1.0
 40
1.0
 40
2.0
 40
2.0
 40
2.0
 40
3.0
 40
3.0
 40
3.0
 40
4.0
 40
4.0
 40
4.0
 40
5.0
 40
5.0
 40
5.0
 40
6.0
 40
6.0
 40
6.0
 40
7.0
 40
7.0
 40
7.0
 40
7.0
 10
0.8815999348958332
 20
-1.403790283203124
 10
0.8815999348958332
 20
-1.403790283203124
 10
0.8815999348958332
 20
-1.613768853081596
 10
0.8815999348958332
 20
-1.613768853081596
 10
0.8815999348958332
 20
-1.613768853081596
 10
-0.3727593315972222
 20
-1.613768853081596
 10
-0.3727593315972222
 20
-1.613768853081596
 10
-0.3727593315972222
 20
-1.613768853081596
 10
-0.3727593315972222
 20
-2.068176947699652
 10
-0.3727593315972222
 20
-2.068176947699652
 10
-0.3727593315972222
 20
-2.068176947699652
 10
-0.5408799913194445
 20
-2.068176947699652
 10
-0.5408799913194445
 20
-2.068176947699652
 10
-0.5408799913194445
 20
-1.828570556640624
 10
-0.6049587673611111
 20
-1.611357286241319
 10
-0.8691975911458332
 20
-1.564331732855902
 10
-0.8691975911458332
 20
-1.564331732855902
 10
-0.8691975911458332
 20
-1.403790283203124
 10
-0.8691975911458332
 20
-1.403790283203124
 10
-0.8691975911458332
 20
-1.403790283203124
 10
0.8815999348958332
 20
-1.403790283203124
 10
0.8815999348958332
 20
-1.403790283203124
 97
        0
 75
     2
 76
     1
 98
        1
 10
0.0
 20
0.0
  0
HATCH
  5
4B
330
46
100
AcDbEntity
  8
LAYER_2
 62
     3
100
AcDbHatch
 10
0.0
 20
0.0
 30
0.0
210
0.0
220
0.0
230
1.0
  2
SOLID
 70
     1
 71
     0
 91
        1
 92
        1
 93
        1
 72
     4
 94
        3
 73
     0
 74
     0
 95
       17
 96
       13
 40
0.0
 40
0.0
 40
0.0
 40
0.0
 40
1.0
 40
1.0
 40
1.0
 40
2.0
 40
2.0
 40
2.0
 40
3.0
 40
3.0
 40
3.0
 40
4.0
 40
4.0
 40
4.0
 40
4.0
 10
-0.9236300998263887
 20
-0.2235005696614583
 10
-0.9236300998263887
 20
-0.2235005696614583
 10
-0.9236300998263887
 20
-0.0431498209635417
 10
-0.9236300998263887
 20
-0.0431498209635417
 10
-0.9236300998263887
 20
-0.0431498209635417
 10
0.9236300998263887
 20
-0.7741990831163194
 10
0.9236300998263887
 20
-0.7741990831163194
 10
0.9236300998263887
 20
-0.7741990831163194
 10
0.9236300998263887
 20
-0.9543775770399303
 10
0.9236300998263887
 20
-0.9543775770399303
 10
0.9236300998263887
 20
-0.9543775770399303
 10
-0.9236300998263887
 20
-0.2235005696614583
 10
-0.9236300998263887
 20
-0.2235005696614583
 97
        0
 75
     2
 76
     1
 98
        1
 10
0.0
 20
0.0
  0
HATCH
  5
4A
330
46
100
AcDbEntity
  8
LAYER_2
 62
     3
100
AcDbHatch
 10
0.0
 20
0.0
 30
0.0
210
0.0
220
0.0
230
1.0
  2
SOLID
 70
     1
 71
     0
 91
        1
 92
        1
 93
        1
 72
     4
 94
        3
 73
     0
 74
     0
 95
       41
 96
       37
 40
0.0
 40
0.0
 40
0.0
 40
0.0
 40
1.0
 40
1.0
 40
1.0
 40
2.0
 40
2.0
 40
2.0
 40
3.0
 40
3.0
 40
3.0
 40
4.0
 40
4.0
 40
4.0
 40
5.0
 40
5.0
 40
5.0
 40
6.0
 40
6.0
 40
6.0
 40
7.0
 40
7.0
 40
7.0
 40
8.0
 40
8.0
 40
8.0
 40
9.0
 40
9.0
 40
9.0
 40
10.0
 40
10.0
 40
10.0
 40
11.0
 40
11.0
 40
11.0
 40
12.0
 40
12.0
 40
12.0
 40
12.0
 10
-0.2494249131944444
 20
0.020928955078125
 10
-0.6049587673611111
 20
0.0037034776475694
 10
-0.8691975911458332
 20
0.2136820475260416
 10
-0.8691975911458332
 20
0.584029812282986
 10
-0.8691975911458332
 20
0.8902988009982639
 10
-0.6914306640625
 20
1.132316758897569
 10
-0.3655246310763888
 20
1.132316758897569
 10
-0.0568440755208333
 20
1.132316758897569
 10
0.0988742404513889
 20
0.924749755859375
 10
0.2346110026041666
 20
0.7075364854600695
 10
0.3679361979166666
 20
0.4877393934461806
 10
0.4792127821180556
 20
0.258123779296875
 10
0.6962537977430556
 20
0.2160936143663194
 10
0.6962537977430556
 20
0.2160936143663194
 10
0.6962537977430556
 20
1.114919026692708
 10
0.6962537977430556
 20
1.114919026692708
 10
0.6962537977430556
 20
1.114919026692708
 10
0.8815999348958332
 20
1.114919026692708
 10
0.8815999348958332
 20
1.114919026692708
 10
0.8815999348958332
 20
1.114919026692708
 10
0.8815999348958332
 20
-0.0283359103732639
 10
0.8815999348958332
 20
-0.0283359103732639
 10
0.4668104383680556
 20
0.0061150444878472
 10
0.3186713324652777
 20
0.2160936143663194
 10
0.1653645833333333
 20
0.4631069607204861
 10
-0.0172254774305556
 20
0.7593851725260416
 10
-0.1260904947916666
 20
0.9099358452690971
 10
-0.3679361979166666
 20
0.9099358452690971
 10
-0.55810546875
 20
0.9099358452690971
 10
-0.6838514539930555
 20
0.7568013509114583
 10
-0.6838514539930555
 20
0.5716274685329861
 10
-0.6838514539930555
 20
0.3271979437934027
 10
-0.4592312282986111
 20
0.2235005696614583
 10
-0.2494249131944444
 20
0.2309075249565972
 10
-0.2494249131944444
 20
0.2309075249565972
 10
-0.2494249131944444
 20
0.020928955078125
 10
-0.2494249131944444
 20
0.020928955078125
 97
        0
 75
     2
 76
     1
 98
        1
 10
0.0
 20
0.0
  0
HATCH
  5
49
330
46
100
AcDbEntity
  8
LAYER_2
 62
     3
100
AcDbHatch
 10
0.0
 20
0.0
 30
0.0
210
0.0
220
0.0
230
1.0
  2
SOLID
 70
     1
 71
     0
 91
        2
 92
        1
 93
        1
 72
     4
 94
        3
 73
     0
 74
     0
 95
       17
 96
       13
 40
0.0
 40
0.0
 40
0.0
 40
0.0
 40
1.0
 40
1.0
 40
1.0
 40
2.0
 40
2.0
 40
2.0
 40
3.0
 40
3.0
 40
3.0
 40
4.0
 40
4.0
 40
4.0
 40
4.0
 10
-0.8815999348958332
 20
1.554513210720485
 10
-0.8815999348958332
 20
1.554513210720485
 10
-0.8815999348958332
 20
1.722461615668402
 10
-0.8815999348958332
 20
1.722461615668402
 10
-0.8815999348958332
 20
1.722461615668402
 10
-0.2446017795138889
 20
1.722461615668402
 10
-0.2446017795138889
 20
1.722461615668402
 10
-0.2446017795138889
 20
1.722461615668402
 10
-0.2446017795138889
 20
1.554513210720485
 10
-0.2446017795138889
 20
1.554513210720485
 10
-0.2446017795138889
 20
1.554513210720485
 10
-0.8815999348958332
 20
1.554513210720485
 10
-0.8815999348958332
 20
1.554513210720485
 97
        0
 92
        1
 93
        1
 72
     4
 94
        3
 73
     0
 74
     0
 95
       17
 96
       13
 40
0.0
 40
0.0
 40
0.0
 40
0.0
 40
1.0
 40
1.0
 40
1.0
 40
2.0
 40
2.0
 40
2.0
 40
3.0
 40
3.0
 40
3.0
 40
4.0
 40
4.0
 40
4.0
 40
4.0
 10
-0.8815999348958332
 20
1.900228542751736
 10
-0.8815999348958332
 20
1.900228542751736
 10
-0.8815999348958332
 20
2.068176947699652
 10
-0.8815999348958332
 20
2.068176947699652
 10
-0.8815999348958332
 20
2.068176947699652
 10
-0.2446017795138889
 20
2.068176947699652
 10
-0.2446017795138889
 20
2.068176947699652
 10
-0.2446017795138889
 20
2.068176947699652
 10
-0.2446017795138889
 20
1.900228542751736
 10
-0.2446017795138889
 20
1.900228542751736
 10
-0.2446017795138889
 20
1.900228542751736
 10
-0.8815999348958332
 20
1.900228542751736
 10
-0.8815999348958332
 20
1.900228542751736
 97
        0
 75
     2
 76
     1
 98
        1
 10
0.0
 20
0.0
  0
ENDBLK
  5
4D
330
46
100
AcDbEntity
  8
LAYER_2
100
AcDbBlockEnd
  0
BLOCK
  5
57
330
55
100
AcDbEntity
  8
LAYER_2
 62
     7
100
AcDbBlockBegin
  2
AI9-BLK6
 70
     0
 10
0.0
 20
0.0
 30
0.0
  3
AI9-BLK6
  1

  0
ENDBLK
  5
58
330
55
100
AcDbEntity
  8
LAYER_2
100
AcDbBlockEnd
  0
BLOCK
  5
5B
330
59
100
AcDbEntity
  8
LAYER_2
 62
     7
100
AcDbBlockBegin
  2
AI9-BLK7
 70
     0
 10
0.0
 20
0.0
 30
0.0
  3
AI9-BLK7
  1

  0
HATCH
  5
61
330
59
100
AcDbEntity
  8
LAYER_2
 62
     3
100
AcDbHatch
 10
0.0
 20
0.0
 30
0.0
210
0.0
220
0.0
230
1.0
  2
SOLID
 70
     1
 71
     0
 91
        1
 92
        1
 93
        1
 72
     4
 94
        3
 73
     0
 74
     0
 95
       41
 96
       37
 40
0.0
 40
0.0
 40
0.0
 40
0.0
 40
1.0
 40
1.0
 40
1.0
 40
2.0
 40
2.0
 40
2.0
 40
3.0
 40
3.0
 40
3.0
 40
4.0
 40
4.0
 40
4.0
 40
5.0
 40
5.0
 40
5.0
 40
6.0
 40
6.0
 40
6.0
 40
7.0
 40
7.0
 40
7.0
 40
8.0
 40
8.0
 40
8.0
 40
9.0
 40
9.0
 40
9.0
 40
10.0
 40
10.0
 40
10.0
 40
11.0
 40
11.0
 40
11.0
 40
12.0
 40
12.0
 40
12.0
 40
12.0
 10
0.2494249131944444
 20
3.263280571831597
 10
0.6049587673611111
 20
3.280678304036458
 10
0.8691975911458332
 20
3.070699734157985
 10
0.8691975911458332
 20
2.700351969401041
 10
0.8691975911458332
 20
2.394082980685763
 10
0.6914306640625
 20
2.152065022786457
 10
0.3655246310763888
 20
2.152065022786457
 10
0.0568440755208333
 20
2.152065022786457
 10
-0.0987019856770833
 20
2.359459771050346
 10
-0.2346110026041666
 20
2.576845296223958
 10
-0.3679361979166666
 20
2.796642388237847
 10
-0.47904052734375
 20
3.026258002387152
 10
-0.696426052517361
 20
3.068288167317708
 10
-0.696426052517361
 20
3.068288167317708
 10
-0.696426052517361
 20
2.169290500217013
 10
-0.696426052517361
 20
2.169290500217013
 10
-0.696426052517361
 20
2.169290500217013
 10
-0.8815999348958332
 20
2.169290500217013
 10
-0.8815999348958332
 20
2.169290500217013
 10
-0.8815999348958332
 20
2.169290500217013
 10
-0.8815999348958332
 20
3.312717692057291
 10
-0.8815999348958332
 20
3.312717692057291
 10
-0.4668104383680556
 20
3.278094482421874
 10
-0.3184990776909722
 20
3.068288167317708
 10
-0.1655368381076389
 20
2.821274820963541
 10
0.0172254774305556
 20
2.524996609157986
 10
0.1259182400173611
 20
2.374273681640624
 10
0.3679361979166666
 20
2.374273681640624
 10
0.55810546875
 20
2.374273681640624
 10
0.6840237087673611
 20
2.527408175998263
 10
0.6840237087673611
 20
2.712582058376735
 10
0.6840237087673611
 20
2.957183837890624
 10
0.4592312282986111
 20
3.060881212022569
 10
0.2494249131944444
 20
3.05347425672743
 10
0.2494249131944444
 20
3.05347425672743
 10
0.2494249131944444
 20
3.263280571831597
 10
0.2494249131944444
 20
3.263280571831597
 97
        0
 75
     2
 76
     1
 98
        1
 10
0.0
 20
0.0
  0
HATCH
  5
60
330
59
100
AcDbEntity
  8
LAYER_2
 62
     3
100
AcDbHatch
 10
0.0
 20
0.0
 30
0.0
210
0.0
220
0.0
230
1.0
  2
SOLID
 70
     1
 71
     0
 91
        1
 92
        1
 93
        1
 72
     4
 94
        3
 73
     0
 74
     0
 95
       17
 96
       13
 40
0.0
 40
0.0
 40
0.0
 40
0.0
 40
1.0
 40
1.0
 40
1.0
 40
2.0
 40
2.0
 40
2.0
 40
3.0
 40
3.0
 40
3.0
 40
4.0
 40
4.0
 40
4.0
 40
4.0
 10
-0.0962904188368056
 20
1.875423855251735
 10
-0.0962904188368056
 20
1.875423855251735
 10
-0.0962904188368056
 20
1.161772325303819
 10
-0.0962904188368056
 20
1.161772325303819
 10
-0.0962904188368056
 20
1.161772325303819
 10
-0.2938666449652778
 20
1.161772325303819
 10
-0.2938666449652778
 20
1.161772325303819
 10
-0.2938666449652778
 20
1.161772325303819
 10
-0.2938666449652778
 20
1.875423855251735
 10
-0.2938666449652778
 20
1.875423855251735
 10
-0.2938666449652778
 20
1.875423855251735
 10
-0.0962904188368056
 20
1.875423855251735
 10
-0.0962904188368056
 20
1.875423855251735
 97
        0
 75
     2
 76
     1
 98
        1
 10
0.0
 20
0.0
  0
HATCH
  5
5F
330
59
100
AcDbEntity
  8
LAYER_2
 62
     3
100
AcDbHatch
 10
0.0
 20
0.0
 30
0.0
210
0.0
220
0.0
230
1.0
  2
SOLID
 70
     1
 71
     0
 91
        1
 92
        1
 93
        1
 72
     4
 94
        3
 73
     0
 74
     0
 95
       26
 96
       22
 40
0.0
 40
0.0
 40
0.0
 40
0.0
 40
1.0
 40
1.0
 40
1.0
 40
2.0
 40
2.0
 40
2.0
 40
3.0
 40
3.0
 40
3.0
 40
4.0
 40
4.0
 40
4.0
 40
5.0
 40
5.0
 40
5.0
 40
6.0
 40
6.0
 40
6.0
 40
7.0
 40
7.0
 40
7.0
 40
7.0
 10
-0.8815999348958332
 20
0.1592495388454861
 10
-0.8815999348958332
 20
0.1592495388454861
 10
-0.8815999348958332
 20
0.3692281087239583
 10
-0.8815999348958332
 20
0.3692281087239583
 10
-0.8815999348958332
 20
0.3692281087239583
 10
0.3729315863715277
 20
0.3692281087239583
 10
0.3729315863715277
 20
0.3692281087239583
 10
0.3729315863715277
 20
0.3692281087239583
 10
0.3729315863715277
 20
0.8234639485677082
 10
0.3729315863715277
 20
0.8234639485677082
 10
0.3729315863715277
 20
0.8234639485677082
 10
0.5407077365451389
 20
0.8234639485677082
 10
0.5407077365451389
 20
0.8234639485677082
 10
0.5407077365451389
 20
0.584029812282986
 10
0.6049587673611111
 20
0.366644287109375
 10
0.8691975911458332
 20
0.3197909884982639
 10
0.8691975911458332
 20
0.3197909884982639
 10
0.8691975911458332
 20
0.1592495388454861
 10
0.8691975911458332
 20
0.1592495388454861
 10
0.8691975911458332
 20
0.1592495388454861
 10
-0.8815999348958332
 20
0.1592495388454861
 10
-0.8815999348958332
 20
0.1592495388454861
 97
        0
 75
     2
 76
     1
 98
        1
 10
0.0
 20
0.0
  0
HATCH
  5
5E
330
59
100
AcDbEntity
  8
LAYER_2
 62
     3
100
AcDbHatch
 10
0.0
 20
0.0
 30
0.0
210
0.0
220
0.0
230
1.0
  2
SOLID
 70
     1
 71
     0
 91
        1
 92
        1
 93
        1
 72
     4
 94
        3
 73
     0
 74
     0
 95
       17
 96
       13
 40
0.0
 40
0.0
 40
0.0
 40
0.0
 40
1.0
 40
1.0
 40
1.0
 40
2.0
 40
2.0
 40
2.0
 40
3.0
 40
3.0
 40
3.0
 40
4.0
 40
4.0
 40
4.0
 40
4.0
 10
0.9236300998263887
 20
-1.021212429470486
 10
0.9236300998263887
 20
-1.021212429470486
 10
0.9236300998263887
 20
-1.201390923394097
 10
0.9236300998263887
 20
-1.201390923394097
 10
0.9236300998263887
 20
-1.201390923394097
 10
-0.9236300998263887
 20
-0.470513916015625
 10
-0.9236300998263887
 20
-0.470513916015625
 10
-0.9236300998263887
 20
-0.470513916015625
 10
-0.9236300998263887
 20
-0.2901631673177083
 10
-0.9236300998263887
 20
-0.2901631673177083
 10
-0.9236300998263887
 20
-0.2901631673177083
 10
0.9236300998263887
 20
-1.021212429470486
 10
0.9236300998263887
 20
-1.021212429470486
 97
        0
 75
     2
 76
     1
 98
        1
 10
0.0
 20
0.0
  0
HATCH
  5
5D
330
59
100
AcDbEntity
  8
LAYER_2
 62
     3
100
AcDbHatch
 10
0.0
 20
0.0
 30
0.0
210
0.0
220
0.0
230
1.0
  2
SOLID
 70
     1
 71
     0
 91
        1
 92
        1
 93
        1
 72
     4
 94
        3
 73
     0
 74
     0
 95
       41
 96
       37
 40
0.0
 40
0.0
 40
0.0
 40
0.0
 40
1.0
 40
1.0
 40
1.0
 40
2.0
 40
2.0
 40
2.0
 40
3.0
 40
3.0
 40
3.0
 40
4.0
 40
4.0
 40
4.0
 40
5.0
 40
5.0
 40
5.0
 40
6.0
 40
6.0
 40
6.0
 40
7.0
 40
7.0
 40
7.0
 40
8.0
 40
8.0
 40
8.0
 40
9.0
 40
9.0
 40
9.0
 40
10.0
 40
10.0
 40
10.0
 40
11.0
 40
11.0
 40
11.0
 40
12.0
 40
12.0
 40
12.0
 40
12.0
 10
0.2494249131944444
 20
-1.265641954210069
 10
0.6049587673611111
 20
-1.248244222005208
 10
0.8691975911458332
 20
-1.45822279188368
 10
0.8691975911458332
 20
-1.828570556640624
 10
0.8691975911458332
 20
-2.134839545355902
 10
0.6914306640625
 20
-2.376857503255207
 10
0.3655246310763888
 20
-2.376857503255207
 10
0.0568440755208333
 20
-2.376857503255207
 10
-0.0987019856770833
 20
-2.169462754991319
 10
-0.2346110026041666
 20
-1.952077229817708
 10
-0.3679361979166666
 20
-1.732280137803819
 10
-0.47904052734375
 20
-1.502664523654513
 10
-0.696426052517361
 20
-1.460634358723958
 10
-0.696426052517361
 20
-1.460634358723958
 10
-0.696426052517361
 20
-2.359632025824652
 10
-0.696426052517361
 20
-2.359632025824652
 10
-0.696426052517361
 20
-2.359632025824652
 10
-0.8815999348958332
 20
-2.359632025824652
 10
-0.8815999348958332
 20
-2.359632025824652
 10
-0.8815999348958332
 20
-2.359632025824652
 10
-0.8815999348958332
 20
-1.216204833984374
 10
-0.8815999348958332
 20
-1.216204833984374
 10
-0.4668104383680556
 20
-1.250828043619791
 10
-0.3184990776909722
 20
-1.460634358723958
 10
-0.1655368381076389
 20
-1.707647705078124
 10
0.0172254774305556
 20
-2.00392591688368
 10
0.1259182400173611
 20
-2.154648844401041
 10
0.3679361979166666
 20
-2.154648844401041
 10
0.55810546875
 20
-2.154648844401041
 10
0.6840237087673611
 20
-2.001514350043402
 10
0.6840237087673611
 20
-1.81634046766493
 10
0.6840237087673611
 20
-1.571738688151041
 10
0.4592312282986111
 20
-1.468041314019097
 10
0.2494249131944444
 20
-1.475448269314235
 10
0.2494249131944444
 20
-1.475448269314235
 10
0.2494249131944444
 20
-1.265641954210069
 10
0.2494249131944444
 20
-1.265641954210069
 97
        0
 75
     2
 76
     1
 98
        1
 10
0.0
 20
0.0
  0
HATCH
  5
5C
330
59
100
AcDbEntity
  8
LAYER_2
 62
     3
100
AcDbHatch
 10
0.0
 20
0.0
 30
0.0
210
0.0
220
0.0
230
1.0
  2
SOLID
 70
     1
 71
     0
 91
        2
 92
        1
 93
        1
 72
     4
 94
        3
 73
     0
 74
     0
 95
       17
 96
       13
 40
0.0
 40
0.0
 40
0.0
 40
0.0
 40
1.0
 40
1.0
 40
1.0
 40
2.0
 40
2.0
 40
2.0
 40
3.0
 40
3.0
 40
3.0
 40
4.0
 40
4.0
 40
4.0
 40
4.0
 10
0.8815999348958332
 20
-3.144769287109374
 10
0.8815999348958332
 20
-3.144769287109374
 10
0.8815999348958332
 20
-3.312717692057291
 10
0.8815999348958332
 20
-3.312717692057291
 10
0.8815999348958332
 20
-3.312717692057291
 10
0.2444295247395833
 20
-3.312717692057291
 10
0.2444295247395833
 20
-3.312717692057291
 10
0.2444295247395833
 20
-3.312717692057291
 10
0.2444295247395833
 20
-3.144769287109374
 10
0.2444295247395833
 20
-3.144769287109374
 10
0.2444295247395833
 20
-3.144769287109374
 10
0.8815999348958332
 20
-3.144769287109374
 10
0.8815999348958332
 20
-3.144769287109374
 97
        0
 92
        1
 93
        1
 72
     4
 94
        3
 73
     0
 74
     0
 95
       17
 96
       13
 40
0.0
 40
0.0
 40
0.0
 40
0.0
 40
1.0
 40
1.0
 40
1.0
 40
2.0
 40
2.0
 40
2.0
 40
3.0
 40
3.0
 40
3.0
 40
4.0
 40
4.0
 40
4.0
 40
4.0
 10
0.8815999348958332
 20
-2.799053955078124
 10
0.8815999348958332
 20
-2.799053955078124
 10
0.8815999348958332
 20
-2.967002360026041
 10
0.8815999348958332
 20
-2.967002360026041
 10
0.8815999348958332
 20
-2.967002360026041
 10
0.2444295247395833
 20
-2.967002360026041
 10
0.2444295247395833
 20
-2.967002360026041
 10
0.2444295247395833
 20
-2.967002360026041
 10
0.2444295247395833
 20
-2.799053955078124
 10
0.2444295247395833
 20
-2.799053955078124
 10
0.2444295247395833
 20
-2.799053955078124
 10
0.8815999348958332
 20
-2.799053955078124
 10
0.8815999348958332
 20
-2.799053955078124
 97
        0
 75
     2
 76
     1
 98
        1
 10
0.0
 20
0.0
  0
ENDBLK
  5
62
330
59
100
AcDbEntity
  8
LAYER_2
100
AcDbBlockEnd
  0
BLOCK
  5
6A
330
68
100
AcDbEntity
  8
LAYER_2
 62
     7
100
AcDbBlockBegin
  2
AI9-BLK8
 70
     0
 10
0.0
 20
0.0
 30
0.0
  3
AI9-BLK8
  1

  0
HATCH
  5
A6
330
68
100
AcDbEntity
  8
LAYER_2
 62
     3
100
AcDbHatch
 10
0.0
 20
0.0
 30
0.0
210
0.0
220
0.0
230
1.0
  2
SOLID
 70
     1
 71
     0
 91
        1
 92
        1
 93
        1
 72
     4
 94
        3
 73
     0
 74
     0
 95
       47
 96
       43
 40
0.0
 40
0.0
 40
0.0
 40
0.0
 40
1.0
 40
1.0
 40
1.0
 40
2.0
 40
2.0
 40
2.0
 40
3.0
 40
3.0
 40
3.0
 40
4.0
 40
4.0
 40
4.0
 40
5.0
 40
5.0
 40
5.0
 40
6.0
 40
6.0
 40
6.0
 40
7.0
 40
7.0
 40
7.0
 40
8.0
 40
8.0
 40
8.0
 40
9.0
 40
9.0
 40
9.0
 40
10.0
 40
10.0
 40
10.0
 40
11.0
 40
11.0
 40
11.0
 40
12.0
 40
12.0
 40
12.0
 40
13.0
 40
13.0
 40
13.0
 40
14.0
 40
14.0
 40
14.0
 40
14.0
 10
-117.7463012695312
 20
-0.1781114366319444
 10
-117.7463012695312
 20
-0.1781114366319444
 10
-117.404547797309
 20
-0.1405598958333333
 10
-117.404547797309
 20
-0.1405598958333333
 10
-117.3954182942708
 20
-0.316259765625
 10
-117.3544216579861
 20
-0.4361490885416666
 10
-117.2813856336805
 20
-0.5009168836805556
 10
-117.2085218641493
 20
-0.5656846788194444
 10
-117.1074083116319
 20
-0.598068576388889
 10
-116.978389485677
 20
-0.598068576388889
 10
-116.8833048502604
 20
-0.598068576388889
 10
-116.8009670681423
 20
-0.5808430989583333
 10
-116.7320651584201
 20
-0.545703125
 10
-116.6628187391493
 20
-0.5105631510416666
 10
-116.6152764214409
 20
-0.4633653428819445
 10
-116.5892659505208
 20
-0.4034206814236111
 10
-116.5632554796007
 20
-0.3434760199652778
 10
-116.5501641167534
 20
-0.2477023654513889
 10
-116.5501641167534
 20
-0.1164442274305555
 10
-116.5501641167534
 20
-0.1164442274305555
 10
-116.5501641167534
 20
1.463476562499999
 10
-116.5501641167534
 20
1.463476562499999
 10
-116.5501641167534
 20
1.463476562499999
 10
-116.1698255750868
 20
1.463476562499999
 10
-116.1698255750868
 20
1.463476562499999
 10
-116.1698255750868
 20
1.463476562499999
 10
-116.1698255750868
 20
-0.0988742404513889
 10
-116.1698255750868
 20
-0.0988742404513889
 10
-116.1698255750868
 20
-0.2907660590277778
 10
-116.1987643771701
 20
-0.4392496744791666
 10
-116.2569864908854
 20
-0.5443250868055555
 10
-116.314864095052
 20
-0.6497450086805556
 10
-116.4068481445312
 20
-0.7300157335069444
 10
-116.5325941297743
 20
-0.7854817708333333
 10
-116.6585123697916
 20
-0.840603298611111
 10
-116.8061347113715
 20
-0.8681640624999998
 10
-116.9756334092882
 20
-0.8681640624999998
 10
-117.2272976345486
 20
-0.8681640624999998
 10
-117.4200507269965
 20
-0.8102864583333332
 10
-117.5537204318576
 20
-0.69453125
 10
-117.6873901367187
 20
-0.5787760416666666
 10
-117.7514689127604
 20
-0.4065212673611111
 10
-117.7463012695312
 20
-0.1781114366319444
 97
        0
 75
     2
 76
     1
 98
        1
 10
0.0
 20
0.0
  0
HATCH
  5
A5
330
68
100
AcDbEntity
  8
LAYER_2
 62
     3
100
AcDbHatch
 10
0.0
 20
0.0
 30
0.0
210
0.0
220
0.0
230
1.0
  2
SOLID
 70
     1
 71
     0
 91
        1
 92
        1
 93
        1
 72
     4
 94
        3
 73
     0
 74
     0
 95
       56
 96
       52
 40
0.0
 40
0.0
 40
0.0
 40
0.0
 40
1.0
 40
1.0
 40
1.0
 40
2.0
 40
2.0
 40
2.0
 40
3.0
 40
3.0
 40
3.0
 40
4.0
 40
4.0
 40
4.0
 40
5.0
 40
5.0
 40
5.0
 40
6.0
 40
6.0
 40
6.0
 40
7.0
 40
7.0
 40
7.0
 40
8.0
 40
8.0
 40
8.0
 40
9.0
 40
9.0
 40
9.0
 40
10.0
 40
10.0
 40
10.0
 40
11.0
 40
11.0
 40
11.0
 40
12.0
 40
12.0
 40
12.0
 40
13.0
 40
13.0
 40
13.0
 40
14.0
 40
14.0
 40
14.0
 40
15.0
 40
15.0
 40
15.0
 40
16.0
 40
16.0
 40
16.0
 40
17.0
 40
17.0
 40
17.0
 40
17.0
 10
-112.5619493272569
 20
1.463476562499999
 10
-112.5619493272569
 20
1.463476562499999
 10
-112.1816107855902
 20
1.463476562499999
 10
-112.1816107855902
 20
1.463476562499999
 10
-112.1816107855902
 20
1.463476562499999
 10
-112.1816107855902
 20
0.1388373480902778
 10
-112.1816107855902
 20
0.1388373480902778
 10
-112.1816107855902
 20
-0.0916395399305556
 10
-112.214166937934
 20
-0.2745741102430555
 10
-112.2792792426215
 20
-0.4099663628472223
 10
-112.3445638020833
 20
-0.545703125
 10
-112.462213812934
 20
-0.6559461805555556
 10
-112.6324015299479
 20
-0.7406955295138889
 10
-112.8025892469618
 20
-0.8257893880208332
 10
-113.0258314344618
 20
-0.8681640624999998
 10
-113.3021280924479
 20
-0.8681640624999998
 10
-113.5705010308159
 20
-0.8681640624999998
 10
-113.7902981228298
 20
-0.83095703125
 10
-113.9608303493923
 20
-0.7572319878472222
 10
-114.1317070855034
 20
-0.6831624348958333
 10
-114.2536634657118
 20
-0.5760199652777778
 10
-114.3266994900173
 20
-0.4358045789930556
 10
-114.3997355143229
 20
-0.2955891927083333
 10
-114.4360812717014
 20
-0.1040418836805555
 10
-114.4360812717014
 20
0.1388373480902778
 10
-114.4360812717014
 20
0.1388373480902778
 10
-114.4360812717014
 20
1.463476562499999
 10
-114.4360812717014
 20
1.463476562499999
 10
-114.4360812717014
 20
1.463476562499999
 10
-114.0557427300347
 20
1.463476562499999
 10
-114.0557427300347
 20
1.463476562499999
 10
-114.0557427300347
 20
1.463476562499999
 10
-114.0557427300347
 20
0.1419379340277778
 10
-114.0557427300347
 20
0.1419379340277778
 10
-114.0557427300347
 20
-0.0571885850694445
 10
-114.0326605902777
 20
-0.2039496527777778
 10
-113.9863240559895
 20
-0.2980007595486111
 10
-113.9401597764757
 20
-0.3923963758680555
 10
-113.8609225802951
 20
-0.465087890625
 10
-113.7482679578993
 20
-0.5160753038194445
 10
-113.6356133355034
 20
-0.567062717013889
 10
-113.4979817708333
 20
-0.5925564236111111
 10
-113.3352010091146
 20
-0.5925564236111111
 10
-113.0566650390625
 20
-0.5925564236111111
 10
-112.8580552842882
 20
-0.5422580295138888
 10
-112.7395439995659
 20
-0.4409722222222223
 10
-112.621204969618
 20
-0.3400309244791666
 10
-112.5619493272569
 20
-0.1457275390625
 10
-112.5619493272569
 20
0.1419379340277778
 10
-112.5619493272569
 20
0.1419379340277778
 10
-112.5619493272569
 20
1.463476562499999
 10
-112.5619493272569
 20
1.463476562499999
 97
        0
 75
     2
 76
     1
 98
        1
 10
0.0
 20
0.0
  0
HATCH
  5
A4
330
68
100
AcDbEntity
  8
LAYER_2
 62
     3
100
AcDbHatch
 10
0.0
 20
0.0
 30
0.0
210
0.0
220
0.0
230
1.0
  2
SOLID
 70
     1
 71
     0
 91
        1
 92
        1
 93
        1
 72
     4
 94
        3
 73
     0
 74
     0
 95
       23
 96
       19
 40
0.0
 40
0.0
 40
0.0
 40
0.0
 40
1.0
 40
1.0
 40
1.0
 40
2.0
 40
2.0
 40
2.0
 40
3.0
 40
3.0
 40
3.0
 40
4.0
 40
4.0
 40
4.0
 40
5.0
 40
5.0
 40
5.0
 40
6.0
 40
6.0
 40
6.0
 40
6.0
 10
-110.4576850043402
 20
-0.8295789930555555
 10
-110.4576850043402
 20
-0.8295789930555555
 10
-110.4576850043402
 20
1.463476562499999
 10
-110.4576850043402
 20
1.463476562499999
 10
-110.4576850043402
 20
1.463476562499999
 10
-110.0773464626736
 20
1.463476562499999
 10
-110.0773464626736
 20
1.463476562499999
 10
-110.0773464626736
 20
1.463476562499999
 10
-110.0773464626736
 20
-0.5594835069444444
 10
-110.0773464626736
 20
-0.5594835069444444
 10
-110.0773464626736
 20
-0.5594835069444444
 10
-108.6662353515625
 20
-0.5594835069444444
 10
-108.6662353515625
 20
-0.5594835069444444
 10
-108.6662353515625
 20
-0.5594835069444444
 10
-108.6662353515625
 20
-0.8295789930555555
 10
-108.6662353515625
 20
-0.8295789930555555
 10
-108.6662353515625
 20
-0.8295789930555555
 10
-110.4576850043402
 20
-0.8295789930555555
 10
-110.4576850043402
 20
-0.8295789930555555
 97
        0
 75
     2
 76
     1
 98
        1
 10
0.0
 20
0.0
  0
HATCH
  5
A3
330
68
100
AcDbEntity
  8
LAYER_2
 62
     3
100
AcDbHatch
 10
0.0
 20
0.0
 30
0.0
210
0.0
220
0.0
230
1.0
  2
SOLID
 70
     1
 71
     0
 91
        1
 92
        1
 93
        1
 72
     4
 94
        3
 73
     0
 74
     0
 95
       17
 96
       13
 40
0.0
 40
0.0
 40
0.0
 40
0.0
 40
1.0
 40
1.0
 40
1.0
 40
2.0
 40
2.0
 40
2.0
 40
3.0
 40
3.0
 40
3.0
 40
4.0
 40
4.0
 40
4.0
 40
4.0
 10
-107.1870836046007
 20
-0.8295789930555555
 10
-107.1870836046007
 20
-0.8295789930555555
 10
-107.1870836046007
 20
1.463476562499999
 10
-107.1870836046007
 20
1.463476562499999
 10
-107.1870836046007
 20
1.463476562499999
 10
-106.806745062934
 20
1.463476562499999
 10
-106.806745062934
 20
1.463476562499999
 10
-106.806745062934
 20
1.463476562499999
 10
-106.806745062934
 20
-0.8295789930555555
 10
-106.806745062934
 20
-0.8295789930555555
 10
-106.806745062934
 20
-0.8295789930555555
 10
-107.1870836046007
 20
-0.8295789930555555
 10
-107.1870836046007
 20
-0.8295789930555555
 97
        0
 75
     2
 76
     1
 98
        1
 10
0.0
 20
0.0
  0
HATCH
  5
A2
330
68
100
AcDbEntity
  8
LAYER_2
 62
     3
100
AcDbHatch
 10
0.0
 20
0.0
 30
0.0
210
0.0
220
0.0
230
1.0
  2
SOLID
 70
     1
 71
     0
 91
        1
 92
        1
 93
        1
 72
     4
 94
        3
 73
     0
 74
     0
 95
       56
 96
       52
 40
0.0
 40
0.0
 40
0.0
 40
0.0
 40
1.0
 40
1.0
 40
1.0
 40
2.0
 40
2.0
 40
2.0
 40
3.0
 40
3.0
 40
3.0
 40
4.0
 40
4.0
 40
4.0
 40
5.0
 40
5.0
 40
5.0
 40
6.0
 40
6.0
 40
6.0
 40
7.0
 40
7.0
 40
7.0
 40
8.0
 40
8.0
 40
8.0
 40
9.0
 40
9.0
 40
9.0
 40
10.0
 40
10.0
 40
10.0
 40
11.0
 40
11.0
 40
11.0
 40
12.0
 40
12.0
 40
12.0
 40
13.0
 40
13.0
 40
13.0
 40
14.0
 40
14.0
 40
14.0
 40
15.0
 40
15.0
 40
15.0
 40
16.0
 40
16.0
 40
16.0
 40
17.0
 40
17.0
 40
17.0
 40
17.0
 10
-103.1506374782986
 20
1.463476562499999
 10
-103.1506374782986
 20
1.463476562499999
 10
-102.7702989366319
 20
1.463476562499999
 10
-102.7702989366319
 20
1.463476562499999
 10
-102.7702989366319
 20
1.463476562499999
 10
-102.7702989366319
 20
0.1388373480902778
 10
-102.7702989366319
 20
0.1388373480902778
 10
-102.7702989366319
 20
-0.0916395399305556
 10
-102.8028550889757
 20
-0.2745741102430555
 10
-102.8679673936631
 20
-0.4099663628472223
 10
-102.933251953125
 20
-0.545703125
 10
-103.0509019639757
 20
-0.6559461805555556
 10
-103.2210896809895
 20
-0.7406955295138889
 10
-103.3912773980034
 20
-0.8257893880208332
 10
-103.6145195855034
 20
-0.8681640624999998
 10
-103.8908162434895
 20
-0.8681640624999998
 10
-104.1591891818576
 20
-0.8681640624999998
 10
-104.3789862738715
 20
-0.83095703125
 10
-104.549518500434
 20
-0.7572319878472222
 10
-104.7203952365451
 20
-0.6831624348958333
 10
-104.8423516167534
 20
-0.5760199652777778
 10
-104.915387641059
 20
-0.4358045789930556
 10
-104.9884236653646
 20
-0.2955891927083333
 10
-105.024769422743
 20
-0.1040418836805555
 10
-105.024769422743
 20
0.1388373480902778
 10
-105.024769422743
 20
0.1388373480902778
 10
-105.024769422743
 20
1.463476562499999
 10
-105.024769422743
 20
1.463476562499999
 10
-105.024769422743
 20
1.463476562499999
 10
-104.6444308810764
 20
1.463476562499999
 10
-104.6444308810764
 20
1.463476562499999
 10
-104.6444308810764
 20
1.463476562499999
 10
-104.6444308810764
 20
0.1419379340277778
 10
-104.6444308810764
 20
0.1419379340277778
 10
-104.6444308810764
 20
-0.0571885850694445
 10
-104.6213487413194
 20
-0.2039496527777778
 10
-104.5750122070312
 20
-0.2980007595486111
 10
-104.5288479275173
 20
-0.3923963758680555
 10
-104.4496107313368
 20
-0.465087890625
 10
-104.3369561089409
 20
-0.5160753038194445
 10
-104.2243014865451
 20
-0.567062717013889
 10
-104.086669921875
 20
-0.5925564236111111
 10
-103.9238891601562
 20
-0.5925564236111111
 10
-103.6453531901041
 20
-0.5925564236111111
 10
-103.4467434353298
 20
-0.5422580295138888
 10
-103.3282321506076
 20
-0.4409722222222223
 10
-103.2098931206597
 20
-0.3400309244791666
 10
-103.1506374782986
 20
-0.1457275390625
 10
-103.1506374782986
 20
0.1419379340277778
 10
-103.1506374782986
 20
0.1419379340277778
 10
-103.1506374782986
 20
1.463476562499999
 10
-103.1506374782986
 20
1.463476562499999
 97
        0
 75
     2
 76
     1
 98
        1
 10
0.0
 20
0.0
  0
HATCH
  5
A1
330
68
100
AcDbEntity
  8
LAYER_2
 62
     3
100
AcDbHatch
 10
0.0
 20
0.0
 30
0.0
210
0.0
220
0.0
230
1.0
  2
SOLID
 70
     1
 71
     0
 91
        1
 92
        1
 93
        1
 72
     4
 94
        3
 73
     0
 74
     0
 95
      110
 96
      106
 40
0.0
 40
0.0
 40
0.0
 40
0.0
 40
1.0
 40
1.0
 40
1.0
 40
2.0
 40
2.0
 40
2.0
 40
3.0
 40
3.0
 40
3.0
 40
4.0
 40
4.0
 40
4.0
 40
5.0
 40
5.0
 40
5.0
 40
6.0
 40
6.0
 40
6.0
 40
7.0
 40
7.0
 40
7.0
 40
8.0
 40
8.0
 40
8.0
 40
9.0
 40
9.0
 40
9.0
 40
10.0
 40
10.0
 40
10.0
 40
11.0
 40
11.0
 40
11.0
 40
12.0
 40
12.0
 40
12.0
 40
13.0
 40
13.0
 40
13.0
 40
14.0
 40
14.0
 40
14.0
 40
15.0
 40
15.0
 40
15.0
 40
16.0
 40
16.0
 40
16.0
 40
17.0
 40
17.0
 40
17.0
 40
18.0
 40
18.0
 40
18.0
 40
19.0
 40
19.0
 40
19.0
 40
20.0
 40
20.0
 40
20.0
 40
21.0
 40
21.0
 40
21.0
 40
22.0
 40
22.0
 40
22.0
 40
23.0
 40
23.0
 40
23.0
 40
24.0
 40
24.0
 40
24.0
 40
25.0
 40
25.0
 40
25.0
 40
26.0
 40
26.0
 40
26.0
 40
27.0
 40
27.0
 40
27.0
 40
28.0
 40
28.0
 40
28.0
 40
29.0
 40
29.0
 40
29.0
 40
30.0
 40
30.0
 40
30.0
 40
31.0
 40
31.0
 40
31.0
 40
32.0
 40
32.0
 40
32.0
 40
33.0
 40
33.0
 40
33.0
 40
34.0
 40
34.0
 40
34.0
 40
35.0
 40
35.0
 40
35.0
 40
35.0
 10
-101.1566162109375
 20
-0.0964626736111111
 10
-101.1566162109375
 20
-0.0964626736111111
 10
-100.7983262803819
 20
-0.0689019097222222
 10
-100.7983262803819
 20
-0.0689019097222222
 10
-100.7816175672743
 20
-0.1839680989583333
 10
-100.7423434787326
 20
-0.2780192057291666
 10
-100.6806762695312
 20
-0.3513997395833333
 10
-100.6193535698785
 20
-0.4251247829861111
 10
-100.5235799153646
 20
-0.4847249348958333
 10
-100.3940443250868
 20
-0.5298556857638889
 10
-100.264508734809
 20
-0.5753309461805555
 10
-100.1187811957465
 20
-0.598068576388889
 10
-99.9568617078993
 20
-0.598068576388889
 10
-99.81302897135416
 20
-0.598068576388889
 10
-99.68607720269098
 20
-0.5808430989583333
 10
-99.57583414713541
 20
-0.5463921440972222
 10
-99.46593560112846
 20
-0.5119411892361111
 10
-99.38394232855902
 20
-0.4647433810763889
 10
-99.3301988389757
 20
-0.4047987196180556
 10
-99.27645534939236
 20
-0.3448540581597222
 10
-99.24941134982638
 20
-0.2793972439236111
 10
-99.24941134982638
 20
-0.2087727864583333
 10
-99.24941134982638
 20
-0.1367702907986111
 10
-99.27611083984373
 20
-0.0740695529513889
 10
-99.32950981987847
 20
-0.0206705729166667
 10
-99.38273654513888
 20
0.0330729166666667
 10
-99.46869167751735
 20
0.0778591579861111
 10
-99.58754747178819
 20
0.1143771701388889
 10
-99.66385633680555
 20
0.1384928385416666
 10
-99.83249376085069
 20
0.1756998697916666
 10
-100.0934597439236
 20
0.2263427734375
 10
-100.3544257269965
 20
0.2769856770833333
 10
-100.537360297309
 20
0.3245279947916666
 10
-100.6422634548611
 20
0.3693142361111111
 10
-100.7783447265625
 20
0.4268473307291666
 10
-100.8798027886284
 20
0.4981608072916666
 10
-100.9462931315104
 20
0.5832546657986111
 10
-101.0131279839409
 20
0.6683485243055555
 10
-101.0463731553819
 20
0.7637776692708333
 10
-101.0463731553819
 20
0.8691975911458332
 10
-101.0463731553819
 20
0.9852973090277776
 10
-101.0055487738715
 20
1.093473307291666
 10
-100.9239000108507
 20
1.19407009548611
 10
-100.8424235026041
 20
1.295011393229166
 10
-100.723395453559
 20
1.371492513020833
 10
-100.5666436089409
 20
1.423513454861111
 10
-100.4098917643229
 20
1.47587890625
 10
-100.2359144422743
 20
1.502061631944444
 10
-100.0440226236979
 20
1.502061631944444
 10
-99.8331827799479
 20
1.502061631944444
 10
-99.6468031141493
 20
1.474845377604166
 10
-99.4855726453993
 20
1.420068359374999
 10
-99.3243421766493
 20
1.365635850694444
 10
-99.20049099392361
 20
1.285020616319444
 10
-99.1136745876736
 20
1.178911675347222
 10
-99.02703043619791
 20
1.072802734374999
 10
-98.98034939236111
 20
0.9529134114583332
 10
-98.97380371093749
 20
0.8185546875
 10
-98.97380371093749
 20
0.8185546875
 10
-99.33760579427083
 20
0.7965060763888889
 10
-99.33760579427083
 20
0.7965060763888889
 10
-99.35707058376735
 20
0.9401665581597221
 10
-99.42252739800347
 20
1.048687065972222
 10
-99.53432074652777
 20
1.121723090277777
 10
-99.64611409505208
 20
1.195448133680555
 10
-99.8111341688368
 20
1.231966145833333
 10
-100.0295532226562
 20
1.231966145833333
 10
-100.2569295247395
 20
1.231966145833333
 10
-100.4226386176215
 20
1.198204210069444
 10
-100.526680501302
 20
1.131024848090277
 10
-100.6307223849826
 20
1.063845486111111
 10
-100.6825710720486
 20
0.9828857421875
 10
-100.6825710720486
 20
0.8881456163194442
 10
-100.6825710720486
 20
0.8058078342013887
 10
-100.6458808051215
 20
0.737939453125
 10
-100.5721557617187
 20
0.6848849826388889
 10
-100.4998087565104
 20
0.6318305121527778
 10
-100.3108452690972
 20
0.5773980034722222
 10
-100.0052652994791
 20
0.5215874565972222
 10
-99.6996853298611
 20
0.4657769097222222
 10
-99.48953450520832
 20
0.4172010633680556
 10
-99.37464057074652
 20
0.3755154079861111
 10
-99.20789794921875
 20
0.3141927083333333
 10
-99.08456353081597
 20
0.2363335503472222
 10
-99.0049818250868
 20
0.1422824435763889
 10
-98.92540011935764
 20
0.0482313368055556
 10
-98.88560926649304
 20
-0.0602891710069445
 10
-98.88560926649304
 20
-0.1832790798611111
 10
-98.88560926649304
 20
-0.3048909505208333
 10
-98.92918972439236
 20
-0.4196126302083333
 10
-99.01600613064236
 20
-0.527099609375
 10
-99.10299479166667
 20
-0.6349310980902777
 10
-99.22787950303819
 20
-0.7186469184027777
 10
-99.39066026475693
 20
-0.7785915798611111
 10
-99.55344102647568
 20
-0.8381917317708332
 10
-99.73672010633679
 20
-0.8681640624999998
 10
-99.94032524956596
 20
-0.8681640624999998
 10
-100.19853515625
 20
-0.8681640624999998
 10
-100.4148871527777
 20
-0.8378472222222221
 10
-100.5893812391493
 20
-0.7779025607638889
 10
-100.7638753255208
 20
-0.7179578993055556
 10
-100.9008178710937
 20
-0.6273518880208333
 10
-101.0000366210937
 20
-0.5064290364583333
 10
-101.0992553710937
 20
-0.3855061848958333
 10
-101.1514485677083
 20
-0.2487358940972222
 10
-101.1566162109375
 20
-0.0964626736111111
 97
        0
 75
     2
 76
     1
 98
        1
 10
0.0
 20
0.0
  0
HATCH
  5
A0
330
68
100
AcDbEntity
  8
LAYER_2
 62
     3
100
AcDbHatch
 10
0.0
 20
0.0
 30
0.0
210
0.0
220
0.0
230
1.0
  2
SOLID
 70
     1
 71
     0
 91
        3
 92
       16
 93
        1
 72
     4
 94
        3
 73
     0
 74
     0
 95
       35
 96
       31
 40
0.0
 40
0.0
 40
0.0
 40
0.0
 40
1.0
 40
1.0
 40
1.0
 40
2.0
 40
2.0
 40
2.0
 40
3.0
 40
3.0
 40
3.0
 40
4.0
 40
4.0
 40
4.0
 40
5.0
 40
5.0
 40
5.0
 40
6.0
 40
6.0
 40
6.0
 40
7.0
 40
7.0
 40
7.0
 40
8.0
 40
8.0
 40
8.0
 40
9.0
 40
9.0
 40
9.0
 40
10.0
 40
10.0
 40
10.0
 40
10.0
 10
-95.77486029730902
 20
-0.5594835069444444
 10
-95.77486029730902
 20
-0.5594835069444444
 10
-95.06275906032986
 20
-0.5594835069444444
 10
-95.06275906032986
 20
-0.5594835069444444
 10
-94.94045817057291
 20
-0.5594835069444444
 10
-94.85467529296874
 20
-0.5560384114583333
 10
-94.80523817274304
 20
-0.5484592013888889
 10
-94.71807725694445
 20
-0.536056857638889
 10
-94.64521348741319
 20
-0.5153862847222222
 10
-94.5866468641493
 20
-0.4861029730902777
 10
-94.52825249565972
 20
-0.4568196614583333
 10
-94.48019341362847
 20
-0.4144449869791666
 10
-94.44229736328123
 20
-0.3586344401041666
 10
-94.40474582248262
 20
-0.3028238932291666
 10
-94.38579779730902
 20
-0.2384006076388889
 10
-94.38579779730902
 20
-0.1653645833333333
 10
-94.38579779730902
 20
-0.0799262152777778
 10
-94.4135308159722
 20
-0.0055121527777778
 10
-94.4688245985243
 20
0.0575330946180556
 10
-94.5242906358507
 20
0.1205783420138889
 10
-94.60025499131942
 20
0.1646755642361111
 10
-94.69688991970485
 20
0.1905137803819444
 10
-94.79369710286457
 20
0.2160074869791666
 10
-94.93287896050345
 20
0.2287543402777778
 10
-95.11478000217014
 20
0.2287543402777778
 10
-95.11478000217014
 20
0.2287543402777778
 10
-95.77486029730902
 20
0.2287543402777778
 10
-95.77486029730902
 20
0.2287543402777778
 10
-95.77486029730902
 20
0.2287543402777778
 10
-95.77486029730902
 20
-0.5594835069444444
 10
-95.77486029730902
 20
-0.5594835069444444
 97
        0
 92
       16
 93
        1
 72
     4
 94
        3
 73
     0
 74
     0
 95
       32
 96
       28
 40
0.0
 40
0.0
 40
0.0
 40
0.0
 40
1.0
 40
1.0
 40
1.0
 40
2.0
 40
2.0
 40
2.0
 40
3.0
 40
3.0
 40
3.0
 40
4.0
 40
4.0
 40
4.0
 40
5.0
 40
5.0
 40
5.0
 40
6.0
 40
6.0
 40
6.0
 40
7.0
 40
7.0
 40
7.0
 40
8.0
 40
8.0
 40
8.0
 40
9.0
 40
9.0
 40
9.0
 40
9.0
 10
-95.77486029730902
 20
0.4988498263888889
 10
-95.77486029730902
 20
0.4988498263888889
 10
-95.15749918619791
 20
0.4988498263888889
 10
-95.15749918619791
 20
0.4988498263888889
 10
-94.9900675455729
 20
0.4988498263888889
 10
-94.86983371310762
 20
0.5078070746527778
 10
-94.79714219835068
 20
0.5253770616319445
 10
-94.7011962890625
 20
0.5484592013888889
 10
-94.62884928385415
 20
0.5866997612847222
 10
-94.58010118272568
 20
0.6400987413194443
 10
-94.53152533637151
 20
0.6931532118055555
 10
-94.50706515842012
 20
0.7599880642361111
 10
-94.50706515842012
 20
0.840603298611111
 10
-94.50706515842012
 20
0.9170844184027776
 10
-94.52980278862845
 20
0.9839192708333332
 10
-94.57527804904513
 20
1.04214138454861
 10
-94.62075330946179
 20
1.100018988715277
 10
-94.68552110460068
 20
1.139637586805555
 10
-94.76992594401041
 20
1.161341688368055
 10
-94.85433078342012
 20
1.182701280381944
 10
-94.99902479383679
 20
1.193381076388888
 10
-95.20435248480902
 20
1.193381076388888
 10
-95.20435248480902
 20
1.193381076388888
 10
-95.77486029730902
 20
1.193381076388888
 10
-95.77486029730902
 20
1.193381076388888
 10
-95.77486029730902
 20
1.193381076388888
 10
-95.77486029730902
 20
0.4988498263888889
 10
-95.77486029730902
 20
0.4988498263888889
 97
        0
 92
        1
 93
        1
 72
     4
 94
        3
 73
     0
 74
     0
 95
       47
 96
       43
 40
0.0
 40
0.0
 40
0.0
 40
0.0
 40
1.0
 40
1.0
 40
1.0
 40
2.0
 40
2.0
 40
2.0
 40
3.0
 40
3.0
 40
3.0
 40
4.0
 40
4.0
 40
4.0
 40
5.0
 40
5.0
 40
5.0
 40
6.0
 40
6.0
 40
6.0
 40
7.0
 40
7.0
 40
7.0
 40
8.0
 40
8.0
 40
8.0
 40
9.0
 40
9.0
 40
9.0
 40
10.0
 40
10.0
 40
10.0
 40
11.0
 40
11.0
 40
11.0
 40
12.0
 40
12.0
 40
12.0
 40
13.0
 40
13.0
 40
13.0
 40
14.0
 40
14.0
 40
14.0
 40
14.0
 10
-96.15519883897569
 20
-0.8295789930555555
 10
-96.15519883897569
 20
-0.8295789930555555
 10
-96.15519883897569
 20
1.463476562499999
 10
-96.15519883897569
 20
1.463476562499999
 10
-96.15519883897569
 20
1.463476562499999
 10
-95.08136257595486
 20
1.463476562499999
 10
-95.08136257595486
 20
1.463476562499999
 10
-94.8625990125868
 20
1.463476562499999
 10
-94.68724365234374
 20
1.440049913194444
 10
-94.55495198567708
 20
1.393885633680555
 10
-94.42300482855902
 20
1.347032335069444
 10
-94.31930745442707
 20
1.275718858506944
 10
-94.24454888237846
 20
1.178911675347222
 10
-94.16979031032985
 20
1.082449001736111
 10
-94.13223876953123
 20
0.9811631944444442
 10
-94.13223876953123
 20
0.8757432725694444
 10
-94.13223876953123
 20
0.7779025607638889
 10
-94.16565619574653
 20
0.6852294921875
 10
-94.23231879340276
 20
0.5987575954861111
 10
-94.29898139105901
 20
0.5119411892361111
 10
-94.39957817925346
 20
0.4416612413194444
 10
-94.5342814127604
 20
0.3886067708333333
 10
-94.36099310980901
 20
0.3479546440972222
 10
-94.22766791449651
 20
0.2787082248263888
 10
-94.13430582682291
 20
0.1808675130208333
 10
-94.0411159939236
 20
0.0830268012152778
 10
-93.9944349500868
 20
-0.0323838975694445
 10
-93.9944349500868
 20
-0.1657090928819444
 10
-93.9944349500868
 20
-0.2731960720486111
 10
-94.02268473307291
 20
-0.3727593315972222
 10
-94.07935655381944
 20
-0.465087890625
 10
-94.13602837456597
 20
-0.5570719401041666
 10
-94.20596381293401
 20
-0.6280409071180556
 10
-94.28933512369791
 20
-0.6779947916666666
 10
-94.37253417968749
 20
-0.7279486762152777
 10
-94.47692057291666
 20
-0.7658447265625
 10
-94.6024943033854
 20
-0.7913384331597222
 10
-94.72806803385415
 20
-0.8168321397569442
 10
-94.88189154730902
 20
-0.8295789930555555
 10
-95.06413709852429
 20
-0.8295789930555555
 10
-95.06413709852429
 20
-0.8295789930555555
 10
-96.15519883897569
 20
-0.8295789930555555
 10
-96.15519883897569
 20
-0.8295789930555555
 97
        0
 75
     2
 76
     1
 98
        1
 10
0.0
 20
0.0
  0
HATCH
  5
9F
330
68
100
AcDbEntity
  8
LAYER_2
 62
     3
100
AcDbHatch
 10
0.0
 20
0.0
 30
0.0
210
0.0
220
0.0
230
1.0
  2
SOLID
 70
     1
 71
     0
 91
        1
 92
        1
 93
        1
 72
     4
 94
        3
 73
     0
 74
     0
 95
       23
 96
       19
 40
0.0
 40
0.0
 40
0.0
 40
0.0
 40
1.0
 40
1.0
 40
1.0
 40
2.0
 40
2.0
 40
2.0
 40
3.0
 40
3.0
 40
3.0
 40
4.0
 40
4.0
 40
4.0
 40
5.0
 40
5.0
 40
5.0
 40
6.0
 40
6.0
 40
6.0
 40
6.0
 10
-92.37541232638887
 20
-0.8295789930555555
 10
-92.37541232638887
 20
-0.8295789930555555
 10
-92.37541232638887
 20
1.463476562499999
 10
-92.37541232638887
 20
1.463476562499999
 10
-92.37541232638887
 20
1.463476562499999
 10
-91.99507378472221
 20
1.463476562499999
 10
-91.99507378472221
 20
1.463476562499999
 10
-91.99507378472221
 20
1.463476562499999
 10
-91.99507378472221
 20
-0.5594835069444444
 10
-91.99507378472221
 20
-0.5594835069444444
 10
-91.99507378472221
 20
-0.5594835069444444
 10
-90.58396267361109
 20
-0.5594835069444444
 10
-90.58396267361109
 20
-0.5594835069444444
 10
-90.58396267361109
 20
-0.5594835069444444
 10
-90.58396267361109
 20
-0.8295789930555555
 10
-90.58396267361109
 20
-0.8295789930555555
 10
-90.58396267361109
 20
-0.8295789930555555
 10
-92.37541232638887
 20
-0.8295789930555555
 10
-92.37541232638887
 20
-0.8295789930555555
 97
        0
 75
     2
 76
     1
 98
        1
 10
0.0
 20
0.0
  0
HATCH
  5
9E
330
68
100
AcDbEntity
  8
LAYER_2
 62
     3
100
AcDbHatch
 10
0.0
 20
0.0
 30
0.0
210
0.0
220
0.0
230
1.0
  2
SOLID
 70
     1
 71
     0
 91
        1
 92
        1
 93
        1
 72
     4
 94
        3
 73
     0
 74
     0
 95
       56
 96
       52
 40
0.0
 40
0.0
 40
0.0
 40
0.0
 40
1.0
 40
1.0
 40
1.0
 40
2.0
 40
2.0
 40
2.0
 40
3.0
 40
3.0
 40
3.0
 40
4.0
 40
4.0
 40
4.0
 40
5.0
 40
5.0
 40
5.0
 40
6.0
 40
6.0
 40
6.0
 40
7.0
 40
7.0
 40
7.0
 40
8.0
 40
8.0
 40
8.0
 40
9.0
 40
9.0
 40
9.0
 40
10.0
 40
10.0
 40
10.0
 40
11.0
 40
11.0
 40
11.0
 40
12.0
 40
12.0
 40
12.0
 40
13.0
 40
13.0
 40
13.0
 40
14.0
 40
14.0
 40
14.0
 40
15.0
 40
15.0
 40
15.0
 40
16.0
 40
16.0
 40
16.0
 40
17.0
 40
17.0
 40
17.0
 40
17.0
 10
-87.2913126627604
 20
1.463476562499999
 10
-87.2913126627604
 20
1.463476562499999
 10
-86.91097412109375
 20
1.463476562499999
 10
-86.91097412109375
 20
1.463476562499999
 10
-86.91097412109375
 20
1.463476562499999
 10
-86.91097412109375
 20
0.1388373480902778
 10
-86.91097412109375
 20
0.1388373480902778
 10
-86.91097412109375
 20
-0.0916395399305556
 10
-86.9437025282118
 20
-0.2745741102430555
 10
-87.00881483289931
 20
-0.4099663628472223
 10
-87.07392713758679
 20
-0.545703125
 10
-87.19157714843749
 20
-0.6559461805555556
 10
-87.36159261067708
 20
-0.7406955295138889
 10
-87.53178032769097
 20
-0.8257893880208332
 10
-87.75502251519096
 20
-0.8681640624999998
 10
-88.03131917317708
 20
-0.8681640624999998
 10
-88.30003662109374
 20
-0.8681640624999998
 10
-88.51948920355901
 20
-0.83095703125
 10
-88.69036593967013
 20
-0.7572319878472222
 10
-88.86107042100695
 20
-0.6831624348958333
 10
-88.98285454644096
 20
-0.5760199652777778
 10
-89.05589057074651
 20
-0.4358045789930556
 10
-89.12892659505208
 20
-0.2955891927083333
 10
-89.16544460720485
 20
-0.1040418836805555
 10
-89.16544460720485
 20
0.1388373480902778
 10
-89.16544460720485
 20
0.1388373480902778
 10
-89.16544460720485
 20
1.463476562499999
 10
-89.16544460720485
 20
1.463476562499999
 10
-89.16544460720485
 20
1.463476562499999
 10
-88.78510606553819
 20
1.463476562499999
 10
-88.78510606553819
 20
1.463476562499999
 10
-88.78510606553819
 20
1.463476562499999
 10
-88.78510606553819
 20
0.1419379340277778
 10
-88.78510606553819
 20
0.1419379340277778
 10
-88.78510606553819
 20
-0.0571885850694445
 10
-88.76202392578123
 20
-0.2039496527777778
 10
-88.71585964626735
 20
-0.2980007595486111
 10
-88.66969536675346
 20
-0.3923963758680555
 10
-88.5901136610243
 20
-0.465087890625
 10
-88.47745903862847
 20
-0.5160753038194445
 10
-88.36497667100694
 20
-0.567062717013889
 10
-88.22734510633679
 20
-0.5925564236111111
 10
-88.06456434461805
 20
-0.5925564236111111
 10
-87.78602837456595
 20
-0.5925564236111111
 10
-87.58759087456596
 20
-0.5422580295138888
 10
-87.46907958984374
 20
-0.4409722222222223
 10
-87.35056830512151
 20
-0.3400309244791666
 10
-87.2913126627604
 20
-0.1457275390625
 10
-87.2913126627604
 20
0.1419379340277778
 10
-87.2913126627604
 20
0.1419379340277778
 10
-87.2913126627604
 20
1.463476562499999
 10
-87.2913126627604
 20
1.463476562499999
 97
        0
 75
     2
 76
     1
 98
        1
 10
0.0
 20
0.0
  0
HATCH
  5
9D
330
68
100
AcDbEntity
  8
LAYER_2
 62
     3
100
AcDbHatch
 10
0.0
 20
0.0
 30
0.0
210
0.0
220
0.0
230
1.0
  2
SOLID
 70
     1
 71
     0
 91
        1
 92
        1
 93
        1
 72
     4
 94
        3
 73
     0
 74
     0
 95
       50
 96
       46
 40
0.0
 40
0.0
 40
0.0
 40
0.0
 40
1.0
 40
1.0
 40
1.0
 40
2.0
 40
2.0
 40
2.0
 40
3.0
 40
3.0
 40
3.0
 40
4.0
 40
4.0
 40
4.0
 40
5.0
 40
5.0
 40
5.0
 40
6.0
 40
6.0
 40
6.0
 40
7.0
 40
7.0
 40
7.0
 40
8.0
 40
8.0
 40
8.0
 40
9.0
 40
9.0
 40
9.0
 40
10.0
 40
10.0
 40
10.0
 40
11.0
 40
11.0
 40
11.0
 40
12.0
 40
12.0
 40
12.0
 40
13.0
 40
13.0
 40
13.0
 40
14.0
 40
14.0
 40
14.0
 40
15.0
 40
15.0
 40
15.0
 40
15.0
 10
-85.18153618706596
 20
-0.8295789930555555
 10
-85.18153618706596
 20
-0.8295789930555555
 10
-85.18153618706596
 20
1.463476562499999
 10
-85.18153618706596
 20
1.463476562499999
 10
-85.18153618706596
 20
1.463476562499999
 10
-84.61361219618055
 20
1.463476562499999
 10
-84.61361219618055
 20
1.463476562499999
 10
-84.61361219618055
 20
1.463476562499999
 10
-83.93268907335068
 20
-0.1598524305555555
 10
-83.93268907335068
 20
-0.1598524305555555
 10
-83.86981608072916
 20
-0.3107476128472222
 10
-83.82399631076387
 20
-0.4240912543402777
 10
-83.79522976345485
 20
-0.4988498263888889
 10
-83.76232910156248
 20
-0.415478515625
 10
-83.71099717881945
 20
-0.2931776258680555
 10
-83.64123399522569
 20
-0.1316026475694444
 10
-83.64123399522569
 20
-0.1316026475694444
 10
-82.94790852864583
 20
1.463476562499999
 10
-82.94790852864583
 20
1.463476562499999
 10
-82.94790852864583
 20
1.463476562499999
 10
-82.44750840928819
 20
1.463476562499999
 10
-82.44750840928819
 20
1.463476562499999
 10
-82.44750840928819
 20
1.463476562499999
 10
-82.44750840928819
 20
-0.8295789930555555
 10
-82.44750840928819
 20
-0.8295789930555555
 10
-82.44750840928819
 20
-0.8295789930555555
 10
-82.81131049262151
 20
-0.8295789930555555
 10
-82.81131049262151
 20
-0.8295789930555555
 10
-82.81131049262151
 20
-0.8295789930555555
 10
-82.81131049262151
 20
1.08865017361111
 10
-82.81131049262151
 20
1.08865017361111
 10
-82.81131049262151
 20
1.08865017361111
 10
-83.6510525173611
 20
-0.8295789930555555
 10
-83.6510525173611
 20
-0.8295789930555555
 10
-83.6510525173611
 20
-0.8295789930555555
 10
-83.98643256293402
 20
-0.8295789930555555
 10
-83.98643256293402
 20
-0.8295789930555555
 10
-83.98643256293402
 20
-0.8295789930555555
 10
-84.81773410373262
 20
1.121723090277777
 10
-84.81773410373262
 20
1.121723090277777
 10
-84.81773410373262
 20
1.121723090277777
 10
-84.81773410373262
 20
-0.8295789930555555
 10
-84.81773410373262
 20
-0.8295789930555555
 10
-84.81773410373262
 20
-0.8295789930555555
 10
-85.18153618706596
 20
-0.8295789930555555
 10
-85.18153618706596
 20
-0.8295789930555555
 97
        0
 75
     2
 76
     1
 98
        1
 10
0.0
 20
0.0
  0
HATCH
  5
9C
330
68
100
AcDbEntity
  8
LAYER_2
 62
     3
100
AcDbHatch
 10
0.0
 20
0.0
 30
0.0
210
0.0
220
0.0
230
1.0
  2
SOLID
 70
     1
 71
     0
 91
        3
 92
       16
 93
        1
 72
     4
 94
        3
 73
     0
 74
     0
 95
       32
 96
       28
 40
0.0
 40
0.0
 40
0.0
 40
0.0
 40
1.0
 40
1.0
 40
1.0
 40
2.0
 40
2.0
 40
2.0
 40
3.0
 40
3.0
 40
3.0
 40
4.0
 40
4.0
 40
4.0
 40
5.0
 40
5.0
 40
5.0
 40
6.0
 40
6.0
 40
6.0
 40
7.0
 40
7.0
 40
7.0
 40
8.0
 40
8.0
 40
8.0
 40
9.0
 40
9.0
 40
9.0
 40
9.0
 10
-78.74161919487846
 20
0.6318305121527778
 10
-78.59003499348958
 20
0.704177517361111
 10
-78.49202202690971
 20
0.7675672743055556
 10
-78.44740804036458
 20
0.821999782986111
 10
-78.40279405381943
 20
0.8767768012152776
 10
-78.38040093315972
 20
0.9370659722222221
 10
-78.38040093315972
 20
1.003211805555555
 10
-78.38040093315972
 20
1.081759982638888
 10
-78.41106228298611
 20
1.145838758680555
 10
-78.47238498263888
 20
1.195792643229166
 10
-78.53370768229166
 20
1.245746527777777
 10
-78.61001654730902
 20
1.270551215277777
 10
-78.70165608723957
 20
1.270551215277777
 10
-78.79605170355901
 20
1.270551215277777
 10
-78.87442762586805
 20
1.245746527777777
 10
-78.93695610894096
 20
1.196481662326388
 10
-78.99965684678818
 20
1.147216796875
 10
-79.03083496093749
 20
1.086927625868055
 10
-79.03083496093749
 20
1.015614149305555
 10
-79.03083496093749
 20
0.980129665798611
 10
-79.01963840060763
 20
0.942578125
 10
-78.9970730251736
 20
0.9033040364583332
 10
-78.97450764973958
 20
0.8640299479166666
 10
-78.94074571397569
 20
0.821999782986111
 10
-78.89578721788193
 20
0.7782470703125
 10
-78.89578721788193
 20
0.7782470703125
 10
-78.74161919487846
 20
0.6318305121527778
 10
-78.74161919487846
 20
0.6318305121527778
 97
        0
 92
       16
 93
        1
 72
     4
 94
        3
 73
     0
 74
     0
 95
       26
 96
       22
 40
0.0
 40
0.0
 40
0.0
 40
0.0
 40
1.0
 40
1.0
 40
1.0
 40
2.0
 40
2.0
 40
2.0
 40
3.0
 40
3.0
 40
3.0
 40
4.0
 40
4.0
 40
4.0
 40
5.0
 40
5.0
 40
5.0
 40
6.0
 40
6.0
 40
6.0
 40
7.0
 40
7.0
 40
7.0
 40
7.0
 10
-78.24414740668402
 20
-0.3376193576388888
 10
-78.24414740668402
 20
-0.3376193576388888
 10
-78.88665771484373
 20
0.3042019314236111
 10
-78.88665771484373
 20
0.3042019314236111
 10
-79.07734375
 20
0.2125623914930555
 10
-79.20601806640624
 20
0.1278130425347222
 10
-79.27268066406249
 20
0.049609375
 10
-79.33934326171874
 20
-0.0285942925347222
 10
-79.37258843315972
 20
-0.1061089409722222
 10
-79.37258843315972
 20
-0.1829345703125
 10
-79.37258843315972
 20
-0.2762966579861111
 10
-79.32642415364583
 20
-0.3734483506944444
 10
-79.23392333984374
 20
-0.4743896484375
 10
-79.14159478081597
 20
-0.5753309461805555
 10
-79.01068115234373
 20
-0.6256293402777777
 10
-78.84152696397568
 20
-0.6256293402777777
 10
-78.73610704210069
 20
-0.6256293402777777
 10
-78.62724202473957
 20
-0.5987575954861111
 10
-78.51458740234374
 20
-0.5453586154513889
 10
-78.40193277994791
 20
-0.4919596354166666
 10
-78.3116712782118
 20
-0.4227132161458333
 10
-78.24414740668402
 20
-0.3376193576388888
 97
        0
 92
        1
 93
        1
 72
     4
 94
        3
 73
     0
 74
     0
 95
       65
 96
       61
 40
0.0
 40
0.0
 40
0.0
 40
0.0
 40
1.0
 40
1.0
 40
1.0
 40
2.0
 40
2.0
 40
2.0
 40
3.0
 40
3.0
 40
3.0
 40
4.0
 40
4.0
 40
4.0
 40
5.0
 40
5.0
 40
5.0
 40
6.0
 40
6.0
 40
6.0
 40
7.0
 40
7.0
 40
7.0
 40
8.0
 40
8.0
 40
8.0
 40
9.0
 40
9.0
 40
9.0
 40
10.0
 40
10.0
 40
10.0
 40
11.0
 40
11.0
 40
11.0
 40
12.0
 40
12.0
 40
12.0
 40
13.0
 40
13.0
 40
13.0
 40
14.0
 40
14.0
 40
14.0
 40
15.0
 40
15.0
 40
15.0
 40
16.0
 40
16.0
 40
16.0
 40
17.0
 40
17.0
 40
17.0
 40
18.0
 40
18.0
 40
18.0
 40
19.0
 40
19.0
 40
19.0
 40
20.0
 40
20.0
 40
20.0
 40
20.0
 10
-78.02193874782985
 20
-0.5584499782986111
 10
-78.1380384657118
 20
-0.6614583333333333
 10
-78.26447347005208
 20
-0.7389729817708333
 10
-78.40141601562499
 20
-0.7906494140625
 10
-78.53835856119791
 20
-0.8423258463541666
 10
-78.68632541232638
 20
-0.8681640624999998
 10
-78.84531656901041
 20
-0.8681640624999998
 10
-79.13883870442707
 20
-0.8681640624999998
 10
-79.37155490451388
 20
-0.7889268663194445
 10
-79.54363742404513
 20
-0.6304524739583333
 10
-79.68316379123263
 20
-0.5012613932291666
 10
-79.75292697482638
 20
-0.3569118923611111
 10
-79.75292697482638
 20
-0.1977484809027778
 10
-79.75292697482638
 20
-0.055810546875
 10
-79.69591064453124
 20
0.0720024956597222
 10
-79.58170572916666
 20
0.18603515625
 10
-79.46750081380208
 20
0.3004123263888889
 10
-79.29696858723957
 20
0.4006646050347222
 10
-79.06993679470486
 20
0.4871365017361111
 10
-79.19981689453123
 20
0.6059922960069444
 10
-79.28646104600693
 20
0.7024549696180556
 10
-79.32969699435763
 20
0.7765245225694444
 10
-79.37310519748263
 20
0.8502495659722221
 10
-79.39463704427082
 20
0.9219075520833332
 10
-79.39463704427082
 20
0.9908094618055555
 10
-79.39463704427082
 20
1.128268771701388
 10
-79.32728542751736
 20
1.247813585069444
 10
-79.1922376844618
 20
1.349443901909722
 10
-79.05753445095484
 20
1.451074218749999
 10
-78.88769124348957
 20
1.502061631944444
 10
-78.68305257161458
 20
1.502061631944444
 10
-78.48771565755207
 20
1.502061631944444
 10
-78.32786322699653
 20
1.453830295138888
 10
-78.20332302517361
 20
1.357367621527777
 10
-78.07878282335069
 20
1.261249457465277
 10
-78.01659884982638
 20
1.145494249131944
 10
-78.01659884982638
 20
1.010446506076388
 10
-78.01659884982638
 20
0.7913384331597222
 10
-78.19798312717013
 20
0.6046142578125
 10
-78.56075168185764
 20
0.4495849609375
 10
-78.56075168185764
 20
0.4495849609375
 10
-78.04398735894096
 20
-0.0716579861111111
 10
-78.04398735894096
 20
-0.0716579861111111
 10
-77.98507622612847
 20
0.0203260633680556
 10
-77.93925645616319
 20
0.1267795138888889
 10
-77.90635579427082
 20
0.2473578559027778
 10
-77.90635579427082
 20
0.2473578559027778
 10
-77.5425537109375
 20
0.1850016276041666
 10
-77.5425537109375
 20
0.1850016276041666
 10
-77.60525444878472
 20
-0.0144694010416667
 10
-77.69017605251736
 20
-0.1767333984375
 10
-77.7971462673611
 20
-0.3021348741319444
 10
-77.66554361979166
 20
-0.4433837890625
 10
-77.51637098524304
 20
-0.5622395833333333
 10
-77.34962836371527
 20
-0.6583577473958333
 10
-77.34962836371527
 20
-0.6583577473958333
 10
-77.58665093315972
 20
-0.8847005208333332
 10
-77.58665093315972
 20
-0.8847005208333332
 10
-77.72721082899305
 20
-0.8109754774305555
 10
-77.87242160373263
 20
-0.7024549696180556
 10
-78.02193874782985
 20
-0.5584499782986111
 97
        0
 75
     2
 76
     1
 98
        1
 10
0.0
 20
0.0
  0
HATCH
  5
9B
330
68
100
AcDbEntity
  8
LAYER_2
 62
     3
100
AcDbHatch
 10
0.0
 20
0.0
 30
0.0
210
0.0
220
0.0
230
1.0
  2
SOLID
 70
     1
 71
     0
 91
        1
 92
        1
 93
        1
 72
     4
 94
        3
 73
     0
 74
     0
 95
       71
 96
       67
 40
0.0
 40
0.0
 40
0.0
 40
0.0
 40
1.0
 40
1.0
 40
1.0
 40
2.0
 40
2.0
 40
2.0
 40
3.0
 40
3.0
 40
3.0
 40
4.0
 40
4.0
 40
4.0
 40
5.0
 40
5.0
 40
5.0
 40
6.0
 40
6.0
 40
6.0
 40
7.0
 40
7.0
 40
7.0
 40
8.0
 40
8.0
 40
8.0
 40
9.0
 40
9.0
 40
9.0
 40
10.0
 40
10.0
 40
10.0
 40
11.0
 40
11.0
 40
11.0
 40
12.0
 40
12.0
 40
12.0
 40
13.0
 40
13.0
 40
13.0
 40
14.0
 40
14.0
 40
14.0
 40
15.0
 40
15.0
 40
15.0
 40
16.0
 40
16.0
 40
16.0
 40
17.0
 40
17.0
 40
17.0
 40
18.0
 40
18.0
 40
18.0
 40
19.0
 40
19.0
 40
19.0
 40
20.0
 40
20.0
 40
20.0
 40
21.0
 40
21.0
 40
21.0
 40
22.0
 40
22.0
 40
22.0
 40
22.0
 10
-72.68445231119791
 20
-0.0254937065972222
 10
-72.68445231119791
 20
-0.0254937065972222
 10
-72.30411376953124
 20
-0.1023193359375
 10
-72.30411376953124
 20
-0.1023193359375
 10
-72.38352322048611
 20
-0.3513997395833333
 10
-72.52632242838541
 20
-0.5412245008680556
 10
-72.73268364800346
 20
-0.6721381293402777
 10
-72.93904486762151
 20
-0.8027072482638889
 10
-73.19122585720485
 20
-0.8681640624999998
 10
-73.48922661675347
 20
-0.8681640624999998
 10
-73.79756266276041
 20
-0.8681640624999998
 10
-74.0483656141493
 20
-0.8178656684027776
 10
-74.24163547092013
 20
-0.7172688802083333
 10
-74.43490532769097
 20
-0.6166720920138889
 10
-74.58201090494791
 20
-0.4709445529513889
 10
-74.68295220269097
 20
-0.2804307725694444
 10
-74.78389350043402
 20
-0.0895724826388889
 10
-74.83419189453124
 20
0.1150661892361111
 10
-74.83419189453124
 20
0.3341742621527777
 10
-74.83419189453124
 20
0.5729193793402777
 10
-74.77734781901041
 20
0.7810031467013889
 10
-74.66348741319443
 20
0.9587700737847221
 10
-74.54962700737846
 20
1.136537000868055
 10
-74.38770751953125
 20
1.271240234374999
 10
-74.17755669487846
 20
1.363568793402777
 10
-73.96740587022569
 20
1.455897352430555
 10
-73.73623996310763
 20
1.502061631944444
 10
-73.48371446397568
 20
1.502061631944444
 10
-73.19742702907986
 20
1.502061631944444
 10
-72.956787109375
 20
1.443495008680555
 10
-72.76162245008681
 20
1.327050781249999
 10
-72.5664577907986
 20
1.210262044270833
 10
-72.43054877387152
 20
1.046275499131944
 10
-72.35372314453124
 20
0.8347466362847221
 10
-72.35372314453124
 20
0.8347466362847221
 10
-72.72854953342013
 20
0.7641221788194443
 10
-72.72854953342013
 20
0.7641221788194443
 10
-72.79486762152777
 20
0.9312093098958332
 10
-72.89098578559027
 20
1.052821180555555
 10
-73.01690402560763
 20
1.128613281249999
 10
-73.142822265625
 20
1.205094401041666
 10
-73.3012966579861
 20
1.242990451388888
 10
-73.49215494791666
 20
1.242990451388888
 10
-73.71177978515624
 20
1.242990451388888
 10
-73.89505886501736
 20
1.200615776909722
 10
-74.04250895182291
 20
1.1162109375
 10
-74.18995903862846
 20
1.031806098090277
 10
-74.2934841579861
 20
0.9184624565972221
 10
-74.35325656467013
 20
0.7758355034722222
 10
-74.41302897135416
 20
0.6335530598958333
 10
-74.44282904730902
 20
0.4867919921875
 10
-74.44282904730902
 20
0.3355523003472221
 10
-74.44282904730902
 20
0.1405598958333333
 10
-74.40734456380207
 20
-0.0296278211805556
 10
-74.3367201063368
 20
-0.1750108506944444
 10
-74.26575113932291
 20
-0.3203938802083333
 10
-74.15568033854166
 20
-0.4292588975694444
 10
-74.00616319444444
 20
-0.5012613932291666
 10
-73.85681830512152
 20
-0.5732638888888888
 10
-73.69489881727429
 20
-0.6090928819444445
 10
-73.52074924045138
 20
-0.6090928819444445
 10
-73.30904812282985
 20
-0.6090928819444445
 10
-73.12955864800347
 20
-0.5601725260416666
 10
-72.98279758029512
 20
-0.4619873046875
 10
-72.83586425781249
 20
-0.3641465928819444
 10
-72.73647325303818
 20
-0.2184190538194444
 10
-72.68445231119791
 20
-0.0254937065972222
 97
        0
 75
     2
 76
     1
 98
        1
 10
0.0
 20
0.0
  0
HATCH
  5
9A
330
68
100
AcDbEntity
  8
LAYER_2
 62
     3
100
AcDbHatch
 10
0.0
 20
0.0
 30
0.0
210
0.0
220
0.0
230
1.0
  2
SOLID
 70
     1
 71
     0
 91
        2
 92
       16
 93
        1
 72
     4
 94
        3
 73
     0
 74
     0
 95
       32
 96
       28
 40
0.0
 40
0.0
 40
0.0
 40
0.0
 40
1.0
 40
1.0
 40
1.0
 40
2.0
 40
2.0
 40
2.0
 40
3.0
 40
3.0
 40
3.0
 40
4.0
 40
4.0
 40
4.0
 40
5.0
 40
5.0
 40
5.0
 40
6.0
 40
6.0
 40
6.0
 40
7.0
 40
7.0
 40
7.0
 40
8.0
 40
8.0
 40
8.0
 40
9.0
 40
9.0
 40
9.0
 40
9.0
 10
-70.44772406684026
 20
0.2824978298611111
 10
-70.44772406684026
 20
0.006201171875
 10
-70.35487874348958
 20
-0.2115288628472222
 10
-70.1695326063368
 20
-0.3706922743055555
 10
-69.98384195963541
 20
-0.5295111762152778
 10
-69.75129801432291
 20
-0.6090928819444445
 10
-69.47121175130208
 20
-0.6090928819444445
 10
-69.18630235460068
 20
-0.6090928819444445
 10
-68.95151909722222
 20
-0.5288221571180555
 10
-68.76737874348958
 20
-0.3682807074652778
 10
-68.58306613498263
 20
-0.2077392578125
 10
-68.49090983072916
 20
0.0203260633680556
 10
-68.49090983072916
 20
0.3155707465277777
 10
-68.49090983072916
 20
0.5019504123263889
 10
-68.53035617404514
 20
0.6649034288194445
 10
-68.60907660590277
 20
0.8040852864583332
 10
-68.6877970377604
 20
0.9432671440972221
 10
-68.80320773654513
 20
1.051443142361111
 10
-68.95479193793402
 20
1.127924262152777
 10
-69.10637613932291
 20
1.204749891493055
 10
-69.27656385633679
 20
1.242990451388888
 10
-69.46535508897568
 20
1.242990451388888
 10
-69.73372802734374
 20
1.242990451388888
 10
-69.96454942491318
 20
1.16926540798611
 10
-70.15781928168403
 20
1.021815321180555
 10
-70.35108913845485
 20
0.8740207248263887
 10
-70.44772406684026
 20
0.6276963975694444
 10
-70.44772406684026
 20
0.2824978298611111
 97
        0
 92
        1
 93
        1
 72
     4
 94
        3
 73
     0
 74
     0
 95
       38
 96
       34
 40
0.0
 40
0.0
 40
0.0
 40
0.0
 40
1.0
 40
1.0
 40
1.0
 40
2.0
 40
2.0
 40
2.0
 40
3.0
 40
3.0
 40
3.0
 40
4.0
 40
4.0
 40
4.0
 40
5.0
 40
5.0
 40
5.0
 40
6.0
 40
6.0
 40
6.0
 40
7.0
 40
7.0
 40
7.0
 40
8.0
 40
8.0
 40
8.0
 40
9.0
 40
9.0
 40
9.0
 40
10.0
 40
10.0
 40
10.0
 40
11.0
 40
11.0
 40
11.0
 40
11.0
 10
-70.83908691406249
 20
0.2866319444444444
 10
-70.83908691406249
 20
0.6666259765625
 10
-70.71144612630208
 20
0.9642822265625
 10
-70.45616455078124
 20
1.179600694444444
 10
-70.20088297526041
 20
1.394574652777777
 10
-69.87118733723957
 20
1.502061631944444
 10
-69.46742214626735
 20
1.502061631944444
 10
-69.20283881293402
 20
1.502061631944444
 10
-68.96461046006944
 20
1.451418728298611
 10
-68.75222032335068
 20
1.350477430555555
 10
-68.54000244140625
 20
1.249536132812499
 10
-68.37808295355902
 20
1.108631727430555
 10
-68.26663411458333
 20
0.9277642144097221
 10
-68.15518527560763
 20
0.7472412109375
 10
-68.09954698350694
 20
0.5422580295138888
 10
-68.09954698350694
 20
0.3131591796875
 10
-68.09954698350694
 20
0.080615234375
 10
-68.15828586154514
 20
-0.1271240234375
 10
-68.27541910807291
 20
-0.3104031032986111
 10
-68.39272460937499
 20
-0.4936821831597222
 10
-68.55877821180555
 20
-0.63251953125
 10
-68.77375217013888
 20
-0.7269151475694445
 10
-68.98872612847222
 20
-0.8209662543402776
 10
-69.2205810546875
 20
-0.8681640624999998
 10
-69.46931694878472
 20
-0.8681640624999998
 10
-69.73889567057291
 20
-0.8681640624999998
 10
-69.98005235460069
 20
-0.8161431206597221
 10
-70.19227023654512
 20
-0.7117567274305556
 10
-70.40466037326388
 20
-0.60771484375
 10
-70.56554633246527
 20
-0.4657769097222222
 10
-70.67492811414929
 20
-0.28525390625
 10
-70.78448215060763
 20
-0.105419921875
 10
-70.83908691406249
 20
0.0854383680555556
 10
-70.83908691406249
 20
0.2866319444444444
 97
        0
 75
     2
 76
     1
 98
        1
 10
0.0
 20
0.0
  0
HATCH
  5
99
330
68
100
AcDbEntity
  8
LAYER_2
 62
     3
100
AcDbHatch
 10
0.0
 20
0.0
 30
0.0
210
0.0
220
0.0
230
1.0
  2
SOLID
 70
     1
 71
     0
 91
        1
 92
        1
 93
        1
 72
     4
 94
        3
 73
     0
 74
     0
 95
       17
 96
       13
 40
0.0
 40
0.0
 40
0.0
 40
0.0
 40
1.0
 40
1.0
 40
1.0
 40
2.0
 40
2.0
 40
2.0
 40
3.0
 40
3.0
 40
3.0
 40
4.0
 40
4.0
 40
4.0
 40
4.0
 10
-66.44503987630208
 20
-0.8295789930555555
 10
-66.44503987630208
 20
-0.8295789930555555
 10
-66.44503987630208
 20
-0.5098741319444445
 10
-66.44503987630208
 20
-0.5098741319444445
 10
-66.44503987630208
 20
-0.5098741319444445
 10
-66.0426527235243
 20
-0.5098741319444445
 10
-66.0426527235243
 20
-0.5098741319444445
 10
-66.0426527235243
 20
-0.5098741319444445
 10
-66.0426527235243
 20
-0.8295789930555555
 10
-66.0426527235243
 20
-0.8295789930555555
 10
-66.0426527235243
 20
-0.8295789930555555
 10
-66.44503987630208
 20
-0.8295789930555555
 10
-66.44503987630208
 20
-0.8295789930555555
 97
        0
 75
     2
 76
     1
 98
        1
 10
0.0
 20
0.0
  0
HATCH
  5
98
330
68
100
AcDbEntity
  8
LAYER_2
 62
     3
100
AcDbHatch
 10
0.0
 20
0.0
 30
0.0
210
0.0
220
0.0
230
1.0
  2
SOLID
 70
     1
 71
     0
 91
        1
 92
        1
 93
        1
 72
     4
 94
        3
 73
     0
 74
     0
 95
       32
 96
       28
 40
0.0
 40
0.0
 40
0.0
 40
0.0
 40
1.0
 40
1.0
 40
1.0
 40
2.0
 40
2.0
 40
2.0
 40
3.0
 40
3.0
 40
3.0
 40
4.0
 40
4.0
 40
4.0
 40
5.0
 40
5.0
 40
5.0
 40
6.0
 40
6.0
 40
6.0
 40
7.0
 40
7.0
 40
7.0
 40
8.0
 40
8.0
 40
8.0
 40
9.0
 40
9.0
 40
9.0
 40
9.0
 10
-64.22777642144096
 20
-0.8295789930555555
 10
-64.22777642144096
 20
-0.8295789930555555
 10
-64.22777642144096
 20
-0.5098741319444445
 10
-64.22777642144096
 20
-0.5098741319444445
 10
-64.22777642144096
 20
-0.5098741319444445
 10
-63.82538926866319
 20
-0.5098741319444445
 10
-63.82538926866319
 20
-0.5098741319444445
 10
-63.82538926866319
 20
-0.5098741319444445
 10
-63.82538926866319
 20
-0.8295789930555555
 10
-63.82538926866319
 20
-0.8295789930555555
 10
-63.82538926866319
 20
-0.9470567491319442
 10
-63.85191650390624
 20
-1.041796874999999
 10
-63.90462646484374
 20
-1.114143880208333
 10
-63.95750868055555
 20
-1.186146375868055
 10
-64.04139675564235
 20
-1.241956922743055
 10
-64.15611843532985
 20
-1.281575520833333
 10
-64.15611843532985
 20
-1.281575520833333
 10
-64.24982503255208
 20
-1.165820312499999
 10
-64.24982503255208
 20
-1.165820312499999
 10
-64.17575547960069
 20
-1.139637586805555
 10
-64.12115071614583
 20
-1.1007080078125
 10
-64.0860107421875
 20
-1.049720594618055
 10
-64.05104302300347
 20
-0.998733181423611
 10
-64.03140597873264
 20
-0.9253526475694442
 10
-64.02761637369791
 20
-0.8295789930555555
 10
-64.02761637369791
 20
-0.8295789930555555
 10
-64.22777642144096
 20
-0.8295789930555555
 10
-64.22777642144096
 20
-0.8295789930555555
 97
        0
 75
     2
 76
     1
 98
        1
 10
0.0
 20
0.0
  0
HATCH
  5
97
330
68
100
AcDbEntity
  8
LAYER_2
 62
     3
100
AcDbHatch
 10
0.0
 20
0.0
 30
0.0
210
0.0
220
0.0
230
1.0
  2
SOLID
 70
     1
 71
     0
 91
        1
 92
        1
 93
        1
 72
     4
 94
        3
 73
     0
 74
     0
 95
       17
 96
       13
 40
0.0
 40
0.0
 40
0.0
 40
0.0
 40
1.0
 40
1.0
 40
1.0
 40
2.0
 40
2.0
 40
2.0
 40
3.0
 40
3.0
 40
3.0
 40
4.0
 40
4.0
 40
4.0
 40
4.0
 10
-60.87673204210069
 20
-0.8295789930555555
 10
-60.87673204210069
 20
-0.8295789930555555
 10
-60.87673204210069
 20
1.463476562499999
 10
-60.87673204210069
 20
1.463476562499999
 10
-60.87673204210069
 20
1.463476562499999
 10
-60.49639350043403
 20
1.463476562499999
 10
-60.49639350043403
 20
1.463476562499999
 10
-60.49639350043403
 20
1.463476562499999
 10
-60.49639350043403
 20
-0.8295789930555555
 10
-60.49639350043403
 20
-0.8295789930555555
 10
-60.49639350043403
 20
-0.8295789930555555
 10
-60.87673204210069
 20
-0.8295789930555555
 10
-60.87673204210069
 20
-0.8295789930555555
 97
        0
 75
     2
 76
     1
 98
        1
 10
0.0
 20
0.0
  0
HATCH
  5
96
330
68
100
AcDbEntity
  8
LAYER_2
 62
     3
100
AcDbHatch
 10
0.0
 20
0.0
 30
0.0
210
0.0
220
0.0
230
1.0
  2
SOLID
 70
     1
 71
     0
 91
        1
 92
        1
 93
        1
 72
     4
 94
        3
 73
     0
 74
     0
 95
       35
 96
       31
 40
0.0
 40
0.0
 40
0.0
 40
0.0
 40
1.0
 40
1.0
 40
1.0
 40
2.0
 40
2.0
 40
2.0
 40
3.0
 40
3.0
 40
3.0
 40
4.0
 40
4.0
 40
4.0
 40
5.0
 40
5.0
 40
5.0
 40
6.0
 40
6.0
 40
6.0
 40
7.0
 40
7.0
 40
7.0
 40
8.0
 40
8.0
 40
8.0
 40
9.0
 40
9.0
 40
9.0
 40
10.0
 40
10.0
 40
10.0
 40
10.0
 10
-58.72544216579861
 20
-0.8295789930555555
 10
-58.72544216579861
 20
-0.8295789930555555
 10
-58.72544216579861
 20
1.463476562499999
 10
-58.72544216579861
 20
1.463476562499999
 10
-58.72544216579861
 20
1.463476562499999
 10
-58.33614637586805
 20
1.463476562499999
 10
-58.33614637586805
 20
1.463476562499999
 10
-58.33614637586805
 20
1.463476562499999
 10
-56.82374945746527
 20
-0.3386528862847222
 10
-56.82374945746527
 20
-0.3386528862847222
 10
-56.82374945746527
 20
-0.3386528862847222
 10
-56.82374945746527
 20
1.463476562499999
 10
-56.82374945746527
 20
1.463476562499999
 10
-56.82374945746527
 20
1.463476562499999
 10
-56.45994737413193
 20
1.463476562499999
 10
-56.45994737413193
 20
1.463476562499999
 10
-56.45994737413193
 20
1.463476562499999
 10
-56.45994737413193
 20
-0.8295789930555555
 10
-56.45994737413193
 20
-0.8295789930555555
 10
-56.45994737413193
 20
-0.8295789930555555
 10
-56.84924316406249
 20
-0.8295789930555555
 10
-56.84924316406249
 20
-0.8295789930555555
 10
-56.84924316406249
 20
-0.8295789930555555
 10
-58.36164008246527
 20
0.9725504557291666
 10
-58.36164008246527
 20
0.9725504557291666
 10
-58.36164008246527
 20
0.9725504557291666
 10
-58.36164008246527
 20
-0.8295789930555555
 10
-58.36164008246527
 20
-0.8295789930555555
 10
-58.36164008246527
 20
-0.8295789930555555
 10
-58.72544216579861
 20
-0.8295789930555555
 10
-58.72544216579861
 20
-0.8295789930555555
 97
        0
 75
     2
 76
     1
 98
        1
 10
0.0
 20
0.0
  0
HATCH
  5
95
330
68
100
AcDbEntity
  8
LAYER_2
 62
     3
100
AcDbHatch
 10
0.0
 20
0.0
 30
0.0
210
0.0
220
0.0
230
1.0
  2
SOLID
 70
     1
 71
     0
 91
        1
 92
        1
 93
        1
 72
     4
 94
        3
 73
     0
 74
     0
 95
       71
 96
       67
 40
0.0
 40
0.0
 40
0.0
 40
0.0
 40
1.0
 40
1.0
 40
1.0
 40
2.0
 40
2.0
 40
2.0
 40
3.0
 40
3.0
 40
3.0
 40
4.0
 40
4.0
 40
4.0
 40
5.0
 40
5.0
 40
5.0
 40
6.0
 40
6.0
 40
6.0
 40
7.0
 40
7.0
 40
7.0
 40
8.0
 40
8.0
 40
8.0
 40
9.0
 40
9.0
 40
9.0
 40
10.0
 40
10.0
 40
10.0
 40
11.0
 40
11.0
 40
11.0
 40
12.0
 40
12.0
 40
12.0
 40
13.0
 40
13.0
 40
13.0
 40
14.0
 40
14.0
 40
14.0
 40
15.0
 40
15.0
 40
15.0
 40
16.0
 40
16.0
 40
16.0
 40
17.0
 40
17.0
 40
17.0
 40
18.0
 40
18.0
 40
18.0
 40
19.0
 40
19.0
 40
19.0
 40
20.0
 40
20.0
 40
20.0
 40
21.0
 40
21.0
 40
21.0
 40
22.0
 40
22.0
 40
22.0
 40
22.0
 10
-52.67998860677082
 20
-0.0254937065972222
 10
-52.67998860677082
 20
-0.0254937065972222
 10
-52.29965006510416
 20
-0.1023193359375
 10
-52.29965006510416
 20
-0.1023193359375
 10
-52.37905951605902
 20
-0.3513997395833333
 10
-52.52203097873263
 20
-0.5412245008680556
 10
-52.72821994357638
 20
-0.6721381293402777
 10
-52.93440890842013
 20
-0.8027072482638889
 10
-53.18658989800347
 20
-0.8681640624999998
 10
-53.48459065755207
 20
-0.8681640624999998
 10
-53.79327121310764
 20
-0.8681640624999998
 10
-54.04407416449652
 20
-0.8178656684027776
 10
-54.23734402126735
 20
-0.7172688802083333
 10
-54.43061387803819
 20
-0.6166720920138889
 10
-54.57771945529513
 20
-0.4709445529513889
 10
-54.67848849826388
 20
-0.2804307725694444
 10
-54.77925754123263
 20
-0.0895724826388889
 10
-54.82972819010416
 20
0.1150661892361111
 10
-54.82972819010416
 20
0.3341742621527777
 10
-54.82972819010416
 20
0.5729193793402777
 10
-54.77288411458332
 20
0.7810031467013889
 10
-54.65902370876736
 20
0.9587700737847221
 10
-54.54516330295138
 20
1.136537000868055
 10
-54.38324381510415
 20
1.271240234374999
 10
-54.17309299045139
 20
1.363568793402777
 10
-53.9629421657986
 20
1.455897352430555
 10
-53.73160400390625
 20
1.502061631944444
 10
-53.47925075954861
 20
1.502061631944444
 10
-53.19313557942708
 20
1.502061631944444
 10
-52.95232340494791
 20
1.443495008680555
 10
-52.75715874565971
 20
1.327050781249999
 10
-52.56199408637152
 20
1.210262044270833
 10
-52.42608506944444
 20
1.046275499131944
 10
-52.34925944010416
 20
0.8347466362847221
 10
-52.34925944010416
 20
0.8347466362847221
 10
-52.72408582899306
 20
0.7641221788194443
 10
-52.72408582899306
 20
0.7641221788194443
 10
-52.79040391710069
 20
0.9312093098958332
 10
-52.88652208116319
 20
1.052821180555555
 10
-53.01244032118055
 20
1.128613281249999
 10
-53.13835856119791
 20
1.205094401041666
 10
-53.29683295355902
 20
1.242990451388888
 10
-53.48769124348958
 20
1.242990451388888
 10
-53.70714382595486
 20
1.242990451388888
 10
-53.89076741536458
 20
1.200615776909722
 10
-54.03804524739583
 20
1.1162109375
 10
-54.18549533420138
 20
1.031806098090277
 10
-54.28902045355902
 20
0.9184624565972221
 10
-54.34879286024305
 20
0.7758355034722222
 10
-54.40856526692708
 20
0.6335530598958333
 10
-54.43836534288194
 20
0.4867919921875
 10
-54.43836534288194
 20
0.3355523003472221
 10
-54.43836534288194
 20
0.1405598958333333
 10
-54.4030531141493
 20
-0.0296278211805556
 10
-54.33208414713541
 20
-0.1750108506944444
 10
-54.26145968967013
 20
-0.3203938802083333
 10
-54.15121663411458
 20
-0.4292588975694444
 10
-54.00169949001735
 20
-0.5012613932291666
 10
-53.85218234592013
 20
-0.5732638888888888
 10
-53.69043511284722
 20
-0.6090928819444445
 10
-53.5162855360243
 20
-0.6090928819444445
 10
-53.30441216362847
 20
-0.6090928819444445
 10
-53.12526719835069
 20
-0.5601725260416666
 10
-52.97816162109374
 20
-0.4619873046875
 10
-52.83140055338542
 20
-0.3641465928819444
 10
-52.7320095486111
 20
-0.2184190538194444
 10
-52.67998860677082
 20
-0.0254937065972222
 97
        0
 75
     2
 76
     1
 98
        1
 10
0.0
 20
0.0
  0
HATCH
  5
94
330
68
100
AcDbEntity
  8
LAYER_2
 62
     3
100
AcDbHatch
 10
0.0
 20
0.0
 30
0.0
210
0.0
220
0.0
230
1.0
  2
SOLID
 70
     1
 71
     0
 91
        1
 92
        1
 93
        1
 72
     4
 94
        3
 73
     0
 74
     0
 95
       17
 96
       13
 40
0.0
 40
0.0
 40
0.0
 40
0.0
 40
1.0
 40
1.0
 40
1.0
 40
2.0
 40
2.0
 40
2.0
 40
3.0
 40
3.0
 40
3.0
 40
4.0
 40
4.0
 40
4.0
 40
4.0
 10
-50.66391872829861
 20
-0.8295789930555555
 10
-50.66391872829861
 20
-0.8295789930555555
 10
-50.66391872829861
 20
-0.5098741319444445
 10
-50.66391872829861
 20
-0.5098741319444445
 10
-50.66391872829861
 20
-0.5098741319444445
 10
-50.26153157552083
 20
-0.5098741319444445
 10
-50.26153157552083
 20
-0.5098741319444445
 10
-50.26153157552083
 20
-0.5098741319444445
 10
-50.26153157552083
 20
-0.8295789930555555
 10
-50.26153157552083
 20
-0.8295789930555555
 10
-50.26153157552083
 20
-0.8295789930555555
 10
-50.66391872829861
 20
-0.8295789930555555
 10
-50.66391872829861
 20
-0.8295789930555555
 97
        0
 75
     2
 76
     1
 98
        1
 10
0.0
 20
0.0
  0
HATCH
  5
93
330
68
100
AcDbEntity
  8
LAYER_2
 62
     3
100
AcDbHatch
 10
0.0
 20
0.0
 30
0.0
210
0.0
220
0.0
230
1.0
  2
SOLID
 70
     1
 71
     0
 91
        1
 92
        1
 93
        1
 72
     4
 94
        3
 73
     0
 74
     0
 95
       35
 96
       31
 40
0.0
 40
0.0
 40
0.0
 40
0.0
 40
1.0
 40
1.0
 40
1.0
 40
2.0
 40
2.0
 40
2.0
 40
3.0
 40
3.0
 40
3.0
 40
4.0
 40
4.0
 40
4.0
 40
5.0
 40
5.0
 40
5.0
 40
6.0
 40
6.0
 40
6.0
 40
7.0
 40
7.0
 40
7.0
 40
8.0
 40
8.0
 40
8.0
 40
9.0
 40
9.0
 40
9.0
 40
10.0
 40
10.0
 40
10.0
 40
10.0
 10
-42.30491129557291
 20
-1.502061631944444
 10
-42.49921468098958
 20
-1.306035698784722
 10
-42.66354573567708
 20
-1.076936848958333
 10
-42.7979044596354
 20
-0.8144205729166666
 10
-42.93226318359375
 20
-0.551904296875
 10
-42.99944254557291
 20
-0.2797417534722222
 10
-42.99944254557291
 20
0.0013780381944444
 10
-42.99944254557291
 20
0.2494249131944444
 10
-42.94914415147569
 20
0.4871365017361111
 10
-42.84889187282986
 20
0.7145128038194444
 10
-42.73141411675347
 20
0.9777180989583332
 10
-42.55020209418402
 20
1.24057888454861
 10
-42.30491129557291
 20
1.502061631944444
 10
-42.30491129557291
 20
1.502061631944444
 10
-42.05135226779513
 20
1.502061631944444
 10
-42.05135226779513
 20
1.502061631944444
 10
-42.20896538628472
 20
1.285365125868055
 10
-42.31317952473958
 20
1.130680338541666
 10
-42.36399468315972
 20
1.037662760416666
 10
-42.44340413411458
 20
0.8940022786458332
 10
-42.5061048719618
 20
0.744140625
 10
-42.55158013237847
 20
0.5877332899305556
 10
-42.60773518880208
 20
0.3927408854166666
 10
-42.63564046223957
 20
0.1970594618055555
 10
-42.63564046223957
 20
0.0
 10
-42.63564046223957
 20
-0.5012613932291666
 10
-42.44099256727429
 20
-1.001833767361111
 10
-42.05135226779513
 20
-1.502061631944444
 10
-42.05135226779513
 20
-1.502061631944444
 10
-42.30491129557291
 20
-1.502061631944444
 10
-42.30491129557291
 20
-1.502061631944444
 97
        0
 75
     2
 76
     1
 98
        1
 10
0.0
 20
0.0
  0
HATCH
  5
92
330
68
100
AcDbEntity
  8
LAYER_2
 62
     3
100
AcDbHatch
 10
0.0
 20
0.0
 30
0.0
210
0.0
220
0.0
230
1.0
  2
SOLID
 70
     1
 71
     0
 91
        3
 92
       16
 93
        1
 72
     4
 94
        3
 73
     0
 74
     0
 95
       29
 96
       25
 40
0.0
 40
0.0
 40
0.0
 40
0.0
 40
1.0
 40
1.0
 40
1.0
 40
2.0
 40
2.0
 40
2.0
 40
3.0
 40
3.0
 40
3.0
 40
4.0
 40
4.0
 40
4.0
 40
5.0
 40
5.0
 40
5.0
 40
6.0
 40
6.0
 40
6.0
 40
7.0
 40
7.0
 40
7.0
 40
8.0
 40
8.0
 40
8.0
 40
8.0
 10
-40.16430121527777
 20
0.8940022786458332
 10
-40.16430121527777
 20
0.7861707899305555
 10
-40.12123752170139
 20
0.6976318359375
 10
-40.0351101345486
 20
0.629074435763889
 10
-39.94898274739583
 20
0.5605170355902778
 10
-39.83546685112847
 20
0.5264105902777777
 10
-39.69456244574653
 20
0.5264105902777777
 10
-39.55779215494791
 20
0.5264105902777777
 10
-39.44651557074653
 20
0.5601725260416666
 10
-39.36107720269097
 20
0.6283854166666666
 10
-39.27563883463541
 20
0.6965983072916666
 10
-39.23274739583333
 20
0.7799696180555556
 10
-39.23274739583333
 20
0.8784993489583332
 10
-39.23274739583333
 20
0.9811631944444442
 10
-39.27684461805555
 20
1.067635091145833
 10
-39.36486680772569
 20
1.137915039062499
 10
-39.45306125217014
 20
1.207850477430555
 10
-39.56416558159722
 20
1.242990451388888
 10
-39.69852430555555
 20
1.242990451388888
 10
-39.83426106770833
 20
1.242990451388888
 10
-39.94570990668402
 20
1.208539496527777
 10
-40.03321533203124
 20
1.140326605902777
 10
-40.12072075737846
 20
1.071424696180555
 10
-40.16430121527777
 20
0.989431423611111
 10
-40.16430121527777
 20
0.8940022786458332
 97
        0
 92
       16
 93
        1
 72
     4
 94
        3
 73
     0
 74
     0
 95
       32
 96
       28
 40
0.0
 40
0.0
 40
0.0
 40
0.0
 40
1.0
 40
1.0
 40
1.0
 40
2.0
 40
2.0
 40
2.0
 40
3.0
 40
3.0
 40
3.0
 40
4.0
 40
4.0
 40
4.0
 40
5.0
 40
5.0
 40
5.0
 40
6.0
 40
6.0
 40
6.0
 40
7.0
 40
7.0
 40
7.0
 40
8.0
 40
8.0
 40
8.0
 40
9.0
 40
9.0
 40
9.0
 40
9.0
 10
-40.28005642361111
 20
-0.1660536024305555
 10
-40.28005642361111
 20
-0.2466688368055555
 10
-40.25680202907985
 20
-0.3245279947916666
 10
-40.21029324001736
 20
-0.3999755859375
 10
-40.16378445095486
 20
-0.4750786675347222
 10
-40.09350450303819
 20
-0.53330078125
 10
-39.99910888671875
 20
-0.5746419270833333
 10
-39.9047132703993
 20
-0.6159830729166666
 10
-39.80342746310764
 20
-0.6366536458333333
 10
-39.69559597439236
 20
-0.6366536458333333
 10
-39.52626953125
 20
-0.6366536458333333
 10
-39.38743218315972
 20
-0.5932454427083333
 10
-39.27925618489583
 20
-0.5064290364583333
 10
-39.17108018663194
 20
-0.4196126302083333
 10
-39.1169921875
 20
-0.3093695746527778
 10
-39.1169921875
 20
-0.1756998697916666
 10
-39.1169921875
 20
-0.0396185980902778
 10
-39.17263047960069
 20
0.0726915147569445
 10
-39.2842515733507
 20
0.1615749782986111
 10
-39.39552815755208
 20
0.2504584418402778
 10
-39.53660481770833
 20
0.2949001736111111
 10
-39.70730929904514
 20
0.2949001736111111
 10
-39.87405192057291
 20
0.2949001736111111
 10
-40.01116672092013
 20
0.2508029513888888
 10
-40.1186537000868
 20
0.1632975260416666
 10
-40.22631293402777
 20
0.0751030815972222
 10
-40.28005642361111
 20
-0.0344509548611111
 10
-40.28005642361111
 20
-0.1660536024305555
 97
        0
 92
        1
 93
        1
 72
     4
 94
        3
 73
     0
 74
     0
 95
       53
 96
       49
 40
0.0
 40
0.0
 40
0.0
 40
0.0
 40
1.0
 40
1.0
 40
1.0
 40
2.0
 40
2.0
 40
2.0
 40
3.0
 40
3.0
 40
3.0
 40
4.0
 40
4.0
 40
4.0
 40
5.0
 40
5.0
 40
5.0
 40
6.0
 40
6.0
 40
6.0
 40
7.0
 40
7.0
 40
7.0
 40
8.0
 40
8.0
 40
8.0
 40
9.0
 40
9.0
 40
9.0
 40
10.0
 40
10.0
 40
10.0
 40
11.0
 40
11.0
 40
11.0
 40
12.0
 40
12.0
 40
12.0
 40
13.0
 40
13.0
 40
13.0
 40
14.0
 40
14.0
 40
14.0
 40
15.0
 40
15.0
 40
15.0
 40
16.0
 40
16.0
 40
16.0
 40
16.0
 10
-40.09419352213541
 20
0.4175455729166666
 10
-40.24129909939236
 20
0.4602647569444444
 10
-40.35050862630208
 20
0.5212429470486111
 10
-40.42147759331597
 20
0.6001356336805555
 10
-40.49261881510417
 20
0.6793728298611111
 10
-40.5281032986111
 20
0.7741129557291666
 10
-40.5281032986111
 20
0.8843560112847221
 10
-40.5281032986111
 20
1.050754123263888
 10
-40.45317247178819
 20
1.190969509548611
 10
-40.30296630859374
 20
1.304313151041666
 10
-40.1527601453993
 20
1.417656792534722
 10
-39.95294460720486
 20
1.474500868055555
 10
-39.70351969401041
 20
1.474500868055555
 10
-39.45271674262153
 20
1.474500868055555
 10
-39.25083414713542
 20
1.416623263888888
 10
-39.09821641710069
 20
1.300523546006944
 10
-38.94525417751736
 20
1.184423828124999
 10
-38.8689453125
 20
1.043174913194444
 10
-38.8689453125
 20
0.8764322916666666
 10
-38.8689453125
 20
0.7703233506944444
 10
-38.90391303168403
 20
0.6779947916666666
 10
-38.97402072482639
 20
0.5994466145833333
 10
-39.04412841796875
 20
0.5208984375
 10
-39.15058186848958
 20
0.4602647569444444
 10
-39.29320882161458
 20
0.4175455729166666
 10
-39.1171644422743
 20
0.3717258029513888
 10
-38.98315022786458
 20
0.29765625
 10
-38.89116617838541
 20
0.1949924045138889
 10
-38.79918212890625
 20
0.0923285590277778
 10
-38.75319010416666
 20
-0.0296278211805556
 10
-38.75319010416666
 20
-0.1719102647569444
 10
-38.75319010416666
 20
-0.3686252170138888
 10
-38.84000651041667
 20
-0.5336452907986111
 10
-39.01346706814236
 20
-0.6676595052083333
 10
-39.18709988064236
 20
-0.8013292100694442
 10
-39.41550971137153
 20
-0.8681640624999998
 10
-39.69852430555555
 20
-0.8681640624999998
 10
-39.98171115451389
 20
-0.8681640624999998
 10
-40.20994873046874
 20
-0.8009847005208332
 10
-40.38358154296875
 20
-0.6666259765625
 10
-40.55721435546874
 20
-0.5322672526041666
 10
-40.64385850694444
 20
-0.3648356119791666
 10
-40.64385850694444
 20
-0.1639865451388889
 10
-40.64385850694444
 20
-0.0144694010416667
 10
-40.5963161892361
 20
0.1105875651041666
 10
-40.50105929904513
 20
0.2115288628472222
 10
-40.40580240885416
 20
0.3124701605902778
 10
-40.27023790147569
 20
0.3810275607638888
 10
-40.09419352213541
 20
0.4175455729166666
 97
        0
 75
     2
 76
     1
 98
        1
 10
0.0
 20
0.0
  0
HATCH
  5
91
330
68
100
AcDbEntity
  8
LAYER_2
 62
     3
100
AcDbHatch
 10
0.0
 20
0.0
 30
0.0
210
0.0
220
0.0
230
1.0
  2
SOLID
 70
     1
 71
     0
 91
        2
 92
       16
 93
        1
 72
     4
 94
        3
 73
     0
 74
     0
 95
       29
 96
       25
 40
0.0
 40
0.0
 40
0.0
 40
0.0
 40
1.0
 40
1.0
 40
1.0
 40
2.0
 40
2.0
 40
2.0
 40
3.0
 40
3.0
 40
3.0
 40
4.0
 40
4.0
 40
4.0
 40
5.0
 40
5.0
 40
5.0
 40
6.0
 40
6.0
 40
6.0
 40
7.0
 40
7.0
 40
7.0
 40
8.0
 40
8.0
 40
8.0
 40
8.0
 10
-36.93831380208333
 20
0.3031684027777777
 10
-36.93831380208333
 20
-0.0751030815972222
 10
-36.88353678385416
 20
-0.3265950520833333
 10
-36.77381049262152
 20
-0.4506184895833333
 10
-36.66408420138889
 20
-0.5746419270833333
 10
-36.52886420355903
 20
-0.6366536458333333
 10
-36.36780598958333
 20
-0.6366536458333333
 10
-36.20692003038195
 20
-0.6366536458333333
 10
-36.07170003255208
 20
-0.5742974175347222
 10
-35.96180148654513
 20
-0.4499294704861111
 10
-35.8522474500868
 20
-0.3252170138888888
 10
-35.79729817708333
 20
-0.0744140625
 10
-35.79729817708333
 20
0.3031684027777777
 10
-35.79729817708333
 20
0.6810953776041666
 10
-35.85190294053819
 20
0.9322428385416666
 10
-35.96111246744791
 20
1.056610785590277
 10
-36.07032199435764
 20
1.180978732638888
 10
-36.20726453993056
 20
1.242990451388888
 10
-36.37176784939236
 20
1.242990451388888
 10
-36.53265380859375
 20
1.242990451388888
 10
-36.66167263454861
 20
1.188213433159722
 10
-36.75865207248263
 20
1.078314887152777
 10
-36.8785413953993
 20
0.9384440104166666
 10
-36.93831380208333
 20
0.6800618489583333
 10
-36.93831380208333
 20
0.3031684027777777
 97
        0
 92
        1
 93
        1
 72
     4
 94
        3
 73
     0
 74
     0
 95
       41
 96
       37
 40
0.0
 40
0.0
 40
0.0
 40
0.0
 40
1.0
 40
1.0
 40
1.0
 40
2.0
 40
2.0
 40
2.0
 40
3.0
 40
3.0
 40
3.0
 40
4.0
 40
4.0
 40
4.0
 40
5.0
 40
5.0
 40
5.0
 40
6.0
 40
6.0
 40
6.0
 40
7.0
 40
7.0
 40
7.0
 40
8.0
 40
8.0
 40
8.0
 40
9.0
 40
9.0
 40
9.0
 40
10.0
 40
10.0
 40
10.0
 40
11.0
 40
11.0
 40
11.0
 40
12.0
 40
12.0
 40
12.0
 40
12.0
 10
-37.30211588541666
 20
0.3024793836805555
 10
-37.30211588541666
 20
0.5736083984375
 10
-37.26732042100695
 20
0.7923719618055555
 10
-37.19755723741319
 20
0.958425564236111
 10
-37.12796630859375
 20
1.124479166666666
 10
-37.0242689344618
 20
1.251947699652777
 10
-36.88680962456597
 20
1.340831163194444
 10
-36.74935031467014
 20
1.430059136284722
 10
-36.57640652126736
 20
1.474500868055555
 10
-36.36780598958333
 20
1.474500868055555
 10
-36.21398247612847
 20
1.474500868055555
 10
-36.07876247829861
 20
1.449696180555555
 10
-35.96180148654513
 20
1.400086805555555
 10
-35.84501274956597
 20
1.350477430555555
 10
-35.74923909505208
 20
1.279163953993055
 10
-35.67448052300347
 20
1.185801866319444
 10
-35.59989420572917
 20
1.092439778645833
 10
-35.54115532769097
 20
0.9787516276041666
 10
-35.49809163411458
 20
0.8447374131944444
 10
-35.45502794053819
 20
0.7103786892361111
 10
-35.43349609374999
 20
0.5298556857638889
 10
-35.43349609374999
 20
0.3024793836805555
 10
-35.43349609374999
 20
0.0330729166666667
 10
-35.46811930338542
 20
-0.1846571180555555
 10
-35.53702121310764
 20
-0.3507107204861111
 10
-35.60626763237847
 20
-0.5167643229166666
 10
-35.7094482421875
 20
-0.644577365451389
 10
-35.84690755208333
 20
-0.7338053385416666
 10
-35.98436686197916
 20
-0.8233778211805555
 10
-36.15799967447916
 20
-0.8681640624999998
 10
-36.36780598958333
 20
-0.8681640624999998
 10
-36.64410264756944
 20
-0.8681640624999998
 10
-36.86097140842014
 20
-0.7896158854166666
 10
-37.01875678168403
 20
-0.63251953125
 10
-37.20754801432291
 20
-0.440283203125
 10
-37.30211588541666
 20
-0.1285020616319444
 10
-37.30211588541666
 20
0.3024793836805555
 97
        0
 75
     2
 76
     1
 98
        1
 10
0.0
 20
0.0
  0
HATCH
  5
90
330
68
100
AcDbEntity
  8
LAYER_2
 62
     3
100
AcDbHatch
 10
0.0
 20
0.0
 30
0.0
210
0.0
220
0.0
230
1.0
  2
SOLID
 70
     1
 71
     0
 91
        2
 92
       16
 93
        1
 72
     4
 94
        3
 73
     0
 74
     0
 95
       29
 96
       25
 40
0.0
 40
0.0
 40
0.0
 40
0.0
 40
1.0
 40
1.0
 40
1.0
 40
2.0
 40
2.0
 40
2.0
 40
3.0
 40
3.0
 40
3.0
 40
4.0
 40
4.0
 40
4.0
 40
5.0
 40
5.0
 40
5.0
 40
6.0
 40
6.0
 40
6.0
 40
7.0
 40
7.0
 40
7.0
 40
8.0
 40
8.0
 40
8.0
 40
8.0
 10
-33.60191107855903
 20
0.3031684027777777
 10
-33.60191107855903
 20
-0.0751030815972222
 10
-33.54713406032986
 20
-0.3265950520833333
 10
-33.43740776909722
 20
-0.4506184895833333
 10
-33.32768147786458
 20
-0.5746419270833333
 10
-33.19228922526042
 20
-0.6366536458333333
 10
-33.03140326605902
 20
-0.6366536458333333
 10
-32.87051730685764
 20
-0.6366536458333333
 10
-32.73512505425347
 20
-0.5742974175347222
 10
-32.62557101779514
 20
-0.4499294704861111
 10
-32.51567247178819
 20
-0.3252170138888888
 10
-32.46089545355903
 20
-0.0744140625
 10
-32.46089545355903
 20
0.3031684027777777
 10
-32.46089545355903
 20
0.6810953776041666
 10
-32.51567247178819
 20
0.9322428385416666
 10
-32.62488199869792
 20
1.056610785590277
 10
-32.73409152560764
 20
1.180978732638888
 10
-32.87086181640625
 20
1.242990451388888
 10
-33.03519287109375
 20
1.242990451388888
 10
-33.19642333984375
 20
1.242990451388888
 10
-33.3252699110243
 20
1.188213433159722
 10
-33.42224934895833
 20
1.078314887152777
 10
-33.54196641710069
 20
0.9384440104166666
 10
-33.60191107855903
 20
0.6800618489583333
 10
-33.60191107855903
 20
0.3031684027777777
 97
        0
 92
        1
 93
        1
 72
     4
 94
        3
 73
     0
 74
     0
 95
       41
 96
       37
 40
0.0
 40
0.0
 40
0.0
 40
0.0
 40
1.0
 40
1.0
 40
1.0
 40
2.0
 40
2.0
 40
2.0
 40
3.0
 40
3.0
 40
3.0
 40
4.0
 40
4.0
 40
4.0
 40
5.0
 40
5.0
 40
5.0
 40
6.0
 40
6.0
 40
6.0
 40
7.0
 40
7.0
 40
7.0
 40
8.0
 40
8.0
 40
8.0
 40
9.0
 40
9.0
 40
9.0
 40
10.0
 40
10.0
 40
10.0
 40
11.0
 40
11.0
 40
11.0
 40
12.0
 40
12.0
 40
12.0
 40
12.0
 10
-33.96571316189236
 20
0.3024793836805555
 10
-33.96571316189236
 20
0.5736083984375
 10
-33.93091769748263
 20
0.7923719618055555
 10
-33.86115451388889
 20
0.958425564236111
 10
-33.79139133029513
 20
1.124479166666666
 10
-33.6878662109375
 20
1.251947699652777
 10
-33.55040690104166
 20
1.340831163194444
 10
-33.41294759114583
 20
1.430059136284722
 10
-33.23983154296874
 20
1.474500868055555
 10
-33.03140326605902
 20
1.474500868055555
 10
-32.87775200737847
 20
1.474500868055555
 10
-32.74235975477431
 20
1.449696180555555
 10
-32.62539876302084
 20
1.400086805555555
 10
-32.50843777126736
 20
1.350477430555555
 10
-32.41266411675347
 20
1.279163953993055
 10
-32.33807779947917
 20
1.185801866319444
 10
-32.26349148220486
 20
1.092439778645833
 10
-32.20458034939236
 20
0.9787516276041666
 10
-32.16151665581597
 20
0.8447374131944444
 10
-32.11862521701389
 20
0.7103786892361111
 10
-32.09709337022569
 20
0.5298556857638889
 10
-32.09709337022569
 20
0.3024793836805555
 10
-32.09709337022569
 20
0.0330729166666667
 10
-32.1315443250868
 20
-0.1846571180555555
 10
-32.20079074435763
 20
-0.3507107204861111
 10
-32.26969265407986
 20
-0.5167643229166666
 10
-32.37304551866319
 20
-0.644577365451389
 10
-32.51050482855902
 20
-0.7338053385416666
 10
-32.64796413845486
 20
-0.8233778211805555
 10
-32.82159695095486
 20
-0.8681640624999998
 10
-33.03140326605902
 20
-0.8681640624999998
 10
-33.30769992404514
 20
-0.8681640624999998
 10
-33.52474093967014
 20
-0.7896158854166666
 10
-33.68218180338541
 20
-0.63251953125
 10
-33.87131754557291
 20
-0.440283203125
 10
-33.96571316189236
 20
-0.1285020616319444
 10
-33.96571316189236
 20
0.3024793836805555
 97
        0
 75
     2
 76
     1
 98
        1
 10
0.0
 20
0.0
  0
HATCH
  5
8F
330
68
100
AcDbEntity
  8
LAYER_2
 62
     3
100
AcDbHatch
 10
0.0
 20
0.0
 30
0.0
210
0.0
220
0.0
230
1.0
  2
SOLID
 70
     1
 71
     0
 91
        1
 92
        1
 93
        1
 72
     4
 94
        3
 73
     0
 74
     0
 95
       35
 96
       31
 40
0.0
 40
0.0
 40
0.0
 40
0.0
 40
1.0
 40
1.0
 40
1.0
 40
2.0
 40
2.0
 40
2.0
 40
3.0
 40
3.0
 40
3.0
 40
4.0
 40
4.0
 40
4.0
 40
5.0
 40
5.0
 40
5.0
 40
6.0
 40
6.0
 40
6.0
 40
7.0
 40
7.0
 40
7.0
 40
8.0
 40
8.0
 40
8.0
 40
9.0
 40
9.0
 40
9.0
 40
10.0
 40
10.0
 40
10.0
 40
10.0
 10
-30.29858127170139
 20
-1.502061631944444
 10
-30.29858127170139
 20
-1.502061631944444
 10
-30.55214029947916
 20
-1.502061631944444
 10
-30.55214029947916
 20
-1.502061631944444
 10
-30.1626722547743
 20
-1.001833767361111
 10
-29.96785210503472
 20
-0.5012613932291666
 10
-29.96785210503472
 20
0.0
 10
-29.96785210503472
 20
0.1956814236111111
 10
-29.99592963324653
 20
0.3903293185763888
 10
-30.05191243489583
 20
0.58291015625
 10
-30.09618191189236
 20
0.7393174913194444
 10
-30.15819363064236
 20
0.8895236545138887
 10
-30.23743082682291
 20
1.033184136284722
 10
-30.28841824001736
 20
1.126890733506944
 10
-30.39314914279513
 20
1.283298068576388
 10
-30.55214029947916
 20
1.502061631944444
 10
-30.55214029947916
 20
1.502061631944444
 10
-30.29858127170139
 20
1.502061631944444
 10
-30.29858127170139
 20
1.502061631944444
 10
-30.05346272786458
 20
1.24057888454861
 10
-29.87207845052083
 20
0.9777180989583332
 10
-29.75477294921875
 20
0.7145128038194444
 10
-29.6541761610243
 20
0.4871365017361111
 10
-29.60405002170139
 20
0.2494249131944444
 10
-29.60405002170139
 20
0.0013780381944444
 10
-29.60405002170139
 20
-0.2797417534722222
 10
-29.67157389322917
 20
-0.551904296875
 10
-29.80644938151042
 20
-0.8144205729166666
 10
-29.94149712456597
 20
-1.076936848958333
 10
-30.10548366970486
 20
-1.306035698784722
 10
-30.29858127170139
 20
-1.502061631944444
 97
        0
 75
     2
 76
     1
 98
        1
 10
0.0
 20
0.0
  0
HATCH
  5
8E
330
68
100
AcDbEntity
  8
LAYER_2
 62
     3
100
AcDbHatch
 10
0.0
 20
0.0
 30
0.0
210
0.0
220
0.0
230
1.0
  2
SOLID
 70
     1
 71
     0
 91
        1
 92
        1
 93
        1
 72
     4
 94
        3
 73
     0
 74
     0
 95
       71
 96
       67
 40
0.0
 40
0.0
 40
0.0
 40
0.0
 40
1.0
 40
1.0
 40
1.0
 40
2.0
 40
2.0
 40
2.0
 40
3.0
 40
3.0
 40
3.0
 40
4.0
 40
4.0
 40
4.0
 40
5.0
 40
5.0
 40
5.0
 40
6.0
 40
6.0
 40
6.0
 40
7.0
 40
7.0
 40
7.0
 40
8.0
 40
8.0
 40
8.0
 40
9.0
 40
9.0
 40
9.0
 40
10.0
 40
10.0
 40
10.0
 40
11.0
 40
11.0
 40
11.0
 40
12.0
 40
12.0
 40
12.0
 40
13.0
 40
13.0
 40
13.0
 40
14.0
 40
14.0
 40
14.0
 40
15.0
 40
15.0
 40
15.0
 40
16.0
 40
16.0
 40
16.0
 40
17.0
 40
17.0
 40
17.0
 40
18.0
 40
18.0
 40
18.0
 40
19.0
 40
19.0
 40
19.0
 40
20.0
 40
20.0
 40
20.0
 40
21.0
 40
21.0
 40
21.0
 40
22.0
 40
22.0
 40
22.0
 40
22.0
 10
-27.07431640625
 20
-0.2287543402777778
 10
-27.07431640625
 20
-0.2287543402777778
 10
-26.70500217013889
 20
-0.2067057291666666
 10
-26.70500217013889
 20
-0.2067057291666666
 10
-26.67761366102431
 20
-0.3493326822916666
 10
-26.61456841362847
 20
-0.4568196614583333
 10
-26.51569417317708
 20
-0.5288221571180555
 10
-26.4169921875
 20
-0.6008246527777778
 10
-26.2962415907118
 20
-0.6366536458333333
 10
-26.1536146375868
 20
-0.6366536458333333
 10
-25.98135986328125
 20
-0.6366536458333333
 10
-25.83735487196181
 20
-0.5856662326388889
 10
-25.72125515407986
 20
-0.4833468967013889
 10
-25.60549994574653
 20
-0.3810275607638888
 10
-25.54745008680555
 20
-0.2452907986111111
 10
-25.54745008680555
 20
-0.0761366102430556
 10
-25.54745008680555
 20
0.0847493489583333
 10
-25.60326063368056
 20
0.2115288628472222
 10
-25.71470947265625
 20
0.3045464409722222
 10
-25.82633056640625
 20
0.3972195095486111
 10
-25.97481418185763
 20
0.4437282986111111
 10
-26.16016031901042
 20
0.4437282986111111
 10
-26.27557101779514
 20
0.4437282986111111
 10
-26.37857937282986
 20
0.4227132161458333
 10
-26.46901312934028
 20
0.3810275607638888
 10
-26.5594468858507
 20
0.3389973958333333
 10
-26.63076036241319
 20
0.2845648871527778
 10
-26.68295355902778
 20
0.2177300347222222
 10
-26.68295355902778
 20
0.2177300347222222
 10
-27.01368272569444
 20
0.2563151041666666
 10
-27.01368272569444
 20
0.2563151041666666
 10
-27.01368272569444
 20
0.2563151041666666
 10
-26.73807508680555
 20
1.435915798611111
 10
-26.73807508680555
 20
1.435915798611111
 10
-26.73807508680555
 20
1.435915798611111
 10
-25.30491536458333
 20
1.435915798611111
 10
-25.30491536458333
 20
1.435915798611111
 10
-25.30491536458333
 20
1.435915798611111
 10
-25.30491536458333
 20
1.165820312499999
 10
-25.30491536458333
 20
1.165820312499999
 10
-25.30491536458333
 20
1.165820312499999
 10
-26.46005588107639
 20
1.165820312499999
 10
-26.46005588107639
 20
1.165820312499999
 10
-26.46005588107639
 20
1.165820312499999
 10
-26.61095106336806
 20
0.5484592013888889
 10
-26.61095106336806
 20
0.5484592013888889
 10
-26.43835177951389
 20
0.6438883463541666
 10
-26.25713975694444
 20
0.6917751736111111
 10
-26.06748725043403
 20
0.6917751736111111
 10
-25.81633978949652
 20
0.6917751736111111
 10
-25.60446641710069
 20
0.6221842447916666
 10
-25.43169487847222
 20
0.48369140625
 10
-25.25892333984375
 20
0.3448540581597222
 10
-25.17262369791666
 20
0.1667426215277778
 10
-25.17262369791666
 20
-0.0513319227430556
 10
-25.17262369791666
 20
-0.2590711805555555
 10
-25.2482435438368
 20
-0.4382161458333333
 10
-25.39948323567708
 20
-0.5898003472222222
 10
-25.58345133463542
 20
-0.775146484375
 10
-25.83459879557292
 20
-0.8681640624999998
 10
-26.15292561848958
 20
-0.8681640624999998
 10
-26.41371934678819
 20
-0.8681640624999998
 10
-26.62662624782986
 20
-0.8099419487847221
 10
-26.79164632161458
 20
-0.6931532118055555
 10
-26.9566663953993
 20
-0.5763644748263889
 10
-27.05088975694444
 20
-0.4216796875
 10
-27.07431640625
 20
-0.2287543402777778
 97
        0
 75
     2
 76
     1
 98
        1
 10
0.0
 20
0.0
  0
HATCH
  5
8D
330
68
100
AcDbEntity
  8
LAYER_2
 62
     3
100
AcDbHatch
 10
0.0
 20
0.0
 30
0.0
210
0.0
220
0.0
230
1.0
  2
SOLID
 70
     1
 71
     0
 91
        1
 92
        1
 93
        1
 72
     4
 94
        3
 73
     0
 74
     0
 95
       71
 96
       67
 40
0.0
 40
0.0
 40
0.0
 40
0.0
 40
1.0
 40
1.0
 40
1.0
 40
2.0
 40
2.0
 40
2.0
 40
3.0
 40
3.0
 40
3.0
 40
4.0
 40
4.0
 40
4.0
 40
5.0
 40
5.0
 40
5.0
 40
6.0
 40
6.0
 40
6.0
 40
7.0
 40
7.0
 40
7.0
 40
8.0
 40
8.0
 40
8.0
 40
9.0
 40
9.0
 40
9.0
 40
10.0
 40
10.0
 40
10.0
 40
11.0
 40
11.0
 40
11.0
 40
12.0
 40
12.0
 40
12.0
 40
13.0
 40
13.0
 40
13.0
 40
14.0
 40
14.0
 40
14.0
 40
15.0
 40
15.0
 40
15.0
 40
16.0
 40
16.0
 40
16.0
 40
17.0
 40
17.0
 40
17.0
 40
18.0
 40
18.0
 40
18.0
 40
19.0
 40
19.0
 40
19.0
 40
20.0
 40
20.0
 40
20.0
 40
21.0
 40
21.0
 40
21.0
 40
22.0
 40
22.0
 40
22.0
 40
22.0
 10
-21.88583034939236
 20
-0.5594835069444444
 10
-21.88583034939236
 20
-0.5594835069444444
 10
-21.88583034939236
 20
-0.8295789930555555
 10
-21.88583034939236
 20
-0.8295789930555555
 10
-21.88583034939236
 20
-0.8295789930555555
 10
-23.78752305772569
 20
-0.8295789930555555
 10
-23.78752305772569
 20
-0.8295789930555555
 10
-23.79027913411458
 20
-0.7617106119791666
 10
-23.77632649739583
 20
-0.6965983072916666
 10
-23.74600965711806
 20
-0.6338975694444445
 10
-23.69726155598958
 20
-0.5305447048611111
 10
-23.61940239800347
 20
-0.4285698784722222
 10
-23.51191541883681
 20
-0.328662109375
 10
-23.40477294921875
 20
-0.2287543402777778
 10
-23.25077718098958
 20
-0.1136881510416666
 10
-23.0499281141493
 20
0.0172254774305556
 10
-22.73831922743056
 20
0.2222086588541666
 10
-22.52799614800347
 20
0.3848171657986111
 10
-22.41878662109375
 20
0.5043619791666666
 10
-22.30974934895833
 20
0.6239067925347222
 10
-22.25514458550347
 20
0.7375949435763888
 10
-22.25514458550347
 20
0.8447374131944444
 10
-22.25514458550347
 20
0.9567030164930553
 10
-22.30509847005208
 20
1.050754123263888
 10
-22.40500623914931
 20
1.127924262152777
 10
-22.50491400824653
 20
1.204405381944444
 10
-22.63513861762152
 20
1.242990451388888
 10
-22.7956800672743
 20
1.242990451388888
 10
-22.96535101996528
 20
1.242990451388888
 10
-23.10108778211805
 20
1.202338324652777
 10
-23.20289035373264
 20
1.121723090277777
 10
-23.30469292534722
 20
1.040418836805555
 10
-23.35619710286458
 20
0.9287977430555555
 10
-23.35757514105903
 20
0.7854817708333333
 10
-23.35757514105903
 20
0.7854817708333333
 10
-23.72137722439236
 20
0.8130425347222221
 10
-23.72137722439236
 20
0.8130425347222221
 10
-23.69657253689236
 20
1.028361002604166
 10
-23.60303819444444
 20
1.192347547743055
 10
-23.44094645182291
 20
1.305002170138888
 10
-23.27868245442708
 20
1.418001302083333
 10
-23.06095241970486
 20
1.474500868055555
 10
-22.78775634765625
 20
1.474500868055555
 10
-22.51180419921875
 20
1.474500868055555
 10
-22.2933851453993
 20
1.413522677951388
 10
-22.13249918619792
 20
1.291221788194444
 10
-21.97178548177083
 20
1.16926540798611
 10
-21.89134250217014
 20
1.018025716145833
 10
-21.89134250217014
 20
0.837502712673611
 10
-21.89134250217014
 20
0.7455186631944444
 10
-21.91476915147569
 20
0.6552571614583333
 10
-21.96179470486111
 20
0.5667182074652777
 10
-22.00882025824653
 20
0.4781792534722222
 10
-22.08667941623264
 20
0.38447265625
 10
-22.19554443359375
 20
0.2866319444444444
 10
-22.30440945095486
 20
0.1884467230902778
 10
-22.48527696397569
 20
0.0537434895833333
 10
-22.73814697265625
 20
-0.1174777560763889
 10
-22.95002034505208
 20
-0.2597601996527778
 10
-23.08610161675347
 20
-0.3562228732638888
 10
-23.14639078776041
 20
-0.4065212673611111
 10
-23.20650770399305
 20
-0.4575086805555556
 10
-23.25628933376736
 20
-0.50849609375
 10
-23.29556342230903
 20
-0.5594835069444444
 10
-23.29556342230903
 20
-0.5594835069444444
 10
-21.88583034939236
 20
-0.5594835069444444
 10
-21.88583034939236
 20
-0.5594835069444444
 97
        0
 75
     2
 76
     1
 98
        1
 10
0.0
 20
0.0
  0
HATCH
  5
8C
330
68
100
AcDbEntity
  8
LAYER_2
 62
     3
100
AcDbHatch
 10
0.0
 20
0.0
 30
0.0
210
0.0
220
0.0
230
1.0
  2
SOLID
 70
     1
 71
     0
 91
        2
 92
       16
 93
        1
 72
     4
 94
        3
 73
     0
 74
     0
 95
       32
 96
       28
 40
0.0
 40
0.0
 40
0.0
 40
0.0
 40
1.0
 40
1.0
 40
1.0
 40
2.0
 40
2.0
 40
2.0
 40
3.0
 40
3.0
 40
3.0
 40
4.0
 40
4.0
 40
4.0
 40
5.0
 40
5.0
 40
5.0
 40
6.0
 40
6.0
 40
6.0
 40
7.0
 40
7.0
 40
7.0
 40
8.0
 40
8.0
 40
8.0
 40
9.0
 40
9.0
 40
9.0
 40
9.0
 10
-20.01566026475694
 20
-0.0854383680555556
 10
-20.01566026475694
 20
-0.1825900607638889
 10
-19.98999430338541
 20
-0.2756076388888888
 10
-19.93831787109375
 20
-0.3641465928819444
 10
-19.88681369357638
 20
-0.4530300564236111
 10
-19.81515570746527
 20
-0.520553927951389
 10
-19.72334391276041
 20
-0.567062717013889
 10
-19.63153211805555
 20
-0.613571506076389
 10
-19.5338636610243
 20
-0.6366536458333333
 10
-19.43016628689236
 20
-0.6366536458333333
 10
-19.279443359375
 20
-0.6366536458333333
 10
-19.15111355251736
 20
-0.5887668185763888
 10
-19.04500461154514
 20
-0.4926486545138889
 10
-18.93889567057291
 20
-0.396875
 10
-18.8856689453125
 20
-0.2663058810763888
 10
-18.8856689453125
 20
-0.1012858072916666
 10
-18.8856689453125
 20
0.0571885850694445
 10
-18.93820665147569
 20
0.1822455512152778
 10
-19.04293755425347
 20
0.2735405815972222
 10
-19.14784071180555
 20
0.3648356119791666
 10
-19.28133816189236
 20
0.4106553819444444
 10
-19.4437744140625
 20
0.4106553819444444
 10
-19.60311008029514
 20
0.4106553819444444
 10
-19.73815782335069
 20
0.3648356119791666
 10
-19.84908989800347
 20
0.2735405815972222
 10
-19.96019422743055
 20
0.1822455512152778
 10
-20.01566026475694
 20
0.0627007378472222
 10
-20.01566026475694
 20
-0.0854383680555556
 97
        0
 92
        1
 93
        1
 72
     4
 94
        3
 73
     0
 74
     0
 95
       62
 96
       58
 40
0.0
 40
0.0
 40
0.0
 40
0.0
 40
1.0
 40
1.0
 40
1.0
 40
2.0
 40
2.0
 40
2.0
 40
3.0
 40
3.0
 40
3.0
 40
4.0
 40
4.0
 40
4.0
 40
5.0
 40
5.0
 40
5.0
 40
6.0
 40
6.0
 40
6.0
 40
7.0
 40
7.0
 40
7.0
 40
8.0
 40
8.0
 40
8.0
 40
9.0
 40
9.0
 40
9.0
 40
10.0
 40
10.0
 40
10.0
 40
11.0
 40
11.0
 40
11.0
 40
12.0
 40
12.0
 40
12.0
 40
13.0
 40
13.0
 40
13.0
 40
14.0
 40
14.0
 40
14.0
 40
15.0
 40
15.0
 40
15.0
 40
16.0
 40
16.0
 40
16.0
 40
17.0
 40
17.0
 40
17.0
 40
18.0
 40
18.0
 40
18.0
 40
19.0
 40
19.0
 40
19.0
 40
19.0
 10
-18.57147623697916
 20
0.9012369791666666
 10
-18.57147623697916
 20
0.9012369791666666
 10
-18.91874186197916
 20
0.8791883680555553
 10
-18.91874186197916
 20
0.8791883680555553
 10
-18.95026448567708
 20
0.9904649522569442
 10
-18.99505072699652
 20
1.071424696180555
 10
-19.05292833116319
 20
1.121723090277777
 10
-19.14887424045138
 20
1.202338324652777
 10
-19.2672132703993
 20
1.242990451388888
 10
-19.40794542100694
 20
1.242990451388888
 10
-19.52111680772569
 20
1.242990451388888
 10
-19.62136908637152
 20
1.217841254340277
 10
-19.70853000217013
 20
1.167887369791666
 10
-19.81860080295138
 20
1.103119574652777
 10
-19.90576171875
 20
1.008379448784722
 10
-19.97018500434027
 20
0.8843560112847221
 10
-20.03460828993055
 20
0.7599880642361111
 10
-20.06819797092014
 20
0.5832546657986111
 10
-20.07078179253472
 20
0.3538113064236111
 10
-19.98568793402777
 20
0.4568196614583333
 10
-19.88164605034722
 20
0.5336452907986111
 10
-19.75865614149305
 20
0.5835991753472222
 10
-19.63566623263888
 20
0.6335530598958333
 10
-19.50664740668402
 20
0.6587022569444444
 10
-19.37194417317708
 20
0.6587022569444444
 10
-19.13629964192708
 20
0.6587022569444444
 10
-18.93579508463541
 20
0.5894558376736111
 10
-18.77025824652777
 20
0.4513075086805556
 10
-18.60472140842013
 20
0.3131591796875
 10
-18.52186686197916
 20
0.1347032335069444
 10
-18.52186686197916
 20
-0.0844048394097222
 10
-18.52186686197916
 20
-0.2284098307291666
 10
-18.56079644097222
 20
-0.3620795355902777
 10
-18.63848334418403
 20
-0.4857584635416666
 10
-18.71617024739583
 20
-0.6090928819444445
 10
-18.82296820746527
 20
-0.7038330078125
 10
-18.95870496961805
 20
-0.7696343315972222
 10
-19.09461398654514
 20
-0.8350911458333332
 10
-19.2486097547743
 20
-0.8681640624999998
 10
-19.42086452907986
 20
-0.8681640624999998
 10
-19.71473117404514
 20
-0.8681640624999998
 10
-19.95450981987847
 20
-0.7820366753472222
 10
-20.13985595703125
 20
-0.6090928819444445
 10
-20.32537434895833
 20
-0.4364935980902777
 10
-20.41804741753472
 20
-0.1519287109375
 10
-20.41804741753472
 20
0.2446017795138889
 10
-20.41804741753472
 20
0.6879855685763889
 10
-20.31555582682292
 20
1.010101996527777
 10
-20.1102281358507
 20
1.211640082465277
 10
-19.93142768012152
 20
1.386995442708333
 10
-19.69027099609375
 20
1.474500868055555
 10
-19.38693033854166
 20
1.474500868055555
 10
-19.16093207465278
 20
1.474500868055555
 10
-18.9757581922743
 20
1.423513454861111
 10
-18.83123643663194
 20
1.322227647569444
 10
-18.68688693576389
 20
1.220597330729166
 10
-18.60024278428819
 20
1.080381944444444
 10
-18.57147623697916
 20
0.9012369791666666
 97
        0
 75
     2
 76
     1
 98
        1
 10
0.0
 20
0.0
  0
HATCH
  5
8B
330
68
100
AcDbEntity
  8
LAYER_2
 62
     3
100
AcDbHatch
 10
0.0
 20
0.0
 30
0.0
210
0.0
220
0.0
230
1.0
  2
SOLID
 70
     1
 71
     0
 91
        1
 92
        1
 93
        1
 72
     4
 94
        3
 73
     0
 74
     0
 95
       17
 96
       13
 40
0.0
 40
0.0
 40
0.0
 40
0.0
 40
1.0
 40
1.0
 40
1.0
 40
2.0
 40
2.0
 40
2.0
 40
3.0
 40
3.0
 40
3.0
 40
4.0
 40
4.0
 40
4.0
 40
4.0
 10
-17.10369330512152
 20
-0.1405598958333333
 10
-17.10369330512152
 20
-0.1405598958333333
 10
-17.10369330512152
 20
0.1405598958333333
 10
-17.10369330512152
 20
0.1405598958333333
 10
-17.10369330512152
 20
0.1405598958333333
 10
-16.02331136067708
 20
0.1405598958333333
 10
-16.02331136067708
 20
0.1405598958333333
 10
-16.02331136067708
 20
0.1405598958333333
 10
-16.02331136067708
 20
-0.1405598958333333
 10
-16.02331136067708
 20
-0.1405598958333333
 10
-16.02331136067708
 20
-0.1405598958333333
 10
-17.10369330512152
 20
-0.1405598958333333
 10
-17.10369330512152
 20
-0.1405598958333333
 97
        0
 75
     2
 76
     1
 98
        1
 10
0.0
 20
0.0
  0
HATCH
  5
8A
330
68
100
AcDbEntity
  8
LAYER_2
 62
     3
100
AcDbHatch
 10
0.0
 20
0.0
 30
0.0
210
0.0
220
0.0
230
1.0
  2
SOLID
 70
     1
 71
     0
 91
        2
 92
       16
 93
        1
 72
     4
 94
        3
 73
     0
 74
     0
 95
       32
 96
       28
 40
0.0
 40
0.0
 40
0.0
 40
0.0
 40
1.0
 40
1.0
 40
1.0
 40
2.0
 40
2.0
 40
2.0
 40
3.0
 40
3.0
 40
3.0
 40
4.0
 40
4.0
 40
4.0
 40
5.0
 40
5.0
 40
5.0
 40
6.0
 40
6.0
 40
6.0
 40
7.0
 40
7.0
 40
7.0
 40
8.0
 40
8.0
 40
8.0
 40
9.0
 40
9.0
 40
9.0
 40
9.0
 10
-14.23565131293402
 20
-0.0854383680555556
 10
-14.23565131293402
 20
-0.1825900607638889
 10
-14.20981309678819
 20
-0.2756076388888888
 10
-14.15830891927083
 20
-0.3641465928819444
 10
-14.10680474175347
 20
-0.4530300564236111
 10
-14.03514675564236
 20
-0.520553927951389
 10
-13.9433349609375
 20
-0.567062717013889
 10
-13.85152316623263
 20
-0.613571506076389
 10
-13.75368245442708
 20
-0.6366536458333333
 10
-13.64998508029513
 20
-0.6366536458333333
 10
-13.49943440755208
 20
-0.6366536458333333
 10
-13.37093234592013
 20
-0.5887668185763888
 10
-13.26482340494791
 20
-0.4926486545138889
 10
-13.15871446397569
 20
-0.396875
 10
-13.10565999348958
 20
-0.2663058810763888
 10
-13.10565999348958
 20
-0.1012858072916666
 10
-13.10565999348958
 20
0.0571885850694445
 10
-13.15802544487847
 20
0.1822455512152778
 10
-13.26292860243055
 20
0.2735405815972222
 10
-13.36783175998264
 20
0.3648356119791666
 10
-13.50150146484375
 20
0.4106553819444444
 10
-13.66376546223958
 20
0.4106553819444444
 10
-13.82310112847222
 20
0.4106553819444444
 10
-13.95832112630208
 20
0.3648356119791666
 10
-14.06925320095486
 20
0.2735405815972222
 10
-14.18018527560764
 20
0.1822455512152778
 10
-14.23565131293402
 20
0.0627007378472222
 10
-14.23565131293402
 20
-0.0854383680555556
 97
        0
 92
        1
 93
        1
 72
     4
 94
        3
 73
     0
 74
     0
 95
       62
 96
       58
 40
0.0
 40
0.0
 40
0.0
 40
0.0
 40
1.0
 40
1.0
 40
1.0
 40
2.0
 40
2.0
 40
2.0
 40
3.0
 40
3.0
 40
3.0
 40
4.0
 40
4.0
 40
4.0
 40
5.0
 40
5.0
 40
5.0
 40
6.0
 40
6.0
 40
6.0
 40
7.0
 40
7.0
 40
7.0
 40
8.0
 40
8.0
 40
8.0
 40
9.0
 40
9.0
 40
9.0
 40
10.0
 40
10.0
 40
10.0
 40
11.0
 40
11.0
 40
11.0
 40
12.0
 40
12.0
 40
12.0
 40
13.0
 40
13.0
 40
13.0
 40
14.0
 40
14.0
 40
14.0
 40
15.0
 40
15.0
 40
15.0
 40
16.0
 40
16.0
 40
16.0
 40
17.0
 40
17.0
 40
17.0
 40
18.0
 40
18.0
 40
18.0
 40
19.0
 40
19.0
 40
19.0
 40
19.0
 10
-12.79146728515625
 20
0.9012369791666666
 10
-12.79146728515625
 20
0.9012369791666666
 10
-13.13873291015625
 20
0.8791883680555553
 10
-13.13873291015625
 20
0.8791883680555553
 10
-13.17042778862847
 20
0.9904649522569442
 10
-13.21504177517361
 20
1.071424696180555
 10
-13.27274712456597
 20
1.121723090277777
 10
-13.36886528862847
 20
1.202338324652777
 10
-13.48720431857638
 20
1.242990451388888
 10
-13.62793646918402
 20
1.242990451388888
 10
-13.74110785590277
 20
1.242990451388888
 10
-13.8411878797743
 20
1.217841254340277
 10
-13.92869330512153
 20
1.167887369791666
 10
-14.03859185112847
 20
1.103119574652777
 10
-14.12575276692708
 20
1.008379448784722
 10
-14.19017605251736
 20
0.8843560112847221
 10
-14.25459933810764
 20
0.7599880642361111
 10
-14.28818901909722
 20
0.5832546657986111
 10
-14.2907728407118
 20
0.3538113064236111
 10
-14.20567898220486
 20
0.4568196614583333
 10
-14.1016370985243
 20
0.5336452907986111
 10
-13.97864718967014
 20
0.5835991753472222
 10
-13.85565728081597
 20
0.6335530598958333
 10
-13.72681070963541
 20
0.6587022569444444
 10
-13.59193522135416
 20
0.6587022569444444
 10
-13.35646294487847
 20
0.6587022569444444
 10
-13.1557861328125
 20
0.5894558376736111
 10
-12.99024929470486
 20
0.4513075086805556
 10
-12.82471245659722
 20
0.3131591796875
 10
-12.74185791015625
 20
0.1347032335069444
 10
-12.74185791015625
 20
-0.0844048394097222
 10
-12.74185791015625
 20
-0.2284098307291666
 10
-12.7807874891493
 20
-0.3620795355902777
 10
-12.85847439236111
 20
-0.4857584635416666
 10
-12.93616129557291
 20
-0.6090928819444445
 10
-13.04295925564236
 20
-0.7038330078125
 10
-13.17869601779514
 20
-0.7696343315972222
 10
-13.31443277994792
 20
-0.8350911458333332
 10
-13.46860080295139
 20
-0.8681640624999998
 10
-13.64102783203125
 20
-0.8681640624999998
 10
-13.93489447699652
 20
-0.8681640624999998
 10
-14.17450086805555
 20
-0.7820366753472222
 10
-14.36001925998264
 20
-0.6090928819444445
 10
-14.54536539713541
 20
-0.4364935980902777
 10
-14.6380384657118
 20
-0.1519287109375
 10
-14.6380384657118
 20
0.2446017795138889
 10
-14.6380384657118
 20
0.6879855685763889
 10
-14.53537462022569
 20
1.010101996527777
 10
-14.33039143880208
 20
1.211640082465277
 10
-14.1512464735243
 20
1.386995442708333
 10
-13.91008978949652
 20
1.474500868055555
 10
-13.60692138671875
 20
1.474500868055555
 10
-13.38092312282986
 20
1.474500868055555
 10
-13.19557698567708
 20
1.423513454861111
 10
-13.05122748480902
 20
1.322227647569444
 10
-12.90687798394097
 20
1.220597330729166
 10
-12.82023383246527
 20
1.080381944444444
 10
-12.79146728515625
 20
0.9012369791666666
 97
        0
 75
     2
 76
     1
 98
        1
 10
0.0
 20
0.0
  0
HATCH
  5
89
330
68
100
AcDbEntity
  8
LAYER_2
 62
     3
100
AcDbHatch
 10
0.0
 20
0.0
 30
0.0
210
0.0
220
0.0
230
1.0
  2
SOLID
 70
     1
 71
     0
 91
        1
 92
        1
 93
        1
 72
     4
 94
        3
 73
     0
 74
     0
 95
       71
 96
       67
 40
0.0
 40
0.0
 40
0.0
 40
0.0
 40
1.0
 40
1.0
 40
1.0
 40
2.0
 40
2.0
 40
2.0
 40
3.0
 40
3.0
 40
3.0
 40
4.0
 40
4.0
 40
4.0
 40
5.0
 40
5.0
 40
5.0
 40
6.0
 40
6.0
 40
6.0
 40
7.0
 40
7.0
 40
7.0
 40
8.0
 40
8.0
 40
8.0
 40
9.0
 40
9.0
 40
9.0
 40
10.0
 40
10.0
 40
10.0
 40
11.0
 40
11.0
 40
11.0
 40
12.0
 40
12.0
 40
12.0
 40
13.0
 40
13.0
 40
13.0
 40
14.0
 40
14.0
 40
14.0
 40
15.0
 40
15.0
 40
15.0
 40
16.0
 40
16.0
 40
16.0
 40
17.0
 40
17.0
 40
17.0
 40
18.0
 40
18.0
 40
18.0
 40
19.0
 40
19.0
 40
19.0
 40
20.0
 40
20.0
 40
20.0
 40
21.0
 40
21.0
 40
21.0
 40
22.0
 40
22.0
 40
22.0
 40
22.0
 10
-9.433188205295138
 20
-0.5594835069444444
 10
-9.433188205295138
 20
-0.5594835069444444
 10
-9.433188205295138
 20
-0.8295789930555555
 10
-9.433188205295138
 20
-0.8295789930555555
 10
-9.433188205295138
 20
-0.8295789930555555
 10
-11.33488091362847
 20
-0.8295789930555555
 10
-11.33488091362847
 20
-0.8295789930555555
 10
-11.33763699001736
 20
-0.7617106119791666
 10
-11.32368435329861
 20
-0.6965983072916666
 10
-11.29336751302083
 20
-0.6338975694444445
 10
-11.24461941189236
 20
-0.5305447048611111
 10
-11.16676025390625
 20
-0.4285698784722222
 10
-11.05927327473958
 20
-0.328662109375
 10
-10.95213080512152
 20
-0.2287543402777778
 10
-10.79813503689236
 20
-0.1136881510416666
 10
-10.59728597005208
 20
0.0172254774305556
 10
-10.28567708333333
 20
0.2222086588541666
 10
-10.07535400390625
 20
0.3848171657986111
 10
-9.966144476996527
 20
0.5043619791666666
 10
-9.85710720486111
 20
0.6239067925347222
 10
-9.802502441406248
 20
0.7375949435763888
 10
-9.802502441406248
 20
0.8447374131944444
 10
-9.802502441406248
 20
0.9567030164930553
 10
-9.852456325954859
 20
1.050754123263888
 10
-9.952364095052082
 20
1.127924262152777
 10
-10.0522718641493
 20
1.204405381944444
 10
-10.1824964735243
 20
1.242990451388888
 10
-10.34303792317708
 20
1.242990451388888
 10
-10.51270887586805
 20
1.242990451388888
 10
-10.64844563802083
 20
1.202338324652777
 10
-10.75024820963541
 20
1.121723090277777
 10
-10.85205078125
 20
1.040418836805555
 10
-10.90355495876736
 20
0.9287977430555555
 10
-10.9049329969618
 20
0.7854817708333333
 10
-10.9049329969618
 20
0.7854817708333333
 10
-11.26873508029514
 20
0.8130425347222221
 10
-11.26873508029514
 20
0.8130425347222221
 10
-11.24393039279514
 20
1.028361002604166
 10
-11.15039605034722
 20
1.192347547743055
 10
-10.98830430772569
 20
1.305002170138888
 10
-10.82604031032986
 20
1.418001302083333
 10
-10.60831027560763
 20
1.474500868055555
 10
-10.33511420355902
 20
1.474500868055555
 10
-10.05916205512153
 20
1.474500868055555
 10
-9.840743001302081
 20
1.413522677951388
 10
-9.679857042100692
 20
1.291221788194444
 10
-9.519315592447915
 20
1.16926540798611
 10
-9.438700358072916
 20
1.018025716145833
 10
-9.438700358072916
 20
0.837502712673611
 10
-9.438700358072916
 20
0.7455186631944444
 10
-9.462127007378471
 20
0.6552571614583333
 10
-9.508980305989583
 20
0.5667182074652777
 10
-9.556178114149304
 20
0.4781792534722222
 10
-9.634037272135415
 20
0.38447265625
 10
-9.742902289496527
 20
0.2866319444444444
 10
-9.851767306857638
 20
0.1884467230902778
 10
-10.03263481987847
 20
0.0537434895833333
 10
-10.28550482855902
 20
-0.1174777560763889
 10
-10.49737820095486
 20
-0.2597601996527778
 10
-10.63345947265625
 20
-0.3562228732638888
 10
-10.69374864366319
 20
-0.4065212673611111
 10
-10.75386555989583
 20
-0.4575086805555556
 10
-10.80364718967014
 20
-0.50849609375
 10
-10.8429212782118
 20
-0.5594835069444444
 10
-10.8429212782118
 20
-0.5594835069444444
 10
-9.433188205295138
 20
-0.5594835069444444
 10
-9.433188205295138
 20
-0.5594835069444444
 97
        0
 75
     2
 76
     1
 98
        1
 10
0.0
 20
0.0
  0
HATCH
  5
88
330
68
100
AcDbEntity
  8
LAYER_2
 62
     3
100
AcDbHatch
 10
0.0
 20
0.0
 30
0.0
210
0.0
220
0.0
230
1.0
  2
SOLID
 70
     1
 71
     0
 91
        2
 92
       16
 93
        1
 72
     4
 94
        3
 73
     0
 74
     0
 95
       29
 96
       25
 40
0.0
 40
0.0
 40
0.0
 40
0.0
 40
1.0
 40
1.0
 40
1.0
 40
2.0
 40
2.0
 40
2.0
 40
3.0
 40
3.0
 40
3.0
 40
4.0
 40
4.0
 40
4.0
 40
5.0
 40
5.0
 40
5.0
 40
6.0
 40
6.0
 40
6.0
 40
7.0
 40
7.0
 40
7.0
 40
8.0
 40
8.0
 40
8.0
 40
8.0
 10
-6.46041531032986
 20
0.7138237847222222
 10
-6.46041531032986
 20
0.8760877821180555
 10
-6.513469780815971
 20
1.004934353298611
 10
-6.619234212239582
 20
1.100018988715277
 10
-6.725343153211804
 20
1.195448133680555
 10
-6.85418972439236
 20
1.242990451388888
 10
-7.00611843532986
 20
1.242990451388888
 10
-7.163559299045138
 20
1.242990451388888
 10
-7.299296061197916
 20
1.191658528645833
 10
-7.413328721788193
 20
1.088994683159722
 10
-7.527705891927082
 20
0.9866753472222221
 10
-7.584894476996526
 20
0.8536946614583332
 10
-7.584894476996526
 20
0.6903971354166666
 10
-7.584894476996526
 20
0.5436360677083333
 10
-7.530806477864582
 20
0.4244357638888889
 10
-7.422285970052082
 20
0.3331407335069444
 10
-7.313765462239582
 20
0.2415011935763888
 10
-7.178373209635416
 20
0.1956814236111111
 10
-7.015764702690971
 20
0.1956814236111111
 10
-6.85418972439236
 20
0.1956814236111111
 10
-6.72086452907986
 20
0.2415011935763888
 10
-6.616822645399304
 20
0.3331407335069444
 10
-6.512436252170138
 20
0.4244357638888889
 10
-6.46041531032986
 20
0.551559787326389
 10
-6.46041531032986
 20
0.7138237847222222
 97
        0
 92
        1
 93
        1
 72
     4
 94
        3
 73
     0
 74
     0
 95
       71
 96
       67
 40
0.0
 40
0.0
 40
0.0
 40
0.0
 40
1.0
 40
1.0
 40
1.0
 40
2.0
 40
2.0
 40
2.0
 40
3.0
 40
3.0
 40
3.0
 40
4.0
 40
4.0
 40
4.0
 40
5.0
 40
5.0
 40
5.0
 40
6.0
 40
6.0
 40
6.0
 40
7.0
 40
7.0
 40
7.0
 40
8.0
 40
8.0
 40
8.0
 40
9.0
 40
9.0
 40
9.0
 40
10.0
 40
10.0
 40
10.0
 40
11.0
 40
11.0
 40
11.0
 40
12.0
 40
12.0
 40
12.0
 40
13.0
 40
13.0
 40
13.0
 40
14.0
 40
14.0
 40
14.0
 40
15.0
 40
15.0
 40
15.0
 40
16.0
 40
16.0
 40
16.0
 40
17.0
 40
17.0
 40
17.0
 40
18.0
 40
18.0
 40
18.0
 40
19.0
 40
19.0
 40
19.0
 40
20.0
 40
20.0
 40
20.0
 40
21.0
 40
21.0
 40
21.0
 40
22.0
 40
22.0
 40
22.0
 40
22.0
 10
-7.89908718532986
 20
-0.3004123263888889
 10
-7.89908718532986
 20
-0.3004123263888889
 10
-7.562845865885416
 20
-0.2783637152777778
 10
-7.562845865885416
 20
-0.2783637152777778
 10
-7.534251573350693
 20
-0.4041097005208333
 10
-7.479474555121527
 20
-0.4950602213541666
 10
-7.398859320746526
 20
-0.551904296875
 10
-7.317899576822916
 20
-0.6084038628472222
 10
-7.214546712239582
 20
-0.6366536458333333
 10
-7.088111707899305
 20
-0.6366536458333333
 10
-6.979935709635416
 20
-0.6366536458333333
 10
-6.884851074218749
 20
-0.6170166015625
 10
-6.802513292100694
 20
-0.5773980034722222
 10
-6.720175509982638
 20
-0.5377794053819444
 10
-6.653340657552083
 20
-0.4850694444444444
 10
-6.602008734809027
 20
-0.4189236111111111
 10
-6.551021321614582
 20
-0.3527777777777778
 10
-6.507613118489582
 20
-0.2632052951388888
 10
-6.472473144531249
 20
-0.1508951822916666
 10
-6.437333170572916
 20
-0.0382405598958333
 10
-6.419763183593749
 20
0.0764811197916667
 10
-6.419763183593749
 20
0.1929253472222222
 10
-6.419763183593749
 20
0.2056722005208333
 10
-6.420452202690971
 20
0.2242757161458333
 10
-6.421830240885416
 20
0.2494249131944444
 10
-6.491765679253471
 20
0.1598524305555555
 10
-6.58753933376736
 20
0.08681640625
 10
-6.709151204427082
 20
0.0313503689236111
 10
-6.830763075086805
 20
-0.0244601779513889
 10
-6.962021213107638
 20
-0.0523654513888889
 10
-7.103614637586805
 20
-0.0523654513888889
 10
-7.339948187934027
 20
-0.0523654513888889
 10
-7.539763726128471
 20
0.0165364583333333
 10
-7.703405761718749
 20
0.1543402777777778
 10
-7.867047797309027
 20
0.2921440972222222
 10
-7.94869656032986
 20
0.4737006293402778
 10
-7.94869656032986
 20
0.6993543836805555
 10
-7.94869656032986
 20
0.9322428385416666
 10
-7.863258192274305
 20
1.11965603298611
 10
-7.692381456163193
 20
1.261593967013888
 10
-7.521504720052083
 20
1.403531901041666
 10
-7.307219780815971
 20
1.474500868055555
 10
-7.049871148003471
 20
1.474500868055555
 10
-6.863835991753471
 20
1.474500868055555
 10
-6.693992784288194
 20
1.434193250868055
 10
-6.539997016059027
 20
1.353922526041666
 10
-6.38600124782986
 20
1.273651801215277
 10
-6.268868001302082
 20
1.159274631076388
 10
-6.188941786024305
 20
1.010446506076388
 10
-6.109015570746526
 20
0.8619628906249998
 10
-6.069052463107638
 20
0.6466444227430555
 10
-6.069052463107638
 20
0.3651801215277777
 10
-6.069052463107638
 20
0.0716579861111111
 10
-6.108671061197916
 20
-0.1615749782986111
 10
-6.188252766927083
 20
-0.3352077907986111
 10
-6.267834472656249
 20
-0.5091851128472222
 10
-6.385656738281249
 20
-0.6411322699652777
 10
-6.542753092447916
 20
-0.7320827907986111
 10
-6.699849446614583
 20
-0.8226888020833332
 10
-6.883473036024304
 20
-0.8681640624999998
 10
-7.094312879774304
 20
-0.8681640624999998
 10
-7.318588595920138
 20
-0.8681640624999998
 10
-7.501178656684027
 20
-0.8185546875
 10
-7.643116590711804
 20
-0.7193359375
 10
-7.785054524739583
 20
-0.6201171875
 10
-7.870492892795137
 20
-0.4802463107638889
 10
-7.89908718532986
 20
-0.3004123263888889
 97
        0
 75
     2
 76
     1
 98
        1
 10
0.0
 20
0.0
  0
HATCH
  5
87
330
68
100
AcDbEntity
  8
LAYER_2
 62
     3
100
AcDbHatch
 10
0.0
 20
0.0
 30
0.0
210
0.0
220
0.0
230
1.0
  2
SOLID
 70
     1
 71
     0
 91
        1
 92
        1
 93
        1
 72
     4
 94
        3
 73
     0
 74
     0
 95
       95
 96
       91
 40
0.0
 40
0.0
 40
0.0
 40
0.0
 40
1.0
 40
1.0
 40
1.0
 40
2.0
 40
2.0
 40
2.0
 40
3.0
 40
3.0
 40
3.0
 40
4.0
 40
4.0
 40
4.0
 40
5.0
 40
5.0
 40
5.0
 40
6.0
 40
6.0
 40
6.0
 40
7.0
 40
7.0
 40
7.0
 40
8.0
 40
8.0
 40
8.0
 40
9.0
 40
9.0
 40
9.0
 40
10.0
 40
10.0
 40
10.0
 40
11.0
 40
11.0
 40
11.0
 40
12.0
 40
12.0
 40
12.0
 40
13.0
 40
13.0
 40
13.0
 40
14.0
 40
14.0
 40
14.0
 40
15.0
 40
15.0
 40
15.0
 40
16.0
 40
16.0
 40
16.0
 40
17.0
 40
17.0
 40
17.0
 40
18.0
 40
18.0
 40
18.0
 40
19.0
 40
19.0
 40
19.0
 40
20.0
 40
20.0
 40
20.0
 40
21.0
 40
21.0
 40
21.0
 40
22.0
 40
22.0
 40
22.0
 40
23.0
 40
23.0
 40
23.0
 40
24.0
 40
24.0
 40
24.0
 40
25.0
 40
25.0
 40
25.0
 40
26.0
 40
26.0
 40
26.0
 40
27.0
 40
27.0
 40
27.0
 40
28.0
 40
28.0
 40
28.0
 40
29.0
 40
29.0
 40
29.0
 40
30.0
 40
30.0
 40
30.0
 40
30.0
 10
-4.61246609157986
 20
-0.2287543402777778
 10
-4.61246609157986
 20
-0.2287543402777778
 10
-4.259688313802082
 20
-0.1901692708333333
 10
-4.259688313802082
 20
-0.1901692708333333
 10
-4.219380696614583
 20
-0.3482991536458333
 10
-4.151167805989582
 20
-0.4623318142361111
 10
-4.054705132378471
 20
-0.5319227430555556
 10
-3.958586968315971
 20
-0.6018581814236111
 10
-3.839731174045138
 20
-0.6366536458333333
 10
-3.698482259114582
 20
-0.6366536458333333
 10
-3.531050618489583
 20
-0.6366536458333333
 10
-3.390490722656249
 20
-0.5908338758680555
 10
-3.277491590711805
 20
-0.4988498263888889
 10
-3.164147949218749
 20
-0.4072102864583333
 10
-3.107648383246527
 20
-0.2935221354166666
 10
-3.107648383246527
 20
-0.1581298828125
 10
-3.107648383246527
 20
-0.0289388020833333
 10
-3.160358344184027
 20
0.0778591579861111
 10
-3.266122775607638
 20
0.1619194878472222
 10
-3.371887207031249
 20
0.2456353081597222
 10
-3.506245930989583
 20
0.2876654730902777
 10
-3.668854437934027
 20
0.2876654730902777
 10
-3.735689290364582
 20
0.2876654730902777
 10
-3.818371582031249
 20
0.2769856770833333
 10
-3.917590332031249
 20
0.2563151041666666
 10
-3.917590332031249
 20
0.2563151041666666
 10
-3.878316243489583
 20
0.5043619791666666
 10
-3.878316243489583
 20
0.5043619791666666
 10
-3.854889594184027
 20
0.502294921875
 10
-3.835941569010416
 20
0.5012613932291666
 10
-3.821816677517361
 20
0.5012613932291666
 10
-3.672644042968749
 20
0.5012613932291666
 10
-3.538285319010416
 20
0.5326117621527777
 10
-3.419085015190971
 20
0.5953125
 10
-3.299540201822916
 20
0.657668728298611
 10
-3.239940049913194
 20
0.7541314019097222
 10
-3.239940049913194
 20
0.8847005208333332
 10
-3.239940049913194
 20
0.9880533854166666
 10
-3.283692762586805
 20
1.073491753472222
 10
-3.370853678385416
 20
1.141360134548611
 10
-3.458014594184027
 20
1.209228515625
 10
-3.571013726128471
 20
1.242990451388888
 10
-3.708817545572916
 20
1.242990451388888
 10
-3.845587836371527
 20
1.242990451388888
 10
-3.959620496961805
 20
1.208539496527777
 10
-4.050571017795138
 20
1.139637586805555
 10
-4.141866048177083
 20
1.070735677083333
 10
-4.200777180989582
 20
0.9673828125
 10
-4.226615397135415
 20
0.8295789930555555
 10
-4.226615397135415
 20
0.8295789930555555
 10
-4.579393174913193
 20
0.8791883680555553
 10
-4.579393174913193
 20
0.8791883680555553
 10
-4.536329481336805
 20
1.067979600694444
 10
-4.438488769531249
 20
1.214740668402777
 10
-4.285871039496527
 20
1.318782552083333
 10
-4.133253309461805
 20
1.422479926215277
 10
-3.943084038628471
 20
1.474500868055555
 10
-3.716052246093749
 20
1.474500868055555
 10
-3.559300401475693
 20
1.474500868055555
 10
-3.415295410156249
 20
1.447629123263888
 10
-3.283348253038194
 20
1.393885633680555
 10
-3.151401095920138
 20
1.340142144097222
 10
-3.050804307725694
 20
1.266761610243055
 10
-2.980868869357638
 20
1.174088541666666
 10
-2.910933430989583
 20
1.081070963541666
 10
-2.876137966579861
 20
0.9825412326388887
 10
-2.876137966579861
 20
0.8781548394097221
 10
-2.876137966579861
 20
0.7789360894097222
 10
-2.909555392795138
 20
0.688674587673611
 10
-2.975701226128471
 20
0.6073703342013889
 10
-3.042191569010416
 20
0.5260660807291666
 10
-3.140721299913194
 20
0.4612982855902778
 10
-3.270945909288194
 20
0.4134114583333333
 10
-3.101447211371527
 20
0.3820610894097221
 10
-2.969500054253471
 20
0.3172932942708333
 10
-2.874759928385416
 20
0.2187635633680555
 10
-2.78001980251736
 20
0.1202338324652778
 10
-2.732821994357638
 20
-0.0027560763888889
 10
-2.732821994357638
 20
-0.1508951822916666
 10
-2.732821994357638
 20
-0.3507107204861111
 10
-2.824117024739583
 20
-0.520553927951389
 10
-3.007051595052082
 20
-0.6593912760416666
 10
-3.189641655815972
 20
-0.7985731336805556
 10
-3.420807562934027
 20
-0.8681640624999998
 10
-3.699860297309027
 20
-0.8681640624999998
 10
-3.95204128689236
 20
-0.8681640624999998
 10
-4.161158582899305
 20
-0.8089084201388889
 10
-4.327556694878471
 20
-0.6900526258680556
 10
-4.493954806857638
 20
-0.5715413411458333
 10
-4.589039442274304
 20
-0.4175455729166666
 10
-4.61246609157986
 20
-0.2287543402777778
 97
        0
 75
     2
 76
     1
 98
        1
 10
0.0
 20
0.0
  0
HATCH
  5
86
330
68
100
AcDbEntity
  8
LAYER_2
 62
     3
100
AcDbHatch
 10
0.0
 20
0.0
 30
0.0
210
0.0
220
0.0
230
1.0
  2
SOLID
 70
     1
 71
     0
 91
        1
 92
        1
 93
        1
 72
     4
 94
        3
 73
     0
 74
     0
 95
       62
 96
       58
 40
0.0
 40
0.0
 40
0.0
 40
0.0
 40
1.0
 40
1.0
 40
1.0
 40
2.0
 40
2.0
 40
2.0
 40
3.0
 40
3.0
 40
3.0
 40
4.0
 40
4.0
 40
4.0
 40
5.0
 40
5.0
 40
5.0
 40
6.0
 40
6.0
 40
6.0
 40
7.0
 40
7.0
 40
7.0
 40
8.0
 40
8.0
 40
8.0
 40
9.0
 40
9.0
 40
9.0
 40
10.0
 40
10.0
 40
10.0
 40
11.0
 40
11.0
 40
11.0
 40
12.0
 40
12.0
 40
12.0
 40
13.0
 40
13.0
 40
13.0
 40
14.0
 40
14.0
 40
14.0
 40
15.0
 40
15.0
 40
15.0
 40
16.0
 40
16.0
 40
16.0
 40
17.0
 40
17.0
 40
17.0
 40
18.0
 40
18.0
 40
18.0
 40
19.0
 40
19.0
 40
19.0
 40
19.0
 10
7.138754611545138
 20
-0.8295789930555555
 10
7.138754611545138
 20
-0.8295789930555555
 10
6.388412814670138
 20
1.463476562499999
 10
6.388412814670138
 20
1.463476562499999
 10
6.388412814670138
 20
1.463476562499999
 10
6.781842719184027
 20
1.463476562499999
 10
6.781842719184027
 20
1.463476562499999
 10
6.781842719184027
 20
1.463476562499999
 10
7.208690049913193
 20
-0.0409966362847222
 10
7.208690049913193
 20
-0.0409966362847222
 10
7.256232367621526
 20
-0.1980929904513889
 10
7.298262532552082
 20
-0.3541558159722222
 10
7.333747016059026
 20
-0.5088406032986111
 10
7.40919460720486
 20
-0.2649278428819444
 10
7.453636338975694
 20
-0.1240234375
 10
7.466383192274304
 20
-0.08681640625
 10
7.466383192274304
 20
-0.08681640625
 10
8.007952202690971
 20
1.463476562499999
 10
8.007952202690971
 20
1.463476562499999
 10
8.007952202690971
 20
1.463476562499999
 10
8.465116373697915
 20
1.463476562499999
 10
8.465116373697915
 20
1.463476562499999
 10
8.465116373697915
 20
1.463476562499999
 10
8.87267116970486
 20
0.3017903645833333
 10
8.87267116970486
 20
0.3017903645833333
 10
8.976024034288194
 20
0.0141248914930556
 10
9.051127115885416
 20
-0.2559705946180555
 10
9.097635904947916
 20
-0.5088406032986111
 10
9.136909993489583
 20
-0.3648356119791666
 10
9.184796820746527
 20
-0.1987820095486111
 10
9.241296386718749
 20
-0.0103352864583333
 10
9.241296386718749
 20
-0.0103352864583333
 10
9.689503309461803
 20
1.463476562499999
 10
9.689503309461803
 20
1.463476562499999
 10
9.689503309461803
 20
1.463476562499999
 10
10.07053087022569
 20
1.463476562499999
 10
10.07053087022569
 20
1.463476562499999
 10
10.07053087022569
 20
1.463476562499999
 10
9.290216742621526
 20
-0.8295789930555555
 10
9.290216742621526
 20
-0.8295789930555555
 10
9.290216742621526
 20
-0.8295789930555555
 10
8.919524468315971
 20
-0.8295789930555555
 10
8.919524468315971
 20
-0.8295789930555555
 10
8.919524468315971
 20
-0.8295789930555555
 10
8.319044325086805
 20
0.918117947048611
 10
8.319044325086805
 20
0.918117947048611
 10
8.268745930989583
 20
1.064189995659722
 10
8.238084581163192
 20
1.153762478298611
 10
8.226715766059026
 20
1.186490885416666
 10
8.194676378038193
 20
1.081759982638888
 10
8.16573757595486
 20
0.9921874999999998
 10
8.140588378906249
 20
0.9177734375
 10
8.140588378906249
 20
0.9177734375
 10
7.537696668836805
 20
-0.8295789930555555
 10
7.537696668836805
 20
-0.8295789930555555
 10
7.537696668836805
 20
-0.8295789930555555
 10
7.138754611545138
 20
-0.8295789930555555
 10
7.138754611545138
 20
-0.8295789930555555
 97
        0
 75
     2
 76
     1
 98
        1
 10
0.0
 20
0.0
  0
HATCH
  5
85
330
68
100
AcDbEntity
  8
LAYER_2
 62
     3
100
AcDbHatch
 10
0.0
 20
0.0
 30
0.0
210
0.0
220
0.0
230
1.0
  2
SOLID
 70
     1
 71
     0
 91
        1
 92
        1
 93
        1
 72
     4
 94
        3
 73
     0
 74
     0
 95
       62
 96
       58
 40
0.0
 40
0.0
 40
0.0
 40
0.0
 40
1.0
 40
1.0
 40
1.0
 40
2.0
 40
2.0
 40
2.0
 40
3.0
 40
3.0
 40
3.0
 40
4.0
 40
4.0
 40
4.0
 40
5.0
 40
5.0
 40
5.0
 40
6.0
 40
6.0
 40
6.0
 40
7.0
 40
7.0
 40
7.0
 40
8.0
 40
8.0
 40
8.0
 40
9.0
 40
9.0
 40
9.0
 40
10.0
 40
10.0
 40
10.0
 40
11.0
 40
11.0
 40
11.0
 40
12.0
 40
12.0
 40
12.0
 40
13.0
 40
13.0
 40
13.0
 40
14.0
 40
14.0
 40
14.0
 40
15.0
 40
15.0
 40
15.0
 40
16.0
 40
16.0
 40
16.0
 40
17.0
 40
17.0
 40
17.0
 40
18.0
 40
18.0
 40
18.0
 40
19.0
 40
19.0
 40
19.0
 40
19.0
 10
12.02596706814236
 20
-0.8295789930555555
 10
12.02596706814236
 20
-0.8295789930555555
 10
11.27562527126736
 20
1.463476562499999
 10
11.27562527126736
 20
1.463476562499999
 10
11.27562527126736
 20
1.463476562499999
 10
11.66905517578125
 20
1.463476562499999
 10
11.66905517578125
 20
1.463476562499999
 10
11.66905517578125
 20
1.463476562499999
 10
12.09590250651041
 20
-0.0409966362847222
 10
12.09590250651041
 20
-0.0409966362847222
 10
12.14344482421875
 20
-0.1980929904513889
 10
12.1854749891493
 20
-0.3541558159722222
 10
12.22095947265625
 20
-0.5088406032986111
 10
12.29640706380208
 20
-0.2649278428819444
 10
12.34084879557291
 20
-0.1240234375
 10
12.35359564887153
 20
-0.08681640625
 10
12.35359564887153
 20
-0.08681640625
 10
12.89516465928819
 20
1.463476562499999
 10
12.89516465928819
 20
1.463476562499999
 10
12.89516465928819
 20
1.463476562499999
 10
13.35232883029514
 20
1.463476562499999
 10
13.35232883029514
 20
1.463476562499999
 10
13.35232883029514
 20
1.463476562499999
 10
13.75988362630208
 20
0.3017903645833333
 10
13.75988362630208
 20
0.3017903645833333
 10
13.86323649088541
 20
0.0141248914930556
 10
13.93833957248264
 20
-0.2559705946180555
 10
13.98484836154514
 20
-0.5088406032986111
 10
14.0241224500868
 20
-0.3648356119791666
 10
14.07200927734375
 20
-0.1987820095486111
 10
14.12850884331597
 20
-0.0103352864583333
 10
14.12850884331597
 20
-0.0103352864583333
 10
14.57671576605902
 20
1.463476562499999
 10
14.57671576605902
 20
1.463476562499999
 10
14.57671576605902
 20
1.463476562499999
 10
14.95774332682291
 20
1.463476562499999
 10
14.95774332682291
 20
1.463476562499999
 10
14.95774332682291
 20
1.463476562499999
 10
14.17742919921875
 20
-0.8295789930555555
 10
14.17742919921875
 20
-0.8295789930555555
 10
14.17742919921875
 20
-0.8295789930555555
 10
13.80673692491319
 20
-0.8295789930555555
 10
13.80673692491319
 20
-0.8295789930555555
 10
13.80673692491319
 20
-0.8295789930555555
 10
13.20625678168402
 20
0.918117947048611
 10
13.20625678168402
 20
0.918117947048611
 10
13.1559583875868
 20
1.064189995659722
 10
13.12529703776041
 20
1.153762478298611
 10
13.11392822265625
 20
1.186490885416666
 10
13.08188883463542
 20
1.081759982638888
 10
13.05295003255208
 20
0.9921874999999998
 10
13.02780083550347
 20
0.9177734375
 10
13.02780083550347
 20
0.9177734375
 10
12.42490912543402
 20
-0.8295789930555555
 10
12.42490912543402
 20
-0.8295789930555555
 10
12.42490912543402
 20
-0.8295789930555555
 10
12.02596706814236
 20
-0.8295789930555555
 10
12.02596706814236
 20
-0.8295789930555555
 97
        0
 75
     2
 76
     1
 98
        1
 10
0.0
 20
0.0
  0
HATCH
  5
84
330
68
100
AcDbEntity
  8
LAYER_2
 62
     3
100
AcDbHatch
 10
0.0
 20
0.0
 30
0.0
210
0.0
220
0.0
230
1.0
  2
SOLID
 70
     1
 71
     0
 91
        1
 92
        1
 93
        1
 72
     4
 94
        3
 73
     0
 74
     0
 95
       62
 96
       58
 40
0.0
 40
0.0
 40
0.0
 40
0.0
 40
1.0
 40
1.0
 40
1.0
 40
2.0
 40
2.0
 40
2.0
 40
3.0
 40
3.0
 40
3.0
 40
4.0
 40
4.0
 40
4.0
 40
5.0
 40
5.0
 40
5.0
 40
6.0
 40
6.0
 40
6.0
 40
7.0
 40
7.0
 40
7.0
 40
8.0
 40
8.0
 40
8.0
 40
9.0
 40
9.0
 40
9.0
 40
10.0
 40
10.0
 40
10.0
 40
11.0
 40
11.0
 40
11.0
 40
12.0
 40
12.0
 40
12.0
 40
13.0
 40
13.0
 40
13.0
 40
14.0
 40
14.0
 40
14.0
 40
15.0
 40
15.0
 40
15.0
 40
16.0
 40
16.0
 40
16.0
 40
17.0
 40
17.0
 40
17.0
 40
18.0
 40
18.0
 40
18.0
 40
19.0
 40
19.0
 40
19.0
 40
19.0
 10
16.91317952473958
 20
-0.8295789930555555
 10
16.91317952473958
 20
-0.8295789930555555
 10
16.16283772786458
 20
1.463476562499999
 10
16.16283772786458
 20
1.463476562499999
 10
16.16283772786458
 20
1.463476562499999
 10
16.55626763237847
 20
1.463476562499999
 10
16.55626763237847
 20
1.463476562499999
 10
16.55626763237847
 20
1.463476562499999
 10
16.98311496310764
 20
-0.0409966362847222
 10
16.98311496310764
 20
-0.0409966362847222
 10
17.03065728081597
 20
-0.1980929904513889
 10
17.07268744574653
 20
-0.3541558159722222
 10
17.10817192925347
 20
-0.5088406032986111
 10
17.1836195203993
 20
-0.2649278428819444
 10
17.22806125217013
 20
-0.1240234375
 10
17.24080810546874
 20
-0.08681640625
 10
17.24080810546874
 20
-0.08681640625
 10
17.78237711588541
 20
1.463476562499999
 10
17.78237711588541
 20
1.463476562499999
 10
17.78237711588541
 20
1.463476562499999
 10
18.23954128689235
 20
1.463476562499999
 10
18.23954128689235
 20
1.463476562499999
 10
18.23954128689235
 20
1.463476562499999
 10
18.6470960828993
 20
0.3017903645833333
 10
18.6470960828993
 20
0.3017903645833333
 10
18.75044894748264
 20
0.0141248914930556
 10
18.82555202907986
 20
-0.2559705946180555
 10
18.87206081814236
 20
-0.5088406032986111
 10
18.91133490668402
 20
-0.3648356119791666
 10
18.95922173394097
 20
-0.1987820095486111
 10
19.01572129991319
 20
-0.0103352864583333
 10
19.01572129991319
 20
-0.0103352864583333
 10
19.46392822265625
 20
1.463476562499999
 10
19.46392822265625
 20
1.463476562499999
 10
19.46392822265625
 20
1.463476562499999
 10
19.84495578342013
 20
1.463476562499999
 10
19.84495578342013
 20
1.463476562499999
 10
19.84495578342013
 20
1.463476562499999
 10
19.06464165581597
 20
-0.8295789930555555
 10
19.06464165581597
 20
-0.8295789930555555
 10
19.06464165581597
 20
-0.8295789930555555
 10
18.69394938151041
 20
-0.8295789930555555
 10
18.69394938151041
 20
-0.8295789930555555
 10
18.69394938151041
 20
-0.8295789930555555
 10
18.09346923828124
 20
0.918117947048611
 10
18.09346923828124
 20
0.918117947048611
 10
18.04317084418402
 20
1.064189995659722
 10
18.01250949435764
 20
1.153762478298611
 10
18.00114067925347
 20
1.186490885416666
 10
17.96910129123263
 20
1.081759982638888
 10
17.9401624891493
 20
0.9921874999999998
 10
17.91501329210069
 20
0.9177734375
 10
17.91501329210069
 20
0.9177734375
 10
17.31212158203125
 20
-0.8295789930555555
 10
17.31212158203125
 20
-0.8295789930555555
 10
17.31212158203125
 20
-0.8295789930555555
 10
16.91317952473958
 20
-0.8295789930555555
 10
16.91317952473958
 20
-0.8295789930555555
 97
        0
 75
     2
 76
     1
 98
        1
 10
0.0
 20
0.0
  0
HATCH
  5
83
330
68
100
AcDbEntity
  8
LAYER_2
 62
     3
100
AcDbHatch
 10
0.0
 20
0.0
 30
0.0
210
0.0
220
0.0
230
1.0
  2
SOLID
 70
     1
 71
     0
 91
        1
 92
        1
 93
        1
 72
     4
 94
        3
 73
     0
 74
     0
 95
       17
 96
       13
 40
0.0
 40
0.0
 40
0.0
 40
0.0
 40
1.0
 40
1.0
 40
1.0
 40
2.0
 40
2.0
 40
2.0
 40
3.0
 40
3.0
 40
3.0
 40
4.0
 40
4.0
 40
4.0
 40
4.0
 10
21.36458740234375
 20
-0.8295789930555555
 10
21.36458740234375
 20
-0.8295789930555555
 10
21.36458740234375
 20
-0.5098741319444445
 10
21.36458740234375
 20
-0.5098741319444445
 10
21.36458740234375
 20
-0.5098741319444445
 10
21.76697455512153
 20
-0.5098741319444445
 10
21.76697455512153
 20
-0.5098741319444445
 10
21.76697455512153
 20
-0.5098741319444445
 10
21.76697455512153
 20
-0.8295789930555555
 10
21.76697455512153
 20
-0.8295789930555555
 10
21.76697455512153
 20
-0.8295789930555555
 10
21.36458740234375
 20
-0.8295789930555555
 10
21.36458740234375
 20
-0.8295789930555555
 97
        0
 75
     2
 76
     1
 98
        1
 10
0.0
 20
0.0
  0
HATCH
  5
82
330
68
100
AcDbEntity
  8
LAYER_2
 62
     3
100
AcDbHatch
 10
0.0
 20
0.0
 30
0.0
210
0.0
220
0.0
230
1.0
  2
SOLID
 70
     1
 71
     0
 91
        1
 92
        1
 93
        1
 72
     4
 94
        3
 73
     0
 74
     0
 95
       47
 96
       43
 40
0.0
 40
0.0
 40
0.0
 40
0.0
 40
1.0
 40
1.0
 40
1.0
 40
2.0
 40
2.0
 40
2.0
 40
3.0
 40
3.0
 40
3.0
 40
4.0
 40
4.0
 40
4.0
 40
5.0
 40
5.0
 40
5.0
 40
6.0
 40
6.0
 40
6.0
 40
7.0
 40
7.0
 40
7.0
 40
8.0
 40
8.0
 40
8.0
 40
9.0
 40
9.0
 40
9.0
 40
10.0
 40
10.0
 40
10.0
 40
11.0
 40
11.0
 40
11.0
 40
12.0
 40
12.0
 40
12.0
 40
13.0
 40
13.0
 40
13.0
 40
14.0
 40
14.0
 40
14.0
 40
14.0
 10
23.33931613498263
 20
-0.1781114366319444
 10
23.33931613498263
 20
-0.1781114366319444
 10
23.68106960720486
 20
-0.1405598958333333
 10
23.68106960720486
 20
-0.1405598958333333
 10
23.69002685546875
 20
-0.316259765625
 10
23.73136800130208
 20
-0.4361490885416666
 10
23.80440402560763
 20
-0.5009168836805556
 10
23.87709554036458
 20
-0.5656846788194444
 10
23.97803683810764
 20
-0.598068576388889
 10
24.1072279188368
 20
-0.598068576388889
 10
24.20231255425347
 20
-0.598068576388889
 10
24.28465033637153
 20
-0.5808430989583333
 10
24.35355224609375
 20
-0.545703125
 10
24.42279866536458
 20
-0.5105631510416666
 10
24.47034098307292
 20
-0.4633653428819445
 10
24.49617919921875
 20
-0.4034206814236111
 10
24.52236192491319
 20
-0.3434760199652778
 10
24.53545328776042
 20
-0.2477023654513889
 10
24.53545328776042
 20
-0.1164442274305555
 10
24.53545328776042
 20
-0.1164442274305555
 10
24.53545328776042
 20
1.463476562499999
 10
24.53545328776042
 20
1.463476562499999
 10
24.53545328776042
 20
1.463476562499999
 10
24.91579182942708
 20
1.463476562499999
 10
24.91579182942708
 20
1.463476562499999
 10
24.91579182942708
 20
1.463476562499999
 10
24.91579182942708
 20
-0.0988742404513889
 10
24.91579182942708
 20
-0.0988742404513889
 10
24.91579182942708
 20
-0.2907660590277778
 10
24.88685302734375
 20
-0.4392496744791666
 10
24.82863091362847
 20
-0.5443250868055555
 10
24.7707533094618
 20
-0.6497450086805556
 10
24.67876925998264
 20
-0.7300157335069444
 10
24.55302327473958
 20
-0.7854817708333333
 10
24.42727728949653
 20
-0.840603298611111
 10
24.27948269314236
 20
-0.8681640624999998
 10
24.10998399522569
 20
-0.8681640624999998
 10
23.85814751519097
 20
-0.8681640624999998
 10
23.66556667751736
 20
-0.8102864583333332
 10
23.53189697265625
 20
-0.69453125
 10
23.39822726779514
 20
-0.5787760416666666
 10
23.33414849175347
 20
-0.4065212673611111
 10
23.33931613498263
 20
-0.1781114366319444
 97
        0
 75
     2
 76
     1
 98
        1
 10
0.0
 20
0.0
  0
HATCH
  5
81
330
68
100
AcDbEntity
  8
LAYER_2
 62
     3
100
AcDbHatch
 10
0.0
 20
0.0
 30
0.0
210
0.0
220
0.0
230
1.0
  2
SOLID
 70
     1
 71
     0
 91
        1
 92
        1
 93
        1
 72
     4
 94
        3
 73
     0
 74
     0
 95
       56
 96
       52
 40
0.0
 40
0.0
 40
0.0
 40
0.0
 40
1.0
 40
1.0
 40
1.0
 40
2.0
 40
2.0
 40
2.0
 40
3.0
 40
3.0
 40
3.0
 40
4.0
 40
4.0
 40
4.0
 40
5.0
 40
5.0
 40
5.0
 40
6.0
 40
6.0
 40
6.0
 40
7.0
 40
7.0
 40
7.0
 40
8.0
 40
8.0
 40
8.0
 40
9.0
 40
9.0
 40
9.0
 40
10.0
 40
10.0
 40
10.0
 40
11.0
 40
11.0
 40
11.0
 40
12.0
 40
12.0
 40
12.0
 40
13.0
 40
13.0
 40
13.0
 40
14.0
 40
14.0
 40
14.0
 40
15.0
 40
15.0
 40
15.0
 40
16.0
 40
16.0
 40
16.0
 40
17.0
 40
17.0
 40
17.0
 40
17.0
 10
28.52349582248264
 20
1.463476562499999
 10
28.52349582248264
 20
1.463476562499999
 10
28.90383436414931
 20
1.463476562499999
 10
28.90383436414931
 20
1.463476562499999
 10
28.90383436414931
 20
1.463476562499999
 10
28.90383436414931
 20
0.1388373480902778
 10
28.90383436414931
 20
0.1388373480902778
 10
28.90383436414931
 20
-0.0916395399305556
 10
28.87110595703125
 20
-0.2745741102430555
 10
28.80599365234375
 20
-0.4099663628472223
 10
28.74088134765625
 20
-0.545703125
 10
28.62340359157986
 20
-0.6559461805555556
 10
28.45321587456597
 20
-0.7406955295138889
 10
28.28302815755208
 20
-0.8257893880208332
 10
28.05978597005208
 20
-0.8681640624999998
 10
27.78348931206597
 20
-0.8681640624999998
 10
27.5147718641493
 20
-0.8681640624999998
 10
27.29531928168403
 20
-0.83095703125
 10
27.12444254557292
 20
-0.7572319878472222
 10
26.95391031901042
 20
-0.6831624348958333
 10
26.83195393880208
 20
-0.5760199652777778
 10
26.75891791449652
 20
-0.4358045789930556
 10
26.68588189019097
 20
-0.2955891927083333
 10
26.64936387803819
 20
-0.1040418836805555
 10
26.64936387803819
 20
0.1388373480902778
 10
26.64936387803819
 20
0.1388373480902778
 10
26.64936387803819
 20
1.463476562499999
 10
26.64936387803819
 20
1.463476562499999
 10
26.64936387803819
 20
1.463476562499999
 10
27.02970241970486
 20
1.463476562499999
 10
27.02970241970486
 20
1.463476562499999
 10
27.02970241970486
 20
1.463476562499999
 10
27.02970241970486
 20
0.1419379340277778
 10
27.02970241970486
 20
0.1419379340277778
 10
27.02970241970486
 20
-0.0571885850694445
 10
27.0527845594618
 20
-0.2039496527777778
 10
27.09894883897569
 20
-0.2980007595486111
 10
27.14511311848958
 20
-0.3923963758680555
 10
27.22469482421875
 20
-0.465087890625
 10
27.33734944661458
 20
-0.5160753038194445
 10
27.45000406901042
 20
-0.567062717013889
 10
27.58746337890625
 20
-0.5925564236111111
 10
27.7504163953993
 20
-0.5925564236111111
 10
28.02878011067708
 20
-0.5925564236111111
 10
28.22721761067708
 20
-0.5422580295138888
 10
28.34572889539931
 20
-0.4409722222222223
 10
28.46424018012152
 20
-0.3400309244791666
 10
28.52349582248264
 20
-0.1457275390625
 10
28.52349582248264
 20
0.1419379340277778
 10
28.52349582248264
 20
0.1419379340277778
 10
28.52349582248264
 20
1.463476562499999
 10
28.52349582248264
 20
1.463476562499999
 97
        0
 75
     2
 76
     1
 98
        1
 10
0.0
 20
0.0
  0
HATCH
  5
80
330
68
100
AcDbEntity
  8
LAYER_2
 62
     3
100
AcDbHatch
 10
0.0
 20
0.0
 30
0.0
210
0.0
220
0.0
230
1.0
  2
SOLID
 70
     1
 71
     0
 91
        1
 92
        1
 93
        1
 72
     4
 94
        3
 73
     0
 74
     0
 95
       23
 96
       19
 40
0.0
 40
0.0
 40
0.0
 40
0.0
 40
1.0
 40
1.0
 40
1.0
 40
2.0
 40
2.0
 40
2.0
 40
3.0
 40
3.0
 40
3.0
 40
4.0
 40
4.0
 40
4.0
 40
5.0
 40
5.0
 40
5.0
 40
6.0
 40
6.0
 40
6.0
 40
6.0
 10
30.62810465494792
 20
-0.8295789930555555
 10
30.62810465494792
 20
-0.8295789930555555
 10
30.62810465494792
 20
1.463476562499999
 10
30.62810465494792
 20
1.463476562499999
 10
30.62810465494792
 20
1.463476562499999
 10
31.00844319661459
 20
1.463476562499999
 10
31.00844319661459
 20
1.463476562499999
 10
31.00844319661459
 20
1.463476562499999
 10
31.00844319661459
 20
-0.5594835069444444
 10
31.00844319661459
 20
-0.5594835069444444
 10
31.00844319661459
 20
-0.5594835069444444
 10
32.41955430772569
 20
-0.5594835069444444
 10
32.41955430772569
 20
-0.5594835069444444
 10
32.41955430772569
 20
-0.5594835069444444
 10
32.41955430772569
 20
-0.8295789930555555
 10
32.41955430772569
 20
-0.8295789930555555
 10
32.41955430772569
 20
-0.8295789930555555
 10
30.62810465494792
 20
-0.8295789930555555
 10
30.62810465494792
 20
-0.8295789930555555
 97
        0
 75
     2
 76
     1
 98
        1
 10
0.0
 20
0.0
  0
HATCH
  5
7F
330
68
100
AcDbEntity
  8
LAYER_2
 62
     3
100
AcDbHatch
 10
0.0
 20
0.0
 30
0.0
210
0.0
220
0.0
230
1.0
  2
SOLID
 70
     1
 71
     0
 91
        1
 92
        1
 93
        1
 72
     4
 94
        3
 73
     0
 74
     0
 95
       17
 96
       13
 40
0.0
 40
0.0
 40
0.0
 40
0.0
 40
1.0
 40
1.0
 40
1.0
 40
2.0
 40
2.0
 40
2.0
 40
3.0
 40
3.0
 40
3.0
 40
4.0
 40
4.0
 40
4.0
 40
4.0
 10
33.89853379991319
 20
-0.8295789930555555
 10
33.89853379991319
 20
-0.8295789930555555
 10
33.89853379991319
 20
1.463476562499999
 10
33.89853379991319
 20
1.463476562499999
 10
33.89853379991319
 20
1.463476562499999
 10
34.27887234157986
 20
1.463476562499999
 10
34.27887234157986
 20
1.463476562499999
 10
34.27887234157986
 20
1.463476562499999
 10
34.27887234157986
 20
-0.8295789930555555
 10
34.27887234157986
 20
-0.8295789930555555
 10
34.27887234157986
 20
-0.8295789930555555
 10
33.89853379991319
 20
-0.8295789930555555
 10
33.89853379991319
 20
-0.8295789930555555
 97
        0
 75
     2
 76
     1
 98
        1
 10
0.0
 20
0.0
  0
HATCH
  5
7E
330
68
100
AcDbEntity
  8
LAYER_2
 62
     3
100
AcDbHatch
 10
0.0
 20
0.0
 30
0.0
210
0.0
220
0.0
230
1.0
  2
SOLID
 70
     1
 71
     0
 91
        1
 92
        1
 93
        1
 72
     4
 94
        3
 73
     0
 74
     0
 95
       56
 96
       52
 40
0.0
 40
0.0
 40
0.0
 40
0.0
 40
1.0
 40
1.0
 40
1.0
 40
2.0
 40
2.0
 40
2.0
 40
3.0
 40
3.0
 40
3.0
 40
4.0
 40
4.0
 40
4.0
 40
5.0
 40
5.0
 40
5.0
 40
6.0
 40
6.0
 40
6.0
 40
7.0
 40
7.0
 40
7.0
 40
8.0
 40
8.0
 40
8.0
 40
9.0
 40
9.0
 40
9.0
 40
10.0
 40
10.0
 40
10.0
 40
11.0
 40
11.0
 40
11.0
 40
12.0
 40
12.0
 40
12.0
 40
13.0
 40
13.0
 40
13.0
 40
14.0
 40
14.0
 40
14.0
 40
15.0
 40
15.0
 40
15.0
 40
16.0
 40
16.0
 40
16.0
 40
17.0
 40
17.0
 40
17.0
 40
17.0
 10
37.93480767144097
 20
1.463476562499999
 10
37.93480767144097
 20
1.463476562499999
 10
38.31514621310764
 20
1.463476562499999
 10
38.31514621310764
 20
1.463476562499999
 10
38.31514621310764
 20
1.463476562499999
 10
38.31514621310764
 20
0.1388373480902778
 10
38.31514621310764
 20
0.1388373480902778
 10
38.31514621310764
 20
-0.0916395399305556
 10
38.28241780598958
 20
-0.2745741102430555
 10
38.21730550130208
 20
-0.4099663628472223
 10
38.15219319661458
 20
-0.545703125
 10
38.03471544053819
 20
-0.6559461805555556
 10
37.86452772352431
 20
-0.7406955295138889
 10
37.69434000651042
 20
-0.8257893880208332
 10
37.47109781901041
 20
-0.8681640624999998
 10
37.1948011610243
 20
-0.8681640624999998
 10
36.92608371310764
 20
-0.8681640624999998
 10
36.70663113064236
 20
-0.83095703125
 10
36.53575439453125
 20
-0.7572319878472222
 10
36.36522216796875
 20
-0.6831624348958333
 10
36.24326578776042
 20
-0.5760199652777778
 10
36.17022976345486
 20
-0.4358045789930556
 10
36.09719373914931
 20
-0.2955891927083333
 10
36.06067572699652
 20
-0.1040418836805555
 10
36.06067572699652
 20
0.1388373480902778
 10
36.06067572699652
 20
0.1388373480902778
 10
36.06067572699652
 20
1.463476562499999
 10
36.06067572699652
 20
1.463476562499999
 10
36.06067572699652
 20
1.463476562499999
 10
36.44101426866319
 20
1.463476562499999
 10
36.44101426866319
 20
1.463476562499999
 10
36.44101426866319
 20
1.463476562499999
 10
36.44101426866319
 20
0.1419379340277778
 10
36.44101426866319
 20
0.1419379340277778
 10
36.44101426866319
 20
-0.0571885850694445
 10
36.46409640842013
 20
-0.2039496527777778
 10
36.51026068793402
 20
-0.2980007595486111
 10
36.55642496744791
 20
-0.3923963758680555
 10
36.63600667317708
 20
-0.465087890625
 10
36.74866129557292
 20
-0.5160753038194445
 10
36.86131591796875
 20
-0.567062717013889
 10
36.99877522786458
 20
-0.5925564236111111
 10
37.16172824435763
 20
-0.5925564236111111
 10
37.44009195963541
 20
-0.5925564236111111
 10
37.63852945963542
 20
-0.5422580295138888
 10
37.75704074435764
 20
-0.4409722222222223
 10
37.87555202907986
 20
-0.3400309244791666
 10
37.93480767144097
 20
-0.1457275390625
 10
37.93480767144097
 20
0.1419379340277778
 10
37.93480767144097
 20
0.1419379340277778
 10
37.93480767144097
 20
1.463476562499999
 10
37.93480767144097
 20
1.463476562499999
 97
        0
 75
     2
 76
     1
 98
        1
 10
0.0
 20
0.0
  0
HATCH
  5
7D
330
68
100
AcDbEntity
  8
LAYER_2
 62
     3
100
AcDbHatch
 10
0.0
 20
0.0
 30
0.0
210
0.0
220
0.0
230
1.0
  2
SOLID
 70
     1
 71
     0
 91
        1
 92
        1
 93
        1
 72
     4
 94
        3
 73
     0
 74
     0
 95
      110
 96
      106
 40
0.0
 40
0.0
 40
0.0
 40
0.0
 40
1.0
 40
1.0
 40
1.0
 40
2.0
 40
2.0
 40
2.0
 40
3.0
 40
3.0
 40
3.0
 40
4.0
 40
4.0
 40
4.0
 40
5.0
 40
5.0
 40
5.0
 40
6.0
 40
6.0
 40
6.0
 40
7.0
 40
7.0
 40
7.0
 40
8.0
 40
8.0
 40
8.0
 40
9.0
 40
9.0
 40
9.0
 40
10.0
 40
10.0
 40
10.0
 40
11.0
 40
11.0
 40
11.0
 40
12.0
 40
12.0
 40
12.0
 40
13.0
 40
13.0
 40
13.0
 40
14.0
 40
14.0
 40
14.0
 40
15.0
 40
15.0
 40
15.0
 40
16.0
 40
16.0
 40
16.0
 40
17.0
 40
17.0
 40
17.0
 40
18.0
 40
18.0
 40
18.0
 40
19.0
 40
19.0
 40
19.0
 40
20.0
 40
20.0
 40
20.0
 40
21.0
 40
21.0
 40
21.0
 40
22.0
 40
22.0
 40
22.0
 40
23.0
 40
23.0
 40
23.0
 40
24.0
 40
24.0
 40
24.0
 40
25.0
 40
25.0
 40
25.0
 40
26.0
 40
26.0
 40
26.0
 40
27.0
 40
27.0
 40
27.0
 40
28.0
 40
28.0
 40
28.0
 40
29.0
 40
29.0
 40
29.0
 40
30.0
 40
30.0
 40
30.0
 40
31.0
 40
31.0
 40
31.0
 40
32.0
 40
32.0
 40
32.0
 40
33.0
 40
33.0
 40
33.0
 40
34.0
 40
34.0
 40
34.0
 40
35.0
 40
35.0
 40
35.0
 40
35.0
 10
39.92917344835069
 20
-0.0964626736111111
 10
39.92917344835069
 20
-0.0964626736111111
 10
40.28746337890624
 20
-0.0689019097222222
 10
40.28746337890624
 20
-0.0689019097222222
 10
40.30434434678819
 20
-0.1839680989583333
 10
40.34361843532986
 20
-0.2780192057291666
 10
40.40494113498263
 20
-0.3513997395833333
 10
40.46660834418402
 20
-0.4251247829861111
 10
40.5620374891493
 20
-0.4847249348958333
 10
40.69157307942708
 20
-0.5298556857638889
 10
40.82110866970485
 20
-0.5753309461805555
 10
40.96718071831596
 20
-0.598068576388889
 10
41.12910020616318
 20
-0.598068576388889
 10
41.27276068793402
 20
-0.598068576388889
 10
41.39988471137153
 20
-0.5808430989583333
 10
41.50978325737846
 20
-0.5463921440972222
 10
41.62002631293402
 20
-0.5119411892361111
 10
41.70201958550347
 20
-0.4647433810763889
 10
41.7557630750868
 20
-0.4047987196180556
 10
41.80950656467014
 20
-0.3448540581597222
 10
41.8363783094618
 20
-0.2793972439236111
 10
41.8363783094618
 20
-0.2087727864583333
 10
41.8363783094618
 20
-0.1367702907986111
 10
41.80985107421874
 20
-0.0740695529513889
 10
41.75645209418402
 20
-0.0206705729166667
 10
41.7030531141493
 20
0.0330729166666667
 10
41.61692572699652
 20
0.0778591579861111
 10
41.49806993272568
 20
0.1143771701388889
 10
41.42193332248264
 20
0.1384928385416666
 10
41.25312364366318
 20
0.1756998697916666
 10
40.99232991536458
 20
0.2263427734375
 10
40.73153618706597
 20
0.2769856770833333
 10
40.54825710720485
 20
0.3245279947916666
 10
40.44352620442707
 20
0.3693142361111111
 10
40.30744493272569
 20
0.4268473307291666
 10
40.20615912543402
 20
0.4981608072916666
 10
40.13932427300346
 20
0.5832546657986111
 10
40.07283393012152
 20
0.6683485243055555
 10
40.03941650390625
 20
0.7637776692708333
 10
40.03941650390625
 20
0.8691975911458332
 10
40.03941650390625
 20
0.9852973090277776
 10
40.08006863064236
 20
1.093473307291666
 10
40.16171739366319
 20
1.19407009548611
 10
40.24336615668402
 20
1.295011393229166
 10
40.36256646050346
 20
1.371492513020833
 10
40.51931830512152
 20
1.423513454861111
 10
40.67572564019097
 20
1.47587890625
 10
40.85004747178818
 20
1.502061631944444
 10
41.04159478081597
 20
1.502061631944444
 10
41.25277913411458
 20
1.502061631944444
 10
41.43881429036458
 20
1.474845377604166
 10
41.60004475911458
 20
1.420068359374999
 10
41.76127522786457
 20
1.365635850694444
 10
41.88529866536458
 20
1.285020616319444
 10
41.97211507161457
 20
1.178911675347222
 10
42.05893147786458
 20
1.072802734374999
 10
42.10544026692708
 20
0.9529134114583332
 10
42.11198594835069
 20
0.8185546875
 10
42.11198594835069
 20
0.8185546875
 10
41.74818386501736
 20
0.7965060763888889
 10
41.74818386501736
 20
0.7965060763888889
 10
41.72854682074652
 20
0.9401665581597221
 10
41.66309000651041
 20
1.048687065972222
 10
41.55146891276041
 20
1.121723090277777
 10
41.43984781901041
 20
1.195448133680555
 10
41.27448323567707
 20
1.231966145833333
 10
41.05640869140624
 20
1.231966145833333
 10
40.82903238932291
 20
1.231966145833333
 10
40.66332329644096
 20
1.198204210069444
 10
40.55928141276041
 20
1.131024848090277
 10
40.45523952907985
 20
1.063845486111111
 10
40.40321858723958
 20
0.9828857421875
 10
40.40321858723958
 20
0.8881456163194442
 10
40.40321858723958
 20
0.8058078342013887
 10
40.44008110894096
 20
0.737939453125
 10
40.51380615234374
 20
0.6848849826388889
 10
40.58615315755208
 20
0.6318305121527778
 10
40.77494439019097
 20
0.5773980034722222
 10
41.08052435980902
 20
0.5215874565972222
 10
41.38610432942708
 20
0.4657769097222222
 10
41.59625515407985
 20
0.4172010633680556
 10
41.71097683376735
 20
0.3755154079861111
 10
41.87806396484375
 20
0.3141927083333333
 10
42.00139838324652
 20
0.2363335503472222
 10
42.08063557942708
 20
0.1422824435763889
 10
42.16056179470485
 20
0.0482313368055556
 10
42.20018039279513
 20
-0.0602891710069445
 10
42.20018039279513
 20
-0.1832790798611111
 10
42.20018039279513
 20
-0.3048909505208333
 10
42.15677218967013
 20
-0.4196126302083333
 10
42.06961127387152
 20
-0.527099609375
 10
41.98279486762152
 20
-0.6349310980902777
 10
41.8580824110243
 20
-0.7186469184027777
 10
41.69512939453124
 20
-0.7785915798611111
 10
41.53217637803819
 20
-0.8381917317708332
 10
41.34889729817707
 20
-0.8681640624999998
 10
41.14563666449652
 20
-0.8681640624999998
 10
40.88725450303819
 20
-0.8681640624999998
 10
40.67090250651041
 20
-0.8378472222222221
 10
40.49658067491319
 20
-0.7779025607638889
 10
40.32191433376736
 20
-0.7179578993055556
 10
40.18514404296874
 20
-0.6273518880208333
 10
40.08592529296874
 20
-0.5064290364583333
 10
39.98670654296875
 20
-0.3855061848958333
 10
39.93434109157986
 20
-0.2487358940972222
 10
39.92917344835069
 20
-0.0964626736111111
 97
        0
 75
     2
 76
     1
 98
        1
 10
0.0
 20
0.0
  0
HATCH
  5
7C
330
68
100
AcDbEntity
  8
LAYER_2
 62
     3
100
AcDbHatch
 10
0.0
 20
0.0
 30
0.0
210
0.0
220
0.0
230
1.0
  2
SOLID
 70
     1
 71
     0
 91
        3
 92
       16
 93
        1
 72
     4
 94
        3
 73
     0
 74
     0
 95
       35
 96
       31
 40
0.0
 40
0.0
 40
0.0
 40
0.0
 40
1.0
 40
1.0
 40
1.0
 40
2.0
 40
2.0
 40
2.0
 40
3.0
 40
3.0
 40
3.0
 40
4.0
 40
4.0
 40
4.0
 40
5.0
 40
5.0
 40
5.0
 40
6.0
 40
6.0
 40
6.0
 40
7.0
 40
7.0
 40
7.0
 40
8.0
 40
8.0
 40
8.0
 40
9.0
 40
9.0
 40
9.0
 40
10.0
 40
10.0
 40
10.0
 40
10.0
 10
44.19936930338541
 20
-0.5594835069444444
 10
44.19936930338541
 20
-0.5594835069444444
 10
44.91147054036457
 20
-0.5594835069444444
 10
44.91147054036457
 20
-0.5594835069444444
 10
45.03377143012152
 20
-0.5594835069444444
 10
45.11955430772569
 20
-0.5560384114583333
 10
45.16881917317707
 20
-0.5484592013888889
 10
45.2563245985243
 20
-0.536056857638889
 10
45.32901611328124
 20
-0.5153862847222222
 10
45.38758273654513
 20
-0.4861029730902777
 10
45.44580485026041
 20
-0.4568196614583333
 10
45.49403618706596
 20
-0.4144449869791666
 10
45.53193223741319
 20
-0.3586344401041666
 10
45.5694837782118
 20
-0.3028238932291666
 10
45.5884318033854
 20
-0.2384006076388889
 10
45.5884318033854
 20
-0.1653645833333333
 10
45.5884318033854
 20
-0.0799262152777778
 10
45.56087103949653
 20
-0.0055121527777778
 10
45.50540500217013
 20
0.0575330946180556
 10
45.44993896484374
 20
0.1205783420138889
 10
45.3741468641493
 20
0.1646755642361111
 10
45.27733968098957
 20
0.1905137803819444
 10
45.18053249782986
 20
0.2160074869791666
 10
45.04135064019097
 20
0.2287543402777778
 10
44.8594495985243
 20
0.2287543402777778
 10
44.8594495985243
 20
0.2287543402777778
 10
44.19936930338541
 20
0.2287543402777778
 10
44.19936930338541
 20
0.2287543402777778
 10
44.19936930338541
 20
0.2287543402777778
 10
44.19936930338541
 20
-0.5594835069444444
 10
44.19936930338541
 20
-0.5594835069444444
 97
        0
 92
       16
 93
        1
 72
     4
 94
        3
 73
     0
 74
     0
 95
       32
 96
       28
 40
0.0
 40
0.0
 40
0.0
 40
0.0
 40
1.0
 40
1.0
 40
1.0
 40
2.0
 40
2.0
 40
2.0
 40
3.0
 40
3.0
 40
3.0
 40
4.0
 40
4.0
 40
4.0
 40
5.0
 40
5.0
 40
5.0
 40
6.0
 40
6.0
 40
6.0
 40
7.0
 40
7.0
 40
7.0
 40
8.0
 40
8.0
 40
8.0
 40
9.0
 40
9.0
 40
9.0
 40
9.0
 10
44.19936930338541
 20
0.4988498263888889
 10
44.19936930338541
 20
0.4988498263888889
 10
44.81673041449652
 20
0.4988498263888889
 10
44.81673041449652
 20
0.4988498263888889
 10
44.98416205512152
 20
0.4988498263888889
 10
45.1043958875868
 20
0.5078070746527778
 10
45.17708740234374
 20
0.5253770616319445
 10
45.27286105685763
 20
0.5484592013888889
 10
45.34520806206597
 20
0.5866997612847222
 10
45.39412841796874
 20
0.6400987413194443
 10
45.44270426432291
 20
0.6931532118055555
 10
45.4671644422743
 20
0.7599880642361111
 10
45.4671644422743
 20
0.840603298611111
 10
45.4671644422743
 20
0.9170844184027776
 10
45.44442681206597
 20
0.9839192708333332
 10
45.3989515516493
 20
1.04214138454861
 10
45.35347629123263
 20
1.100018988715277
 10
45.28870849609375
 20
1.139637586805555
 10
45.20430365668402
 20
1.161341688368055
 10
45.1198988172743
 20
1.182701280381944
 10
44.97520480685763
 20
1.193381076388888
 10
44.76987711588541
 20
1.193381076388888
 10
44.76987711588541
 20
1.193381076388888
 10
44.19936930338541
 20
1.193381076388888
 10
44.19936930338541
 20
1.193381076388888
 10
44.19936930338541
 20
1.193381076388888
 10
44.19936930338541
 20
0.4988498263888889
 10
44.19936930338541
 20
0.4988498263888889
 97
        0
 92
        1
 93
        1
 72
     4
 94
        3
 73
     0
 74
     0
 95
       47
 96
       43
 40
0.0
 40
0.0
 40
0.0
 40
0.0
 40
1.0
 40
1.0
 40
1.0
 40
2.0
 40
2.0
 40
2.0
 40
3.0
 40
3.0
 40
3.0
 40
4.0
 40
4.0
 40
4.0
 40
5.0
 40
5.0
 40
5.0
 40
6.0
 40
6.0
 40
6.0
 40
7.0
 40
7.0
 40
7.0
 40
8.0
 40
8.0
 40
8.0
 40
9.0
 40
9.0
 40
9.0
 40
10.0
 40
10.0
 40
10.0
 40
11.0
 40
11.0
 40
11.0
 40
12.0
 40
12.0
 40
12.0
 40
13.0
 40
13.0
 40
13.0
 40
14.0
 40
14.0
 40
14.0
 40
14.0
 10
43.81903076171874
 20
-0.8295789930555555
 10
43.81903076171874
 20
-0.8295789930555555
 10
43.81903076171874
 20
1.463476562499999
 10
43.81903076171874
 20
1.463476562499999
 10
43.81903076171874
 20
1.463476562499999
 10
44.89286702473958
 20
1.463476562499999
 10
44.89286702473958
 20
1.463476562499999
 10
45.11163058810764
 20
1.463476562499999
 10
45.28698594835069
 20
1.440049913194444
 10
45.41927761501735
 20
1.393885633680555
 10
45.55122477213541
 20
1.347032335069444
 10
45.65492214626735
 20
1.275718858506944
 10
45.72968071831597
 20
1.178911675347222
 10
45.80443929036458
 20
1.082449001736111
 10
45.84199083116319
 20
0.9811631944444442
 10
45.84199083116319
 20
0.8757432725694444
 10
45.84199083116319
 20
0.7779025607638889
 10
45.80857340494791
 20
0.6852294921875
 10
45.74208306206596
 20
0.5987575954861111
 10
45.67524820963541
 20
0.5119411892361111
 10
45.57465142144097
 20
0.4416612413194444
 10
45.43994818793402
 20
0.3886067708333333
 10
45.61323649088541
 20
0.3479546440972222
 10
45.74656168619791
 20
0.2787082248263888
 10
45.83992377387152
 20
0.1808675130208333
 10
45.93294135199652
 20
0.0830268012152778
 10
45.97979465060763
 20
-0.0323838975694445
 10
45.97979465060763
 20
-0.1657090928819444
 10
45.97979465060763
 20
-0.2731960720486111
 10
45.95154486762152
 20
-0.3727593315972222
 10
45.8950453016493
 20
-0.465087890625
 10
45.83820122612847
 20
-0.5570719401041666
 10
45.76826578776041
 20
-0.6280409071180556
 10
45.68489447699652
 20
-0.6779947916666666
 10
45.60152316623263
 20
-0.7279486762152777
 10
45.49748128255208
 20
-0.7658447265625
 10
45.37173529730902
 20
-0.7913384331597222
 10
45.24598931206596
 20
-0.8168321397569442
 10
45.09233805338541
 20
-0.8295789930555555
 10
44.91009250217014
 20
-0.8295789930555555
 10
44.91009250217014
 20
-0.8295789930555555
 10
43.81903076171874
 20
-0.8295789930555555
 10
43.81903076171874
 20
-0.8295789930555555
 97
        0
 75
     2
 76
     1
 98
        1
 10
0.0
 20
0.0
  0
HATCH
  5
7B
330
68
100
AcDbEntity
  8
LAYER_2
 62
     3
100
AcDbHatch
 10
0.0
 20
0.0
 30
0.0
210
0.0
220
0.0
230
1.0
  2
SOLID
 70
     1
 71
     0
 91
        1
 92
        1
 93
        1
 72
     4
 94
        3
 73
     0
 74
     0
 95
       23
 96
       19
 40
0.0
 40
0.0
 40
0.0
 40
0.0
 40
1.0
 40
1.0
 40
1.0
 40
2.0
 40
2.0
 40
2.0
 40
3.0
 40
3.0
 40
3.0
 40
4.0
 40
4.0
 40
4.0
 40
5.0
 40
5.0
 40
5.0
 40
6.0
 40
6.0
 40
6.0
 40
6.0
 10
47.59864501953124
 20
-0.8295789930555555
 10
47.59864501953124
 20
-0.8295789930555555
 10
47.59864501953124
 20
1.463476562499999
 10
47.59864501953124
 20
1.463476562499999
 10
47.59864501953124
 20
1.463476562499999
 10
47.97898356119791
 20
1.463476562499999
 10
47.97898356119791
 20
1.463476562499999
 10
47.97898356119791
 20
1.463476562499999
 10
47.97898356119791
 20
-0.5594835069444444
 10
47.97898356119791
 20
-0.5594835069444444
 10
47.97898356119791
 20
-0.5594835069444444
 10
49.39009467230903
 20
-0.5594835069444444
 10
49.39009467230903
 20
-0.5594835069444444
 10
49.39009467230903
 20
-0.5594835069444444
 10
49.39009467230903
 20
-0.8295789930555555
 10
49.39009467230903
 20
-0.8295789930555555
 10
49.39009467230903
 20
-0.8295789930555555
 10
47.59864501953124
 20
-0.8295789930555555
 10
47.59864501953124
 20
-0.8295789930555555
 97
        0
 75
     2
 76
     1
 98
        1
 10
0.0
 20
0.0
  0
HATCH
  5
7A
330
68
100
AcDbEntity
  8
LAYER_2
 62
     3
100
AcDbHatch
 10
0.0
 20
0.0
 30
0.0
210
0.0
220
0.0
230
1.0
  2
SOLID
 70
     1
 71
     0
 91
        1
 92
        1
 93
        1
 72
     4
 94
        3
 73
     0
 74
     0
 95
       56
 96
       52
 40
0.0
 40
0.0
 40
0.0
 40
0.0
 40
1.0
 40
1.0
 40
1.0
 40
2.0
 40
2.0
 40
2.0
 40
3.0
 40
3.0
 40
3.0
 40
4.0
 40
4.0
 40
4.0
 40
5.0
 40
5.0
 40
5.0
 40
6.0
 40
6.0
 40
6.0
 40
7.0
 40
7.0
 40
7.0
 40
8.0
 40
8.0
 40
8.0
 40
9.0
 40
9.0
 40
9.0
 40
10.0
 40
10.0
 40
10.0
 40
11.0
 40
11.0
 40
11.0
 40
12.0
 40
12.0
 40
12.0
 40
13.0
 40
13.0
 40
13.0
 40
14.0
 40
14.0
 40
14.0
 40
15.0
 40
15.0
 40
15.0
 40
16.0
 40
16.0
 40
16.0
 40
17.0
 40
17.0
 40
17.0
 40
17.0
 10
52.68291693793402
 20
1.463476562499999
 10
52.68291693793402
 20
1.463476562499999
 10
53.06325547960069
 20
1.463476562499999
 10
53.06325547960069
 20
1.463476562499999
 10
53.06325547960069
 20
1.463476562499999
 10
53.06325547960069
 20
0.1388373480902778
 10
53.06325547960069
 20
0.1388373480902778
 10
53.06325547960069
 20
-0.0916395399305556
 10
53.03052707248263
 20
-0.2745741102430555
 10
52.96541476779513
 20
-0.4099663628472223
 10
52.90030246310763
 20
-0.545703125
 10
52.78248019748263
 20
-0.6559461805555556
 10
52.61263699001736
 20
-0.7406955295138889
 10
52.44244927300346
 20
-0.8257893880208332
 10
52.21920708550347
 20
-0.8681640624999998
 10
51.94291042751736
 20
-0.8681640624999998
 10
51.67419297960069
 20
-0.8681640624999998
 10
51.45474039713541
 20
-0.83095703125
 10
51.2838636610243
 20
-0.7572319878472222
 10
51.11298692491319
 20
-0.6831624348958333
 10
50.99137505425346
 20
-0.5760199652777778
 10
50.91833902994791
 20
-0.4358045789930556
 10
50.84530300564235
 20
-0.2955891927083333
 10
50.80878499348958
 20
-0.1040418836805555
 10
50.80878499348958
 20
0.1388373480902778
 10
50.80878499348958
 20
0.1388373480902778
 10
50.80878499348958
 20
1.463476562499999
 10
50.80878499348958
 20
1.463476562499999
 10
50.80878499348958
 20
1.463476562499999
 10
51.18912353515625
 20
1.463476562499999
 10
51.18912353515625
 20
1.463476562499999
 10
51.18912353515625
 20
1.463476562499999
 10
51.18912353515625
 20
0.1419379340277778
 10
51.18912353515625
 20
0.1419379340277778
 10
51.18912353515625
 20
-0.0571885850694445
 10
51.21220567491319
 20
-0.2039496527777778
 10
51.25836995442708
 20
-0.2980007595486111
 10
51.30453423394097
 20
-0.3923963758680555
 10
51.38411593967013
 20
-0.465087890625
 10
51.49677056206597
 20
-0.5160753038194445
 10
51.60908067491319
 20
-0.567062717013889
 10
51.74688449435763
 20
-0.5925564236111111
 10
51.90949300130208
 20
-0.5925564236111111
 10
52.18820122612847
 20
-0.5925564236111111
 10
52.38663872612846
 20
-0.5422580295138888
 10
52.50515001085069
 20
-0.4409722222222223
 10
52.62366129557291
 20
-0.3400309244791666
 10
52.68291693793402
 20
-0.1457275390625
 10
52.68291693793402
 20
0.1419379340277778
 10
52.68291693793402
 20
0.1419379340277778
 10
52.68291693793402
 20
1.463476562499999
 10
52.68291693793402
 20
1.463476562499999
 97
        0
 75
     2
 76
     1
 98
        1
 10
0.0
 20
0.0
  0
HATCH
  5
79
330
68
100
AcDbEntity
  8
LAYER_2
 62
     3
100
AcDbHatch
 10
0.0
 20
0.0
 30
0.0
210
0.0
220
0.0
230
1.0
  2
SOLID
 70
     1
 71
     0
 91
        1
 92
        1
 93
        1
 72
     4
 94
        3
 73
     0
 74
     0
 95
       50
 96
       46
 40
0.0
 40
0.0
 40
0.0
 40
0.0
 40
1.0
 40
1.0
 40
1.0
 40
2.0
 40
2.0
 40
2.0
 40
3.0
 40
3.0
 40
3.0
 40
4.0
 40
4.0
 40
4.0
 40
5.0
 40
5.0
 40
5.0
 40
6.0
 40
6.0
 40
6.0
 40
7.0
 40
7.0
 40
7.0
 40
8.0
 40
8.0
 40
8.0
 40
9.0
 40
9.0
 40
9.0
 40
10.0
 40
10.0
 40
10.0
 40
11.0
 40
11.0
 40
11.0
 40
12.0
 40
12.0
 40
12.0
 40
13.0
 40
13.0
 40
13.0
 40
14.0
 40
14.0
 40
14.0
 40
15.0
 40
15.0
 40
15.0
 40
15.0
 10
54.79269341362847
 20
-0.8295789930555555
 10
54.79269341362847
 20
-0.8295789930555555
 10
54.79269341362847
 20
1.463476562499999
 10
54.79269341362847
 20
1.463476562499999
 10
54.79269341362847
 20
1.463476562499999
 10
55.36078965928819
 20
1.463476562499999
 10
55.36078965928819
 20
1.463476562499999
 10
55.36078965928819
 20
1.463476562499999
 10
56.04154052734374
 20
-0.1598524305555555
 10
56.04154052734374
 20
-0.1598524305555555
 10
56.10424126519096
 20
-0.3107476128472222
 10
56.15040554470486
 20
-0.4240912543402777
 10
56.17899983723958
 20
-0.4988498263888889
 10
56.21172824435763
 20
-0.415478515625
 10
56.2634046766493
 20
-0.2931776258680555
 10
56.33299560546874
 20
-0.1316026475694444
 10
56.33299560546874
 20
-0.1316026475694444
 10
57.0261488172743
 20
1.463476562499999
 10
57.0261488172743
 20
1.463476562499999
 10
57.0261488172743
 20
1.463476562499999
 10
57.52672119140624
 20
1.463476562499999
 10
57.52672119140624
 20
1.463476562499999
 10
57.52672119140624
 20
1.463476562499999
 10
57.52672119140624
 20
-0.8295789930555555
 10
57.52672119140624
 20
-0.8295789930555555
 10
57.52672119140624
 20
-0.8295789930555555
 10
57.16291910807291
 20
-0.8295789930555555
 10
57.16291910807291
 20
-0.8295789930555555
 10
57.16291910807291
 20
-0.8295789930555555
 10
57.16291910807291
 20
1.08865017361111
 10
57.16291910807291
 20
1.08865017361111
 10
57.16291910807291
 20
1.08865017361111
 10
56.32334933810763
 20
-0.8295789930555555
 10
56.32334933810763
 20
-0.8295789930555555
 10
56.32334933810763
 20
-0.8295789930555555
 10
55.98779703776041
 20
-0.8295789930555555
 10
55.98779703776041
 20
-0.8295789930555555
 10
55.98779703776041
 20
-0.8295789930555555
 10
55.1564954969618
 20
1.121723090277777
 10
55.1564954969618
 20
1.121723090277777
 10
55.1564954969618
 20
1.121723090277777
 10
55.1564954969618
 20
-0.8295789930555555
 10
55.1564954969618
 20
-0.8295789930555555
 10
55.1564954969618
 20
-0.8295789930555555
 10
54.79269341362847
 20
-0.8295789930555555
 10
54.79269341362847
 20
-0.8295789930555555
 97
        0
 75
     2
 76
     1
 98
        1
 10
0.0
 20
0.0
  0
HATCH
  5
78
330
68
100
AcDbEntity
  8
LAYER_2
 62
     3
100
AcDbHatch
 10
0.0
 20
0.0
 30
0.0
210
0.0
220
0.0
230
1.0
  2
SOLID
 70
     1
 71
     0
 91
        1
 92
        1
 93
        1
 72
     4
 94
        3
 73
     0
 74
     0
 95
       17
 96
       13
 40
0.0
 40
0.0
 40
0.0
 40
0.0
 40
1.0
 40
1.0
 40
1.0
 40
2.0
 40
2.0
 40
2.0
 40
3.0
 40
3.0
 40
3.0
 40
4.0
 40
4.0
 40
4.0
 40
4.0
 10
59.30266791449652
 20
-0.8295789930555555
 10
59.30266791449652
 20
-0.8295789930555555
 10
59.30266791449652
 20
-0.5098741319444445
 10
59.30266791449652
 20
-0.5098741319444445
 10
59.30266791449652
 20
-0.5098741319444445
 10
59.7050550672743
 20
-0.5098741319444445
 10
59.7050550672743
 20
-0.5098741319444445
 10
59.7050550672743
 20
-0.5098741319444445
 10
59.7050550672743
 20
-0.8295789930555555
 10
59.7050550672743
 20
-0.8295789930555555
 10
59.7050550672743
 20
-0.8295789930555555
 10
59.30266791449652
 20
-0.8295789930555555
 10
59.30266791449652
 20
-0.8295789930555555
 97
        0
 75
     2
 76
     1
 98
        1
 10
0.0
 20
0.0
  0
HATCH
  5
77
330
68
100
AcDbEntity
  8
LAYER_2
 62
     3
100
AcDbHatch
 10
0.0
 20
0.0
 30
0.0
210
0.0
220
0.0
230
1.0
  2
SOLID
 70
     1
 71
     0
 91
        1
 92
        1
 93
        1
 72
     4
 94
        3
 73
     0
 74
     0
 95
       71
 96
       67
 40
0.0
 40
0.0
 40
0.0
 40
0.0
 40
1.0
 40
1.0
 40
1.0
 40
2.0
 40
2.0
 40
2.0
 40
3.0
 40
3.0
 40
3.0
 40
4.0
 40
4.0
 40
4.0
 40
5.0
 40
5.0
 40
5.0
 40
6.0
 40
6.0
 40
6.0
 40
7.0
 40
7.0
 40
7.0
 40
8.0
 40
8.0
 40
8.0
 40
9.0
 40
9.0
 40
9.0
 40
10.0
 40
10.0
 40
10.0
 40
11.0
 40
11.0
 40
11.0
 40
12.0
 40
12.0
 40
12.0
 40
13.0
 40
13.0
 40
13.0
 40
14.0
 40
14.0
 40
14.0
 40
15.0
 40
15.0
 40
15.0
 40
16.0
 40
16.0
 40
16.0
 40
17.0
 40
17.0
 40
17.0
 40
18.0
 40
18.0
 40
18.0
 40
19.0
 40
19.0
 40
19.0
 40
20.0
 40
20.0
 40
20.0
 40
21.0
 40
21.0
 40
21.0
 40
22.0
 40
22.0
 40
22.0
 40
22.0
 10
63.51016303168402
 20
-0.0254937065972222
 10
63.51016303168402
 20
-0.0254937065972222
 10
63.89050157335069
 20
-0.1023193359375
 10
63.89050157335069
 20
-0.1023193359375
 10
63.81091986762152
 20
-0.3513997395833333
 10
63.66829291449652
 20
-0.5412245008680556
 10
63.46193169487847
 20
-0.6721381293402777
 10
63.25557047526041
 20
-0.8027072482638889
 10
63.00338948567707
 20
-0.8681640624999998
 10
62.70538872612847
 20
-0.8681640624999998
 10
62.39705268012151
 20
-0.8681640624999998
 10
62.14624972873263
 20
-0.8178656684027776
 10
61.9529798719618
 20
-0.7172688802083333
 10
61.75971001519097
 20
-0.6166720920138889
 10
61.61260443793402
 20
-0.4709445529513889
 10
61.51166314019096
 20
-0.2804307725694444
 10
61.41072184244791
 20
-0.0895724826388889
 10
61.36042344835068
 20
0.1150661892361111
 10
61.36042344835068
 20
0.3341742621527777
 10
61.36042344835068
 20
0.5729193793402777
 10
61.41726752387152
 20
0.7810031467013889
 10
61.53095567491319
 20
0.9587700737847221
 10
61.64498833550347
 20
1.136537000868055
 10
61.80690782335069
 20
1.271240234374999
 10
62.01705864800347
 20
1.363568793402777
 10
62.22720947265624
 20
1.455897352430555
 10
62.4583753797743
 20
1.502061631944444
 10
62.71090087890624
 20
1.502061631944444
 10
62.99718831380207
 20
1.502061631944444
 10
63.23765597873263
 20
1.443495008680555
 10
63.43299289279514
 20
1.327050781249999
 10
63.62832980685763
 20
1.210262044270833
 10
63.76406656901041
 20
1.046275499131944
 10
63.84089219835068
 20
0.8347466362847221
 10
63.84089219835068
 20
0.8347466362847221
 10
63.4660658094618
 20
0.7641221788194443
 10
63.4660658094618
 20
0.7641221788194443
 10
63.39957546657985
 20
0.9312093098958332
 10
63.30380181206597
 20
1.052821180555555
 10
63.1777113172743
 20
1.128613281249999
 10
63.05162082248263
 20
1.205094401041666
 10
62.89314643012152
 20
1.242990451388888
 10
62.70228814019096
 20
1.242990451388888
 10
62.48283555772569
 20
1.242990451388888
 10
62.29955647786457
 20
1.200615776909722
 10
62.15210639105902
 20
1.1162109375
 10
62.00465630425346
 20
1.031806098090277
 10
61.90095893012152
 20
0.9184624565972221
 10
61.8413587782118
 20
0.7758355034722222
 10
61.78175862630208
 20
0.6335530598958333
 10
61.75178629557291
 20
0.4867919921875
 10
61.75178629557291
 20
0.3355523003472221
 10
61.75178629557291
 20
0.1405598958333333
 10
61.78727077907986
 20
-0.0296278211805556
 10
61.85789523654513
 20
-0.1750108506944444
 10
61.92886420355902
 20
-0.3203938802083333
 10
62.03876274956597
 20
-0.4292588975694444
 10
62.18827989366318
 20
-0.5012613932291666
 10
62.33779703776041
 20
-0.5732638888888888
 10
62.49971652560763
 20
-0.6090928819444445
 10
62.67403835720486
 20
-0.6090928819444445
 10
62.88556722005207
 20
-0.6090928819444445
 10
63.06505669487846
 20
-0.5601725260416666
 10
63.21181776258679
 20
-0.4619873046875
 10
63.35892333984374
 20
-0.3641465928819444
 10
63.45814208984375
 20
-0.2184190538194444
 10
63.51016303168402
 20
-0.0254937065972222
 97
        0
 75
     2
 76
     1
 98
        1
 10
0.0
 20
0.0
  0
HATCH
  5
76
330
68
100
AcDbEntity
  8
LAYER_2
 62
     3
100
AcDbHatch
 10
0.0
 20
0.0
 30
0.0
210
0.0
220
0.0
230
1.0
  2
SOLID
 70
     1
 71
     0
 91
        2
 92
       16
 93
        1
 72
     4
 94
        3
 73
     0
 74
     0
 95
       32
 96
       28
 40
0.0
 40
0.0
 40
0.0
 40
0.0
 40
1.0
 40
1.0
 40
1.0
 40
2.0
 40
2.0
 40
2.0
 40
3.0
 40
3.0
 40
3.0
 40
4.0
 40
4.0
 40
4.0
 40
5.0
 40
5.0
 40
5.0
 40
6.0
 40
6.0
 40
6.0
 40
7.0
 40
7.0
 40
7.0
 40
8.0
 40
8.0
 40
8.0
 40
9.0
 40
9.0
 40
9.0
 40
9.0
 10
65.74671902126735
 20
0.2824978298611111
 10
65.74671902126735
 20
0.006201171875
 10
65.83939208984374
 20
-0.2115288628472222
 10
66.02508273654513
 20
-0.3706922743055555
 10
66.21042887369791
 20
-0.5295111762152778
 10
66.44331732855902
 20
-0.6090928819444445
 10
66.72305908203124
 20
-0.6090928819444445
 10
67.00831298828124
 20
-0.6090928819444445
 10
67.24292399088541
 20
-0.5288221571180555
 10
67.42723659939236
 20
-0.3682807074652778
 10
67.6115492078993
 20
-0.2077392578125
 10
67.70353325737847
 20
0.0203260633680556
 10
67.70353325737847
 20
0.3155707465277777
 10
67.70353325737847
 20
0.5019504123263889
 10
67.66391465928818
 20
0.6649034288194445
 10
67.58536648220486
 20
0.8040852864583332
 10
67.50647379557292
 20
0.9432671440972221
 10
67.3914076063368
 20
1.051443142361111
 10
67.2394788953993
 20
1.127924262152777
 10
67.08789469401041
 20
1.204749891493055
 10
66.91770697699652
 20
1.242990451388888
 10
66.72891574435763
 20
1.242990451388888
 10
66.46088731553819
 20
1.242990451388888
 10
66.23006591796874
 20
1.16926540798611
 10
66.0367960611979
 20
1.021815321180555
 10
65.84352620442707
 20
0.8740207248263887
 10
65.74671902126735
 20
0.6276963975694444
 10
65.74671902126735
 20
0.2824978298611111
 97
        0
 92
        1
 93
        1
 72
     4
 94
        3
 73
     0
 74
     0
 95
       38
 96
       34
 40
0.0
 40
0.0
 40
0.0
 40
0.0
 40
1.0
 40
1.0
 40
1.0
 40
2.0
 40
2.0
 40
2.0
 40
3.0
 40
3.0
 40
3.0
 40
4.0
 40
4.0
 40
4.0
 40
5.0
 40
5.0
 40
5.0
 40
6.0
 40
6.0
 40
6.0
 40
7.0
 40
7.0
 40
7.0
 40
8.0
 40
8.0
 40
8.0
 40
9.0
 40
9.0
 40
9.0
 40
10.0
 40
10.0
 40
10.0
 40
11.0
 40
11.0
 40
11.0
 40
11.0
 10
65.35535617404512
 20
0.2866319444444444
 10
65.35535617404512
 20
0.6666259765625
 10
65.48316921657985
 20
0.9642822265625
 10
65.73845079210069
 20
1.179600694444444
 10
65.99373236762152
 20
1.394574652777777
 10
66.32308349609374
 20
1.502061631944444
 10
66.72719319661458
 20
1.502061631944444
 10
66.9914320203993
 20
1.502061631944444
 10
67.22983262803818
 20
1.451418728298611
 10
67.44205050998264
 20
1.350477430555555
 10
67.65461290147569
 20
1.249536132812499
 10
67.8161878797743
 20
1.108631727430555
 10
67.92780897352429
 20
0.9277642144097221
 10
68.03908555772569
 20
0.7472412109375
 10
68.09489610460069
 20
0.5422580295138888
 10
68.09489610460069
 20
0.3131591796875
 10
68.09489610460069
 20
0.080615234375
 10
68.03632948133679
 20
-0.1271240234375
 10
67.91885172526041
 20
-0.3104031032986111
 10
67.80171847873264
 20
-0.4936821831597222
 10
67.63566487630207
 20
-0.63251953125
 10
67.42069091796874
 20
-0.7269151475694445
 10
67.20571695963541
 20
-0.8209662543402776
 10
66.97386203342013
 20
-0.8681640624999998
 10
66.72512613932291
 20
-0.8681640624999998
 10
66.4553751627604
 20
-0.8681640624999998
 10
66.21456298828125
 20
-0.8161431206597221
 10
66.00200059678819
 20
-0.7117567274305556
 10
65.78978271484373
 20
-0.60771484375
 10
65.62889675564235
 20
-0.4657769097222222
 10
65.51968722873263
 20
-0.28525390625
 10
65.4101331922743
 20
-0.105419921875
 10
65.35535617404512
 20
0.0854383680555556
 10
65.35535617404512
 20
0.2866319444444444
 97
        0
 75
     2
 76
     1
 98
        1
 10
0.0
 20
0.0
  0
HATCH
  5
75
330
68
100
AcDbEntity
  8
LAYER_2
 62
     3
100
AcDbHatch
 10
0.0
 20
0.0
 30
0.0
210
0.0
220
0.0
230
1.0
  2
SOLID
 70
     1
 71
     0
 91
        1
 92
        1
 93
        1
 72
     4
 94
        3
 73
     0
 74
     0
 95
       50
 96
       46
 40
0.0
 40
0.0
 40
0.0
 40
0.0
 40
1.0
 40
1.0
 40
1.0
 40
2.0
 40
2.0
 40
2.0
 40
3.0
 40
3.0
 40
3.0
 40
4.0
 40
4.0
 40
4.0
 40
5.0
 40
5.0
 40
5.0
 40
6.0
 40
6.0
 40
6.0
 40
7.0
 40
7.0
 40
7.0
 40
8.0
 40
8.0
 40
8.0
 40
9.0
 40
9.0
 40
9.0
 40
10.0
 40
10.0
 40
10.0
 40
11.0
 40
11.0
 40
11.0
 40
12.0
 40
12.0
 40
12.0
 40
13.0
 40
13.0
 40
13.0
 40
14.0
 40
14.0
 40
14.0
 40
15.0
 40
15.0
 40
15.0
 40
15.0
 10
69.68308512369791
 20
-0.8295789930555555
 10
69.68308512369791
 20
-0.8295789930555555
 10
69.68308512369791
 20
1.463476562499999
 10
69.68308512369791
 20
1.463476562499999
 10
69.68308512369791
 20
1.463476562499999
 10
70.25118136935764
 20
1.463476562499999
 10
70.25118136935764
 20
1.463476562499999
 10
70.25118136935764
 20
1.463476562499999
 10
70.93193223741319
 20
-0.1598524305555555
 10
70.93193223741319
 20
-0.1598524305555555
 10
70.99463297526042
 20
-0.3107476128472222
 10
71.0407972547743
 20
-0.4240912543402777
 10
71.06939154730902
 20
-0.4988498263888889
 10
71.10211995442708
 20
-0.415478515625
 10
71.15379638671874
 20
-0.2931776258680555
 10
71.22338731553819
 20
-0.1316026475694444
 10
71.22338731553819
 20
-0.1316026475694444
 10
71.91654052734374
 20
1.463476562499999
 10
71.91654052734374
 20
1.463476562499999
 10
71.91654052734374
 20
1.463476562499999
 10
72.41711290147569
 20
1.463476562499999
 10
72.41711290147569
 20
1.463476562499999
 10
72.41711290147569
 20
1.463476562499999
 10
72.41711290147569
 20
-0.8295789930555555
 10
72.41711290147569
 20
-0.8295789930555555
 10
72.41711290147569
 20
-0.8295789930555555
 10
72.05331081814235
 20
-0.8295789930555555
 10
72.05331081814235
 20
-0.8295789930555555
 10
72.05331081814235
 20
-0.8295789930555555
 10
72.05331081814235
 20
1.08865017361111
 10
72.05331081814235
 20
1.08865017361111
 10
72.05331081814235
 20
1.08865017361111
 10
71.21374104817707
 20
-0.8295789930555555
 10
71.21374104817707
 20
-0.8295789930555555
 10
71.21374104817707
 20
-0.8295789930555555
 10
70.87818874782986
 20
-0.8295789930555555
 10
70.87818874782986
 20
-0.8295789930555555
 10
70.87818874782986
 20
-0.8295789930555555
 10
70.04688720703125
 20
1.121723090277777
 10
70.04688720703125
 20
1.121723090277777
 10
70.04688720703125
 20
1.121723090277777
 10
70.04688720703125
 20
-0.8295789930555555
 10
70.04688720703125
 20
-0.8295789930555555
 10
70.04688720703125
 20
-0.8295789930555555
 10
69.68308512369791
 20
-0.8295789930555555
 10
69.68308512369791
 20
-0.8295789930555555
 97
        0
 75
     2
 76
     1
 98
        1
 10
0.0
 20
0.0
  0
HATCH
  5
74
330
68
100
AcDbEntity
  8
LAYER_2
 62
     3
100
AcDbHatch
 10
0.0
 20
0.0
 30
0.0
210
0.0
220
0.0
230
1.0
  2
SOLID
 70
     1
 71
     0
 91
        2
 92
       16
 93
        1
 72
     4
 94
        3
 73
     0
 74
     0
 95
       29
 96
       25
 40
0.0
 40
0.0
 40
0.0
 40
0.0
 40
1.0
 40
1.0
 40
1.0
 40
2.0
 40
2.0
 40
2.0
 40
3.0
 40
3.0
 40
3.0
 40
4.0
 40
4.0
 40
4.0
 40
5.0
 40
5.0
 40
5.0
 40
6.0
 40
6.0
 40
6.0
 40
7.0
 40
7.0
 40
7.0
 40
8.0
 40
8.0
 40
8.0
 40
8.0
 10
82.29868028428818
 20
0.3720703125
 10
82.29868028428818
 20
0.3720703125
 10
83.03627522786458
 20
0.3720703125
 10
83.03627522786458
 20
0.3720703125
 10
83.28018798828123
 20
0.3720703125
 10
83.45347629123263
 20
0.4085883246527777
 10
83.55614013671873
 20
0.4816243489583333
 10
83.65845947265624
 20
0.5550048828125
 10
83.7097913953993
 20
0.6580132378472223
 10
83.7097913953993
 20
0.7906494140625
 10
83.7097913953993
 20
0.886767578125
 10
83.67947455512151
 20
0.9687608506944444
 10
83.61918538411456
 20
1.037318250868055
 10
83.55889621310764
 20
1.105875651041666
 10
83.47931450737846
 20
1.151006401909722
 10
83.38078477647568
 20
1.173055013020833
 10
83.31739501953125
 20
1.186490885416666
 10
83.19991726345485
 20
1.193381076388888
 10
83.02835150824652
 20
1.193381076388888
 10
83.02835150824652
 20
1.193381076388888
 10
82.29868028428818
 20
1.193381076388888
 10
82.29868028428818
 20
1.193381076388888
 10
82.29868028428818
 20
1.193381076388888
 10
82.29868028428818
 20
0.3720703125
 10
82.29868028428818
 20
0.3720703125
 97
        0
 92
        1
 93
        1
 72
     4
 94
        3
 73
     0
 74
     0
 95
       38
 96
       34
 40
0.0
 40
0.0
 40
0.0
 40
0.0
 40
1.0
 40
1.0
 40
1.0
 40
2.0
 40
2.0
 40
2.0
 40
3.0
 40
3.0
 40
3.0
 40
4.0
 40
4.0
 40
4.0
 40
5.0
 40
5.0
 40
5.0
 40
6.0
 40
6.0
 40
6.0
 40
7.0
 40
7.0
 40
7.0
 40
8.0
 40
8.0
 40
8.0
 40
9.0
 40
9.0
 40
9.0
 40
10.0
 40
10.0
 40
10.0
 40
11.0
 40
11.0
 40
11.0
 40
11.0
 10
81.91834174262153
 20
-0.8295789930555555
 10
81.91834174262153
 20
-0.8295789930555555
 10
81.91834174262153
 20
1.463476562499999
 10
81.91834174262153
 20
1.463476562499999
 10
81.91834174262153
 20
1.463476562499999
 10
82.9970011393229
 20
1.463476562499999
 10
82.9970011393229
 20
1.463476562499999
 10
83.18682590060763
 20
1.463476562499999
 10
83.33186442057291
 20
1.456241861979166
 10
83.43211669921874
 20
1.441427951388888
 10
83.57267659505208
 20
1.422824435763888
 10
83.69015435112848
 20
1.386995442708333
 10
83.78523898654512
 20
1.334285481770833
 10
83.87997911241319
 20
1.281575520833333
 10
83.95646023220484
 20
1.207850477430555
 10
84.01433783637152
 20
1.112765842013888
 10
84.07221544053818
 20
1.018025716145833
 10
84.10115424262151
 20
0.9136393229166666
 10
84.10115424262151
 20
0.799951171875
 10
84.10115424262151
 20
0.6049587673611111
 10
84.02398410373264
 20
0.4395941840277777
 10
83.86929931640624
 20
0.3045464409722222
 10
83.71461452907984
 20
0.1694986979166666
 10
83.43521728515623
 20
0.1019748263888889
 10
83.03145209418401
 20
0.1019748263888889
 10
83.03145209418401
 20
0.1019748263888889
 10
82.29868028428818
 20
0.1019748263888889
 10
82.29868028428818
 20
0.1019748263888889
 10
82.29868028428818
 20
0.1019748263888889
 10
82.29868028428818
 20
-0.8295789930555555
 10
82.29868028428818
 20
-0.8295789930555555
 10
82.29868028428818
 20
-0.8295789930555555
 10
81.91834174262153
 20
-0.8295789930555555
 10
81.91834174262153
 20
-0.8295789930555555
 97
        0
 75
     2
 76
     1
 98
        1
 10
0.0
 20
0.0
  0
HATCH
  5
73
330
68
100
AcDbEntity
  8
LAYER_2
 62
     3
100
AcDbHatch
 10
0.0
 20
0.0
 30
0.0
210
0.0
220
0.0
230
1.0
  2
SOLID
 70
     1
 71
     0
 91
        2
 92
       16
 93
        1
 72
     4
 94
        3
 73
     0
 74
     0
 95
       20
 96
       16
 40
0.0
 40
0.0
 40
0.0
 40
0.0
 40
1.0
 40
1.0
 40
1.0
 40
2.0
 40
2.0
 40
2.0
 40
3.0
 40
3.0
 40
3.0
 40
4.0
 40
4.0
 40
4.0
 40
5.0
 40
5.0
 40
5.0
 40
5.0
 10
86.13686116536458
 20
0.1129991319444444
 10
86.13686116536458
 20
0.1129991319444444
 10
87.11251220703124
 20
0.1129991319444444
 10
87.11251220703124
 20
0.1129991319444444
 10
87.11251220703124
 20
0.1129991319444444
 10
86.81795654296875
 20
0.750341796875
 10
86.81795654296875
 20
0.750341796875
 10
86.72493896484374
 20
0.942578125
 10
86.6556925455729
 20
1.10105251736111
 10
86.60987277560762
 20
1.226453993055555
 10
86.56922064887153
 20
1.077625868055555
 10
86.51685519748262
 20
0.9301757812499998
 10
86.45312093098956
 20
0.7837592230902777
 10
86.45312093098956
 20
0.7837592230902777
 10
86.13686116536458
 20
0.1129991319444444
 10
86.13686116536458
 20
0.1129991319444444
 97
        0
 92
        1
 93
        1
 72
     4
 94
        3
 73
     0
 74
     0
 95
       29
 96
       25
 40
0.0
 40
0.0
 40
0.0
 40
0.0
 40
1.0
 40
1.0
 40
1.0
 40
2.0
 40
2.0
 40
2.0
 40
3.0
 40
3.0
 40
3.0
 40
4.0
 40
4.0
 40
4.0
 40
5.0
 40
5.0
 40
5.0
 40
6.0
 40
6.0
 40
6.0
 40
7.0
 40
7.0
 40
7.0
 40
8.0
 40
8.0
 40
8.0
 40
8.0
 10
85.31141628689235
 20
-0.8295789930555555
 10
85.31141628689235
 20
-0.8295789930555555
 10
86.41281331380207
 20
1.463476562499999
 10
86.41281331380207
 20
1.463476562499999
 10
86.41281331380207
 20
1.463476562499999
 10
86.82863633897568
 20
1.463476562499999
 10
86.82863633897568
 20
1.463476562499999
 10
86.82863633897568
 20
1.463476562499999
 10
87.99204508463541
 20
-0.8295789930555555
 10
87.99204508463541
 20
-0.8295789930555555
 10
87.99204508463541
 20
-0.8295789930555555
 10
87.5607191297743
 20
-0.8295789930555555
 10
87.5607191297743
 20
-0.8295789930555555
 10
87.5607191297743
 20
-0.8295789930555555
 10
87.23343505859373
 20
-0.1350477430555555
 10
87.23343505859373
 20
-0.1350477430555555
 10
87.23343505859373
 20
-0.1350477430555555
 10
86.02868516710069
 20
-0.1350477430555555
 10
86.02868516710069
 20
-0.1350477430555555
 10
86.02868516710069
 20
-0.1350477430555555
 10
85.71414794921874
 20
-0.8295789930555555
 10
85.71414794921874
 20
-0.8295789930555555
 10
85.71414794921874
 20
-0.8295789930555555
 10
85.31141628689235
 20
-0.8295789930555555
 10
85.31141628689235
 20
-0.8295789930555555
 97
        0
 75
     2
 76
     1
 98
        1
 10
0.0
 20
0.0
  0
HATCH
  5
72
330
68
100
AcDbEntity
  8
LAYER_2
 62
     3
100
AcDbHatch
 10
0.0
 20
0.0
 30
0.0
210
0.0
220
0.0
230
1.0
  2
SOLID
 70
     1
 71
     0
 91
        2
 92
       16
 93
        1
 72
     4
 94
        3
 73
     0
 74
     0
 95
       29
 96
       25
 40
0.0
 40
0.0
 40
0.0
 40
0.0
 40
1.0
 40
1.0
 40
1.0
 40
2.0
 40
2.0
 40
2.0
 40
3.0
 40
3.0
 40
3.0
 40
4.0
 40
4.0
 40
4.0
 40
5.0
 40
5.0
 40
5.0
 40
6.0
 40
6.0
 40
6.0
 40
7.0
 40
7.0
 40
7.0
 40
8.0
 40
8.0
 40
8.0
 40
8.0
 10
89.57058783637151
 20
0.4547526041666666
 10
89.57058783637151
 20
0.4547526041666666
 10
90.38363037109375
 20
0.4547526041666666
 10
90.38363037109375
 20
0.4547526041666666
 10
90.55657416449653
 20
0.4547526041666666
 10
90.69162190755207
 20
0.4688774956597223
 10
90.78877360026041
 20
0.4974717881944444
 10
90.88592529296873
 20
0.5260660807291666
 10
90.95999484592013
 20
0.5718858506944445
 10
91.01063774956596
 20
0.6345865885416666
 10
91.06093614366319
 20
0.6972873263888888
 10
91.0864298502604
 20
0.7655002170138889
 10
91.0864298502604
 20
0.8392252604166666
 10
91.0864298502604
 20
0.9474012586805555
 10
91.03750949435763
 20
1.035940212673611
 10
90.93966878255207
 20
1.105531141493055
 10
90.8414835611979
 20
1.175122070312499
 10
90.68679877387152
 20
1.209917534722222
 10
90.47526991102429
 20
1.209917534722222
 10
90.47526991102429
 20
1.209917534722222
 10
89.57058783637151
 20
1.209917534722222
 10
89.57058783637151
 20
1.209917534722222
 10
89.57058783637151
 20
1.209917534722222
 10
89.57058783637151
 20
0.4547526041666666
 10
89.57058783637151
 20
0.4547526041666666
 97
        0
 92
        1
 93
        1
 72
     4
 94
        3
 73
     0
 74
     0
 95
       62
 96
       58
 40
0.0
 40
0.0
 40
0.0
 40
0.0
 40
1.0
 40
1.0
 40
1.0
 40
2.0
 40
2.0
 40
2.0
 40
3.0
 40
3.0
 40
3.0
 40
4.0
 40
4.0
 40
4.0
 40
5.0
 40
5.0
 40
5.0
 40
6.0
 40
6.0
 40
6.0
 40
7.0
 40
7.0
 40
7.0
 40
8.0
 40
8.0
 40
8.0
 40
9.0
 40
9.0
 40
9.0
 40
10.0
 40
10.0
 40
10.0
 40
11.0
 40
11.0
 40
11.0
 40
12.0
 40
12.0
 40
12.0
 40
13.0
 40
13.0
 40
13.0
 40
14.0
 40
14.0
 40
14.0
 40
15.0
 40
15.0
 40
15.0
 40
16.0
 40
16.0
 40
16.0
 40
17.0
 40
17.0
 40
17.0
 40
18.0
 40
18.0
 40
18.0
 40
19.0
 40
19.0
 40
19.0
 40
19.0
 10
89.19024929470486
 20
-0.8295789930555555
 10
89.19024929470486
 20
-0.8295789930555555
 10
89.19024929470486
 20
1.463476562499999
 10
89.19024929470486
 20
1.463476562499999
 10
89.19024929470486
 20
1.463476562499999
 10
90.4597669813368
 20
1.463476562499999
 10
90.4597669813368
 20
1.463476562499999
 10
90.714704047309
 20
1.463476562499999
 10
90.90831841362847
 20
1.442805989583333
 10
91.04095458984373
 20
1.40180935329861
 10
91.17359076605902
 20
1.360812717013888
 10
91.27935519748263
 20
1.288465711805555
 10
91.3589369032118
 20
1.184423828124999
 10
91.43817409939236
 20
1.080381944444444
 10
91.47779269748262
 20
0.9656602647569442
 10
91.47779269748262
 20
0.8399142795138889
 10
91.47779269748262
 20
0.6776502821180555
 10
91.4119913736979
 20
0.5408799913194445
 10
91.28073323567708
 20
0.4299479166666666
 10
91.14947509765624
 20
0.3183268229166666
 10
90.9465589735243
 20
0.248046875
 10
90.67232937282986
 20
0.2177300347222222
 10
90.77258165147569
 20
0.1791449652777778
 10
90.84837375217013
 20
0.1405598958333333
 10
90.90039469401039
 20
0.1030083550347222
 10
91.01098225911457
 20
0.0213595920138889
 10
91.11536865234375
 20
-0.080615234375
 10
91.2135538736979
 20
-0.2032606336805555
 10
91.2135538736979
 20
-0.2032606336805555
 10
91.70861409505207
 20
-0.8295789930555555
 10
91.70861409505207
 20
-0.8295789930555555
 10
91.70861409505207
 20
-0.8295789930555555
 10
91.23594699435763
 20
-0.8295789930555555
 10
91.23594699435763
 20
-0.8295789930555555
 10
91.23594699435763
 20
-0.8295789930555555
 10
90.85767550998262
 20
-0.3507107204861111
 10
90.85767550998262
 20
-0.3507107204861111
 10
90.7481214735243
 20
-0.2125623914930555
 10
90.65751546223957
 20
-0.1067979600694444
 10
90.58620198567707
 20
-0.0334174262152778
 10
90.51454399956595
 20
0.0396185980902778
 10
90.4504652235243
 20
0.0906060112847222
 10
90.39327663845485
 20
0.1195448133680555
 10
90.33608805338541
 20
0.1481391059027778
 10
90.27855495876735
 20
0.1681206597222222
 10
90.21998833550346
 20
0.1794894748263889
 10
90.17692464192707
 20
0.1867241753472222
 10
90.1066446940104
 20
0.1901692708333333
 10
90.00949300130207
 20
0.1901692708333333
 10
90.00949300130207
 20
0.1901692708333333
 10
89.57058783637151
 20
0.1901692708333333
 10
89.57058783637151
 20
0.1901692708333333
 10
89.57058783637151
 20
0.1901692708333333
 10
89.57058783637151
 20
-0.8295789930555555
 10
89.57058783637151
 20
-0.8295789930555555
 10
89.57058783637151
 20
-0.8295789930555555
 10
89.19024929470486
 20
-0.8295789930555555
 10
89.19024929470486
 20
-0.8295789930555555
 97
        0
 75
     2
 76
     1
 98
        1
 10
0.0
 20
0.0
  0
HATCH
  5
71
330
68
100
AcDbEntity
  8
LAYER_2
 62
     3
100
AcDbHatch
 10
0.0
 20
0.0
 30
0.0
210
0.0
220
0.0
230
1.0
  2
SOLID
 70
     1
 71
     0
 91
        1
 92
        1
 93
        1
 72
     4
 94
        3
 73
     0
 74
     0
 95
       29
 96
       25
 40
0.0
 40
0.0
 40
0.0
 40
0.0
 40
1.0
 40
1.0
 40
1.0
 40
2.0
 40
2.0
 40
2.0
 40
3.0
 40
3.0
 40
3.0
 40
4.0
 40
4.0
 40
4.0
 40
5.0
 40
5.0
 40
5.0
 40
6.0
 40
6.0
 40
6.0
 40
7.0
 40
7.0
 40
7.0
 40
8.0
 40
8.0
 40
8.0
 40
8.0
 10
93.91313069661457
 20
-0.8295789930555555
 10
93.91313069661457
 20
-0.8295789930555555
 10
93.91313069661457
 20
1.193381076388888
 10
93.91313069661457
 20
1.193381076388888
 10
93.91313069661457
 20
1.193381076388888
 10
92.97055257161458
 20
1.193381076388888
 10
92.97055257161458
 20
1.193381076388888
 10
92.97055257161458
 20
1.193381076388888
 10
92.97055257161458
 20
1.463476562499999
 10
92.97055257161458
 20
1.463476562499999
 10
92.97055257161458
 20
1.463476562499999
 10
95.23604736328124
 20
1.463476562499999
 10
95.23604736328124
 20
1.463476562499999
 10
95.23604736328124
 20
1.463476562499999
 10
95.23604736328124
 20
1.193381076388888
 10
95.23604736328124
 20
1.193381076388888
 10
95.23604736328124
 20
1.193381076388888
 10
94.29346923828125
 20
1.193381076388888
 10
94.29346923828125
 20
1.193381076388888
 10
94.29346923828125
 20
1.193381076388888
 10
94.29346923828125
 20
-0.8295789930555555
 10
94.29346923828125
 20
-0.8295789930555555
 10
94.29346923828125
 20
-0.8295789930555555
 10
93.91313069661457
 20
-0.8295789930555555
 10
93.91313069661457
 20
-0.8295789930555555
 97
        0
 75
     2
 76
     1
 98
        1
 10
0.0
 20
0.0
  0
HATCH
  5
70
330
68
100
AcDbEntity
  8
LAYER_2
 62
     3
100
AcDbHatch
 10
0.0
 20
0.0
 30
0.0
210
0.0
220
0.0
230
1.0
  2
SOLID
 70
     1
 71
     0
 91
        1
 92
        1
 93
        1
 72
     4
 94
        3
 73
     0
 74
     0
 95
       35
 96
       31
 40
0.0
 40
0.0
 40
0.0
 40
0.0
 40
1.0
 40
1.0
 40
1.0
 40
2.0
 40
2.0
 40
2.0
 40
3.0
 40
3.0
 40
3.0
 40
4.0
 40
4.0
 40
4.0
 40
5.0
 40
5.0
 40
5.0
 40
6.0
 40
6.0
 40
6.0
 40
7.0
 40
7.0
 40
7.0
 40
8.0
 40
8.0
 40
8.0
 40
9.0
 40
9.0
 40
9.0
 40
10.0
 40
10.0
 40
10.0
 40
10.0
 10
97.7740492078993
 20
-0.8295789930555555
 10
97.7740492078993
 20
-0.8295789930555555
 10
97.7740492078993
 20
1.463476562499999
 10
97.7740492078993
 20
1.463476562499999
 10
97.7740492078993
 20
1.463476562499999
 10
98.16334499782986
 20
1.463476562499999
 10
98.16334499782986
 20
1.463476562499999
 10
98.16334499782986
 20
1.463476562499999
 10
99.67574191623263
 20
-0.3386528862847222
 10
99.67574191623263
 20
-0.3386528862847222
 10
99.67574191623263
 20
-0.3386528862847222
 10
99.67574191623263
 20
1.463476562499999
 10
99.67574191623263
 20
1.463476562499999
 10
99.67574191623263
 20
1.463476562499999
 10
100.0395439995659
 20
1.463476562499999
 10
100.0395439995659
 20
1.463476562499999
 10
100.0395439995659
 20
1.463476562499999
 10
100.0395439995659
 20
-0.8295789930555555
 10
100.0395439995659
 20
-0.8295789930555555
 10
100.0395439995659
 20
-0.8295789930555555
 10
99.65024820963542
 20
-0.8295789930555555
 10
99.65024820963542
 20
-0.8295789930555555
 10
99.65024820963542
 20
-0.8295789930555555
 10
98.13785129123264
 20
0.9725504557291666
 10
98.13785129123264
 20
0.9725504557291666
 10
98.13785129123264
 20
0.9725504557291666
 10
98.13785129123264
 20
-0.8295789930555555
 10
98.13785129123264
 20
-0.8295789930555555
 10
98.13785129123264
 20
-0.8295789930555555
 10
97.7740492078993
 20
-0.8295789930555555
 10
97.7740492078993
 20
-0.8295789930555555
 97
        0
 75
     2
 76
     1
 98
        1
 10
0.0
 20
0.0
  0
HATCH
  5
6F
330
68
100
AcDbEntity
  8
LAYER_2
 62
     3
100
AcDbHatch
 10
0.0
 20
0.0
 30
0.0
210
0.0
220
0.0
230
1.0
  2
SOLID
 70
     1
 71
     0
 91
        2
 92
       16
 93
        1
 72
     4
 94
        3
 73
     0
 74
     0
 95
       32
 96
       28
 40
0.0
 40
0.0
 40
0.0
 40
0.0
 40
1.0
 40
1.0
 40
1.0
 40
2.0
 40
2.0
 40
2.0
 40
3.0
 40
3.0
 40
3.0
 40
4.0
 40
4.0
 40
4.0
 40
5.0
 40
5.0
 40
5.0
 40
6.0
 40
6.0
 40
6.0
 40
7.0
 40
7.0
 40
7.0
 40
8.0
 40
8.0
 40
8.0
 40
9.0
 40
9.0
 40
9.0
 40
9.0
 10
102.0556138780382
 20
0.2824978298611111
 10
102.0556138780382
 20
0.006201171875
 10
102.1482869466145
 20
-0.2115288628472222
 10
102.3339775933159
 20
-0.3706922743055555
 10
102.5193237304687
 20
-0.5295111762152778
 10
102.7522121853298
 20
-0.6090928819444445
 10
103.031953938802
 20
-0.6090928819444445
 10
103.317207845052
 20
-0.6090928819444445
 10
103.5518188476562
 20
-0.5288221571180555
 10
103.7361314561632
 20
-0.3682807074652778
 10
103.9200995551215
 20
-0.2077392578125
 10
104.0124281141493
 20
0.0203260633680556
 10
104.0124281141493
 20
0.3155707465277777
 10
104.0124281141493
 20
0.5019504123263889
 10
103.9731540256076
 20
0.6649034288194445
 10
103.8942613389757
 20
0.8040852864583332
 10
103.8153686523437
 20
0.9432671440972221
 10
103.7003024631076
 20
1.051443142361111
 10
103.5487182617187
 20
1.127924262152777
 10
103.3967895507812
 20
1.204749891493055
 10
103.2266018337673
 20
1.242990451388888
 10
103.0378106011284
 20
1.242990451388888
 10
102.769782172309
 20
1.242990451388888
 10
102.5389607747396
 20
1.16926540798611
 10
102.3456909179687
 20
1.021815321180555
 10
102.1520765516493
 20
0.8740207248263887
 10
102.0556138780382
 20
0.6276963975694444
 10
102.0556138780382
 20
0.2824978298611111
 97
        0
 92
        1
 93
        1
 72
     4
 94
        3
 73
     0
 74
     0
 95
       38
 96
       34
 40
0.0
 40
0.0
 40
0.0
 40
0.0
 40
1.0
 40
1.0
 40
1.0
 40
2.0
 40
2.0
 40
2.0
 40
3.0
 40
3.0
 40
3.0
 40
4.0
 40
4.0
 40
4.0
 40
5.0
 40
5.0
 40
5.0
 40
6.0
 40
6.0
 40
6.0
 40
7.0
 40
7.0
 40
7.0
 40
8.0
 40
8.0
 40
8.0
 40
9.0
 40
9.0
 40
9.0
 40
10.0
 40
10.0
 40
10.0
 40
11.0
 40
11.0
 40
11.0
 40
11.0
 10
101.6642510308159
 20
0.2866319444444444
 10
101.6642510308159
 20
0.6666259765625
 10
101.7917195638021
 20
0.9642822265625
 10
102.0473456488715
 20
1.179600694444444
 10
102.3026272243923
 20
1.394574652777777
 10
102.6323228624132
 20
1.502061631944444
 10
103.0360880533854
 20
1.502061631944444
 10
103.3003268771701
 20
1.502061631944444
 10
103.538727484809
 20
1.451418728298611
 10
103.751289876302
 20
1.350477430555555
 10
103.9635077582465
 20
1.249536132812499
 10
104.1254272460937
 20
1.108631727430555
 10
104.2367038302951
 20
0.9277642144097221
 10
104.3479804144965
 20
0.7472412109375
 10
104.4037909613715
 20
0.5422580295138888
 10
104.4037909613715
 20
0.3131591796875
 10
104.4037909613715
 20
0.080615234375
 10
104.3452243381076
 20
-0.1271240234375
 10
104.2280910915798
 20
-0.3104031032986111
 10
104.1106133355034
 20
-0.4936821831597222
 10
103.9445597330729
 20
-0.63251953125
 10
103.7295857747396
 20
-0.7269151475694445
 10
103.5146118164062
 20
-0.8209662543402776
 10
103.2827568901909
 20
-0.8681640624999998
 10
103.0340209960937
 20
-0.8681640624999998
 10
102.7642700195312
 20
-0.8681640624999998
 10
102.5234578450521
 20
-0.8161431206597221
 10
102.3112399631076
 20
-0.7117567274305556
 10
102.0986775716145
 20
-0.60771484375
 10
101.9377916124132
 20
-0.4657769097222222
 10
101.8282375759548
 20
-0.28525390625
 10
101.7190280490451
 20
-0.105419921875
 10
101.6642510308159
 20
0.0854383680555556
 10
101.6642510308159
 20
0.2866319444444444
 97
        0
 75
     2
 76
     1
 98
        1
 10
0.0
 20
0.0
  0
HATCH
  5
6E
330
68
100
AcDbEntity
  8
LAYER_2
 62
     3
100
AcDbHatch
 10
0.0
 20
0.0
 30
0.0
210
0.0
220
0.0
230
1.0
  2
SOLID
 70
     1
 71
     0
 91
        1
 92
        1
 93
        1
 72
     4
 94
        3
 73
     0
 74
     0
 95
       17
 96
       13
 40
0.0
 40
0.0
 40
0.0
 40
0.0
 40
1.0
 40
1.0
 40
1.0
 40
2.0
 40
2.0
 40
2.0
 40
3.0
 40
3.0
 40
3.0
 40
4.0
 40
4.0
 40
4.0
 40
4.0
 10
106.0584703233507
 20
-0.8295789930555555
 10
106.0584703233507
 20
-0.8295789930555555
 10
106.0584703233507
 20
-0.5098741319444445
 10
106.0584703233507
 20
-0.5098741319444445
 10
106.0584703233507
 20
-0.5098741319444445
 10
106.4608574761285
 20
-0.5098741319444445
 10
106.4608574761285
 20
-0.5098741319444445
 10
106.4608574761285
 20
-0.5098741319444445
 10
106.4608574761285
 20
-0.8295789930555555
 10
106.4608574761285
 20
-0.8295789930555555
 10
106.4608574761285
 20
-0.8295789930555555
 10
106.0584703233507
 20
-0.8295789930555555
 10
106.0584703233507
 20
-0.8295789930555555
 97
        0
 75
     2
 76
     1
 98
        1
 10
0.0
 20
0.0
  0
HATCH
  5
6D
330
68
100
AcDbEntity
  8
LAYER_2
 62
     3
100
AcDbHatch
 10
0.0
 20
0.0
 30
0.0
210
0.0
220
0.0
230
1.0
  2
SOLID
 70
     1
 71
     0
 91
        3
 92
       16
 93
        1
 72
     4
 94
        3
 73
     0
 74
     0
 95
       29
 96
       25
 40
0.0
 40
0.0
 40
0.0
 40
0.0
 40
1.0
 40
1.0
 40
1.0
 40
2.0
 40
2.0
 40
2.0
 40
3.0
 40
3.0
 40
3.0
 40
4.0
 40
4.0
 40
4.0
 40
5.0
 40
5.0
 40
5.0
 40
6.0
 40
6.0
 40
6.0
 40
7.0
 40
7.0
 40
7.0
 40
8.0
 40
8.0
 40
8.0
 40
8.0
 10
109.6685858832465
 20
0.8940022786458332
 10
109.6685858832465
 20
0.7861707899305555
 10
109.7116495768229
 20
0.6976318359375
 10
109.7977769639757
 20
0.629074435763889
 10
109.8839043511284
 20
0.5605170355902778
 10
109.9972479926215
 20
0.5264105902777777
 10
110.1381523980034
 20
0.5264105902777777
 10
110.2752671983507
 20
0.5264105902777777
 10
110.386543782552
 20
0.5601725260416666
 10
110.4719821506076
 20
0.6283854166666666
 10
110.5574205186631
 20
0.6965983072916666
 10
110.600139702691
 20
0.7799696180555556
 10
110.600139702691
 20
0.8784993489583332
 10
110.600139702691
 20
0.9811631944444442
 10
110.5560424804687
 20
1.067635091145833
 10
110.4678480360243
 20
1.137915039062499
 10
110.3799981011284
 20
1.207850477430555
 10
110.2687215169271
 20
1.242990451388888
 10
110.1343627929687
 20
1.242990451388888
 10
109.9986260308159
 20
1.242990451388888
 10
109.887004937066
 20
1.208539496527777
 10
109.7994995117187
 20
1.140326605902777
 10
109.7123385959201
 20
1.071424696180555
 10
109.6685858832465
 20
0.989431423611111
 10
109.6685858832465
 20
0.8940022786458332
 97
        0
 92
       16
 93
        1
 72
     4
 94
        3
 73
     0
 74
     0
 95
       32
 96
       28
 40
0.0
 40
0.0
 40
0.0
 40
0.0
 40
1.0
 40
1.0
 40
1.0
 40
2.0
 40
2.0
 40
2.0
 40
3.0
 40
3.0
 40
3.0
 40
4.0
 40
4.0
 40
4.0
 40
5.0
 40
5.0
 40
5.0
 40
6.0
 40
6.0
 40
6.0
 40
7.0
 40
7.0
 40
7.0
 40
8.0
 40
8.0
 40
8.0
 40
9.0
 40
9.0
 40
9.0
 40
9.0
 10
109.5528306749132
 20
-0.1660536024305555
 10
109.5528306749132
 20
-0.2466688368055555
 10
109.5759128146701
 20
-0.3245279947916666
 10
109.6224216037326
 20
-0.3999755859375
 10
109.6689303927951
 20
-0.4750786675347222
 10
109.7395548502604
 20
-0.53330078125
 10
109.8339504665798
 20
-0.5746419270833333
 10
109.9283460828993
 20
-0.6159830729166666
 10
110.0296318901909
 20
-0.6366536458333333
 10
110.1371188693576
 20
-0.6366536458333333
 10
110.3066175672743
 20
-0.6366536458333333
 10
110.4454549153645
 20
-0.5932454427083333
 10
110.5536309136284
 20
-0.5064290364583333
 10
110.6618069118923
 20
-0.4196126302083333
 10
110.7158949110243
 20
-0.3093695746527778
 10
110.7158949110243
 20
-0.1756998697916666
 10
110.7158949110243
 20
-0.0396185980902778
 10
110.6600843641493
 20
0.0726915147569445
 10
110.5488077799479
 20
0.1615749782986111
 10
110.4371866861979
 20
0.2504584418402778
 10
110.2962822808159
 20
0.2949001736111111
 10
110.1254055447048
 20
0.2949001736111111
 10
109.9586629231771
 20
0.2949001736111111
 10
109.8215481228298
 20
0.2508029513888888
 10
109.7140611436632
 20
0.1632975260416666
 10
109.6065741644965
 20
0.0751030815972222
 10
109.5528306749132
 20
-0.0344509548611111
 10
109.5528306749132
 20
-0.1660536024305555
 97
        0
 92
        1
 93
        1
 72
     4
 94
        3
 73
     0
 74
     0
 95
       53
 96
       49
 40
0.0
 40
0.0
 40
0.0
 40
0.0
 40
1.0
 40
1.0
 40
1.0
 40
2.0
 40
2.0
 40
2.0
 40
3.0
 40
3.0
 40
3.0
 40
4.0
 40
4.0
 40
4.0
 40
5.0
 40
5.0
 40
5.0
 40
6.0
 40
6.0
 40
6.0
 40
7.0
 40
7.0
 40
7.0
 40
8.0
 40
8.0
 40
8.0
 40
9.0
 40
9.0
 40
9.0
 40
10.0
 40
10.0
 40
10.0
 40
11.0
 40
11.0
 40
11.0
 40
12.0
 40
12.0
 40
12.0
 40
13.0
 40
13.0
 40
13.0
 40
14.0
 40
14.0
 40
14.0
 40
15.0
 40
15.0
 40
15.0
 40
16.0
 40
16.0
 40
16.0
 40
16.0
 10
109.7388658311632
 20
0.4175455729166666
 10
109.5914157443576
 20
0.4602647569444444
 10
109.4822062174479
 20
0.5212429470486111
 10
109.411237250434
 20
0.6001356336805555
 10
109.3402682834201
 20
0.6793728298611111
 10
109.3047837999131
 20
0.7741129557291666
 10
109.3047837999131
 20
0.8843560112847221
 10
109.3047837999131
 20
1.050754123263888
 10
109.3798868815104
 20
1.190969509548611
 10
109.5300930447048
 20
1.304313151041666
 10
109.6802992078993
 20
1.417656792534722
 10
109.8801147460937
 20
1.474500868055555
 10
110.1295396592882
 20
1.474500868055555
 10
110.3803426106771
 20
1.474500868055555
 10
110.5818806966146
 20
1.416623263888888
 10
110.7348429361979
 20
1.300523546006944
 10
110.8874606662326
 20
1.184423828124999
 10
110.9639417860243
 20
1.043174913194444
 10
110.9639417860243
 20
0.8764322916666666
 10
110.9639417860243
 20
0.7703233506944444
 10
110.9288018120659
 20
0.6779947916666666
 10
110.8588663736979
 20
0.5994466145833333
 10
110.7889309353298
 20
0.5208984375
 10
110.682477484809
 20
0.4602647569444444
 10
110.539850531684
 20
0.4175455729166666
 10
110.7158949110243
 20
0.3717258029513888
 10
110.8495646158854
 20
0.29765625
 10
110.9418931749132
 20
0.1949924045138889
 10
111.0335327148437
 20
0.0923285590277778
 10
111.0796969943576
 20
-0.0296278211805556
 10
111.0796969943576
 20
-0.1719102647569444
 10
111.0796969943576
 20
-0.3686252170138888
 10
110.9928805881076
 20
-0.5336452907986111
 10
110.8192477756076
 20
-0.6676595052083333
 10
110.6456149631076
 20
-0.8013292100694442
 10
110.417549641927
 20
-0.8681640624999998
 10
110.1343627929687
 20
-0.8681640624999998
 10
109.8511759440104
 20
-0.8681640624999998
 10
109.6227661132812
 20
-0.8009847005208332
 10
109.4494778103298
 20
-0.6666259765625
 10
109.2758449978298
 20
-0.5322672526041666
 10
109.1890285915798
 20
-0.3648356119791666
 10
109.1890285915798
 20
-0.1639865451388889
 10
109.1890285915798
 20
-0.0144694010416667
 10
109.2365709092882
 20
0.1105875651041666
 10
109.3316555447048
 20
0.2115288628472222
 10
109.4270846896701
 20
0.3124701605902778
 10
109.5628214518229
 20
0.3810275607638888
 10
109.7388658311632
 20
0.4175455729166666
 97
        0
 75
     2
 76
     1
 98
        1
 10
0.0
 20
0.0
  0
HATCH
  5
6C
330
68
100
AcDbEntity
  8
LAYER_2
 62
     3
100
AcDbHatch
 10
0.0
 20
0.0
 30
0.0
210
0.0
220
0.0
230
1.0
  2
SOLID
 70
     1
 71
     0
 91
        3
 92
       16
 93
        1
 72
     4
 94
        3
 73
     0
 74
     0
 95
       29
 96
       25
 40
0.0
 40
0.0
 40
0.0
 40
0.0
 40
1.0
 40
1.0
 40
1.0
 40
2.0
 40
2.0
 40
2.0
 40
3.0
 40
3.0
 40
3.0
 40
4.0
 40
4.0
 40
4.0
 40
5.0
 40
5.0
 40
5.0
 40
6.0
 40
6.0
 40
6.0
 40
7.0
 40
7.0
 40
7.0
 40
8.0
 40
8.0
 40
8.0
 40
8.0
 10
113.0048163519965
 20
0.8940022786458332
 10
113.0048163519965
 20
0.7861707899305555
 10
113.0478800455729
 20
0.6976318359375
 10
113.1340074327257
 20
0.629074435763889
 10
113.2201348198784
 20
0.5605170355902778
 10
113.3334784613715
 20
0.5264105902777777
 10
113.4743828667534
 20
0.5264105902777777
 10
113.6114976671007
 20
0.5264105902777777
 10
113.7227742513021
 20
0.5601725260416666
 10
113.8082126193576
 20
0.6283854166666666
 10
113.8936509874131
 20
0.6965983072916666
 10
113.9363701714409
 20
0.7799696180555556
 10
113.9363701714409
 20
0.8784993489583332
 10
113.9363701714409
 20
0.9811631944444442
 10
113.8922729492187
 20
1.067635091145833
 10
113.8040785047743
 20
1.137915039062499
 10
113.7162285698784
 20
1.207850477430555
 10
113.6049519856771
 20
1.242990451388888
 10
113.4705932617187
 20
1.242990451388888
 10
113.3348564995659
 20
1.242990451388888
 10
113.2232354058159
 20
1.208539496527777
 10
113.1357299804687
 20
1.140326605902777
 10
113.0485690646701
 20
1.071424696180555
 10
113.0048163519965
 20
0.989431423611111
 10
113.0048163519965
 20
0.8940022786458332
 97
        0
 92
       16
 93
        1
 72
     4
 94
        3
 73
     0
 74
     0
 95
       32
 96
       28
 40
0.0
 40
0.0
 40
0.0
 40
0.0
 40
1.0
 40
1.0
 40
1.0
 40
2.0
 40
2.0
 40
2.0
 40
3.0
 40
3.0
 40
3.0
 40
4.0
 40
4.0
 40
4.0
 40
5.0
 40
5.0
 40
5.0
 40
6.0
 40
6.0
 40
6.0
 40
7.0
 40
7.0
 40
7.0
 40
8.0
 40
8.0
 40
8.0
 40
9.0
 40
9.0
 40
9.0
 40
9.0
 10
112.8890611436632
 20
-0.1660536024305555
 10
112.8890611436632
 20
-0.2466688368055555
 10
112.9121432834201
 20
-0.3245279947916666
 10
112.9586520724826
 20
-0.3999755859375
 10
113.0051608615451
 20
-0.4750786675347222
 10
113.0757853190104
 20
-0.53330078125
 10
113.1701809353298
 20
-0.5746419270833333
 10
113.2645765516493
 20
-0.6159830729166666
 10
113.3658623589409
 20
-0.6366536458333333
 10
113.4733493381076
 20
-0.6366536458333333
 10
113.6428480360243
 20
-0.6366536458333333
 10
113.7816853841145
 20
-0.5932454427083333
 10
113.8898613823784
 20
-0.5064290364583333
 10
113.9980373806423
 20
-0.4196126302083333
 10
114.0521253797743
 20
-0.3093695746527778
 10
114.0521253797743
 20
-0.1756998697916666
 10
114.0521253797743
 20
-0.0396185980902778
 10
113.9963148328993
 20
0.0726915147569445
 10
113.8850382486979
 20
0.1615749782986111
 10
113.7734171549479
 20
0.2504584418402778
 10
113.6325127495659
 20
0.2949001736111111
 10
113.4616360134548
 20
0.2949001736111111
 10
113.2948933919271
 20
0.2949001736111111
 10
113.1577785915798
 20
0.2508029513888888
 10
113.0502916124132
 20
0.1632975260416666
 10
112.9428046332465
 20
0.0751030815972222
 10
112.8890611436632
 20
-0.0344509548611111
 10
112.8890611436632
 20
-0.1660536024305555
 97
        0
 92
        1
 93
        1
 72
     4
 94
        3
 73
     0
 74
     0
 95
       53
 96
       49
 40
0.0
 40
0.0
 40
0.0
 40
0.0
 40
1.0
 40
1.0
 40
1.0
 40
2.0
 40
2.0
 40
2.0
 40
3.0
 40
3.0
 40
3.0
 40
4.0
 40
4.0
 40
4.0
 40
5.0
 40
5.0
 40
5.0
 40
6.0
 40
6.0
 40
6.0
 40
7.0
 40
7.0
 40
7.0
 40
8.0
 40
8.0
 40
8.0
 40
9.0
 40
9.0
 40
9.0
 40
10.0
 40
10.0
 40
10.0
 40
11.0
 40
11.0
 40
11.0
 40
12.0
 40
12.0
 40
12.0
 40
13.0
 40
13.0
 40
13.0
 40
14.0
 40
14.0
 40
14.0
 40
15.0
 40
15.0
 40
15.0
 40
16.0
 40
16.0
 40
16.0
 40
16.0
 10
113.0750962999132
 20
0.4175455729166666
 10
112.9276462131076
 20
0.4602647569444444
 10
112.8184366861979
 20
0.5212429470486111
 10
112.747467719184
 20
0.6001356336805555
 10
112.6764987521701
 20
0.6793728298611111
 10
112.6410142686632
 20
0.7741129557291666
 10
112.6410142686632
 20
0.8843560112847221
 10
112.6410142686632
 20
1.050754123263888
 10
112.7161173502604
 20
1.190969509548611
 10
112.8663235134548
 20
1.304313151041666
 10
113.0165296766493
 20
1.417656792534722
 10
113.2163452148437
 20
1.474500868055555
 10
113.4657701280382
 20
1.474500868055555
 10
113.7165730794271
 20
1.474500868055555
 10
113.9181111653646
 20
1.416623263888888
 10
114.0710734049479
 20
1.300523546006944
 10
114.2236911349826
 20
1.184423828124999
 10
114.3001722547743
 20
1.043174913194444
 10
114.3001722547743
 20
0.8764322916666666
 10
114.3001722547743
 20
0.7703233506944444
 10
114.2650322808159
 20
0.6779947916666666
 10
114.1950968424479
 20
0.5994466145833333
 10
114.1251614040798
 20
0.5208984375
 10
114.018707953559
 20
0.4602647569444444
 10
113.876081000434
 20
0.4175455729166666
 10
114.0521253797743
 20
0.3717258029513888
 10
114.1857950846354
 20
0.29765625
 10
114.2781236436632
 20
0.1949924045138889
 10
114.3697631835937
 20
0.0923285590277778
 10
114.4159274631076
 20
-0.0296278211805556
 10
114.4159274631076
 20
-0.1719102647569444
 10
114.4159274631076
 20
-0.3686252170138888
 10
114.3291110568576
 20
-0.5336452907986111
 10
114.1554782443576
 20
-0.6676595052083333
 10
113.9818454318576
 20
-0.8013292100694442
 10
113.753780110677
 20
-0.8681640624999998
 10
113.4705932617187
 20
-0.8681640624999998
 10
113.1874064127604
 20
-0.8681640624999998
 10
112.9589965820312
 20
-0.8009847005208332
 10
112.7857082790798
 20
-0.6666259765625
 10
112.6120754665798
 20
-0.5322672526041666
 10
112.5252590603298
 20
-0.3648356119791666
 10
112.5252590603298
 20
-0.1639865451388889
 10
112.5252590603298
 20
-0.0144694010416667
 10
112.5728013780382
 20
0.1105875651041666
 10
112.6678860134548
 20
0.2115288628472222
 10
112.7633151584201
 20
0.3124701605902778
 10
112.8990519205729
 20
0.3810275607638888
 10
113.0750962999132
 20
0.4175455729166666
 97
        0
 75
     2
 76
     1
 98
        1
 10
0.0
 20
0.0
  0
HATCH
  5
6B
330
68
100
AcDbEntity
  8
LAYER_2
 62
     3
100
AcDbHatch
 10
0.0
 20
0.0
 30
0.0
210
0.0
220
0.0
230
1.0
  2
SOLID
 70
     1
 71
     0
 91
        1
 92
        1
 93
        1
 72
     4
 94
        3
 73
     0
 74
     0
 95
       38
 96
       34
 40
0.0
 40
0.0
 40
0.0
 40
0.0
 40
1.0
 40
1.0
 40
1.0
 40
2.0
 40
2.0
 40
2.0
 40
3.0
 40
3.0
 40
3.0
 40
4.0
 40
4.0
 40
4.0
 40
5.0
 40
5.0
 40
5.0
 40
6.0
 40
6.0
 40
6.0
 40
7.0
 40
7.0
 40
7.0
 40
8.0
 40
8.0
 40
8.0
 40
9.0
 40
9.0
 40
9.0
 40
10.0
 40
10.0
 40
10.0
 40
11.0
 40
11.0
 40
11.0
 40
11.0
 10
115.8890502929687
 20
1.165820312499999
 10
115.8890502929687
 20
1.165820312499999
 10
115.8890502929687
 20
1.435915798611111
 10
115.8890502929687
 20
1.435915798611111
 10
115.8890502929687
 20
1.435915798611111
 10
117.7466457790798
 20
1.435915798611111
 10
117.7466457790798
 20
1.435915798611111
 10
117.7466457790798
 20
1.435915798611111
 10
117.7466457790798
 20
1.217496744791666
 10
117.7466457790798
 20
1.217496744791666
 10
117.5644002278645
 20
1.061778428819444
 10
117.3838772243923
 20
0.8550726996527776
 10
117.2047322591146
 20
0.5973795572916666
 10
117.0259318033854
 20
0.3393419053819444
 10
116.8874389648437
 20
0.0740695529513889
 10
116.7899427625868
 20
-0.1984375
 10
116.7196628146701
 20
-0.390673828125
 10
116.674532063802
 20
-0.6008246527777778
 10
116.6552395290798
 20
-0.8295789930555555
 10
116.6552395290798
 20
-0.8295789930555555
 10
116.2914374457465
 20
-0.8295789930555555
 10
116.2914374457465
 20
-0.8295789930555555
 10
116.2952270507812
 20
-0.6490559895833333
 10
116.339668782552
 20
-0.4306369357638889
 10
116.4244181315104
 20
-0.1750108506944444
 10
116.5091674804687
 20
0.0809597439236111
 10
116.6307793511284
 20
0.3276285807291666
 10
116.7889092339409
 20
0.5649956597222223
 10
116.9473836263021
 20
0.8027072482638889
 10
117.1161933051215
 20
1.002867296006944
 10
117.2946492513021
 20
1.165820312499999
 10
117.2946492513021
 20
1.165820312499999
 10
115.8890502929687
 20
1.165820312499999
 10
115.8890502929687
 20
1.165820312499999
 97
        0
 75
     2
 76
     1
 98
        1
 10
0.0
 20
0.0
  0
ENDBLK
  5
A7
330
68
100
AcDbEntity
  8
LAYER_2
100
AcDbBlockEnd
  0
BLOCK
  5
AB
330
A9
100
AcDbEntity
  8
LAYER_1
 62
     7
100
AcDbBlockBegin
  2
AI9-BLK9
 70
     0
 10
0.0
 20
0.0
 30
0.0
  3
AI9-BLK9
  1

  0
POLYLINE
  5
F8
330
A9
100
AcDbEntity
  8
LAYER_1
 62
     7
100
AcDb2dPolyline
 66
     1
 10
0.0
 20
0.0
 30
0.0
 70
     1
  0
VERTEX
  5
F9
330
F8
100
AcDbEntity
  8
LAYER_1
 62
     7
100
AcDbVertex
100
AcDb2dVertex
 10
2.707414415147569
 20
6.153974066840277
 30
0.0
  0
VERTEX
  5
FA
330
F8
100
AcDbEntity
  8
LAYER_1
 62
     7
100
AcDbVertex
100
AcDb2dVertex
 10
-3.060364447699652
 20
5.488898383246527
 30
0.0
  0
VERTEX
  5
FB
330
F8
100
AcDbEntity
  8
LAYER_1
 62
     7
100
AcDbVertex
100
AcDb2dVertex
 10
-3.133744981553819
 20
4.824339463975693
 30
0.0
  0
VERTEX
  5
FC
330
F8
100
AcDbEntity
  8
LAYER_1
 62
     7
100
AcDbVertex
100
AcDb2dVertex
 10
3.125993516710069
 20
5.488898383246527
 30
0.0
  0
SEQEND
  5
FD
330
F8
100
AcDbEntity
  8
LAYER_1
 62
     7
  0
POLYLINE
  5
F2
330
A9
100
AcDbEntity
  8
LAYER_1
 62
     7
100
AcDb2dPolyline
 66
     1
 10
0.0
 20
0.0
 30
0.0
 70
     1
  0
VERTEX
  5
F3
330
F2
100
AcDbEntity
  8
LAYER_1
 62
     7
100
AcDbVertex
100
AcDb2dVertex
 10
2.83798353407118
 20
4.713062879774304
 30
0.0
  0
VERTEX
  5
F4
330
F2
100
AcDbEntity
  8
LAYER_1
 62
     7
100
AcDbVertex
100
AcDb2dVertex
 10
-3.215049235026041
 20
4.048503960503471
 30
0.0
  0
VERTEX
  5
F5
330
F2
100
AcDbEntity
  8
LAYER_1
 62
     7
100
AcDbVertex
100
AcDb2dVertex
 10
-3.354575602213541
 20
3.272323947482638
 30
0.0
  0
VERTEX
  5
F6
330
F2
100
AcDbEntity
  8
LAYER_1
 62
     7
100
AcDbVertex
100
AcDb2dVertex
 10
3.199029541015624
 20
4.048503960503471
 30
0.0
  0
SEQEND
  5
F7
330
F2
100
AcDbEntity
  8
LAYER_1
 62
     7
  0
POLYLINE
  5
EC
330
A9
100
AcDbEntity
  8
LAYER_1
 62
     7
100
AcDb2dPolyline
 66
     1
 10
0.0
 20
0.0
 30
0.0
 70
     1
  0
VERTEX
  5
ED
330
EC
100
AcDbEntity
  8
LAYER_1
 62
     7
100
AcDbVertex
100
AcDb2dVertex
 10
2.87519056532118
 20
3.272323947482638
 30
0.0
  0
VERTEX
  5
EE
330
EC
100
AcDbEntity
  8
LAYER_1
 62
     7
100
AcDbVertex
100
AcDb2dVertex
 10
-3.178531222873263
 20
2.607592773437499
 30
0.0
  0
VERTEX
  5
EF
330
EC
100
AcDbEntity
  8
LAYER_1
 62
     7
100
AcDbVertex
100
AcDb2dVertex
 10
-3.318057590060763
 20
1.831757269965277
 30
0.0
  0
VERTEX
  5
F0
330
EC
100
AcDbEntity
  8
LAYER_1
 62
     7
100
AcDbVertex
100
AcDb2dVertex
 10
3.236581081814235
 20
2.607592773437499
 30
0.0
  0
SEQEND
  5
F1
330
EC
100
AcDbEntity
  8
LAYER_1
 62
     7
  0
POLYLINE
  5
E6
330
A9
100
AcDbEntity
  8
LAYER_1
 62
     7
100
AcDb2dPolyline
 66
     1
 10
0.0
 20
0.0
 30
0.0
 70
     1
  0
VERTEX
  5
E7
330
E6
100
AcDbEntity
  8
LAYER_1
 62
     7
100
AcDbVertex
100
AcDb2dVertex
 10
2.948915608723957
 20
1.942344835069444
 30
0.0
  0
VERTEX
  5
E8
330
E6
100
AcDbEntity
  8
LAYER_1
 62
     7
100
AcDbVertex
100
AcDb2dVertex
 10
-3.104461669921874
 20
1.27778591579861
 30
0.0
  0
VERTEX
  5
E9
330
E6
100
AcDbEntity
  8
LAYER_1
 62
     7
100
AcDbVertex
100
AcDb2dVertex
 10
-3.243299018012152
 20
0.5019504123263889
 30
0.0
  0
VERTEX
  5
EA
330
E6
100
AcDbEntity
  8
LAYER_1
 62
     7
100
AcDbVertex
100
AcDb2dVertex
 10
3.309617106119791
 20
1.27778591579861
 30
0.0
  0
SEQEND
  5
EB
330
E6
100
AcDbEntity
  8
LAYER_1
 62
     7
  0
POLYLINE
  5
E0
330
A9
100
AcDbEntity
  8
LAYER_1
 62
     7
100
AcDb2dPolyline
 66
     1
 10
0.0
 20
0.0
 30
0.0
 70
     1
  0
VERTEX
  5
E1
330
E0
100
AcDbEntity
  8
LAYER_1
 62
     7
100
AcDbVertex
100
AcDb2dVertex
 10
2.948915608723957
 20
0.61236572265625
 30
0.0
  0
VERTEX
  5
E2
330
E0
100
AcDbEntity
  8
LAYER_1
 62
     7
100
AcDbVertex
100
AcDb2dVertex
 10
-3.104461669921874
 20
-0.0523654513888889
 30
0.0
  0
VERTEX
  5
E3
330
E0
100
AcDbEntity
  8
LAYER_1
 62
     7
100
AcDbVertex
100
AcDb2dVertex
 10
-3.243299018012152
 20
-0.828200954861111
 30
0.0
  0
VERTEX
  5
E4
330
E0
100
AcDbEntity
  8
LAYER_1
 62
     7
100
AcDbVertex
100
AcDb2dVertex
 10
3.309617106119791
 20
-0.0523654513888889
 30
0.0
  0
SEQEND
  5
E5
330
E0
100
AcDbEntity
  8
LAYER_1
 62
     7
  0
POLYLINE
  5
DA
330
A9
100
AcDbEntity
  8
LAYER_1
 62
     7
100
AcDb2dPolyline
 66
     1
 10
0.0
 20
0.0
 30
0.0
 70
     1
  0
VERTEX
  5
DB
330
DA
100
AcDbEntity
  8
LAYER_1
 62
     7
100
AcDbVertex
100
AcDb2dVertex
 10
2.948915608723957
 20
-0.9389607747395832
 30
0.0
  0
VERTEX
  5
DC
330
DA
100
AcDbEntity
  8
LAYER_1
 62
     7
100
AcDbVertex
100
AcDb2dVertex
 10
-3.104461669921874
 20
-1.604036458333333
 30
0.0
  0
VERTEX
  5
DD
330
DA
100
AcDbEntity
  8
LAYER_1
 62
     7
100
AcDbVertex
100
AcDb2dVertex
 10
-3.243299018012152
 20
-2.379871961805555
 30
0.0
  0
VERTEX
  5
DE
330
DA
100
AcDbEntity
  8
LAYER_1
 62
     7
100
AcDbVertex
100
AcDb2dVertex
 10
3.309617106119791
 20
-1.604036458333333
 30
0.0
  0
SEQEND
  5
DF
330
DA
100
AcDbEntity
  8
LAYER_1
 62
     7
  0
POLYLINE
  5
D4
330
A9
100
AcDbEntity
  8
LAYER_1
 62
     7
100
AcDb2dPolyline
 66
     1
 10
0.0
 20
0.0
 30
0.0
 70
     1
  0
VERTEX
  5
D5
330
D4
100
AcDbEntity
  8
LAYER_1
 62
     7
100
AcDbVertex
100
AcDb2dVertex
 10
2.948915608723957
 20
-2.268939887152777
 30
0.0
  0
VERTEX
  5
D6
330
D4
100
AcDbEntity
  8
LAYER_1
 62
     7
100
AcDbVertex
100
AcDb2dVertex
 10
-3.104461669921874
 20
-2.934015570746527
 30
0.0
  0
VERTEX
  5
D7
330
D4
100
AcDbEntity
  8
LAYER_1
 62
     7
100
AcDbVertex
100
AcDb2dVertex
 10
-3.243299018012152
 20
-3.709851074218749
 30
0.0
  0
VERTEX
  5
D8
330
D4
100
AcDbEntity
  8
LAYER_1
 62
     7
100
AcDbVertex
100
AcDb2dVertex
 10
3.309617106119791
 20
-2.934015570746527
 30
0.0
  0
SEQEND
  5
D9
330
D4
100
AcDbEntity
  8
LAYER_1
 62
     7
  0
POLYLINE
  5
CE
330
A9
100
AcDbEntity
  8
LAYER_1
 62
     7
100
AcDb2dPolyline
 66
     1
 10
0.0
 20
0.0
 30
0.0
 70
     1
  0
VERTEX
  5
CF
330
CE
100
AcDbEntity
  8
LAYER_1
 62
     7
100
AcDbVertex
100
AcDb2dVertex
 10
2.948915608723957
 20
-3.598918999565972
 30
0.0
  0
VERTEX
  5
D0
330
CE
100
AcDbEntity
  8
LAYER_1
 62
     7
100
AcDbVertex
100
AcDb2dVertex
 10
-3.104461669921874
 20
-4.263994683159721
 30
0.0
  0
VERTEX
  5
D1
330
CE
100
AcDbEntity
  8
LAYER_1
 62
     7
100
AcDbVertex
100
AcDb2dVertex
 10
-3.243299018012152
 20
-5.039830186631943
 30
0.0
  0
VERTEX
  5
D2
330
CE
100
AcDbEntity
  8
LAYER_1
 62
     7
100
AcDbVertex
100
AcDb2dVertex
 10
3.309617106119791
 20
-4.263994683159721
 30
0.0
  0
SEQEND
  5
D3
330
CE
100
AcDbEntity
  8
LAYER_1
 62
     7
  0
POLYLINE
  5
C8
330
A9
100
AcDbEntity
  8
LAYER_1
 62
     7
100
AcDb2dPolyline
 66
     1
 10
0.0
 20
0.0
 30
0.0
  0
VERTEX
  5
C9
330
C8
100
AcDbEntity
  8
LAYER_1
 62
     7
100
AcDbVertex
100
AcDb2dVertex
 10
2.038376871744791
 20
6.12245144314236
 30
0.0
  0
VERTEX
  5
CA
330
C8
100
AcDbEntity
  8
LAYER_1
 62
     7
100
AcDbVertex
100
AcDb2dVertex
 10
1.895060899522569
 20
6.281614854600693
 30
0.0
  0
VERTEX
  5
CB
330
C8
100
AcDbEntity
  8
LAYER_1
 62
     7
100
AcDbVertex
100
AcDb2dVertex
 10
-1.969991726345486
 20
6.281614854600693
 30
0.0
  0
VERTEX
  5
CC
330
C8
100
AcDbEntity
  8
LAYER_1
 62
     7
100
AcDbVertex
100
AcDb2dVertex
 10
-2.694667561848957
 20
5.54419216579861
 30
0.0
  0
SEQEND
  5
CD
330
C8
100
AcDbEntity
  8
LAYER_1
 62
     7
  0
POLYLINE
  5
C3
330
A9
100
AcDbEntity
  8
LAYER_1
 62
     7
100
AcDb2dPolyline
 66
     1
 10
0.0
 20
0.0
 30
0.0
  0
VERTEX
  5
C4
330
C3
100
AcDbEntity
  8
LAYER_1
 62
     7
100
AcDbVertex
100
AcDb2dVertex
 10
2.781139458550347
 20
4.71323513454861
 30
0.0
  0
VERTEX
  5
C5
330
C3
100
AcDbEntity
  8
LAYER_1
 62
     7
100
AcDbVertex
100
AcDb2dVertex
 10
2.781139458550347
 20
5.297867838541666
 30
0.0
  0
VERTEX
  5
C6
330
C3
100
AcDbEntity
  8
LAYER_1
 62
     7
100
AcDbVertex
100
AcDb2dVertex
 10
2.658494059244791
 20
5.433949110243054
 30
0.0
  0
SEQEND
  5
C7
330
C3
100
AcDbEntity
  8
LAYER_1
 62
     7
  0
LINE
  5
C2
330
A9
100
AcDbEntity
  8
LAYER_1
 62
     7
100
AcDbLine
 10
2.781139458550347
 20
3.280075412326388
 30
0.0
 11
2.781139458550347
 21
4.00785183376736
 31
0.0
  0
LINE
  5
C1
330
A9
100
AcDbEntity
  8
LAYER_1
 62
     7
100
AcDbLine
 10
2.781139458550347
 20
1.920468478732638
 30
0.0
 11
2.781139458550347
 21
2.552643500434027
 31
0.0
  0
LINE
  5
C0
330
A9
100
AcDbEntity
  8
LAYER_1
 62
     7
100
AcDbLine
 10
2.781139458550347
 20
0.5973795572916666
 30
0.0
 11
2.781139458550347
 21
1.207505967881944
 31
0.0
  0
LINE
  5
BF
330
A9
100
AcDbEntity
  8
LAYER_1
 62
     7
100
AcDbLine
 10
2.781139458550347
 20
-0.9534301757812498
 30
0.0
 11
2.781139458550347
 21
-0.1154106987847222
 31
0.0
  0
LINE
  5
BE
330
A9
100
AcDbEntity
  8
LAYER_1
 62
     7
100
AcDbLine
 10
2.781139458550347
 20
-2.290988498263888
 30
0.0
 11
2.781139458550347
 21
-1.658813476562499
 31
0.0
  0
LINE
  5
BD
330
A9
100
AcDbEntity
  8
LAYER_1
 62
     7
100
AcDbLine
 10
2.781139458550347
 20
-3.628546820746527
 30
0.0
 11
2.781139458550347
 21
-3.01101345486111
 31
0.0
  0
POLYLINE
  5
B3
330
A9
100
AcDbEntity
  8
LAYER_1
 62
     7
100
AcDb2dPolyline
 66
     1
 10
0.0
 20
0.0
 30
0.0
  0
VERTEX
  5
B4
330
B3
100
AcDbEntity
  8
LAYER_1
 62
     7
100
AcDbVertex
100
AcDb2dVertex
 10
-2.936685519748263
 20
-4.973512098524305
 30
0.0
  0
VERTEX
  5
B5
330
B3
100
AcDbEntity
  8
LAYER_1
 62
     7
100
AcDbVertex
100
AcDb2dVertex
 10
-2.936685519748263
 20
-5.469605848524304
 30
0.0
  0
VERTEX
  5
B6
330
B3
100
AcDbEntity
  8
LAYER_1
 62
     7
100
AcDbVertex
100
AcDb2dVertex
 10
-2.354464382595486
 20
-5.45737575954861
 30
0.0
  0
VERTEX
  5
B7
330
B3
100
AcDbEntity
  8
LAYER_1
 62
     7
100
AcDbVertex
100
AcDb2dVertex
 10
-2.354464382595486
 20
-6.281614854600693
 30
0.0
  0
VERTEX
  5
B8
330
B3
100
AcDbEntity
  8
LAYER_1
 62
     7
100
AcDbVertex
100
AcDb2dVertex
 10
2.29228040907118
 20
-6.281614854600693
 30
0.0
  0
VERTEX
  5
B9
330
B3
100
AcDbEntity
  8
LAYER_1
 62
     7
100
AcDbVertex
100
AcDb2dVertex
 10
2.29228040907118
 20
-5.35815700954861
 30
0.0
  0
VERTEX
  5
BA
330
B3
100
AcDbEntity
  8
LAYER_1
 62
     7
100
AcDbVertex
100
AcDb2dVertex
 10
2.781139458550347
 20
-5.347649468315971
 30
0.0
  0
VERTEX
  5
BB
330
B3
100
AcDbEntity
  8
LAYER_1
 62
     7
100
AcDbVertex
100
AcDb2dVertex
 10
2.781139458550347
 20
-4.34891628689236
 30
0.0
  0
SEQEND
  5
BC
330
B3
100
AcDbEntity
  8
LAYER_1
 62
     7
  0
LINE
  5
B2
330
A9
100
AcDbEntity
  8
LAYER_1
 62
     7
100
AcDbLine
 10
-2.936685519748263
 20
-3.672644042968749
 30
0.0
 11
-2.936685519748263
 21
-4.238500976562499
 31
0.0
  0
LINE
  5
B1
330
A9
100
AcDbEntity
  8
LAYER_1
 62
     7
100
AcDbLine
 10
-2.936685519748263
 20
-2.335257975260416
 30
0.0
 11
-2.936685519748263
 21
-2.90094265407986
 31
0.0
  0
LINE
  5
B0
330
A9
100
AcDbEntity
  8
LAYER_1
 62
     7
100
AcDbLine
 10
-2.936685519748263
 20
-0.7844482421875
 30
0.0
 11
-2.936685519748263
 21
-1.59249538845486
 31
0.0
  0
LINE
  5
AF
330
A9
100
AcDbEntity
  8
LAYER_1
 62
     7
100
AcDbLine
 10
-2.936685519748263
 20
0.55345458984375
 30
0.0
 11
-2.936685519748263
 21
-0.0346232096354167
 31
0.0
  0
LINE
  5
AE
330
A9
100
AcDbEntity
  8
LAYER_1
 62
     7
100
AcDbLine
 10
-2.936685519748263
 20
1.898247612847222
 30
0.0
 11
-2.936685519748263
 21
1.317921278211805
 31
0.0
  0
LINE
  5
AD
330
A9
100
AcDbEntity
  8
LAYER_1
 62
     7
100
AcDbLine
 10
-2.936685519748263
 20
3.346221245659721
 30
0.0
 11
-2.936685519748263
 21
2.647900390624999
 31
0.0
  0
LINE
  5
AC
330
A9
100
AcDbEntity
  8
LAYER_1
 62
     7
100
AcDbLine
 10
-2.936685519748263
 20
4.874982367621527
 30
0.0
 11
-2.936685519748263
 21
4.081060112847222
 31
0.0
  0
ENDBLK
  5
FE
330
A9
100
AcDbEntity
  8
LAYER_1
100
AcDbBlockEnd
  0
BLOCK
  5
139
330
12E
100
AcDbEntity
  8
0
 62
     3
370
     0
100
AcDbBlockBegin
  2
*D9
 70
     1
 10
0.0
 20
0.0
 30
0.0
  3
*D9
  1

  0
LINE
  5
254
330
12E
100
AcDbEntity
  8
ADPDIM
  6
Continuous
 62
     0
370
     0
100
AcDbLine
 10
-6.531718993951607
 20
252.3876953125
 30
0.0
 11
-8.188912382300154
 21
252.3876953125
 31
0.0
  0
LINE
  5
255
330
12E
100
AcDbEntity
  8
ADPDIM
  6
Continuous
 62
     0
370
     0
100
AcDbLine
 10
-6.535196718384821
 20
249.8876977314146
 30
0.0
 11
-8.188912382300156
 21
249.8876977314146
 31
0.0
  0
LINE
  5
256
330
12E
100
AcDbEntity
  8
ADPDIM
  6
Continuous
 62
     0
370
     0
100
AcDbLine
 10
-8.008912382300154
 20
252.2076953125
 30
0.0
 11
-8.008912382300156
 21
251.2883932462258
 31
0.0
  0
LINE
  5
257
330
12E
100
AcDbEntity
  8
ADPDIM
  6
Continuous
 62
     0
370
     0
100
AcDbLine
 10
-8.008912382300156
 20
250.0676977314146
 30
0.0
 11
-8.008912382300156
 21
250.9833932462258
 31
0.0
  0
SOLID
  5
258
330
12E
100
AcDbEntity
  8
ADPDIM
  6
Continuous
 62
     0
370
     0
100
AcDbTrace
 10
-8.038912382300154
 20
252.2076953125
 30
0.0
 11
-7.978912382300155
 21
252.2076953125
 31
0.0
 12
-8.008912382300154
 22
252.3876953125
 32
0.0
 13
-8.008912382300154
 23
252.3876953125
 33
0.0
  0
SOLID
  5
259
330
12E
100
AcDbEntity
  8
ADPDIM
  6
Continuous
 62
     0
370
     0
100
AcDbTrace
 10
-8.038912382300155
 20
250.0676977314146
 30
0.0
 11
-7.978912382300155
 21
250.0676977314146
 31
0.0
 12
-8.008912382300156
 22
249.8876977314146
 32
0.0
 13
-8.008912382300156
 23
249.8876977314146
 33
0.0
  0
MTEXT
  5
25A
330
12E
100
AcDbEntity
  8
ADPDIM
  6
Continuous
 62
     0
370
     0
100
AcDbMText
 10
-8.008912382300195
 20
251.1358932462258
 30
0.0
 40
0.125
 41
0.0
 71
     5
 72
     1
  1
\A1;2 1/2
 73
     1
 44
1.0
1001
ACAD
1000
MTEXTBEGIN
1070
    73
1070
     1
1070
    44
1040
1.0
1070
    74
1070
     0
1000
MTEXTEND
  0
POINT
  5
25B
330
12E
100
AcDbEntity
  8
Defpoints
  6
Continuous
 62
     0
370
     0
100
AcDbPoint
 10
-6.469218993951607
 20
252.3876953125
 30
0.0
  0
POINT
  5
25C
330
12E
100
AcDbEntity
  8
Defpoints
  6
Continuous
 62
     0
370
     0
100
AcDbPoint
 10
-6.472696718384821
 20
249.8876977314146
 30
0.0
  0
POINT
  5
25D
330
12E
100
AcDbEntity
  8
Defpoints
  6
Continuous
 62
     0
370
     0
100
AcDbPoint
 10
-8.008912382300156
 20
249.8876977314146
 30
0.0
  0
ENDBLK
  5
13A
330
12E
100
AcDbEntity
  8
0
 62
     3
370
     0
100
AcDbBlockEnd
  0
BLOCK
  5
163
330
157
100
AcDbEntity
  8
0
 62
     3
370
     0
100
AcDbBlockBegin
  2
*D11
 70
     1
 10
0.0
 20
0.0
 30
0.0
  3
*D11
  1

  0
LINE
  5
249
330
157
100
AcDbEntity
  8
ADPDIM
  6
Continuous
 62
     0
370
     0
100
AcDbLine
 10
-3.83959644287036
 20
251.6195468277524
 30
0.0
 11
-5.025527437333898
 21
251.6195468277524
 31
0.0
  0
LINE
  5
24A
330
157
100
AcDbEntity
  8
ADPDIM
  6
Continuous
 62
     0
370
     0
100
AcDbLine
 10
-3.838521604856321
 20
250.8695475979373
 30
0.0
 11
-5.025527437333898
 21
250.8695475979373
 31
0.0
  0
LINE
  5
24B
330
157
100
AcDbEntity
  8
ADPDIM
  6
Continuous
 62
     0
370
     0
100
AcDbLine
 10
-4.845527437333898
 20
251.0495475979373
 30
0.0
 11
-4.845527437333898
 21
251.4395468277524
 31
0.0
  0
LINE
  5
24C
330
157
100
AcDbEntity
  8
ADPDIM
  6
Continuous
 62
     0
370
     0
100
AcDbLine
 10
-4.845527437333898
 20
251.6195468277524
 30
0.0
 11
-4.845527437333898
 21
252.1629919722113
 31
0.0
  0
LINE
  5
24D
330
157
100
AcDbEntity
  8
ADPDIM
  6
Continuous
 62
     0
370
     0
100
AcDbLine
 10
-4.845527437333898
 20
252.1629919722113
 30
0.0
 11
-4.665527437333898
 21
252.1629919722113
 31
0.0
  0
SOLID
  5
24E
330
157
100
AcDbEntity
  8
ADPDIM
  6
Continuous
 62
     0
370
     0
100
AcDbTrace
 10
-4.875527437333898
 20
251.0495475979373
 30
0.0
 11
-4.815527437333898
 21
251.0495475979373
 31
0.0
 12
-4.845527437333898
 22
250.8695475979373
 32
0.0
 13
-4.845527437333898
 23
250.8695475979373
 33
0.0
  0
SOLID
  5
24F
330
157
100
AcDbEntity
  8
ADPDIM
  6
Continuous
 62
     0
370
     0
100
AcDbTrace
 10
-4.875527437333898
 20
251.4395468277524
 30
0.0
 11
-4.815527437333898
 21
251.4395468277524
 31
0.0
 12
-4.845527437333898
 22
251.6195468277524
 32
0.0
 13
-4.845527437333898
 23
251.6195468277524
 33
0.0
  0
MTEXT
  5
250
330
157
100
AcDbEntity
  8
ADPDIM
  6
Continuous
 62
     0
370
     0
100
AcDbMText
 10
-4.408860770667272
 20
252.1629919722113
 30
0.0
 40
0.125
 41
0.0
 71
     5
 72
     1
  1
\A1;3/4
 73
     1
 44
1.0
1001
ACAD
1000
MTEXTBEGIN
1070
    73
1070
     1
1070
    44
1040
1.0
1070
    74
1070
     0
1000
MTEXTEND
  0
POINT
  5
251
330
157
100
AcDbEntity
  8
Defpoints
  6
Continuous
 62
     0
370
     0
100
AcDbPoint
 10
-3.77709644287036
 20
251.6195468277524
 30
0.0
  0
POINT
  5
252
330
157
100
AcDbEntity
  8
Defpoints
  6
Continuous
 62
     0
370
     0
100
AcDbPoint
 10
-3.776021604856321
 20
250.8695475979373
 30
0.0
  0
POINT
  5
253
330
157
100
AcDbEntity
  8
Defpoints
  6
Continuous
 62
     0
370
     0
100
AcDbPoint
 10
-4.845527437333898
 20
250.8695475979373
 30
0.0
  0
ENDBLK
  5
164
330
157
100
AcDbEntity
  8
0
 62
     3
370
     0
100
AcDbBlockEnd
  0
BLOCK
  5
172
330
166
100
AcDbEntity
  8
0
 62
     3
370
     0
100
AcDbBlockBegin
  2
*D12
 70
     1
 10
0.0
 20
0.0
 30
0.0
  3
*D12
  1

  0
LINE
  5
23E
330
166
100
AcDbEntity
  8
ADPDIM
  6
Continuous
 62
     0
370
     0
100
AcDbLine
 10
-2.563669754805776
 20
251.1226079539055
 30
0.0
 11
-2.186675452800162
 21
251.1226079539055
 31
0.0
  0
LINE
  5
23F
330
166
100
AcDbEntity
  8
ADPDIM
  6
Continuous
 62
     0
370
     0
100
AcDbLine
 10
-2.563669754805776
 20
250.8726079539055
 30
0.0
 11
-2.186675452800162
 21
250.8726079539055
 31
0.0
  0
LINE
  5
240
330
166
100
AcDbEntity
  8
ADPDIM
  6
Continuous
 62
     0
370
     0
100
AcDbLine
 10
-2.366675452800163
 20
250.6926079539055
 30
0.0
 11
-2.366675452800163
 21
250.5126079539055
 31
0.0
  0
LINE
  5
241
330
166
100
AcDbEntity
  8
ADPDIM
  6
Continuous
 62
     0
370
     0
100
AcDbLine
 10
-2.366675452800162
 20
251.3026079539055
 30
0.0
 11
-2.366675452800162
 21
251.9211309250545
 31
0.0
  0
LINE
  5
242
330
166
100
AcDbEntity
  8
ADPDIM
  6
Continuous
 62
     0
370
     0
100
AcDbLine
 10
-2.366675452800162
 20
251.9211309250545
 30
0.0
 11
-2.186675452800162
 21
251.9211309250545
 31
0.0
  0
SOLID
  5
243
330
166
100
AcDbEntity
  8
ADPDIM
  6
Continuous
 62
     0
370
     0
100
AcDbTrace
 10
-2.396675452800162
 20
250.6926079539055
 30
0.0
 11
-2.336675452800163
 21
250.6926079539055
 31
0.0
 12
-2.366675452800163
 22
250.8726079539055
 32
0.0
 13
-2.366675452800163
 23
250.8726079539055
 33
0.0
  0
SOLID
  5
244
330
166
100
AcDbEntity
  8
ADPDIM
  6
Continuous
 62
     0
370
     0
100
AcDbTrace
 10
-2.396675452800162
 20
251.3026079539055
 30
0.0
 11
-2.336675452800162
 21
251.3026079539055
 31
0.0
 12
-2.366675452800162
 22
251.1226079539055
 32
0.0
 13
-2.366675452800162
 23
251.1226079539055
 33
0.0
  0
MTEXT
  5
245
330
166
100
AcDbEntity
  8
ADPDIM
  6
Continuous
 62
     0
370
     0
100
AcDbMText
 10
-1.950842119466869
 20
251.9211309250545
 30
0.0
 40
0.125
 41
0.0
 71
     5
 72
     1
  1
\A1;1/4
 73
     1
 44
1.0
1001
ACAD
1000
MTEXTBEGIN
1070
    73
1070
     1
1070
    44
1040
1.0
1070
    74
1070
     0
1000
MTEXTEND
  0
POINT
  5
246
330
166
100
AcDbEntity
  8
Defpoints
  6
Continuous
 62
     0
370
     0
100
AcDbPoint
 10
-2.626169754805776
 20
251.1226079539055
 30
0.0
  0
POINT
  5
247
330
166
100
AcDbEntity
  8
Defpoints
  6
Continuous
 62
     0
370
     0
100
AcDbPoint
 10
-2.626169754805776
 20
250.8726079539055
 30
0.0
  0
POINT
  5
248
330
166
100
AcDbEntity
  8
Defpoints
  6
Continuous
 62
     0
370
     0
100
AcDbPoint
 10
-2.366675452800163
 20
250.8726079539055
 30
0.0
  0
ENDBLK
  5
173
330
166
100
AcDbEntity
  8
0
 62
     3
370
     0
100
AcDbBlockEnd
  0
BLOCK
  5
180
330
175
100
AcDbEntity
  8
0
 62
     3
370
     0
100
AcDbBlockBegin
  2
*D13
 70
     1
 10
0.0
 20
0.0
 30
0.0
  3
*D13
  1

  0
LINE
  5
234
330
175
100
AcDbEntity
  8
ADPDIM
  6
Continuous
 62
     0
370
     0
100
AcDbLine
 10
-2.383342119466828
 20
251.1226079539055
 30
0.0
 11
-1.578470850255167
 21
251.1226079539055
 31
0.0
  0
LINE
  5
235
330
175
100
AcDbEntity
  8
ADPDIM
  6
Continuous
 62
     0
370
     0
100
AcDbLine
 10
-3.138492377233523
 20
250.6226079539055
 30
0.0
 11
-1.578470850255167
 21
250.6226079539055
 31
0.0
  0
LINE
  5
236
330
175
100
AcDbEntity
  8
ADPDIM
  6
Continuous
 62
     0
370
     0
100
AcDbLine
 10
-1.758470850255167
 20
251.3026079539055
 30
0.0
 11
-1.758470850255167
 21
251.4826079539055
 31
0.0
  0
LINE
  5
237
330
175
100
AcDbEntity
  8
ADPDIM
  6
Continuous
 62
     0
370
     0
100
AcDbLine
 10
-1.758470850255167
 20
250.4426079539055
 30
0.0
 11
-1.758470850255167
 21
250.2626079539055
 31
0.0
  0
SOLID
  5
238
330
175
100
AcDbEntity
  8
ADPDIM
  6
Continuous
 62
     0
370
     0
100
AcDbTrace
 10
-1.788470850255167
 20
251.3026079539055
 30
0.0
 11
-1.728470850255167
 21
251.3026079539055
 31
0.0
 12
-1.758470850255167
 22
251.1226079539055
 32
0.0
 13
-1.758470850255167
 23
251.1226079539055
 33
0.0
  0
SOLID
  5
239
330
175
100
AcDbEntity
  8
ADPDIM
  6
Continuous
 62
     0
370
     0
100
AcDbTrace
 10
-1.788470850255167
 20
250.4426079539055
 30
0.0
 11
-1.728470850255167
 21
250.4426079539055
 31
0.0
 12
-1.758470850255167
 22
250.6226079539055
 32
0.0
 13
-1.758470850255167
 23
250.6226079539055
 33
0.0
  0
MTEXT
  5
23A
330
175
100
AcDbEntity
  8
ADPDIM
  6
Continuous
 62
     0
370
     0
100
AcDbMText
 10
-1.758470850255207
 20
250.8726079539055
 30
0.0
 40
0.125
 41
0.0
 71
     5
 72
     1
  1
\A1;1/2
 73
     1
 44
1.0
1001
ACAD
1000
MTEXTBEGIN
1070
    73
1070
     1
1070
    44
1040
1.0
1070
    74
1070
     0
1000
MTEXTEND
  0
POINT
  5
23B
330
175
100
AcDbEntity
  8
Defpoints
  6
Continuous
 62
     0
370
     0
100
AcDbPoint
 10
-2.445842119466828
 20
251.1226079539055
 30
0.0
  0
POINT
  5
23C
330
175
100
AcDbEntity
  8
Defpoints
  6
Continuous
 62
     0
370
     0
100
AcDbPoint
 10
-3.200992377233523
 20
250.6226079539055
 30
0.0
  0
POINT
  5
23D
330
175
100
AcDbEntity
  8
Defpoints
  6
Continuous
 62
     0
370
     0
100
AcDbPoint
 10
-1.758470850255167
 20
250.6226079539055
 30
0.0
  0
ENDBLK
  5
181
330
175
100
AcDbEntity
  8
0
 62
     3
370
     0
100
AcDbBlockEnd
  0
ENDSEC
  0
SECTION
  2
ENTITIES
  0
SPLINE
  5
10E
330
A
100
AcDbEntity
  8
LAYER_1
 62
     7
100
AcDbSpline
210
0.0
220
0.0
230
1.0
 70
     8
 71
     3
 72
     8
 73
     4
 74
     0
 42
0.0000000001
 43
0.0000000001
 40
0.0
 40
0.0
 40
0.0
 40
0.0
 40
1.0
 40
1.0
 40
1.0
 40
1.0
 10
-4.70492025546877
 20
250.8734108006402
 30
0.0
 10
-4.70492025546877
 20
250.8734108006402
 30
0.0
 10
-3.769632135111398
 20
250.3123719636218
 30
0.0
 10
-2.708526936339673
 20
250.8736951177226
 30
0.0
  0
POLYLINE
  5
108
330
A
100
AcDbEntity
  8
LAYER_1
 62
     7
100
AcDb2dPolyline
 66
     1
 10
0.0
 20
0.0
 30
0.0
 70
     1
  0
VERTEX
  5
109
330
108
100
AcDbEntity
  8
LAYER_1
 62
     7
100
AcDbVertex
100
AcDb2dVertex
 10
-2.626169754805776
 20
250.8730587890144
 30
0.0
  0
VERTEX
  5
10A
330
108
100
AcDbEntity
  8
LAYER_1
 62
     7
100
AcDbVertex
100
AcDb2dVertex
 10
-4.787277437002667
 20
250.8730587890144
 30
0.0
  0
VERTEX
  5
10B
330
108
100
AcDbEntity
  8
LAYER_1
 62
     7
100
AcDbVertex
100
AcDb2dVertex
 10
-4.787277437002667
 20
251.1226079539055
 30
0.0
  0
VERTEX
  5
10C
330
108
100
AcDbEntity
  8
LAYER_1
 62
     7
100
AcDbVertex
100
AcDb2dVertex
 10
-2.626169754805776
 20
251.1226079539055
 30
0.0
  0
SEQEND
  5
10D
330
108
100
AcDbEntity
  8
LAYER_1
 62
     7
  0
POLYLINE
  5
100
330
A
100
AcDbEntity
  8
LAYER_1
 62
     7
100
AcDb2dPolyline
 66
     1
 10
0.0
 20
0.0
 30
0.0
 70
     1
  0
VERTEX
  5
101
330
100
100
AcDbEntity
  8
LAYER_1
 62
     7
100
AcDbVertex
100
AcDb2dVertex
 10
-7.610904846270163
 20
251.7528576921242
 30
0.0
  0
VERTEX
  5
102
330
100
100
AcDbEntity
  8
LAYER_1
 62
     7
100
AcDbVertex
100
AcDb2dVertex
 10
-6.530323927354346
 20
252.3767238348977
 30
0.0
  0
VERTEX
  5
103
330
100
100
AcDbEntity
  8
LAYER_1
 62
     7
100
AcDbVertex
100
AcDb2dVertex
 10
-5.449743008438529
 20
251.7528576921242
 30
0.0
  0
VERTEX
  5
104
330
100
100
AcDbEntity
  8
LAYER_1
 62
     7
100
AcDbVertex
100
AcDb2dVertex
 10
-5.449743008438529
 20
250.5051050982142
 30
0.0
  0
VERTEX
  5
105
330
100
100
AcDbEntity
  8
LAYER_1
 62
     7
100
AcDbVertex
100
AcDb2dVertex
 10
-6.530323927354346
 20
249.8812389554407
 30
0.0
  0
VERTEX
  5
106
330
100
100
AcDbEntity
  8
LAYER_1
 62
     7
100
AcDbVertex
100
AcDb2dVertex
 10
-7.610904846270163
 20
250.5051050982142
 30
0.0
  0
SEQEND
  5
107
330
100
100
AcDbEntity
  8
LAYER_1
 62
     7
  0
CIRCLE
  5
FF
330
A
100
AcDbEntity
  8
LAYER_1
 62
     7
100
AcDbCircle
 10
-6.530323927354346
 20
251.128978010442
 30
0.0
 40
0.9981966595645493
  0
INSERT
  5
AA
330
A
100
AcDbEntity
  8
LAYER_1
 62
     7
100
AcDbBlockReference
  2
AI9-BLK9
 10
-3.703389639640417
 20
251.3689077807121
 30
0.0
 41
0.0392990810852184
 42
0.0392990810852259
 43
0.0392990810852185
  0
INSERT
  5
56
330
A
100
AcDbEntity
  8
LAYER_2
 62
     7
100
AcDbBlockReference
  2
AI9-BLK6
 10
-5.721097819010416
 20
189.0780368381076
 30
0.0
  0
INSERT
  5
3B
330
A
100
AcDbEntity
  8
LAYER_2
 62
     7
100
AcDbBlockReference
  2
AI9-BLK3
 10
142.3613362630208
 20
220.4332288953993
 30
0.0
  0
LINE
  5
38
330
A
100
AcDbEntity
  8
LAYER_2
 62
     3
100
AcDbLine
 10
-5.083860770667231
 20
251.6195468277524
 30
0.0
 11
-3.891570316187355
 21
251.6195468277524
 31
0.0
  0
INSERT
  5
2A
330
A
100
AcDbEntity
  8
LAYER_2
 62
     7
100
AcDbBlockReference
  2
AI9-BLK1
 10
67.30786404079861
 20
233.1332288953993
 30
0.0
  0
DIMENSION
  5
12C
330
A
100
AcDbEntity
  8
ADPDIM
  6
Continuous
 62
     3
370
     0
100
AcDbDimension
  2
*D9
 10
-8.008912382300156
 20
249.8876977314146
 30
0.0
 11
-8.008912382300195
 21
251.1358932462258
 31
0.0
 70
   160
 71
     5
 42
2.499997581085381
  3
Standard
100
AcDbAlignedDimension
 13
-6.469218993951607
 23
252.3876953125
 33
0.0
 14
-6.472696718384821
 24
249.8876977314146
 34
0.0
 50
90.0
100
AcDbRotatedDimension
1001
ACAD
1000
DSTYLE
1002
{
1070
   276
1070
     2
1070
   277
1070
     5
1070
   140
1040
0.125
1070
   278
1070
     0
1070
   289
1070
     3
1070
   371
1070
     0
1070
   372
1070
     0
1002
}
  0
DIMENSION
  5
156
330
A
100
AcDbEntity
  8
ADPDIM
  6
Continuous
 62
     3
370
     0
100
AcDbDimension
  2
*D11
 10
-4.845527437333898
 20
250.8695475979373
 30
0.0
 11
-4.408860770667272
 21
252.1629919722113
 31
0.0
 70
   160
 71
     5
 42
0.7499992298151028
  3
Standard
100
AcDbAlignedDimension
 13
-3.77709644287036
 23
251.6195468277524
 33
0.0
 14
-3.776021604856321
 24
250.8695475979373
 34
0.0
 50
90.0
100
AcDbRotatedDimension
1001
ACAD
1000
DSTYLE
1002
{
1070
   276
1070
     2
1070
   277
1070
     5
1070
   140
1040
0.125
1070
   278
1070
     0
1070
   289
1070
     3
1070
   371
1070
     0
1070
   372
1070
     0
1002
}
  0
DIMENSION
  5
165
330
A
100
AcDbEntity
  8
ADPDIM
  6
Continuous
 62
     3
370
     0
100
AcDbDimension
  2
*D12
 10
-2.366675452800163
 20
250.8726079539055
 30
0.0
 11
-1.950842119466869
 21
251.9211309250545
 31
0.0
 70
   160
 71
     5
 42
0.25
  3
Standard
100
AcDbAlignedDimension
 13
-2.626169754805776
 23
251.1226079539055
 33
0.0
 14
-2.626169754805776
 24
250.8726079539055
 34
0.0
 50
90.0
100
AcDbRotatedDimension
1001
ACAD
1000
DSTYLE
1002
{
1070
   276
1070
     2
1070
   277
1070
     5
1070
   140
1040
0.125
1070
   278
1070
     0
1070
   289
1070
     3
1070
   371
1070
     0
1070
   372
1070
     0
1002
}
  0
DIMENSION
  5
174
330
A
100
AcDbEntity
  8
ADPDIM
  6
Continuous
 62
     3
370
     0
100
AcDbDimension
  2
*D13
 10
-1.758470850255167
 20
250.6226079539055
 30
0.0
 11
-1.758470850255207
 21
250.8726079539055
 31
0.0
 70
   160
 71
     5
 42
0.5
  3
Standard
100
AcDbAlignedDimension
 13
-2.445842119466828
 23
251.1226079539055
 33
0.0
 14
-3.200992377233523
 24
250.6226079539055
 34
0.0
 50
90.0
100
AcDbRotatedDimension
1001
ACAD
1000
DSTYLE
1002
{
1070
   276
1070
     2
1070
   277
1070
     5
1070
   140
1040
0.125
1070
   278
1070
     0
1070
   289
1070
     3
1070
   371
1070
     0
1070
   372
1070
     0
1002
}
  0
TEXT
  5
268
330
A
100
AcDbEntity
  8
ADPDIM
100
AcDbText
 10
-14.63374684730144
 20
248.5259754312063
 30
0.0
 40
0.1875
  1
J U L I U S  B L U M  &  C O . ,  I N C .      ( 8 0 0 )  5 2 6 - 6 2 9 3        W W W . J U L I U S B L U M . C O M        P A R T  N o .  8 8 7
 41
1.25
  7
ARIAL_WIDE
 72
     1
 11
-4.981685541025862
 21
248.7134754312063
 31
0.0
100
AcDbText
 73
     3
  0
ENDSEC
  0
SECTION
  2
OBJECTS
  0
DICTIONARY
  5
19
330
0
100
AcDbDictionary
281
     1
  3
ACAD_COLOR
350
125
  3
ACAD_GROUP
350
1A
  3
ACAD_LAYOUT
350
1E
  3
ACAD_MATERIAL
350
110
  3
ACAD_MLINESTYLE
350
1B
  3
ACAD_PLOTSETTINGS
350
22
  3
ACAD_PLOTSTYLENAME
350
1F
  3
ACAD_TABLESTYLE
350
126
  3
ACAD_VISUALSTYLE
350
114
  3
ACAD_WIPEOUT_VARS
350
23
  3
AcDbVariableDictionary
350
28D
  3
ASE_INDEX_DICTIONARY
350
26B
  3
DWGPROPS
350
292
  0
DICTIONARY
  5
125
102
{ACAD_REACTORS
330
19
102
}
330
19
100
AcDbDictionary
281
     1
  0
DICTIONARY
  5
1A
102
{ACAD_REACTORS
330
19
102
}
330
19
100
AcDbDictionary
281
     1
  0
DICTIONARY
  5
1E
102
{ACAD_REACTORS
330
19
102
}
330
19
100
AcDbDictionary
281
     1
  3
Layout1
350
21
  3
Model
350
20
  0
DICTIONARY
  5
110
102
{ACAD_REACTORS
330
19
102
}
330
19
100
AcDbDictionary
281
     1
  3
ByBlock
350
112
  3
ByLayer
350
111
  3
Global
350
113
  0
DICTIONARY
  5
1B
102
{ACAD_REACTORS
330
19
102
}
330
19
100
AcDbDictionary
281
     1
  3
Standard
350
1C
  0
DICTIONARY
  5
22
102
{ACAD_REACTORS
330
19
102
}
330
19
100
AcDbDictionary
281
     1
  0
ACDBDICTIONARYWDFLT
  5
1F
102
{ACAD_REACTORS
330
19
102
}
330
19
100
AcDbDictionary
281
     1
  3
Normal
350
1D
100
AcDbDictionaryWithDefault
340
1D
  0
DICTIONARY
  5
126
102
{ACAD_REACTORS
330
19
102
}
330
19
100
AcDbDictionary
281
     1
  3
Standard
350
127
  0
DICTIONARY
  5
114
102
{ACAD_REACTORS
330
19
102
}
330
19
100
AcDbDictionary
281
     1
  3
2dWireframe
350
11A
  3
3D Hidden
350
11C
  3
3dWireframe
350
11B
  3
Basic
350
119
  3
Brighten
350
120
  3
ColorChange
350
124
  3
Conceptual
350
11D
  3
Dim
350
11F
  3
Facepattern
350
123
  3
Flat
350
115
  3
FlatWithEdges
350
116
  3
Gouraud
350
117
  3
GouraudWithEdges
350
118
  3
Linepattern
350
122
  3
Realistic
350
11E
  3
Thicken
350
121
  0
WIPEOUTVARIABLES
  5
23
330
19
100
AcDbWipeoutVariables
 70
     1
  0
DICTIONARY
  5
28D
102
{ACAD_REACTORS
330
19
102
}
330
19
100
AcDbDictionary
281
     1
  3
CTABLESTYLE
350
28E
  3
DIMASSOC
350
291
  3
INDEXCTL
350
290
  3
SORTENTS
350
28F
  0
DICTIONARY
  5
26B
102
{ACAD_REACTORS
330
19
102
}
330
19
100
AcDbDictionary
281
     1
  3
ASEBlockHierarchyIndexRecord
350
26C
1001
DCO15
1040
1568657720.037
  0
XRECORD
  5
292
102
{ACAD_REACTORS
330
19
102
}
330
19
100
AcDbXrecord
280
     1
  1
DWGPROPS COOKIE
  2

  3

  4

  6

  7

  8
Yu Hu
  9

300
=
301
=
302
=
303
=
304
=
305
=
306
=
307
=
308
=
309
=
 40
0.0066953819444444
 41
2453958.965814896
 42
2453958.972500428
  1

 90
        0
  0
LAYOUT
  5
21
102
{ACAD_XDICTIONARY
360
295
102
}
102
{ACAD_REACTORS
330
1E
102
}
330
1E
100
AcDbPlotSettings
  1

  2

  4

  6

 40
0.0
 41
0.0
 42
0.0
 43
0.0
 44
0.0
 45
0.0
 46
0.0
 47
0.0
 48
0.0
 49
0.0
140
0.0
141
0.0
142
1.0
143
1.0
 70
     0
 72
     0
 73
     0
 74
     0
  7

 75
     0
147
1.0
148
0.0
149
0.0
100
AcDbLayout
  1
Layout1
 70
     0
 71
     1
 10
0.0
 20
0.0
 11
12.0
 21
9.0
 12
0.0
 22
0.0
 32
0.0
 14
1.000000000000000E+20
 24
1.000000000000000E+20
 34
1.000000000000000E+20
 15
-1.000000000000000E+20
 25
-1.000000000000000E+20
 35
-1.000000000000000E+20
146
0.0
 13
0.0
 23
0.0
 33
0.0
 16
1.0
 26
0.0
 36
0.0
 17
0.0
 27
1.0
 37
0.0
 76
     0
330
B
  0
LAYOUT
  5
20
102
{ACAD_XDICTIONARY
360
293
102
}
102
{ACAD_REACTORS
330
1E
102
}
330
1E
100
AcDbPlotSettings
  1

  2

  4

  6

 40
0.0
 41
0.0
 42
0.0
 43
0.0
 44
0.0
 45
0.0
 46
0.0
 47
0.0
 48
0.0
 49
0.0
140
0.0
141
0.0
142
1.0
143
1.0
 70
  1024
 72
     0
 73
     0
 74
     0
  7

 75
     0
147
1.0
148
0.0
149
0.0
100
AcDbLayout
  1
Model
 70
     0
 71
     0
 10
0.0
 20
0.0
 11
0.0
 21
0.0
 12
0.0
 22
0.0
 32
0.0
 14
0.0
 24
0.0
 34
0.0
 15
0.0
 25
0.0
 35
0.0
146
0.0
 13
0.0
 23
0.0
 33
0.0
 16
0.0
 26
0.0
 36
0.0
 17
0.0
 27
0.0
 37
0.0
 76
     0
330
A
331
15
  0
MATERIAL
  5
112
102
{ACAD_XDICTIONARY
360
299
102
}
102
{ACAD_REACTORS
330
110
102
}
330
110
100
AcDbMaterial
  1
ByBlock
  0
MATERIAL
  5
111
102
{ACAD_XDICTIONARY
360
297
102
}
102
{ACAD_REACTORS
330
110
102
}
330
110
100
AcDbMaterial
  1
ByLayer
  0
MATERIAL
  5
113
102
{ACAD_XDICTIONARY
360
29B
102
}
102
{ACAD_REACTORS
330
110
102
}
330
110
100
AcDbMaterial
  1
Global
  0
MLINESTYLE
  5
1C
102
{ACAD_REACTORS
330
1B
102
}
330
1B
100
AcDbMlineStyle
  2
STANDARD
 70
     0
  3

 62
     0
 51
90.0
 52
90.0
 71
     2
 49
0.5
 62
   256
  6
BYLAYER
 49
-0.5
 62
   256
  6
BYLAYER
  0
ACDBPLACEHOLDER
  5
1D
102
{ACAD_REACTORS
330
1F
102
}
330
1F
  0
TABLESTYLE
  5
127
102
{ACAD_XDICTIONARY
360
29D
102
}
102
{ACAD_REACTORS
330
126
102
}
330
126
100
AcDbTableStyle
  3
Standard
 70
     0
 71
     0
 40
1.5
 41
1.5
280
     0
281
     0
  7
Standard
140
4.5
170
     2
 62
     0
 63
     7
283
     0
274
    -2
284
     1
 64
     0
275
    -2
285
     1
 65
     0
276
    -2
286
     1
 66
     0
277
    -2
287
     1
 67
     0
278
    -2
288
     1
 68
     0
279
    -2
289
     1
 69
     0
  7
Standard
140
6.0
170
     5
 62
     0
 63
     7
283
     0
274
    -2
284
     1
 64
     0
275
    -2
285
     1
 65
     0
276
    -2
286
     1
 66
     0
277
    -2
287
     1
 67
     0
278
    -2
288
     1
 68
     0
279
    -2
289
     1
 69
     0
  7
Standard
140
4.5
170
     5
 62
     0
 63
     7
283
     0
274
    -2
284
     1
 64
     0
275
    -2
285
     1
 65
     0
276
    -2
286
     1
 66
     0
277
    -2
287
     1
 67
     0
278
    -2
288
     1
 68
     0
279
    -2
289
     1
 69
     0
  0
VISUALSTYLE
  5
11A
102
{ACAD_REACTORS
330
114
102
}
330
114
100
AcDbVisualStyle
  2
2dWireframe
 70
     4
 71
     0
 72
     2
 73
     0
 90
        0
 40
-0.6
 41
-30.0
 62
     5
 63
     7
 74
     1
 91
        4
 64
     7
 65
   257
 75
     1
175
     1
 42
1.0
 92
        0
 66
   257
 43
1.0
 76
     1
 77
     6
 78
     2
 67
     7
 79
     5
170
     0
171
     0
290
     0
174
     0
 93
        1
 44
0.0
173
     0
291
     0
 45
0.0
1001
ACAD
1000
AcDbSavedByObjectVersion
1070
     0
  0
VISUALSTYLE
  5
11C
102
{ACAD_REACTORS
330
114
102
}
330
114
100
AcDbVisualStyle
  2
3D Hidden
 70
     6
 71
     1
 72
     2
 73
     2
 90
        0
 40
-0.6
 41
-30.0
 62
     5
 63
     7
 74
     2
 91
        2
 64
     7
 65
   257
 75
     2
175
     1
 42
40.0
 92
        0
 66
   257
 43
1.0
 76
     1
 77
     6
 78
     2
 67
     7
 79
     3
170
     0
171
     0
290
     0
174
     0
 93
        1
 44
0.0
173
     0
291
     0
 45
0.0
1001
ACAD
1000
AcDbSavedByObjectVersion
1070
     0
  0
VISUALSTYLE
  5
11B
102
{ACAD_REACTORS
330
114
102
}
330
114
100
AcDbVisualStyle
  2
3dWireframe
 70
     5
 71
     0
 72
     2
 73
     0
 90
        0
 40
-0.6
 41
-30.0
 62
     5
 63
     7
 74
     1
 91
        4
 64
     7
 65
   257
 75
     1
175
     1
 42
1.0
 92
        0
 66
   257
 43
1.0
 76
     1
 77
     6
 78
     2
 67
     7
 79
     5
170
     0
171
     0
290
     0
174
     0
 93
        1
 44
0.0
173
     0
291
     0
 45
0.0
1001
ACAD
1000
AcDbSavedByObjectVersion
1070
     0
  0
VISUALSTYLE
  5
119
102
{ACAD_REACTORS
330
114
102
}
330
114
100
AcDbVisualStyle
  2
Basic
 70
     7
 71
     1
 72
     0
 73
     1
 90
        0
 40
-0.6
 41
-30.0
 62
     5
 63
     7
 74
     0
 91
        4
 64
     7
 65
   257
 75
     1
175
     1
 42
1.0
 92
        8
 66
     7
 43
1.0
 76
     1
 77
     6
 78
     2
 67
     7
 79
     5
170
     0
171
     0
290
     0
174
     0
 93
        1
 44
0.0
173
     0
291
     1
 45
0.0
1001
ACAD
1000
AcDbSavedByObjectVersion
1070
     0
  0
VISUALSTYLE
  5
120
102
{ACAD_REACTORS
330
114
102
}
330
114
100
AcDbVisualStyle
  2
Brighten
 70
    12
 71
     2
 72
     2
 73
     0
 90
        0
 40
-0.6
 41
-30.0
 62
     5
 63
     7
 74
     1
 91
        4
 64
     7
 65
   257
 75
     1
175
     1
 42
1.0
 92
        8
 66
     7
 43
1.0
 76
     1
 77
     6
 78
     2
 67
     7
 79
     5
170
     0
171
     0
290
     0
174
     0
 93
        1
 44
50.0
173
     0
291
     1
 45
0.0
1001
ACAD
1000
AcDbSavedByObjectVersion
1070
     0
  0
VISUALSTYLE
  5
124
102
{ACAD_REACTORS
330
114
102
}
330
114
100
AcDbVisualStyle
  2
ColorChange
 70
    16
 71
     2
 72
     2
 73
     3
 90
        0
 40
-0.6
 41
-30.0
 62
     5
 63
     8
 74
     1
 91
        4
 64
     7
 65
   257
 75
     1
175
     1
 42
1.0
 92
        8
 66
     8
 43
1.0
 76
     1
 77
     6
 78
     2
 67
     7
 79
     5
170
     0
171
     0
290
     0
174
     0
 93
        1
 44
0.0
173
     0
291
     1
 45
0.0
1001
ACAD
1000
AcDbSavedByObjectVersion
1070
     0
  0
VISUALSTYLE
  5
11D
102
{ACAD_REACTORS
330
114
102
}
330
114
100
AcDbVisualStyle
  2
Conceptual
 70
     9
 71
     3
 72
     2
 73
     0
 90
        0
 40
-0.6
 41
-30.0
 62
     5
 63
     7
 74
     2
 91
        2
 64
     7
 65
   257
 75
     1
175
     1
 42
40.0
 92
        8
 66
     7
 43
1.0
 76
     1
 77
     6
 78
     2
 67
     7
 79
     3
170
     0
171
     0
290
     0
174
     0
 93
        1
 44
0.0
173
     0
291
     0
 45
0.0
1001
ACAD
1000
AcDbSavedByObjectVersion
1070
     0
  0
VISUALSTYLE
  5
11F
102
{ACAD_REACTORS
330
114
102
}
330
114
100
AcDbVisualStyle
  2
Dim
 70
    11
 71
     2
 72
     2
 73
     0
 90
        0
 40
-0.6
 41
-30.0
 62
     5
 63
     7
 74
     1
 91
        4
 64
     7
 65
   257
 75
     1
175
     1
 42
1.0
 92
        8
 66
     7
 43
1.0
 76
     1
 77
     6
 78
     2
 67
     7
 79
     5
170
     0
171
     0
290
     0
174
     0
 93
        1
 44
-50.0
173
     0
291
     1
 45
0.0
1001
ACAD
1000
AcDbSavedByObjectVersion
1070
     0
  0
VISUALSTYLE
  5
123
102
{ACAD_REACTORS
330
114
102
}
330
114
100
AcDbVisualStyle
  2
Facepattern
 70
    15
 71
     2
 72
     2
 73
     0
 90
        0
 40
-0.6
 41
-30.0
 62
     5
 63
     7
 74
     1
 91
        4
 64
     7
 65
   257
 75
     1
175
     1
 42
1.0
 92
        8
 66
     7
 43
1.0
 76
     1
 77
     6
 78
     2
 67
     7
 79
     5
170
     0
171
     0
290
     0
174
     0
 93
        1
 44
0.0
173
     0
291
     1
 45
0.0
1001
ACAD
1000
AcDbSavedByObjectVersion
1070
     0
  0
VISUALSTYLE
  5
115
102
{ACAD_REACTORS
330
114
102
}
330
114
100
AcDbVisualStyle
  2
Flat
 70
     0
 71
     2
 72
     1
 73
     1
 90
        2
 40
-0.6
 41
30.0
 62
     5
 63
     7
 74
     0
 91
        4
 64
     7
 65
   257
 75
     1
175
     1
 42
1.0
 92
        8
 66
     7
 43
1.0
 76
     1
 77
     6
 78
     2
 67
     7
 79
     5
170
     0
171
     0
290
     0
174
     0
 93
       13
 44
0.0
173
     0
291
     1
 45
0.0
1001
ACAD
1000
AcDbSavedByObjectVersion
1070
     0
  0
VISUALSTYLE
  5
116
102
{ACAD_REACTORS
330
114
102
}
330
114
100
AcDbVisualStyle
  2
FlatWithEdges
 70
     1
 71
     2
 72
     1
 73
     1
 90
        2
 40
-0.6
 41
30.0
 62
     5
 63
     7
 74
     1
 91
        4
 64
     7
 65
   257
 75
     1
175
     1
 42
1.0
 92
        0
 66
   257
 43
1.0
 76
     1
 77
     6
 78
     2
 67
     7
 79
     5
170
     0
171
     0
290
     0
174
     0
 93
       13
 44
0.0
173
     0
291
     1
 45
0.0
1001
ACAD
1000
AcDbSavedByObjectVersion
1070
     0
  0
VISUALSTYLE
  5
117
102
{ACAD_REACTORS
330
114
102
}
330
114
100
AcDbVisualStyle
  2
Gouraud
 70
     2
 71
     2
 72
     2
 73
     1
 90
        2
 40
-0.6
 41
30.0
 62
     5
 63
     7
 74
     0
 91
        4
 64
     7
 65
   257
 75
     1
175
     1
 42
1.0
 92
        0
 66
     7
 43
1.0
 76
     1
 77
     6
 78
     2
 67
     7
 79
     5
170
     0
171
     0
290
     0
174
     0
 93
       13
 44
0.0
173
     0
291
     1
 45
0.0
1001
ACAD
1000
AcDbSavedByObjectVersion
1070
     0
  0
VISUALSTYLE
  5
118
102
{ACAD_REACTORS
330
114
102
}
330
114
100
AcDbVisualStyle
  2
GouraudWithEdges
 70
     3
 71
     2
 72
     2
 73
     1
 90
        2
 40
-0.6
 41
30.0
 62
     5
 63
     7
 74
     1
 91
        4
 64
     7
 65
   257
 75
     1
175
     1
 42
1.0
 92
        0
 66
   257
 43
1.0
 76
     1
 77
     6
 78
     2
 67
     7
 79
     5
170
     0
171
     0
290
     0
174
     0
 93
       13
 44
0.0
173
     0
291
     1
 45
0.0
1001
ACAD
1000
AcDbSavedByObjectVersion
1070
     0
  0
VISUALSTYLE
  5
122
102
{ACAD_REACTORS
330
114
102
}
330
114
100
AcDbVisualStyle
  2
Linepattern
 70
    14
 71
     2
 72
     2
 73
     0
 90
        0
 40
-0.6
 41
-30.0
 62
     5
 63
     7
 74
     1
 91
        4
 64
     7
 65
   257
 75
     7
175
     7
 42
1.0
 92
        8
 66
     7
 43
1.0
 76
     1
 77
     6
 78
     2
 67
     7
 79
     5
170
     0
171
     0
290
     0
174
     0
 93
        1
 44
0.0
173
     0
291
     1
 45
0.0
1001
ACAD
1000
AcDbSavedByObjectVersion
1070
     0
  0
VISUALSTYLE
  5
11E
102
{ACAD_REACTORS
330
114
102
}
330
114
100
AcDbVisualStyle
  2
Realistic
 70
     8
 71
     2
 72
     2
 73
     0
 90
        0
 40
-0.6
 41
-30.0
 62
     5
 63
     7
 74
     1
 91
        0
 64
     7
 65
   257
 75
     1
175
     1
 42
1.0
 92
        8
 66
     8
 43
1.0
 76
     1
 77
     6
 78
     2
 67
     7
 79
     5
170
     0
171
     0
290
     0
174
     0
 93
       13
 44
0.0
173
     0
291
     0
 45
0.0
1001
ACAD
1000
AcDbSavedByObjectVersion
1070
     0
  0
VISUALSTYLE
  5
121
102
{ACAD_REACTORS
330
114
102
}
330
114
100
AcDbVisualStyle
  2
Thicken
 70
    13
 71
     2
 72
     2
 73
     0
 90
        0
 40
-0.6
 41
-30.0
 62
     5
 63
     7
 74
     1
 91
        4
 64
     7
 65
   257
 75
     1
175
     1
 42
1.0
 92
       12
 66
     7
 43
1.0
 76
     1
 77
     6
 78
     2
 67
     7
 79
     5
170
     0
171
     0
290
     0
174
     0
 93
        1
 44
0.0
173
     0
291
     1
 45
0.0
1001
ACAD
1000
AcDbSavedByObjectVersion
1070
     0
  0
DICTIONARYVAR
  5
28E
102
{ACAD_REACTORS
330
28D
102
}
330
28D
100
DictionaryVariables
280
     0
  1
STANDARD
  0
DICTIONARYVAR
  5
291
102
{ACAD_REACTORS
330
28D
102
}
330
28D
100
DictionaryVariables
280
     0
  1
1
  0
DICTIONARYVAR
  5
290
102
{ACAD_REACTORS
330
28D
102
}
330
28D
100
DictionaryVariables
280
     0
  1
0
  0
DICTIONARYVAR
  5
28F
102
{ACAD_REACTORS
330
28D
102
}
330
28D
100
DictionaryVariables
280
     0
  1
127
  0
XRECORD
  5
26C
102
{ACAD_REACTORS
330
26B
102
}
330
26B
100
AcDbXrecord
280
     1
330
AA
330
2A
330
3B
330
56
  0
DICTIONARY
  5
295
330
21
100
AcDbDictionary
280
     1
281
     1
  3
ACAD_XREC_ROUNDTRIP
360
296
  0
DICTIONARY
  5
293
330
20
100
AcDbDictionary
280
     1
281
     1
  3
ACAD_XREC_ROUNDTRIP
360
294
  0
DICTIONARY
  5
299
330
112
100
AcDbDictionary
280
     1
281
     1
  3
ACAD_XREC_ROUNDTRIP
360
29A
  0
DICTIONARY
  5
297
330
111
100
AcDbDictionary
280
     1
281
     1
  3
ACAD_XREC_ROUNDTRIP
360
298
  0
DICTIONARY
  5
29B
330
113
100
AcDbDictionary
280
     1
281
     1
  3
ACAD_XREC_ROUNDTRIP
360
29C
  0
DICTIONARY
  5
29D
330
127
100
AcDbDictionary
280
     1
281
     1
  3
ACAD_XREC_ROUNDTRIP
360
29E
  0
XRECORD
  5
296
102
{ACAD_REACTORS
330
295
102
}
330
295
100
AcDbXrecord
280
     1
102
SHADEPLOT
 70
     0
102
SHADEPLOTRESLEVEL
 70
     2
102
SHADEPLOTCUSTOMDPI
 70
   300
  0
XRECORD
  5
294
102
{ACAD_REACTORS
330
293
102
}
330
293
100
AcDbXrecord
280
     1
102
SHADEPLOT
 70
     0
102
SHADEPLOTRESLEVEL
 70
     2
102
SHADEPLOTCUSTOMDPI
 70
   300
  0
XRECORD
  5
29A
102
{ACAD_REACTORS
330
299
102
}
330
299
100
AcDbXrecord
280
     1
102
MATERIAL
148
0.0
149
0.0
149
0.0
 93
        0
 94
       63
282
     0
 72
     1
 77
     1
171
     1
175
     1
179
     1
273
     0
  0
XRECORD
  5
298
102
{ACAD_REACTORS
330
297
102
}
330
297
100
AcDbXrecord
280
     1
102
MATERIAL
148
0.0
149
0.0
149
0.0
 93
        0
 94
       63
282
     0
 72
     1
 77
     1
171
     1
175
     1
179
     1
273
     0
  0
XRECORD
  5
29C
102
{ACAD_REACTORS
330
29B
102
}
330
29B
100
AcDbXrecord
280
     1
102
MATERIAL
148
0.0
149
0.0
149
0.0
 93
        0
 94
       63
282
     0
 72
     1
 77
     1
171
     1
175
     1
179
     1
273
     0
  0
XRECORD
  5
29E
102
{ACAD_REACTORS
330
29D
102
}
330
29D
100
AcDbXrecord
280
     1
102
ACAD_ROUNDTRIP_PRE2007_TABLESTYLE
 90
      512
 91
        0
  1

 92
      512
 93
        0
  2

 94
      512
 95
        0
  3

  0
ENDSEC
  0
EOF
