  0
SECTION
  2
HEADER
  9
$ACADVER
  1
AC1014
  9
$ACADMAINTVER
 70
     9
  9
$DWGCODEPAGE
  3
ANSI_1252
  9
$INSBASE
 10
-1.792497698232552
 20
-1.411014493235885
 30
0.0
  9
$EXTMIN
 10
-10.47456227859264
 20
-2.601500253735397
 30
0.0
  9
$EXTMAX
 10
8.829560333958522
 20
6.963985506764114
 30
0.0
  9
$LIMMIN
 10
0.0
 20
0.0
  9
$LIMMAX
 10
36.0
 20
36.0
  9
$ORTHOMODE
 70
     1
  9
$REGENMODE
 70
     1
  9
$FILLMODE
 70
     1
  9
$QTEXTMODE
 70
     0
  9
$MIRRTEXT
 70
     1
  9
$DRAGMODE
 70
     0
  9
$LTSCALE
 40
1.0
  9
$OSMODE
 70
    37
  9
$ATTMODE
 70
     1
  9
$TEXTSIZE
 40
0.2
  9
$TRACEWID
 40
0.05
  9
$TEXTSTYLE
  7
STANDARD
  9
$CLAYER
  8
ADPDIM
  9
$CELTYPE
  6
BYLAYER
  9
$CECOLOR
 62
   256
  9
$CELTSCALE
 40
1.0
  9
$DELOBJ
 70
     1
  9
$DISPSILH
 70
     0
  9
$DIMSCALE
 40
1.0
  9
$DIMASZ
 40
0.125
  9
$DIMEXO
 40
0.0625
  9
$DIMDLI
 40
0.38
  9
$DIMRND
 40
0.0
  9
$DIMDLE
 40
0.0
  9
$DIMEXE
 40
0.18
  9
$DIMTP
 40
0.0
  9
$DIMTM
 40
0.0
  9
$DIMTXT
 40
0.125
  9
$DIMCEN
 40
0.1875
  9
$DIMTSZ
 40
0.125
  9
$DIMTOL
 70
     0
  9
$DIMLIM
 70
     0
  9
$DIMTIH
 70
     0
  9
$DIMTOH
 70
     0
  9
$DIMSE1
 70
     0
  9
$DIMSE2
 70
     0
  9
$DIMTAD
 70
     0
  9
$DIMZIN
 70
     3
  9
$DIMBLK
  1

  9
$DIMASO
 70
     1
  9
$DIMSHO
 70
     1
  9
$DIMPOST
  1

  9
$DIMAPOST
  1

  9
$DIMALT
 70
     0
  9
$DIMALTD
 70
     1
  9
$DIMALTF
 40
25.4
  9
$DIMLFAC
 40
1.0
  9
$DIMTOFL
 70
     0
  9
$DIMTVP
 40
0.0
  9
$DIMTIX
 70
     0
  9
$DIMSOXD
 70
     0
  9
$DIMSAH
 70
     0
  9
$DIMBLK1
  1

  9
$DIMBLK2
  1

  9
$DIMSTYLE
  2
STANDARD
  9
$DIMCLRD
 70
     0
  9
$DIMCLRE
 70
     0
  9
$DIMCLRT
 70
     0
  9
$DIMTFAC
 40
1.0
  9
$DIMGAP
 40
0.125
  9
$DIMJUST
 70
     0
  9
$DIMSD1
 70
     0
  9
$DIMSD2
 70
     0
  9
$DIMTOLJ
 70
     1
  9
$DIMTZIN
 70
     0
  9
$DIMALTZ
 70
     0
  9
$DIMALTTZ
 70
     0
  9
$DIMFIT
 70
     3
  9
$DIMUPT
 70
     0
  9
$DIMUNIT
 70
     2
  9
$DIMDEC
 70
     4
  9
$DIMTDEC
 70
     4
  9
$DIMALTU
 70
     2
  9
$DIMALTTD
 70
     2
  9
$DIMTXSTY
  7
STANDARD
  9
$DIMAUNIT
 70
     0
  9
$LUNITS
 70
     5
  9
$LUPREC
 70
     4
  9
$SKETCHINC
 40
0.1
  9
$FILLETRAD
 40
0.01
  9
$AUNITS
 70
     0
  9
$AUPREC
 70
     0
  9
$MENU
  1
acad
  9
$ELEVATION
 40
0.0
  9
$PELEVATION
 40
0.0
  9
$THICKNESS
 40
0.0
  9
$LIMCHECK
 70
     0
  9
$BLIPMODE
 70
     0
  9
$CHAMFERA
 40
0.0
  9
$CHAMFERB
 40
0.0
  9
$CHAMFERC
 40
0.0
  9
$CHAMFERD
 40
0.0
  9
$SKPOLY
 70
     0
  9
$TDCREATE
 40
2450248.606869977
  9
$TDUPDATE
 40
2452297.077006469
  9
$TDINDWG
 40
0.0618818519
  9
$TDUSRTIMER
 40
0.0618818519
  9
$USRTIMER
 70
     1
  9
$ANGBASE
 50
0.0
  9
$ANGDIR
 70
     0
  9
$PDMODE
 70
     0
  9
$PDSIZE
 40
0.0
  9
$PLINEWID
 40
0.0
  9
$COORDS
 70
     2
  9
$SPLFRAME
 70
     0
  9
$SPLINETYPE
 70
     6
  9
$SPLINESEGS
 70
     8
  9
$ATTDIA
 70
     0
  9
$ATTREQ
 70
     1
  9
$HANDLING
 70
 22529
  9
$HANDSEED
  5
25E
  9
$SURFTAB1
 70
     6
  9
$SURFTAB2
 70
     6
  9
$SURFTYPE
 70
     6
  9
$SURFU
 70
     6
  9
$SURFV
 70
     6
  9
$UCSNAME
  2

  9
$UCSORG
 10
0.0
 20
0.0
 30
0.0
  9
$UCSXDIR
 10
1.0
 20
0.0
 30
0.0
  9
$UCSYDIR
 10
0.0
 20
1.0
 30
0.0
  9
$PUCSNAME
  2

  9
$PUCSORG
 10
0.0
 20
0.0
 30
0.0
  9
$PUCSXDIR
 10
1.0
 20
0.0
 30
0.0
  9
$PUCSYDIR
 10
0.0
 20
1.0
 30
0.0
  9
$USERI1
 70
     0
  9
$USERI2
 70
     0
  9
$USERI3
 70
     0
  9
$USERI4
 70
     0
  9
$USERI5
 70
     0
  9
$USERR1
 40
0.0
  9
$USERR2
 40
0.0
  9
$USERR3
 40
0.0
  9
$USERR4
 40
0.0
  9
$USERR5
 40
0.0
  9
$WORLDVIEW
 70
     1
  9
$SHADEDGE
 70
     3
  9
$SHADEDIF
 70
    70
  9
$TILEMODE
 70
     1
  9
$MAXACTVP
 70
    15
  9
$PINSBASE
 10
0.1562532186508182
 20
0.0
 30
0.0
  9
$PLIMCHECK
 70
     0
  9
$PEXTMIN
 10
1.000000000000000E+20
 20
1.000000000000000E+20
 30
1.000000000000000E+20
  9
$PEXTMAX
 10
-1.000000000000000E+20
 20
-1.000000000000000E+20
 30
-1.000000000000000E+20
  9
$PLIMMIN
 10
0.0
 20
0.0
  9
$PLIMMAX
 10
12.0
 20
9.0
  9
$UNITMODE
 70
     0
  9
$VISRETAIN
 70
     0
  9
$PLINEGEN
 70
     0
  9
$PSLTSCALE
 70
     1
  9
$TREEDEPTH
 70
  3020
  9
$PICKSTYLE
 70
     1
  9
$CMLSTYLE
  2
STANDARD
  9
$CMLJUST
 70
     0
  9
$CMLSCALE
 40
1.0
  9
$PROXYGRAPHICS
 70
     1
  9
$MEASUREMENT
 70
     0
  0
ENDSEC
  0
SECTION
  2
CLASSES
  0
CLASS
  1
ACDBDICTIONARYWDFLT
  2
AcDbDictionaryWithDefault
  3
AutoCAD 2000
 90
        0
280
     0
281
     0
  0
CLASS
  1
ACDBPLACEHOLDER
  2
AcDbPlaceHolder
  3
AutoCAD 2000
 90
        0
280
     0
281
     0
  0
CLASS
  1
LAYOUT
  2
AcDbLayout
  3
AutoCAD 2000
 90
        0
280
     0
281
     0
  0
CLASS
  1
DICTIONARYVAR
  2
AcDbDictionaryVar
  3
AutoCAD 2000
 90
        0
280
     0
281
     0
  0
CLASS
  1
LONG_TRANSACTION
  2
AcDbLongTransaction
  3
AutoCAD 2000
 90
        0
280
     0
281
     0
  0
CLASS
  1
LWPOLYLINE
  2
AcDbPolyline
  3
AutoCAD 2000
 90
        0
280
     0
281
     1
  0
CLASS
  1
HATCH
  2
AcDbHatch
  3
AutoCAD 2000
 90
        0
280
     0
281
     1
  0
CLASS
  1
XRECORD
  2
AcDbXrecord
  3
AutoCAD 2000
 90
        0
280
     0
281
     0
  0
CLASS
  1
LONG_TRANSACTION
  2
AcDbLongTransaction
  3
AutoCAD 2000
 90
        0
280
     0
281
     0
  0
CLASS
  1
LWPOLYLINE
  2
AcDbPolyline
  3
AutoCAD 2000
 90
        0
280
     0
281
     1
  0
CLASS
  1
HATCH
  2
AcDbHatch
  3
AutoCAD 2000
 90
        0
280
     0
281
     1
  0
CLASS
  1
XRECORD
  2
AcDbXrecord
  3
AutoCAD 2000
 90
        0
280
     0
281
     0
  0
CLASS
  1
LONG_TRANSACTION
  2
AcDbLongTransaction
  3
AutoCAD 2000
 90
        0
280
     0
281
     0
  0
CLASS
  1
LWPOLYLINE
  2
AcDbPolyline
  3
AutoCAD 2000
 90
        0
280
     0
281
     1
  0
CLASS
  1
HATCH
  2
AcDbHatch
  3
AutoCAD 2000
 90
        0
280
     0
281
     1
  0
CLASS
  1
XRECORD
  2
AcDbXrecord
  3
AutoCAD 2000
 90
        0
280
     0
281
     0
  0
CLASS
  1
LONG_TRANSACTION
  2
AcDbLongTransaction
  3
AutoCAD 2000
 90
        0
280
     0
281
     0
  0
CLASS
  1
LWPOLYLINE
  2
AcDbPolyline
  3
AutoCAD 2000
 90
        0
280
     0
281
     1
  0
CLASS
  1
HATCH
  2
AcDbHatch
  3
AutoCAD 2000
 90
        0
280
     0
281
     1
  0
CLASS
  1
XRECORD
  2
AcDbXrecord
  3
AutoCAD 2000
 90
        0
280
     0
281
     0
  0
CLASS
  1
LONG_TRANSACTION
  2
AcDbLongTransaction
  3
AutoCAD 2000
 90
        0
280
     0
281
     0
  0
CLASS
  1
LWPOLYLINE
  2
AcDbPolyline
  3
AutoCAD 2000
 90
        0
280
     0
281
     1
  0
CLASS
  1
HATCH
  2
AcDbHatch
  3
AutoCAD 2000
 90
        0
280
     0
281
     1
  0
CLASS
  1
XRECORD
  2
AcDbXrecord
  3
AutoCAD 2000
 90
        0
280
     0
281
     0
  0
ENDSEC
  0
SECTION
  2
TABLES
  0
TABLE
  2
VPORT
  5
8
330
0
100
AcDbSymbolTable
 70
     2
  0
VPORT
  5
23B
330
8
100
AcDbSymbolTableRecord
100
AcDbViewportTableRecord
  2
*ACTIVE
 70
     0
 10
0.0
 20
0.0
 11
1.0
 21
1.0
 12
-0.8057883076529321
 22
2.180947208977511
 13
0.0
 23
0.0
 14
0.5740882589684922
 24
0.5740882589684922
 15
0.5
 25
0.5
 16
0.0
 26
0.0
 36
1.0
 17
0.0
 27
0.0
 37
0.0
 40
12.37272806440977
 41
1.570528967254408
 42
50.0
 43
0.0
 44
0.0
 50
0.0
 51
0.0
 71
     0
 72
   100
 73
     1
 74
     1
 75
     0
 76
     0
 77
     0
 78
     0
  0
ENDTAB
  0
TABLE
  2
LTYPE
  5
5
330
0
100
AcDbSymbolTable
 70
     2
  0
LTYPE
  5
12
330
5
100
AcDbSymbolTableRecord
100
AcDbLinetypeTableRecord
  2
BYBLOCK
 70
     0
  3

 72
    65
 73
     0
 40
0.0
  0
LTYPE
  5
13
330
5
100
AcDbSymbolTableRecord
100
AcDbLinetypeTableRecord
  2
BYLAYER
 70
     0
  3

 72
    65
 73
     0
 40
0.0
  0
LTYPE
  5
14
330
5
100
AcDbSymbolTableRecord
100
AcDbLinetypeTableRecord
  2
CONTINUOUS
 70
     0
  3
Solid line
 72
    65
 73
     0
 40
0.0
  0
LTYPE
  5
4F
330
5
100
AcDbSymbolTableRecord
100
AcDbLinetypeTableRecord
  2
HIDDEN2
 70
     0
  3
_ _ _ _ _ _ _ _ _ _ _ _ _ _ _ _ _ _ _ _ _ _ _ _
 72
    65
 73
     2
 40
0.1875
 49
0.125
 74
     0
 49
-0.0625
 74
     0
  0
ENDTAB
  0
TABLE
  2
LAYER
  5
2
330
0
100
AcDbSymbolTable
 70
     5
  0
LAYER
  5
F
330
2
100
AcDbSymbolTableRecord
100
AcDbLayerTableRecord
  2
0
 70
     0
 62
     7
  6
CONTINUOUS
  0
LAYER
  5
50
330
2
100
AcDbSymbolTableRecord
100
AcDbLayerTableRecord
  2
ADP2DETAIL
 70
     0
 62
     5
  6
CONTINUOUS
  0
LAYER
  5
51
330
2
100
AcDbSymbolTableRecord
100
AcDbLayerTableRecord
  2
ADPDIM
 70
     0
 62
     3
  6
CONTINUOUS
  0
LAYER
  5
53
330
2
100
AcDbSymbolTableRecord
100
AcDbLayerTableRecord
  2
ADP1DETAIL
 70
     0
 62
     7
  6
CONTINUOUS
  0
LAYER
  5
55
330
2
100
AcDbSymbolTableRecord
100
AcDbLayerTableRecord
  2
DEFPOINTS
 70
     0
 62
     7
  6
CONTINUOUS
  0
ENDTAB
  0
TABLE
  2
STYLE
  5
3
330
0
100
AcDbSymbolTable
 70
     2
  0
STYLE
  5
10
330
3
100
AcDbSymbolTableRecord
100
AcDbTextStyleTableRecord
  2
STANDARD
 70
     0
 40
0.0
 41
1.0
 50
0.0
 71
     0
 42
0.2
  3
txt
  4

  0
STYLE
  5
F7
330
3
100
AcDbSymbolTableRecord
100
AcDbTextStyleTableRecord
  2
ARIAL_WIDE
 70
     0
 40
0.0
 41
1.25
 50
0.0
 71
     0
 42
0.2
  3
ARIAL.TTF
  4

1001
ACAD
1000
Arial
1071
       34
  0
ENDTAB
  0
TABLE
  2
VIEW
  5
6
330
0
100
AcDbSymbolTable
 70
     0
  0
ENDTAB
  0
TABLE
  2
UCS
  5
7
330
0
100
AcDbSymbolTable
 70
     0
  0
ENDTAB
  0
TABLE
  2
APPID
  5
9
330
0
100
AcDbSymbolTable
 70
     1
  0
APPID
  5
11
330
9
100
AcDbSymbolTableRecord
100
AcDbRegAppTableRecord
  2
ACAD
 70
     0
  0
ENDTAB
  0
TABLE
  2
DIMSTYLE
  5
A
330
0
100
AcDbSymbolTable
 70
     1
  0
DIMSTYLE
105
EB
330
A
100
AcDbSymbolTableRecord
100
AcDbDimStyleTableRecord
  2
STANDARD
 70
     0
  3

  4

  5

  6

  7

 40
1.0
 41
0.18
 42
0.0625
 43
0.38
 44
0.18
 45
0.0
 46
0.0
 47
0.0
 48
0.0
140
0.18
141
0.09
142
0.0
143
25.4
144
1.0
145
0.0
146
1.0
147
0.09
 71
     0
 72
     0
 73
     1
 74
     1
 75
     0
 76
     0
 77
     0
 78
     0
170
     0
171
     2
172
     0
173
     0
174
     0
175
     0
176
     0
177
     0
178
     0
270
     2
271
     4
272
     4
273
     2
274
     2
340
10
275
     0
280
     0
281
     0
282
     0
283
     1
284
     0
285
     0
286
     0
287
     3
288
     0
  0
ENDTAB
  0
TABLE
  2
BLOCK_RECORD
  5
1
330
0
100
AcDbSymbolTable
 70
     4
  0
BLOCK_RECORD
  5
18
102
{ACAD_XDICTIONARY
360
14C
102
}
330
1
100
AcDbSymbolTableRecord
100
AcDbBlockTableRecord
  2
*MODEL_SPACE
  0
BLOCK_RECORD
  5
15
102
{ACAD_XDICTIONARY
360
14A
102
}
330
1
100
AcDbSymbolTableRecord
100
AcDbBlockTableRecord
  2
*PAPER_SPACE
  0
BLOCK_RECORD
  5
37
330
1
100
AcDbSymbolTableRecord
100
AcDbBlockTableRecord
  2
*D0
  0
BLOCK_RECORD
  5
38
330
1
100
AcDbSymbolTableRecord
100
AcDbBlockTableRecord
  2
*D1
  0
BLOCK_RECORD
  5
3A
330
1
100
AcDbSymbolTableRecord
100
AcDbBlockTableRecord
  2
*D2
  0
BLOCK_RECORD
  5
3B
330
1
100
AcDbSymbolTableRecord
100
AcDbBlockTableRecord
  2
*D3
  0
ENDTAB
  0
ENDSEC
  0
SECTION
  2
BLOCKS
  0
BLOCK
  5
58
330
18
100
AcDbEntity
  8
0
100
AcDbBlockBegin
  2
*MODEL_SPACE
 70
     0
 10
0.0
 20
0.0
 30
0.0
  3
*MODEL_SPACE
  1

  0
ENDBLK
  5
59
330
18
100
AcDbEntity
  8
0
100
AcDbBlockEnd
  0
BLOCK
  5
56
330
15
100
AcDbEntity
 67
     1
  8
0
100
AcDbBlockBegin
  2
*PAPER_SPACE
 70
     0
 10
0.0
 20
0.0
 30
0.0
  3
*PAPER_SPACE
  1

  0
ENDBLK
  5
57
330
15
100
AcDbEntity
 67
     1
  8
0
100
AcDbBlockEnd
  0
BLOCK
  5
5B
330
37
100
AcDbEntity
  8
0
100
AcDbBlockBegin
  2
*D0
 70
     1
 10
0.0
 20
0.0
 30
0.0
  3
*D0
  1

  0
LINE
  5
5C
330
37
100
AcDbEntity
  8
0
  6
BYBLOCK
 62
     0
100
AcDbLine
 10
-1.854997698232552
 20
-1.411014493235885
 30
0.0
 11
-2.284409781584876
 21
-1.411014493235885
 31
0.0
  0
LINE
  5
5D
330
37
100
AcDbEntity
  8
0
  6
BYBLOCK
 62
     0
100
AcDbLine
 10
-1.854997698232552
 20
5.088985506764114
 30
0.0
 11
-2.284409781584876
 21
5.088985506764114
 31
0.0
  0
LINE
  5
5E
330
37
100
AcDbEntity
  8
0
  6
BYBLOCK
 62
     0
100
AcDbLine
 10
-2.104409781584876
 20
-1.411014493235885
 30
0.0
 11
-2.104409781584876
 21
1.443152173430781
 31
0.0
  0
LINE
  5
5F
330
37
100
AcDbEntity
  8
0
  6
BYBLOCK
 62
     0
100
AcDbLine
 10
-2.104409781584875
 20
5.088985506764114
 30
0.0
 11
-2.104409781584876
 21
2.234818840097447
 31
0.0
  0
LINE
  5
60
330
37
100
AcDbEntity
  8
0
  6
BYBLOCK
 62
     0
100
AcDbLine
 10
-1.979409781584876
 20
-1.536014493235885
 30
0.0
 11
-2.229409781584876
 21
-1.286014493235885
 31
0.0
  0
LINE
  5
61
330
37
100
AcDbEntity
  8
0
  6
BYBLOCK
 62
     0
100
AcDbLine
 10
-1.979409781584876
 20
4.963985506764114
 30
0.0
 11
-2.229409781584875
 21
5.213985506764114
 31
0.0
  0
TEXT
  5
62
330
37
100
AcDbEntity
  8
0
  6
BYBLOCK
 62
     0
100
AcDbText
 10
-2.041909781584876
 20
1.568152173430781
 30
0.0
 40
0.125
  1
6 1/2
 50
90.0
 72
     1
 11
-2.104409781584876
 21
1.838985506764114
 31
0.0
100
AcDbText
 73
     2
  0
POINT
  5
63
330
37
100
AcDbEntity
  8
DEFPOINTS
  6
BYBLOCK
 62
     0
100
AcDbPoint
 10
-1.792497698232552
 20
-1.411014493235885
 30
0.0
  0
POINT
  5
64
330
37
100
AcDbEntity
  8
DEFPOINTS
  6
BYBLOCK
 62
     0
100
AcDbPoint
 10
-1.792497698232552
 20
5.088985506764114
 30
0.0
  0
POINT
  5
65
330
37
100
AcDbEntity
  8
DEFPOINTS
  6
BYBLOCK
 62
     0
100
AcDbPoint
 10
-2.104409781584875
 20
5.088985506764114
 30
0.0
  0
ENDBLK
  5
66
330
37
100
AcDbEntity
  8
0
100
AcDbBlockEnd
  0
BLOCK
  5
67
330
38
100
AcDbEntity
  8
0
100
AcDbBlockBegin
  2
*D1
 70
     1
 10
0.0
 20
0.0
 30
0.0
  3
*D1
  1

  0
LINE
  5
68
330
38
100
AcDbEntity
  8
0
  6
BYBLOCK
 62
     0
100
AcDbLine
 10
-2.889265207780646
 20
-1.473514493235885
 30
0.0
 11
-2.889265207780646
 21
-1.858246839400239
 31
0.0
  0
LINE
  5
69
330
38
100
AcDbEntity
  8
0
  6
BYBLOCK
 62
     0
100
AcDbLine
 10
-4.139265207780646
 20
-1.473514493235885
 30
0.0
 11
-4.139265207780646
 21
-1.858246839400239
 31
0.0
  0
LINE
  5
6A
330
38
100
AcDbEntity
  8
0
  6
BYBLOCK
 62
     0
100
AcDbLine
 10
-2.889265207780646
 20
-1.678246839400238
 30
0.0
 11
-3.139265207780646
 21
-1.678246839400238
 31
0.0
  0
LINE
  5
6B
330
38
100
AcDbEntity
  8
0
  6
BYBLOCK
 62
     0
100
AcDbLine
 10
-4.139265207780646
 20
-1.678246839400238
 30
0.0
 11
-3.889265207780646
 21
-1.678246839400238
 31
0.0
  0
LINE
  5
6C
330
38
100
AcDbEntity
  8
0
  6
BYBLOCK
 62
     0
100
AcDbLine
 10
-3.014265207780646
 20
-1.803246839400238
 30
0.0
 11
-2.764265207780646
 21
-1.553246839400238
 31
0.0
  0
LINE
  5
6D
330
38
100
AcDbEntity
  8
0
  6
BYBLOCK
 62
     0
100
AcDbLine
 10
-4.264265207780646
 20
-1.803246839400238
 30
0.0
 11
-4.014265207780646
 21
-1.553246839400238
 31
0.0
  0
TEXT
  5
6E
330
38
100
AcDbEntity
  8
0
  6
BYBLOCK
 62
     0
100
AcDbText
 10
-3.764265207780646
 20
-1.740746839400238
 30
0.0
 40
0.125
  1
1 1/4
 72
     1
 11
-3.514265207780646
 21
-1.678246839400238
 31
0.0
100
AcDbText
 73
     2
  0
POINT
  5
6F
330
38
100
AcDbEntity
  8
DEFPOINTS
  6
BYBLOCK
 62
     0
100
AcDbPoint
 10
-2.889265207780646
 20
-1.411014493235885
 30
0.0
  0
POINT
  5
70
330
38
100
AcDbEntity
  8
DEFPOINTS
  6
BYBLOCK
 62
     0
100
AcDbPoint
 10
-4.139265207780646
 20
-1.411014493235885
 30
0.0
  0
POINT
  5
71
330
38
100
AcDbEntity
  8
DEFPOINTS
  6
BYBLOCK
 62
     0
100
AcDbPoint
 10
-4.139265207780646
 20
-1.678246839400238
 30
0.0
  0
ENDBLK
  5
72
330
38
100
AcDbEntity
  8
0
100
AcDbBlockEnd
  0
BLOCK
  5
73
330
3A
100
AcDbEntity
  8
0
100
AcDbBlockBegin
  2
*D2
 70
     1
 10
0.0
 20
0.0
 30
0.0
  3
*D2
  1

  0
LINE
  5
74
330
3A
100
AcDbEntity
  8
0
  6
BYBLOCK
 62
     0
100
AcDbLine
 10
0.2075023017674478
 20
-0.6612795742639611
 30
0.0
 11
2.016476377507975
 21
-0.6612795742639612
 31
0.0
  0
LINE
  5
75
330
3A
100
AcDbEntity
  8
0
  6
BYBLOCK
 62
     0
100
AcDbLine
 10
0.2075023017674478
 20
4.341901771642913
 30
0.0
 11
2.016476377507976
 21
4.341901771642913
 31
0.0
  0
LINE
  5
76
330
3A
100
AcDbEntity
  8
0
  6
BYBLOCK
 62
     0
100
AcDbLine
 10
1.836476377507976
 20
-0.6612795742639612
 30
0.0
 11
1.836476377507976
 21
1.673644432022808
 31
0.0
  0
LINE
  5
77
330
3A
100
AcDbEntity
  8
0
  6
BYBLOCK
 62
     0
100
AcDbLine
 10
1.836476377507976
 20
4.341901771642913
 30
0.0
 11
1.836476377507976
 21
2.006977765356142
 31
0.0
  0
LINE
  5
78
330
3A
100
AcDbEntity
  8
0
  6
BYBLOCK
 62
     0
100
AcDbLine
 10
1.961476377507976
 20
-0.7862795742639612
 30
0.0
 11
1.711476377507976
 21
-0.5362795742639612
 31
0.0
  0
LINE
  5
79
330
3A
100
AcDbEntity
  8
0
  6
BYBLOCK
 62
     0
100
AcDbLine
 10
1.961476377507976
 20
4.216901771642913
 30
0.0
 11
1.711476377507976
 21
4.466901771642913
 31
0.0
  0
TEXT
  5
7A
330
3A
100
AcDbEntity
  8
0
  6
BYBLOCK
 62
     0
100
AcDbText
 10
1.898976377507976
 20
1.798644432022808
 30
0.0
 40
0.125
  1
5
 50
90.0
 72
     1
 11
1.836476377507976
 21
1.840311098689475
 31
0.0
100
AcDbText
 73
     2
  0
POINT
  5
7B
330
3A
100
AcDbEntity
  8
DEFPOINTS
  6
BYBLOCK
 62
     0
100
AcDbPoint
 10
0.1450023017674478
 20
-0.6612795742639611
 30
0.0
  0
POINT
  5
7C
330
3A
100
AcDbEntity
  8
DEFPOINTS
  6
BYBLOCK
 62
     0
100
AcDbPoint
 10
0.1450023017674478
 20
4.341901771642913
 30
0.0
  0
POINT
  5
7D
330
3A
100
AcDbEntity
  8
DEFPOINTS
  6
BYBLOCK
 62
     0
100
AcDbPoint
 10
1.836476377507976
 20
4.341901771642913
 30
0.0
  0
ENDBLK
  5
7E
330
3A
100
AcDbEntity
  8
0
100
AcDbBlockEnd
  0
BLOCK
  5
7F
330
3B
100
AcDbEntity
  8
0
100
AcDbBlockBegin
  2
*D3
 70
     1
 10
0.0
 20
0.0
 30
0.0
  3
*D3
  1

  0
LINE
  5
80
330
3B
100
AcDbEntity
  8
0
  6
BYBLOCK
 62
     0
100
AcDbLine
 10
-1.792497698232552
 20
-1.473514493235885
 30
0.0
 11
-1.792497698232552
 21
-1.858246839400239
 31
0.0
  0
LINE
  5
81
330
3B
100
AcDbEntity
  8
0
  6
BYBLOCK
 62
     0
100
AcDbLine
 10
1.457502301767447
 20
-1.473514493235885
 30
0.0
 11
1.457502301767447
 21
-1.858246839400239
 31
0.0
  0
LINE
  5
82
330
3B
100
AcDbEntity
  8
0
  6
BYBLOCK
 62
     0
100
AcDbLine
 10
-1.792497698232552
 20
-1.678246839400238
 30
0.0
 11
-0.5633310315658856
 21
-1.678246839400238
 31
0.0
  0
LINE
  5
83
330
3B
100
AcDbEntity
  8
0
  6
BYBLOCK
 62
     0
100
AcDbLine
 10
1.457502301767447
 20
-1.678246839400238
 30
0.0
 11
0.2283356351007811
 21
-1.678246839400238
 31
0.0
  0
LINE
  5
84
330
3B
100
AcDbEntity
  8
0
  6
BYBLOCK
 62
     0
100
AcDbLine
 10
-1.917497698232552
 20
-1.803246839400238
 30
0.0
 11
-1.667497698232552
 21
-1.553246839400238
 31
0.0
  0
LINE
  5
85
330
3B
100
AcDbEntity
  8
0
  6
BYBLOCK
 62
     0
100
AcDbLine
 10
1.332502301767447
 20
-1.803246839400238
 30
0.0
 11
1.582502301767447
 21
-1.553246839400238
 31
0.0
  0
TEXT
  5
86
330
3B
100
AcDbEntity
  8
0
  6
BYBLOCK
 62
     0
100
AcDbText
 10
-0.4383310315658856
 20
-1.740746839400238
 30
0.0
 40
0.125
  1
3 1/4
 72
     1
 11
-0.1674976982325522
 21
-1.678246839400238
 31
0.0
100
AcDbText
 73
     2
  0
POINT
  5
87
330
3B
100
AcDbEntity
  8
DEFPOINTS
  6
BYBLOCK
 62
     0
100
AcDbPoint
 10
-1.792497698232552
 20
-1.411014493235885
 30
0.0
  0
POINT
  5
88
330
3B
100
AcDbEntity
  8
DEFPOINTS
  6
BYBLOCK
 62
     0
100
AcDbPoint
 10
1.457502301767447
 20
-1.411014493235885
 30
0.0
  0
POINT
  5
89
330
3B
100
AcDbEntity
  8
DEFPOINTS
  6
BYBLOCK
 62
     0
100
AcDbPoint
 10
1.457502301767447
 20
-1.678246839400238
 30
0.0
  0
ENDBLK
  5
8A
330
3B
100
AcDbEntity
  8
0
100
AcDbBlockEnd
  0
ENDSEC
  0
SECTION
  2
ENTITIES
  0
LINE
  5
8B
330
18
100
AcDbEntity
  8
ADP2DETAIL
  6
HIDDEN2
100
AcDbLine
 10
1.457502301767447
 20
6.524298364833144
 30
0.0
 11
0.1450023017674478
 21
6.524298364833144
 31
0.0
  0
LINE
  5
8C
330
18
100
AcDbEntity
  8
ADP1DETAIL
100
AcDbLine
 10
1.207502301767447
 20
5.963985506764114
 30
0.0
 11
-0.1049976982325522
 21
5.963985506764114
 31
0.0
  0
LINE
  5
8D
330
18
100
AcDbEntity
  8
ADP2DETAIL
  6
HIDDEN2
100
AcDbLine
 10
1.457502301767447
 20
6.153142397102169
 30
0.0
 11
0.1450023017674478
 21
6.153142397102169
 31
0.0
  0
LINE
  5
8E
330
18
100
AcDbEntity
  8
ADP1DETAIL
100
AcDbLine
 10
1.457502301767447
 20
5.713985506764114
 30
0.0
 11
-1.792497698232552
 21
5.713985506764114
 31
0.0
  0
LINE
  5
8F
330
18
100
AcDbEntity
  8
ADP1DETAIL
100
AcDbLine
 10
-1.792497698232552
 20
6.963985506764114
 30
0.0
 11
1.457502301767447
 21
6.963985506764114
 31
0.0
  0
LINE
  5
90
330
18
100
AcDbEntity
  8
ADP2DETAIL
  6
HIDDEN2
100
AcDbLine
 10
1.457502301767447
 20
4.5274797555084
 30
0.0
 11
0.1450023017674478
 21
4.5274797555084
 31
0.0
  0
LINE
  5
91
330
18
100
AcDbEntity
  8
ADP2DETAIL
  6
HIDDEN2
100
AcDbLine
 10
1.457502301767447
 20
4.156323787777425
 30
0.0
 11
0.1450023017674478
 21
4.156323787777425
 31
0.0
  0
LINE
  5
92
330
18
100
AcDbEntity
  8
ADP1DETAIL
100
AcDbLine
 10
-1.792497698232552
 20
5.088985506764114
 30
0.0
 11
1.457502301767447
 21
5.088985506764114
 31
0.0
  0
LINE
  5
93
330
18
100
AcDbEntity
  8
ADP2DETAIL
  6
HIDDEN2
100
AcDbLine
 10
1.457502301767447
 20
-0.4757015903984741
 30
0.0
 11
0.1450023017674478
 21
-0.4757015903984741
 31
0.0
  0
LINE
  5
94
330
18
100
AcDbEntity
  8
ADP2DETAIL
  6
HIDDEN2
100
AcDbLine
 10
1.457502301767447
 20
-0.846857558129448
 30
0.0
 11
0.1450023017674478
 21
-0.846857558129448
 31
0.0
  0
DIMENSION
  5
95
330
18
100
AcDbEntity
  8
ADPDIM
100
AcDbDimension
  2
*D3
 10
1.457502301767447
 20
-1.678246839400238
 30
0.0
 11
-0.1674976982325522
 21
-1.678246839400238
 31
0.0
100
AcDbAlignedDimension
 13
-1.792497698232552
 23
-1.411014493235885
 33
0.0
 14
1.457502301767447
 24
-1.411014493235885
 34
0.0
100
AcDbRotatedDimension
  0
LINE
  5
96
330
18
100
AcDbEntity
  8
ADP1DETAIL
100
AcDbLine
 10
1.457502301767447
 20
-1.411014493235885
 30
0.0
 11
-1.792497698232552
 21
-1.411014493235885
 31
0.0
  0
DIMENSION
  5
97
330
18
100
AcDbEntity
  8
ADPDIM
100
AcDbDimension
  2
*D2
 10
1.836476377507976
 20
4.341901771642913
 30
0.0
 11
1.836476377507976
 21
1.840311098689475
 31
0.0
100
AcDbAlignedDimension
 13
0.1450023017674478
 23
-0.6612795742639611
 33
0.0
 14
0.1450023017674478
 24
4.341901771642913
 34
0.0
 50
90.0
100
AcDbRotatedDimension
  0
LINE
  5
98
330
18
100
AcDbEntity
  8
ADP2DETAIL
  6
HIDDEN2
100
AcDbLine
 10
-3.201765207780646
 20
5.088985506764114
 30
0.0
 11
-3.201765207780646
 21
-1.411014493235885
 31
0.0
  0
LINE
  5
99
330
18
100
AcDbEntity
  8
ADP2DETAIL
  6
HIDDEN2
100
AcDbLine
 10
-3.826765207780646
 20
5.088985506764114
 30
0.0
 11
-3.826765207780646
 21
-1.411014493235885
 31
0.0
  0
LINE
  5
9A
330
18
100
AcDbEntity
  8
ADP1DETAIL
100
AcDbLine
 10
-4.139265207780646
 20
-1.411014493235885
 30
0.0
 11
-4.139265207780646
 21
5.088985506764114
 31
0.0
  0
LINE
  5
9B
330
18
100
AcDbEntity
  8
ADP1DETAIL
100
AcDbLine
 10
-3.639265207780646
 20
3.98543211617084
 30
0.0
 11
-3.639265207780646
 21
-0.3074611026426121
 31
0.0
  0
LINE
  5
9C
330
18
100
AcDbEntity
  8
ADP1DETAIL
100
AcDbLine
 10
-3.389265207780646
 20
3.98543211617084
 30
0.0
 11
-3.389265207780646
 21
-0.3074611026426122
 31
0.0
  0
LINE
  5
9D
330
18
100
AcDbEntity
  8
ADP1DETAIL
100
AcDbLine
 10
-1.792497698232552
 20
-1.411014493235885
 30
0.0
 11
-1.792497698232552
 21
5.088985506764114
 31
0.0
  0
LINE
  5
9E
330
18
100
AcDbEntity
  8
ADP1DETAIL
100
AcDbLine
 10
-2.889265207780646
 20
5.088985506764114
 30
0.0
 11
-2.889265207780646
 21
-1.411014493235885
 31
0.0
  0
DIMENSION
  5
9F
330
18
100
AcDbEntity
  8
ADPDIM
100
AcDbDimension
  2
*D0
 10
-2.104409781584875
 20
5.088985506764114
 30
0.0
 11
-2.104409781584876
 21
1.838985506764114
 31
0.0
100
AcDbAlignedDimension
 13
-1.792497698232552
 23
-1.411014493235885
 33
0.0
 14
-1.792497698232552
 24
5.088985506764114
 34
0.0
 50
90.0
100
AcDbRotatedDimension
  0
LINE
  5
A0
330
18
100
AcDbEntity
  8
ADP1DETAIL
100
AcDbLine
 10
-2.889265207780646
 20
-1.411014493235885
 30
0.0
 11
-4.139265207780646
 21
-1.411014493235885
 31
0.0
  0
DIMENSION
  5
A1
330
18
100
AcDbEntity
  8
ADPDIM
100
AcDbDimension
  2
*D1
 10
-4.139265207780646
 20
-1.678246839400238
 30
0.0
 11
-3.514265207780646
 21
-1.678246839400238
 31
0.0
100
AcDbAlignedDimension
 13
-2.889265207780646
 23
-1.411014493235885
 33
0.0
 14
-4.139265207780646
 24
-1.411014493235885
 34
0.0
100
AcDbRotatedDimension
  0
CIRCLE
  5
A2
330
18
100
AcDbEntity
  8
ADP1DETAIL
100
AcDbCircle
 10
-3.514265207780646
 20
-0.6610144932358859
 30
0.0
 40
0.375
  0
LINE
  5
A3
330
18
100
AcDbEntity
  8
ADP2DETAIL
  6
HIDDEN2
100
AcDbLine
 10
-0.0424976982325522
 20
-1.039858525504911
 30
0.0
 11
0.1450023017674478
 21
-0.846857558129448
 31
0.0
  0
LINE
  5
A4
330
18
100
AcDbEntity
  8
ADP2DETAIL
  6
HIDDEN2
100
AcDbLine
 10
-0.0424976982325522
 20
-0.2827004686540981
 30
0.0
 11
-0.0424976982325522
 21
-1.039858525504911
 31
0.0
  0
LINE
  5
A5
330
18
100
AcDbEntity
  8
ADP2DETAIL
  6
HIDDEN2
100
AcDbLine
 10
-0.0424976982325522
 20
-1.039858525504911
 30
0.0
 11
-1.792497698232552
 21
-1.039858525504911
 31
0.0
  0
LINE
  5
A6
330
18
100
AcDbEntity
  8
ADP1DETAIL
100
AcDbLine
 10
-3.639265207780646
 20
-1.014567883829159
 30
0.0
 11
-3.639265207780646
 21
-1.411014493235885
 31
0.0
  0
LINE
  5
A7
330
18
100
AcDbEntity
  8
ADP1DETAIL
100
AcDbLine
 10
-3.389265207780646
 20
-1.014567883829159
 30
0.0
 11
-3.389265207780646
 21
-1.411014493235885
 31
0.0
  0
LINE
  5
A8
330
18
100
AcDbEntity
  8
ADP2DETAIL
  6
HIDDEN2
100
AcDbLine
 10
-0.0424976982325522
 20
-0.2827004686540981
 30
0.0
 11
-1.792497698232552
 21
-0.2827004686540981
 31
0.0
  0
LINE
  5
A9
330
18
100
AcDbEntity
  8
ADP2DETAIL
  6
HIDDEN2
100
AcDbLine
 10
-3.014265207780647
 20
-0.030314552616435
 30
0.0
 11
-2.889265207780646
 21
-0.1639307256986116
 31
0.0
  0
CIRCLE
  5
AA
330
18
100
AcDbEntity
  8
ADP2DETAIL
  6
HIDDEN2
100
AcDbCircle
 10
-3.514265207780646
 20
-0.6610144932358859
 30
0.0
 40
0.1875
  0
LINE
  5
AB
330
18
100
AcDbEntity
  8
ADP1DETAIL
100
AcDbLine
 10
-3.144426053552758
 20
-0.5990144932358863
 30
0.0
 11
-3.884104362008535
 21
-0.5990144932358863
 31
0.0
  0
LINE
  5
AC
330
18
100
AcDbEntity
  8
ADP1DETAIL
100
AcDbLine
 10
-3.144595084562662
 20
-0.7240144932358859
 30
0.0
 11
-3.883935330998631
 21
-0.7240144932358859
 31
0.0
  0
LINE
  5
AD
330
18
100
AcDbEntity
  8
ADP2DETAIL
  6
HIDDEN2
100
AcDbLine
 10
-3.014265207780647
 20
-0.030314552616435
 30
0.0
 11
-3.916470798387311
 21
-0.030314552616435
 31
0.0
  0
LINE
  5
AE
330
18
100
AcDbEntity
  8
ADP2DETAIL
  6
HIDDEN2
100
AcDbLine
 10
-3.014265207780646
 20
0.2072252420323624
 30
0.0
 11
-3.916470798387311
 21
0.2072252420323624
 31
0.0
  0
LINE
  5
AF
330
18
100
AcDbEntity
  8
ADP2DETAIL
  6
HIDDEN2
100
AcDbLine
 10
-3.916470798387311
 20
0.2072252420323624
 30
0.0
 11
-3.916470798387312
 21
-0.030314552616435
 31
0.0
  0
LINE
  5
B0
330
18
100
AcDbEntity
  8
ADP2DETAIL
  6
HIDDEN2
100
AcDbLine
 10
-3.014265207780646
 20
0.2072252420323624
 30
0.0
 11
-2.889265207780646
 21
0.3408414151145389
 31
0.0
  0
LINE
  5
B1
330
18
100
AcDbEntity
  8
ADP2DETAIL
  6
HIDDEN2
100
AcDbLine
 10
-3.014265207780646
 20
0.2072252420323624
 30
0.0
 11
-3.014265207780647
 21
-0.030314552616435
 31
0.0
  0
CIRCLE
  5
B2
330
18
100
AcDbEntity
  8
ADP1DETAIL
100
AcDbCircle
 10
-1.167497698232552
 20
0.0889855067641141
 30
0.0
 40
0.25
  0
CIRCLE
  5
B3
330
18
100
AcDbEntity
  8
ADP2DETAIL
  6
HIDDEN2
100
AcDbCircle
 10
-1.167497698232552
 20
0.0889855067641141
 30
0.0
 40
0.125
  0
LINE
  5
B4
330
18
100
AcDbEntity
  8
ADP1DETAIL
100
AcDbLine
 10
-0.9194271437525816
 20
0.0579855067641146
 30
0.0
 11
-1.417497698232552
 21
0.0579855067641146
 31
0.0
  0
LINE
  5
B5
330
18
100
AcDbEntity
  8
ADP1DETAIL
100
AcDbLine
 10
-0.9194271437525818
 20
0.1199855067641145
 30
0.0
 11
-1.417497698232552
 21
0.1199855067641145
 31
0.0
  0
LINE
  5
B6
330
18
100
AcDbEntity
  8
ADP2DETAIL
  6
HIDDEN2
100
AcDbLine
 10
0.1450023017674478
 20
-0.4757015903984741
 30
0.0
 11
-0.0424976982325522
 21
-0.2827004686540981
 31
0.0
  0
LINE
  5
B7
330
18
100
AcDbEntity
  8
ADP2DETAIL
  6
HIDDEN2
100
AcDbLine
 10
0.1450023017674478
 20
-0.475701590398474
 30
0.0
 11
0.1450023017674478
 21
-0.846857558129448
 31
0.0
  0
LINE
  5
B8
330
18
100
AcDbEntity
  8
ADP1DETAIL
100
AcDbLine
 10
-4.139265207780646
 20
5.088985506764114
 30
0.0
 11
-2.889265207780646
 21
5.088985506764114
 31
0.0
  0
LINE
  5
B9
330
18
100
AcDbEntity
  8
ADP2DETAIL
  6
HIDDEN2
100
AcDbLine
 10
-0.0424976982325522
 20
3.963322820401962
 30
0.0
 11
-1.792497698232552
 21
3.963322820401962
 31
0.0
  0
LINE
  5
BA
330
18
100
AcDbEntity
  8
ADP2DETAIL
  6
HIDDEN2
100
AcDbLine
 10
-0.0424976982325522
 20
4.720480877252776
 30
0.0
 11
-1.792497698232552
 21
4.720480877252776
 31
0.0
  0
CIRCLE
  5
BB
330
18
100
AcDbEntity
  8
ADP1DETAIL
100
AcDbCircle
 10
-3.514265207780646
 20
4.338985506764114
 30
0.0
 40
0.375
  0
LINE
  5
BC
330
18
100
AcDbEntity
  8
ADP2DETAIL
  6
HIDDEN2
100
AcDbLine
 10
-3.014265207780646
 20
3.7109369043643
 30
0.0
 11
-3.916470798387311
 21
3.7109369043643
 31
0.0
  0
LINE
  5
BD
330
18
100
AcDbEntity
  8
ADP2DETAIL
  6
HIDDEN2
100
AcDbLine
 10
-3.014265207780646
 20
3.473397109715501
 30
0.0
 11
-3.916470798387311
 21
3.473397109715501
 31
0.0
  0
LINE
  5
BE
330
18
100
AcDbEntity
  8
ADP2DETAIL
  6
HIDDEN2
100
AcDbLine
 10
-3.916470798387311
 20
3.7109369043643
 30
0.0
 11
-3.916470798387311
 21
3.473397109715501
 31
0.0
  0
LINE
  5
BF
330
18
100
AcDbEntity
  8
ADP2DETAIL
  6
HIDDEN2
100
AcDbLine
 10
-2.889265207780646
 20
3.844553077446476
 30
0.0
 11
-3.014265207780646
 21
3.7109369043643
 31
0.0
  0
LINE
  5
C0
330
18
100
AcDbEntity
  8
ADP2DETAIL
  6
HIDDEN2
100
AcDbLine
 10
-3.014265207780646
 20
3.473397109715501
 30
0.0
 11
-2.889265207780646
 21
3.339780936633325
 31
0.0
  0
LINE
  5
C1
330
18
100
AcDbEntity
  8
ADP2DETAIL
  6
HIDDEN2
100
AcDbLine
 10
-3.014265207780646
 20
3.7109369043643
 30
0.0
 11
-3.014265207780646
 21
3.473397109715501
 31
0.0
  0
LINE
  5
C2
330
18
100
AcDbEntity
  8
ADP1DETAIL
100
AcDbLine
 10
-3.639265207780646
 20
5.088985506764114
 30
0.0
 11
-3.639265207780646
 21
4.692538897357388
 31
0.0
  0
LINE
  5
C3
330
18
100
AcDbEntity
  8
ADP1DETAIL
100
AcDbLine
 10
-3.389265207780646
 20
5.088985506764114
 30
0.0
 11
-3.389265207780646
 21
4.692538897357388
 31
0.0
  0
CIRCLE
  5
C4
330
18
100
AcDbEntity
  8
ADP2DETAIL
  6
HIDDEN2
100
AcDbCircle
 10
-3.514265207780646
 20
4.338985506764114
 30
0.0
 40
0.1875
  0
LINE
  5
C5
330
18
100
AcDbEntity
  8
ADP1DETAIL
100
AcDbLine
 10
-3.144595084562662
 20
4.275985506764113
 30
0.0
 11
-3.883935330998631
 21
4.275985506764113
 31
0.0
  0
LINE
  5
C6
330
18
100
AcDbEntity
  8
ADP1DETAIL
100
AcDbLine
 10
-3.144426053552757
 20
4.400985506764113
 30
0.0
 11
-3.884104362008535
 21
4.400985506764113
 31
0.0
  0
LINE
  5
C7
330
18
100
AcDbEntity
  8
ADP2DETAIL
  6
HIDDEN2
100
AcDbLine
 10
-0.0424976982325522
 20
3.963322820401962
 30
0.0
 11
0.1450023017674478
 21
4.156323787777425
 31
0.0
  0
LINE
  5
C8
330
18
100
AcDbEntity
  8
ADP2DETAIL
  6
HIDDEN2
100
AcDbLine
 10
-0.0424976982325522
 20
4.720480877252776
 30
0.0
 11
-0.0424976982325522
 21
3.963322820401962
 31
0.0
  0
CIRCLE
  5
C9
330
18
100
AcDbEntity
  8
ADP1DETAIL
100
AcDbCircle
 10
-1.167497698232552
 20
3.588985506764114
 30
0.0
 40
0.25
  0
CIRCLE
  5
CA
330
18
100
AcDbEntity
  8
ADP2DETAIL
  6
HIDDEN2
100
AcDbCircle
 10
-1.167497698232552
 20
3.588985506764114
 30
0.0
 40
0.125
  0
LINE
  5
CB
330
18
100
AcDbEntity
  8
ADP1DETAIL
100
AcDbLine
 10
-0.9194271437525816
 20
3.557985506764114
 30
0.0
 11
-1.417497698232552
 21
3.557985506764114
 31
0.0
  0
LINE
  5
CC
330
18
100
AcDbEntity
  8
ADP1DETAIL
100
AcDbLine
 10
-0.9194271437525816
 20
3.619985506764114
 30
0.0
 11
-1.417497698232552
 21
3.619985506764114
 31
0.0
  0
LINE
  5
CD
330
18
100
AcDbEntity
  8
ADP2DETAIL
  6
HIDDEN2
100
AcDbLine
 10
0.1450023017674478
 20
4.5274797555084
 30
0.0
 11
-0.0424976982325522
 21
4.720480877252776
 31
0.0
  0
LINE
  5
CE
330
18
100
AcDbEntity
  8
ADP2DETAIL
  6
HIDDEN2
100
AcDbLine
 10
0.1450023017674478
 20
4.5274797555084
 30
0.0
 11
0.1450023017674478
 21
4.156323787777425
 31
0.0
  0
LINE
  5
CF
330
18
100
AcDbEntity
  8
ADP1DETAIL
100
AcDbLine
 10
-0.7924976982325523
 20
6.463985506764114
 30
0.0
 11
-1.792497698232552
 21
6.463985506764114
 31
0.0
  0
LINE
  5
D0
330
18
100
AcDbEntity
  8
ADP1DETAIL
100
AcDbLine
 10
-0.7924976982325523
 20
6.213985506764114
 30
0.0
 11
-1.792497698232552
 21
6.213985506764114
 31
0.0
  0
LINE
  5
D1
330
18
100
AcDbEntity
  8
ADP2DETAIL
  6
HIDDEN2
100
AcDbLine
 10
-0.0424976982325522
 20
6.71729948657752
 30
0.0
 11
-1.792497698232552
 21
6.71729948657752
 31
0.0
  0
LINE
  5
D2
330
18
100
AcDbEntity
  8
ADP2DETAIL
  6
HIDDEN2
100
AcDbLine
 10
-0.0424976982325522
 20
5.960141429726705
 30
0.0
 11
-1.792497698232552
 21
5.960141429726705
 31
0.0
  0
LINE
  5
D3
330
18
100
AcDbEntity
  8
ADP1DETAIL
100
AcDbLine
 10
-1.792497698232552
 20
5.713985506764114
 30
0.0
 11
-1.792497698232552
 21
6.963985506764114
 31
0.0
  0
LINE
  5
D4
330
18
100
AcDbEntity
  8
ADP1DETAIL
100
AcDbLine
 10
-0.1049976982325522
 20
6.463985506764113
 30
0.0
 11
-0.4174976982325523
 21
6.463985506764114
 31
0.0
  0
LINE
  5
D5
330
18
100
AcDbEntity
  8
ADP1DETAIL
100
AcDbLine
 10
-0.1049976982325522
 20
6.213985506764113
 30
0.0
 11
-0.4174976982325523
 21
6.213985506764114
 31
0.0
  0
LINE
  5
D6
330
18
100
AcDbEntity
  8
ADP2DETAIL
  6
HIDDEN2
100
AcDbLine
 10
-1.046341730501578
 20
5.840178574383475
 30
0.0
 11
-1.046341730501577
 21
6.74238416499014
 31
0.0
  0
LINE
  5
D7
330
18
100
AcDbEntity
  8
ADP2DETAIL
  6
HIDDEN2
100
AcDbLine
 10
-1.283881525150376
 20
5.840178574383475
 30
0.0
 11
-1.283881525150376
 21
6.742384164990141
 31
0.0
  0
LINE
  5
D8
330
18
100
AcDbEntity
  8
ADP2DETAIL
  6
HIDDEN2
100
AcDbLine
 10
-1.283881525150376
 20
5.840178574383475
 30
0.0
 11
-1.417497698232552
 21
5.715178574383475
 31
0.0
  0
LINE
  5
D9
330
18
100
AcDbEntity
  8
ADP2DETAIL
  6
HIDDEN2
100
AcDbLine
 10
-0.9127255574194022
 20
5.715178574383475
 30
0.0
 11
-1.046341730501578
 21
5.840178574383475
 31
0.0
  0
LINE
  5
DA
330
18
100
AcDbEntity
  8
ADP2DETAIL
  6
HIDDEN2
100
AcDbLine
 10
-1.046341730501578
 20
5.840178574383475
 30
0.0
 11
-1.283881525150376
 21
5.840178574383475
 31
0.0
  0
LINE
  5
DB
330
18
100
AcDbEntity
  8
ADP1DETAIL
100
AcDbLine
 10
-0.7924976982325523
 20
6.213985506764114
 30
0.0
 11
-0.7924976982325523
 21
6.047318840097447
 31
0.0
  0
LINE
  5
DC
330
18
100
AcDbEntity
  8
ADP1DETAIL
100
AcDbLine
 10
-0.4174976982325523
 20
6.213985506764114
 30
0.0
 11
-0.4174976982325523
 21
6.047318840097447
 31
0.0
  0
LINE
  5
DD
330
18
100
AcDbEntity
  8
ADP1DETAIL
100
AcDbLine
 10
-0.4174976982325523
 20
6.047318840097447
 30
0.0
 11
-0.7924976982325523
 21
6.047318840097447
 31
0.0
  0
LINE
  5
DE
330
18
100
AcDbEntity
  8
ADP2DETAIL
  6
HIDDEN2
100
AcDbLine
 10
-1.046341730501577
 20
6.74238416499014
 30
0.0
 11
-1.283881525150376
 21
6.742384164990141
 31
0.0
  0
LINE
  5
DF
330
18
100
AcDbEntity
  8
ADP1DETAIL
100
AcDbLine
 10
-0.4174976982325523
 20
6.63065217343078
 30
0.0
 11
-0.7924976982325523
 21
6.630652173430781
 31
0.0
  0
LINE
  5
E0
330
18
100
AcDbEntity
  8
ADP1DETAIL
100
AcDbLine
 10
-0.7924976982325523
 20
6.630652173430781
 30
0.0
 11
-0.7924976982325523
 21
6.463985506764114
 31
0.0
  0
LINE
  5
E1
330
18
100
AcDbEntity
  8
ADP1DETAIL
100
AcDbLine
 10
-0.4174976982325523
 20
6.630652173430781
 30
0.0
 11
-0.4174976982325523
 21
6.463985506764114
 31
0.0
  0
LINE
  5
E2
330
18
100
AcDbEntity
  8
ADP1DETAIL
100
AcDbLine
 10
-0.1049976982325522
 20
6.463985506764114
 30
0.0
 11
-0.1049976982325522
 21
5.963985506764114
 31
0.0
  0
LINE
  5
E3
330
18
100
AcDbEntity
  8
ADP2DETAIL
  6
HIDDEN2
100
AcDbLine
 10
-0.0424976982325522
 20
6.71729948657752
 30
0.0
 11
-0.0424976982325522
 21
5.960141429726705
 31
0.0
  0
LINE
  5
E4
330
18
100
AcDbEntity
  8
ADP2DETAIL
  6
HIDDEN2
100
AcDbLine
 10
0.1450023017674478
 20
6.524298364833144
 30
0.0
 11
0.1450023017674478
 21
6.153142397102169
 31
0.0
  0
LINE
  5
E5
330
18
100
AcDbEntity
  8
ADP2DETAIL
  6
HIDDEN2
100
AcDbLine
 10
-0.0424976982325522
 20
5.960141429726705
 30
0.0
 11
0.1450023017674478
 21
6.153142397102169
 31
0.0
  0
LINE
  5
E6
330
18
100
AcDbEntity
  8
ADP2DETAIL
  6
HIDDEN2
100
AcDbLine
 10
0.1450023017674478
 20
6.524298364833144
 30
0.0
 11
-0.0424976982325522
 21
6.71729948657752
 31
0.0
  0
LINE
  5
E7
330
18
100
AcDbEntity
  8
ADP1DETAIL
100
AcDbLine
 10
1.457502301767447
 20
5.088985506764114
 30
0.0
 11
1.457502301767447
 21
-1.411014493235885
 31
0.0
  0
LINE
  5
E8
330
18
100
AcDbEntity
  8
ADP1DETAIL
100
AcDbLine
 10
1.457502301767447
 20
6.963985506764114
 30
0.0
 11
1.457502301767447
 21
5.713985506764114
 31
0.0
  0
LINE
  5
E9
330
18
100
AcDbEntity
  8
ADP1DETAIL
100
AcDbLine
 10
1.207502301767447
 20
6.088985506764114
 30
0.0
 11
1.207502301767447
 21
5.963985506764114
 31
0.0
  0
LINE
  5
EA
330
18
100
AcDbEntity
  8
ADP1DETAIL
100
AcDbLine
 10
1.457502301767447
 20
6.088985506764114
 30
0.0
 11
1.207502301767447
 21
6.088985506764114
 31
0.0
  0
TEXT
  5
F8
330
18
100
AcDbEntity
  8
ADPDIM
100
AcDbText
 10
-10.47456227859264
 20
-2.545992068196516
 30
0.0
 40
0.1875
  1
J U L I U S  B L U M  &  C O . ,  I N C .      ( 8 0 0 )  5 2 6 - 6 2 9 3        W W W . J U L I U S B L U M . C O M        P A R T  N o .  8 7 9
 41
1.25
  7
ARIAL_WIDE
 72
     1
 11
-0.8225009723170586
 21
-2.358492068196516
 31
0.0
100
AcDbText
 73
     3
  0
ENDSEC
  0
SECTION
  2
OBJECTS
  0
DICTIONARY
  5
C
330
0
100
AcDbDictionary
  3
ACAD_GROUP
350
D
  3
ACAD_LAYOUT
350
F1
  3
ACAD_MLINESTYLE
350
E
  3
ACAD_PLOTSETTINGS
350
F2
  3
ACAD_PLOTSTYLENAME
350
EF
  3
ACDBHEADERROUNDTRIPXREC
350
23C
  3
ACDBVARIABLEDICTIONARY
350
152
  0
DICTIONARY
  5
14C
330
18
100
AcDbDictionary
280
     1
  3
ACAD_LAYOUTSELFREF
360
25D
  0
DICTIONARY
  5
14A
330
15
100
AcDbDictionary
280
     1
  3
ACAD_LAYOUTSELFREF
360
25C
  0
DICTIONARY
  5
D
102
{ACAD_REACTORS
330
C
102
}
330
C
100
AcDbDictionary
  0
DICTIONARY
  5
F1
102
{ACAD_REACTORS
330
C
102
}
330
C
100
AcDbDictionary
  0
DICTIONARY
  5
E
102
{ACAD_REACTORS
330
C
102
}
330
C
100
AcDbDictionary
  3
STANDARD
350
1B
  0
DICTIONARY
  5
F2
102
{ACAD_REACTORS
330
C
102
}
330
C
100
AcDbDictionary
  0
ACDBDICTIONARYWDFLT
  5
EF
102
{ACAD_REACTORS
330
C
102
}
330
C
100
AcDbDictionary
281
     1
  3
Normal
350
F0
100
AcDbDictionaryWithDefault
340
F0
  0
DICTIONARY
  5
23C
102
{ACAD_REACTORS
330
C
102
}
330
C
100
AcDbDictionary
  3
CEPSNTYPE
350
246
  3
FINGERPRINTGUID
350
247
  3
HYPERLINKBASE
350
23F
  3
INSUNITS
350
245
  3
LAYOUTDICT
350
241
  3
LWETCUNION
350
244
  3
PLOTSETDICT
350
242
  3
PLOTSTYLNAMDICT
350
243
  3
PSVPSCALE
350
249
  3
PUCSBASE
350
24C
  3
PUCSORGBACK
350
252
  3
PUCSORGBOTTOM
350
24E
  3
PUCSORGFRONT
350
251
  3
PUCSORGLEFT
350
24F
  3
PUCSORGRIGHT
350
250
  3
PUCSORGTOP
350
24D
  3
PUCSORTHOREF
350
24A
  3
PUCSORTHOVIEW
350
24B
  3
STYLESHEET
350
240
  3
TSTACKALIGN
350
23D
  3
TSTACKSIZE
350
23E
  3
UCSBASE
350
255
  3
UCSORGBACK
350
25B
  3
UCSORGBOTTOM
350
257
  3
UCSORGFRONT
350
25A
  3
UCSORGLEFT
350
258
  3
UCSORGRIGHT
350
259
  3
UCSORGTOP
350
256
  3
UCSORTHOREF
350
253
  3
UCSORTHOVIEW
350
254
  3
VERSIONGUID
350
248
  0
DICTIONARY
  5
152
102
{ACAD_REACTORS
330
C
102
}
330
C
100
AcDbDictionary
  3
DIMASSOC
350
153
  0
XRECORD
  5
25D
102
{ACAD_REACTORS
330
14C
102
}
330
14C
100
AcDbXrecord
340
18
  0
XRECORD
  5
25C
102
{ACAD_REACTORS
330
14A
102
}
330
14A
100
AcDbXrecord
340
15
  0
MLINESTYLE
  5
1B
102
{ACAD_REACTORS
330
E
102
}
330
E
100
AcDbMlineStyle
  2
STANDARD
 70
     0
  3

 62
     0
 51
90.0
 52
90.0
 71
     2
 49
0.5
 62
   256
  6
BYLAYER
 49
-0.5
 62
   256
  6
BYLAYER
  0
ACDBPLACEHOLDER
  5
F0
102
{ACAD_REACTORS
330
EF
102
}
330
EF
100
AcDbPlaceHolder
280
     0
  0
XRECORD
  5
246
102
{ACAD_REACTORS
330
23C
102
}
330
23C
100
AcDbXrecord
 90
        0
  0
XRECORD
  5
247
102
{ACAD_REACTORS
330
23C
102
}
330
23C
100
AcDbXrecord
  1
{1BA7BF27-A02F-4B7A-B08E-1281E18D40E0}
  0
XRECORD
  5
23F
102
{ACAD_REACTORS
330
23C
102
}
330
23C
100
AcDbXrecord
  1

  0
XRECORD
  5
245
102
{ACAD_REACTORS
330
23C
102
}
330
23C
100
AcDbXrecord
 90
        0
  0
XRECORD
  5
241
102
{ACAD_REACTORS
330
23C
102
}
330
23C
100
AcDbXrecord
340
F1
  0
XRECORD
  5
244
102
{ACAD_REACTORS
330
23C
102
}
330
23C
100
AcDbXrecord
 90
    14877
  0
XRECORD
  5
242
102
{ACAD_REACTORS
330
23C
102
}
330
23C
100
AcDbXrecord
340
F2
  0
XRECORD
  5
243
102
{ACAD_REACTORS
330
23C
102
}
330
23C
100
AcDbXrecord
340
EF
  0
XRECORD
  5
249
102
{ACAD_REACTORS
330
23C
102
}
330
23C
100
AcDbXrecord
 40
0.0
  0
XRECORD
  5
24C
102
{ACAD_REACTORS
330
23C
102
}
330
23C
100
AcDbXrecord
340
0
  0
XRECORD
  5
252
102
{ACAD_REACTORS
330
23C
102
}
330
23C
100
AcDbXrecord
 10
0.0
 20
0.0
 30
0.0
  0
XRECORD
  5
24E
102
{ACAD_REACTORS
330
23C
102
}
330
23C
100
AcDbXrecord
 10
0.0
 20
0.0
 30
0.0
  0
XRECORD
  5
251
102
{ACAD_REACTORS
330
23C
102
}
330
23C
100
AcDbXrecord
 10
0.0
 20
0.0
 30
0.0
  0
XRECORD
  5
24F
102
{ACAD_REACTORS
330
23C
102
}
330
23C
100
AcDbXrecord
 10
0.0
 20
0.0
 30
0.0
  0
XRECORD
  5
250
102
{ACAD_REACTORS
330
23C
102
}
330
23C
100
AcDbXrecord
 10
0.0
 20
0.0
 30
0.0
  0
XRECORD
  5
24D
102
{ACAD_REACTORS
330
23C
102
}
330
23C
100
AcDbXrecord
 10
0.0
 20
0.0
 30
0.0
  0
XRECORD
  5
24A
102
{ACAD_REACTORS
330
23C
102
}
330
23C
100
AcDbXrecord
340
0
  0
XRECORD
  5
24B
102
{ACAD_REACTORS
330
23C
102
}
330
23C
100
AcDbXrecord
 70
     0
  0
XRECORD
  5
240
102
{ACAD_REACTORS
330
23C
102
}
330
23C
100
AcDbXrecord
  1

  0
XRECORD
  5
23D
102
{ACAD_REACTORS
330
23C
102
}
330
23C
100
AcDbXrecord
 90
        1
  0
XRECORD
  5
23E
102
{ACAD_REACTORS
330
23C
102
}
330
23C
100
AcDbXrecord
 90
       70
  0
XRECORD
  5
255
102
{ACAD_REACTORS
330
23C
102
}
330
23C
100
AcDbXrecord
340
0
  0
XRECORD
  5
25B
102
{ACAD_REACTORS
330
23C
102
}
330
23C
100
AcDbXrecord
 10
0.0
 20
0.0
 30
0.0
  0
XRECORD
  5
257
102
{ACAD_REACTORS
330
23C
102
}
330
23C
100
AcDbXrecord
 10
0.0
 20
0.0
 30
0.0
  0
XRECORD
  5
25A
102
{ACAD_REACTORS
330
23C
102
}
330
23C
100
AcDbXrecord
 10
0.0
 20
0.0
 30
0.0
  0
XRECORD
  5
258
102
{ACAD_REACTORS
330
23C
102
}
330
23C
100
AcDbXrecord
 10
0.0
 20
0.0
 30
0.0
  0
XRECORD
  5
259
102
{ACAD_REACTORS
330
23C
102
}
330
23C
100
AcDbXrecord
 10
0.0
 20
0.0
 30
0.0
  0
XRECORD
  5
256
102
{ACAD_REACTORS
330
23C
102
}
330
23C
100
AcDbXrecord
 10
0.0
 20
0.0
 30
0.0
  0
XRECORD
  5
253
102
{ACAD_REACTORS
330
23C
102
}
330
23C
100
AcDbXrecord
340
0
  0
XRECORD
  5
254
102
{ACAD_REACTORS
330
23C
102
}
330
23C
100
AcDbXrecord
 70
     0
  0
XRECORD
  5
248
102
{ACAD_REACTORS
330
23C
102
}
330
23C
100
AcDbXrecord
  1
{D65114B3-E0BE-421A-B760-F12493A98A3E}
  0
DICTIONARYVAR
  5
153
102
{ACAD_REACTORS
330
152
102
}
330
152
100
DictionaryVariables
280
     0
  1
1
  0
ENDSEC
  0
EOF
