  0
SECTION
  2
HEADER
  9
$ACADVER
  1
AC1014
  9
$ACADMAINTVER
 70
     9
  9
$DWGCODEPAGE
  3
ANSI_1252
  9
$INSBASE
 10
0.063
 20
0.0
 30
0.0
  9
$EXTMIN
 10
-43.16795276261937
 20
-4.866406968017183
 30
0.0
  9
$EXTMAX
 10
46.91795276261937
 20
48.0
 30
0.0
  9
$LIMMIN
 10
0.0
 20
0.0
  9
$LIMMAX
 10
36.0
 20
36.0
  9
$ORTHOMODE
 70
     1
  9
$REGENMODE
 70
     1
  9
$FILLMODE
 70
     1
  9
$QTEXTMODE
 70
     0
  9
$MIRRTEXT
 70
     1
  9
$DRAGMODE
 70
     0
  9
$LTSCALE
 40
1.0
  9
$OSMODE
 70
    37
  9
$ATTMODE
 70
     1
  9
$TEXTSIZE
 40
0.2
  9
$TRACEWID
 40
0.05
  9
$TEXTSTYLE
  7
STANDARD
  9
$CLAYER
  8
ADP1DETAIL
  9
$CELTYPE
  6
BYLAYER
  9
$CECOLOR
 62
   256
  9
$CELTSCALE
 40
1.0
  9
$DELOBJ
 70
     1
  9
$DISPSILH
 70
     0
  9
$DIMSCALE
 40
1.0
  9
$DIMASZ
 40
0.18
  9
$DIMEXO
 40
0.0625
  9
$DIMDLI
 40
0.38
  9
$DIMRND
 40
0.0
  9
$DIMDLE
 40
0.0
  9
$DIMEXE
 40
0.18
  9
$DIMTP
 40
0.0
  9
$DIMTM
 40
0.0
  9
$DIMTXT
 40
0.18
  9
$DIMCEN
 40
0.09
  9
$DIMTSZ
 40
0.0
  9
$DIMTOL
 70
     0
  9
$DIMLIM
 70
     0
  9
$DIMTIH
 70
     1
  9
$DIMTOH
 70
     1
  9
$DIMSE1
 70
     0
  9
$DIMSE2
 70
     0
  9
$DIMTAD
 70
     0
  9
$DIMZIN
 70
     0
  9
$DIMBLK
  1

  9
$DIMASO
 70
     1
  9
$DIMSHO
 70
     1
  9
$DIMPOST
  1

  9
$DIMAPOST
  1

  9
$DIMALT
 70
     0
  9
$DIMALTD
 70
     2
  9
$DIMALTF
 40
25.4
  9
$DIMLFAC
 40
1.0
  9
$DIMTOFL
 70
     0
  9
$DIMTVP
 40
0.0
  9
$DIMTIX
 70
     0
  9
$DIMSOXD
 70
     0
  9
$DIMSAH
 70
     0
  9
$DIMBLK1
  1

  9
$DIMBLK2
  1

  9
$DIMSTYLE
  2
STANDARD
  9
$DIMCLRD
 70
     0
  9
$DIMCLRE
 70
     0
  9
$DIMCLRT
 70
     0
  9
$DIMTFAC
 40
1.0
  9
$DIMGAP
 40
0.09
  9
$DIMJUST
 70
     0
  9
$DIMSD1
 70
     0
  9
$DIMSD2
 70
     0
  9
$DIMTOLJ
 70
     1
  9
$DIMTZIN
 70
     0
  9
$DIMALTZ
 70
     0
  9
$DIMALTTZ
 70
     0
  9
$DIMFIT
 70
     3
  9
$DIMUPT
 70
     0
  9
$DIMUNIT
 70
     2
  9
$DIMDEC
 70
     4
  9
$DIMTDEC
 70
     4
  9
$DIMALTU
 70
     2
  9
$DIMALTTD
 70
     2
  9
$DIMTXSTY
  7
STANDARD
  9
$DIMAUNIT
 70
     0
  9
$LUNITS
 70
     5
  9
$LUPREC
 70
     4
  9
$SKETCHINC
 40
0.1
  9
$FILLETRAD
 40
0.124
  9
$AUNITS
 70
     0
  9
$AUPREC
 70
     0
  9
$MENU
  1
acad
  9
$ELEVATION
 40
0.0
  9
$PELEVATION
 40
0.0
  9
$THICKNESS
 40
0.0
  9
$LIMCHECK
 70
     0
  9
$BLIPMODE
 70
     0
  9
$CHAMFERA
 40
0.0
  9
$CHAMFERB
 40
0.0
  9
$CHAMFERC
 40
0.0
  9
$CHAMFERD
 40
0.0
  9
$SKPOLY
 70
     0
  9
$TDCREATE
 40
2450196.450909907
  9
$TDUPDATE
 40
2452297.076847685
  9
$TDINDWG
 40
0.0697801852
  9
$TDUSRTIMER
 40
0.0697801852
  9
$USRTIMER
 70
     1
  9
$ANGBASE
 50
0.0
  9
$ANGDIR
 70
     0
  9
$PDMODE
 70
     0
  9
$PDSIZE
 40
0.0
  9
$PLINEWID
 40
0.0
  9
$COORDS
 70
     2
  9
$SPLFRAME
 70
     0
  9
$SPLINETYPE
 70
     6
  9
$SPLINESEGS
 70
     8
  9
$ATTDIA
 70
     0
  9
$ATTREQ
 70
     1
  9
$HANDLING
 70
 22529
  9
$HANDSEED
  5
232
  9
$SURFTAB1
 70
     6
  9
$SURFTAB2
 70
     6
  9
$SURFTYPE
 70
     6
  9
$SURFU
 70
     6
  9
$SURFV
 70
     6
  9
$UCSNAME
  2

  9
$UCSORG
 10
0.0
 20
0.0
 30
0.0
  9
$UCSXDIR
 10
1.0
 20
0.0
 30
0.0
  9
$UCSYDIR
 10
0.0
 20
1.0
 30
0.0
  9
$PUCSNAME
  2

  9
$PUCSORG
 10
0.0
 20
0.0
 30
0.0
  9
$PUCSXDIR
 10
1.0
 20
0.0
 30
0.0
  9
$PUCSYDIR
 10
0.0
 20
1.0
 30
0.0
  9
$USERI1
 70
     0
  9
$USERI2
 70
     0
  9
$USERI3
 70
     0
  9
$USERI4
 70
     0
  9
$USERI5
 70
     0
  9
$USERR1
 40
0.0
  9
$USERR2
 40
0.0
  9
$USERR3
 40
0.0
  9
$USERR4
 40
0.0
  9
$USERR5
 40
0.0
  9
$WORLDVIEW
 70
     1
  9
$SHADEDGE
 70
     3
  9
$SHADEDIF
 70
    70
  9
$TILEMODE
 70
     1
  9
$MAXACTVP
 70
    15
  9
$PINSBASE
 10
0.7500138282775892
 20
5.866867092545926E+99
 30
0.0
  9
$PLIMCHECK
 70
     0
  9
$PEXTMIN
 10
1.000000000000000E+20
 20
1.000000000000000E+20
 30
1.000000000000000E+20
  9
$PEXTMAX
 10
-1.000000000000000E+20
 20
-1.000000000000000E+20
 30
-1.000000000000000E+20
  9
$PLIMMIN
 10
0.0
 20
0.0
  9
$PLIMMAX
 10
12.0
 20
9.0
  9
$UNITMODE
 70
     0
  9
$VISRETAIN
 70
     0
  9
$PLINEGEN
 70
     0
  9
$PSLTSCALE
 70
     1
  9
$TREEDEPTH
 70
  3020
  9
$PICKSTYLE
 70
     1
  9
$CMLSTYLE
  2
STANDARD
  9
$CMLJUST
 70
     0
  9
$CMLSCALE
 40
1.0
  9
$PROXYGRAPHICS
 70
     1
  9
$MEASUREMENT
 70
     0
  0
ENDSEC
  0
SECTION
  2
CLASSES
  0
CLASS
  1
ACDBDICTIONARYWDFLT
  2
AcDbDictionaryWithDefault
  3
AutoCAD 2000
 90
        0
280
     0
281
     0
  0
CLASS
  1
ACDBPLACEHOLDER
  2
AcDbPlaceHolder
  3
AutoCAD 2000
 90
        0
280
     0
281
     0
  0
CLASS
  1
LAYOUT
  2
AcDbLayout
  3
AutoCAD 2000
 90
        0
280
     0
281
     0
  0
CLASS
  1
DICTIONARYVAR
  2
AcDbDictionaryVar
  3
AutoCAD 2000
 90
        0
280
     0
281
     0
  0
CLASS
  1
LONG_TRANSACTION
  2
AcDbLongTransaction
  3
AutoCAD 2000
 90
        0
280
     0
281
     0
  0
CLASS
  1
LWPOLYLINE
  2
AcDbPolyline
  3
AutoCAD 2000
 90
        0
280
     0
281
     1
  0
CLASS
  1
HATCH
  2
AcDbHatch
  3
AutoCAD 2000
 90
        0
280
     0
281
     1
  0
CLASS
  1
XRECORD
  2
AcDbXrecord
  3
AutoCAD 2000
 90
        0
280
     0
281
     0
  0
CLASS
  1
LONG_TRANSACTION
  2
AcDbLongTransaction
  3
AutoCAD 2000
 90
        0
280
     0
281
     0
  0
CLASS
  1
LWPOLYLINE
  2
AcDbPolyline
  3
AutoCAD 2000
 90
        0
280
     0
281
     1
  0
CLASS
  1
HATCH
  2
AcDbHatch
  3
AutoCAD 2000
 90
        0
280
     0
281
     1
  0
CLASS
  1
XRECORD
  2
AcDbXrecord
  3
AutoCAD 2000
 90
        0
280
     0
281
     0
  0
CLASS
  1
LONG_TRANSACTION
  2
AcDbLongTransaction
  3
AutoCAD 2000
 90
        0
280
     0
281
     0
  0
CLASS
  1
LWPOLYLINE
  2
AcDbPolyline
  3
AutoCAD 2000
 90
        0
280
     0
281
     1
  0
CLASS
  1
HATCH
  2
AcDbHatch
  3
AutoCAD 2000
 90
        0
280
     0
281
     1
  0
CLASS
  1
XRECORD
  2
AcDbXrecord
  3
AutoCAD 2000
 90
        0
280
     0
281
     0
  0
CLASS
  1
LONG_TRANSACTION
  2
AcDbLongTransaction
  3
AutoCAD 2000
 90
        0
280
     0
281
     0
  0
CLASS
  1
LWPOLYLINE
  2
AcDbPolyline
  3
AutoCAD 2000
 90
        0
280
     0
281
     1
  0
CLASS
  1
HATCH
  2
AcDbHatch
  3
AutoCAD 2000
 90
        0
280
     0
281
     1
  0
CLASS
  1
XRECORD
  2
AcDbXrecord
  3
AutoCAD 2000
 90
        0
280
     0
281
     0
  0
CLASS
  1
LONG_TRANSACTION
  2
AcDbLongTransaction
  3
AutoCAD 2000
 90
        0
280
     0
281
     0
  0
CLASS
  1
LWPOLYLINE
  2
AcDbPolyline
  3
AutoCAD 2000
 90
        0
280
     0
281
     1
  0
CLASS
  1
HATCH
  2
AcDbHatch
  3
AutoCAD 2000
 90
        0
280
     0
281
     1
  0
CLASS
  1
XRECORD
  2
AcDbXrecord
  3
AutoCAD 2000
 90
        0
280
     0
281
     0
  0
ENDSEC
  0
SECTION
  2
TABLES
  0
TABLE
  2
VPORT
  5
8
330
0
100
AcDbSymbolTable
 70
     2
  0
VPORT
  5
20F
330
8
100
AcDbSymbolTableRecord
100
AcDbViewportTableRecord
  2
*ACTIVE
 70
     0
 10
0.0
 20
0.0
 11
1.0
 21
1.0
 12
1.947704926642622
 22
21.56629633003535
 13
0.0
 23
0.0
 14
0.5740882589684922
 24
0.5740882589684922
 15
0.5
 25
0.5
 16
0.0
 26
0.0
 36
1.0
 17
0.0
 27
0.0
 37
0.0
 40
57.7351027662284
 41
1.570528967254407
 42
50.0
 43
0.0
 44
0.0
 50
0.0
 51
0.0
 71
     0
 72
   100
 73
     1
 74
     1
 75
     0
 76
     0
 77
     0
 78
     0
  0
ENDTAB
  0
TABLE
  2
LTYPE
  5
5
330
0
100
AcDbSymbolTable
 70
     1
  0
LTYPE
  5
12
330
5
100
AcDbSymbolTableRecord
100
AcDbLinetypeTableRecord
  2
BYBLOCK
 70
     0
  3

 72
    65
 73
     0
 40
0.0
  0
LTYPE
  5
13
330
5
100
AcDbSymbolTableRecord
100
AcDbLinetypeTableRecord
  2
BYLAYER
 70
     0
  3

 72
    65
 73
     0
 40
0.0
  0
LTYPE
  5
14
330
5
100
AcDbSymbolTableRecord
100
AcDbLinetypeTableRecord
  2
CONTINUOUS
 70
     0
  3
Solid line
 72
    65
 73
     0
 40
0.0
  0
ENDTAB
  0
TABLE
  2
LAYER
  5
2
330
0
100
AcDbSymbolTable
 70
     4
  0
LAYER
  5
F
330
2
100
AcDbSymbolTableRecord
100
AcDbLayerTableRecord
  2
0
 70
     0
 62
     7
  6
CONTINUOUS
  0
LAYER
  5
26
330
2
100
AcDbSymbolTableRecord
100
AcDbLayerTableRecord
  2
DEFPOINTS
 70
     0
 62
     7
  6
CONTINUOUS
  0
LAYER
  5
27
330
2
100
AcDbSymbolTableRecord
100
AcDbLayerTableRecord
  2
ADP1DETAIL
 70
     0
 62
     7
  6
CONTINUOUS
  0
LAYER
  5
2A
330
2
100
AcDbSymbolTableRecord
100
AcDbLayerTableRecord
  2
ADPDIM
 70
     0
 62
     3
  6
CONTINUOUS
  0
ENDTAB
  0
TABLE
  2
STYLE
  5
3
330
0
100
AcDbSymbolTable
 70
     2
  0
STYLE
  5
10
330
3
100
AcDbSymbolTableRecord
100
AcDbTextStyleTableRecord
  2
STANDARD
 70
     0
 40
0.0
 41
1.0
 50
0.0
 71
     0
 42
0.2
  3
txt
  4

  0
STYLE
  5
CB
330
3
100
AcDbSymbolTableRecord
100
AcDbTextStyleTableRecord
  2
ARIAL_WIDE
 70
     0
 40
0.0
 41
1.25
 50
0.0
 71
     0
 42
0.2
  3
ARIAL.TTF
  4

1001
ACAD
1000
Arial
1071
       34
  0
ENDTAB
  0
TABLE
  2
VIEW
  5
6
330
0
100
AcDbSymbolTable
 70
     0
  0
ENDTAB
  0
TABLE
  2
UCS
  5
7
330
0
100
AcDbSymbolTable
 70
     0
  0
ENDTAB
  0
TABLE
  2
APPID
  5
9
330
0
100
AcDbSymbolTable
 70
     1
  0
APPID
  5
11
330
9
100
AcDbSymbolTableRecord
100
AcDbRegAppTableRecord
  2
ACAD
 70
     0
  0
ENDTAB
  0
TABLE
  2
DIMSTYLE
  5
A
330
0
100
AcDbSymbolTable
 70
     1
  0
DIMSTYLE
105
BF
330
A
100
AcDbSymbolTableRecord
100
AcDbDimStyleTableRecord
  2
STANDARD
 70
     0
  3

  4

  5

  6

  7

 40
1.0
 41
0.18
 42
0.0625
 43
0.38
 44
0.18
 45
0.0
 46
0.0
 47
0.0
 48
0.0
140
0.18
141
0.09
142
0.0
143
25.4
144
1.0
145
0.0
146
1.0
147
0.09
 71
     0
 72
     0
 73
     1
 74
     1
 75
     0
 76
     0
 77
     0
 78
     0
170
     0
171
     2
172
     0
173
     0
174
     0
175
     0
176
     0
177
     0
178
     0
270
     2
271
     4
272
     4
273
     2
274
     2
340
10
275
     0
280
     0
281
     0
282
     0
283
     1
284
     0
285
     0
286
     0
287
     3
288
     0
  0
ENDTAB
  0
TABLE
  2
BLOCK_RECORD
  5
1
330
0
100
AcDbSymbolTable
 70
     4
  0
BLOCK_RECORD
  5
18
102
{ACAD_XDICTIONARY
360
120
102
}
330
1
100
AcDbSymbolTableRecord
100
AcDbBlockTableRecord
  2
*MODEL_SPACE
  0
BLOCK_RECORD
  5
15
102
{ACAD_XDICTIONARY
360
11E
102
}
330
1
100
AcDbSymbolTableRecord
100
AcDbBlockTableRecord
  2
*PAPER_SPACE
  0
BLOCK_RECORD
  5
1C
330
1
100
AcDbSymbolTableRecord
100
AcDbBlockTableRecord
  2
*D0
  0
BLOCK_RECORD
  5
1D
330
1
100
AcDbSymbolTableRecord
100
AcDbBlockTableRecord
  2
*D1
  0
BLOCK_RECORD
  5
1F
330
1
100
AcDbSymbolTableRecord
100
AcDbBlockTableRecord
  2
*D2
  0
BLOCK_RECORD
  5
22
330
1
100
AcDbSymbolTableRecord
100
AcDbBlockTableRecord
  2
*D3
  0
ENDTAB
  0
ENDSEC
  0
SECTION
  2
BLOCKS
  0
BLOCK
  5
2E
330
18
100
AcDbEntity
  8
0
100
AcDbBlockBegin
  2
*MODEL_SPACE
 70
     0
 10
0.0
 20
0.0
 30
0.0
  3
*MODEL_SPACE
  1

  0
ENDBLK
  5
2F
330
18
100
AcDbEntity
  8
0
100
AcDbBlockEnd
  0
BLOCK
  5
2C
330
15
100
AcDbEntity
 67
     1
  8
0
100
AcDbBlockBegin
  2
*PAPER_SPACE
 70
     0
 10
0.0
 20
0.0
 30
0.0
  3
*PAPER_SPACE
  1

  0
ENDBLK
  5
2D
330
15
100
AcDbEntity
 67
     1
  8
0
100
AcDbBlockEnd
  0
BLOCK
  5
30
330
1C
100
AcDbEntity
  8
0
100
AcDbBlockBegin
  2
*D0
 70
     1
 10
0.0
 20
0.0
 30
0.0
  3
*D0
  1

  0
LINE
  5
31
330
1C
100
AcDbEntity
  8
0
  6
BYBLOCK
 62
     0
100
AcDbLine
 10
0.0
 20
-1.083066424607568
 30
0.0
 11
0.0
 21
-0.2701010080111816
 31
0.0
  0
LINE
  5
32
330
1C
100
AcDbEntity
  8
0
  6
BYBLOCK
 62
     0
100
AcDbLine
 10
3.75
 20
-1.083066424607568
 30
0.0
 11
3.75
 21
-0.2701010080111816
 31
0.0
  0
LINE
  5
33
330
1C
100
AcDbEntity
  8
0
  6
BYBLOCK
 62
     0
100
AcDbLine
 10
0.18
 20
-0.4501010080111816
 30
0.0
 11
1.364999999999999
 21
-0.4501010080111816
 31
0.0
  0
LINE
  5
34
330
1C
100
AcDbEntity
  8
0
  6
BYBLOCK
 62
     0
100
AcDbLine
 10
3.569999999999999
 20
-0.4501010080111816
 30
0.0
 11
2.384999999999999
 21
-0.4501010080111816
 31
0.0
  0
SOLID
  5
35
330
1C
100
AcDbEntity
  8
0
  6
BYBLOCK
 62
     0
100
AcDbTrace
 10
0.18
 20
-0.4201010080111816
 30
0.0
 11
0.18
 21
-0.4801010080111816
 31
0.0
 12
0.0
 22
-0.4501010080111816
 32
0.0
 13
0.0
 23
-0.4501010080111816
 33
0.0
  0
SOLID
  5
36
330
1C
100
AcDbEntity
  8
0
  6
BYBLOCK
 62
     0
100
AcDbTrace
 10
3.569999999999999
 20
-0.4201010080111816
 30
0.0
 11
3.569999999999999
 21
-0.4801010080111816
 31
0.0
 12
3.75
 22
-0.4501010080111816
 32
0.0
 13
3.75
 23
-0.4501010080111816
 33
0.0
  0
TEXT
  5
37
330
1C
100
AcDbEntity
  8
0
  6
BYBLOCK
 62
     0
100
AcDbText
 10
1.455
 20
-0.5401010080111816
 30
0.0
 40
0.18
  1
3 3/4
 72
     1
 11
1.875
 21
-0.4501010080111816
 31
0.0
100
AcDbText
 73
     2
  0
POINT
  5
38
330
1C
100
AcDbEntity
  8
DEFPOINTS
  6
BYBLOCK
 62
     0
100
AcDbPoint
 10
0.0
 20
-1.145566424607568
 30
0.0
  0
POINT
  5
39
330
1C
100
AcDbEntity
  8
DEFPOINTS
  6
BYBLOCK
 62
     0
100
AcDbPoint
 10
3.75
 20
-1.145566424607568
 30
0.0
  0
POINT
  5
3A
330
1C
100
AcDbEntity
  8
DEFPOINTS
  6
BYBLOCK
 62
     0
100
AcDbPoint
 10
3.75
 20
-0.4501010080111816
 30
0.0
  0
ENDBLK
  5
3B
330
1C
100
AcDbEntity
  8
0
100
AcDbBlockEnd
  0
BLOCK
  5
3C
330
1D
100
AcDbEntity
  8
0
100
AcDbBlockBegin
  2
*D1
 70
     1
 10
0.0
 20
0.0
 30
0.0
  3
*D1
  1

  0
LINE
  5
3D
330
1D
100
AcDbEntity
  8
0
  6
BYBLOCK
 62
     0
100
AcDbLine
 10
2.5625
 20
-0.7068159242071684
 30
0.0
 11
4.517278130790485
 21
-0.7068159242071685
 31
0.0
  0
LINE
  5
3E
330
1D
100
AcDbEntity
  8
0
  6
BYBLOCK
 62
     0
100
AcDbLine
 10
2.562499999999999
 20
-2.581815924207168
 30
0.0
 11
4.517278130790485
 21
-2.581815924207168
 31
0.0
  0
LINE
  5
3F
330
1D
100
AcDbEntity
  8
0
  6
BYBLOCK
 62
     0
100
AcDbLine
 10
4.337278130790485
 20
-0.8868159242071683
 30
0.0
 11
4.337278130790485
 21
-1.464315924207168
 31
0.0
  0
LINE
  5
40
330
1D
100
AcDbEntity
  8
0
  6
BYBLOCK
 62
     0
100
AcDbLine
 10
4.337278130790485
 20
-2.401815924207168
 30
0.0
 11
4.337278130790485
 21
-1.824315924207168
 31
0.0
  0
SOLID
  5
41
330
1D
100
AcDbEntity
  8
0
  6
BYBLOCK
 62
     0
100
AcDbTrace
 10
4.307278130790485
 20
-0.8868159242071683
 30
0.0
 11
4.367278130790485
 21
-0.8868159242071683
 31
0.0
 12
4.337278130790485
 22
-0.7068159242071685
 32
0.0
 13
4.337278130790485
 23
-0.7068159242071685
 33
0.0
  0
SOLID
  5
42
330
1D
100
AcDbEntity
  8
0
  6
BYBLOCK
 62
     0
100
AcDbTrace
 10
4.307278130790485
 20
-2.401815924207168
 30
0.0
 11
4.367278130790485
 21
-2.401815924207168
 31
0.0
 12
4.337278130790485
 22
-2.581815924207168
 32
0.0
 13
4.337278130790485
 23
-2.581815924207168
 33
0.0
  0
TEXT
  5
43
330
1D
100
AcDbEntity
  8
0
  6
BYBLOCK
 62
     0
100
AcDbText
 10
3.947278130790485
 20
-1.734315924207168
 30
0.0
 40
0.18
  1
1 7/8
 72
     1
 11
4.337278130790485
 21
-1.644315924207168
 31
0.0
100
AcDbText
 73
     2
  0
POINT
  5
44
330
1D
100
AcDbEntity
  8
DEFPOINTS
  6
BYBLOCK
 62
     0
100
AcDbPoint
 10
2.5
 20
-0.7068159242071684
 30
0.0
  0
POINT
  5
45
330
1D
100
AcDbEntity
  8
DEFPOINTS
  6
BYBLOCK
 62
     0
100
AcDbPoint
 10
2.499999999999999
 20
-2.581815924207168
 30
0.0
  0
POINT
  5
46
330
1D
100
AcDbEntity
  8
DEFPOINTS
  6
BYBLOCK
 62
     0
100
AcDbPoint
 10
4.337278130790485
 20
-2.581815924207168
 30
0.0
  0
ENDBLK
  5
47
330
1D
100
AcDbEntity
  8
0
100
AcDbBlockEnd
  0
BLOCK
  5
54
330
1F
100
AcDbEntity
  8
0
100
AcDbBlockBegin
  2
*D2
 70
     1
 10
0.0
 20
0.0
 30
0.0
  3
*D2
  1

  0
LINE
  5
55
330
1F
100
AcDbEntity
  8
0
  6
BYBLOCK
 62
     0
100
AcDbLine
 10
-0.0625
 20
48.0
 30
0.0
 11
-1.416593602789129
 21
48.0
 31
0.0
  0
LINE
  5
56
330
1F
100
AcDbEntity
  8
0
  6
BYBLOCK
 62
     0
100
AcDbLine
 10
-0.0625
 20
0.0
 30
0.0
 11
-1.416593602789131
 21
0.0000000000000001
 31
0.0
  0
LINE
  5
57
330
1F
100
AcDbEntity
  8
0
  6
BYBLOCK
 62
     0
100
AcDbLine
 10
-1.236593602789129
 20
47.82
 30
0.0
 11
-1.23659360278913
 21
24.18
 31
0.0
  0
LINE
  5
58
330
1F
100
AcDbEntity
  8
0
  6
BYBLOCK
 62
     0
100
AcDbLine
 10
-1.236593602789131
 20
0.1800000000000001
 30
0.0
 11
-1.23659360278913
 21
23.82
 31
0.0
  0
SOLID
  5
59
330
1F
100
AcDbEntity
  8
0
  6
BYBLOCK
 62
     0
100
AcDbTrace
 10
-1.266593602789129
 20
47.82
 30
0.0
 11
-1.206593602789129
 21
47.82
 31
0.0
 12
-1.236593602789129
 22
48.0
 32
0.0
 13
-1.236593602789129
 23
48.0
 33
0.0
  0
SOLID
  5
5A
330
1F
100
AcDbEntity
  8
0
  6
BYBLOCK
 62
     0
100
AcDbTrace
 10
-1.266593602789132
 20
0.1800000000000001
 30
0.0
 11
-1.206593602789131
 21
0.1800000000000001
 31
0.0
 12
-1.236593602789131
 22
0.0000000000000001
 32
0.0
 13
-1.236593602789131
 23
0.0000000000000001
 33
0.0
  0
TEXT
  5
5B
330
1F
100
AcDbEntity
  8
0
  6
BYBLOCK
 62
     0
100
AcDbText
 10
-1.38659360278913
 20
23.91
 30
0.0
 40
0.18
  1
48
 72
     1
 11
-1.23659360278913
 21
24.0
 31
0.0
100
AcDbText
 73
     2
  0
POINT
  5
5C
330
1F
100
AcDbEntity
  8
DEFPOINTS
  6
BYBLOCK
 62
     0
100
AcDbPoint
 10
0.0
 20
48.0
 30
0.0
  0
POINT
  5
5D
330
1F
100
AcDbEntity
  8
DEFPOINTS
  6
BYBLOCK
 62
     0
100
AcDbPoint
 10
0.0
 20
0.0
 30
0.0
  0
POINT
  5
5E
330
1F
100
AcDbEntity
  8
DEFPOINTS
  6
BYBLOCK
 62
     0
100
AcDbPoint
 10
-1.236593602789131
 20
0.0000000000000001
 30
0.0
  0
ENDBLK
  5
5F
330
1F
100
AcDbEntity
  8
0
100
AcDbBlockEnd
  0
BLOCK
  5
6C
330
22
100
AcDbEntity
  8
0
100
AcDbBlockBegin
  2
*D3
 70
     1
 10
0.0
 20
0.0
 30
0.0
  3
*D3
  1

  0
LINE
  5
6D
330
22
100
AcDbEntity
  8
0
  6
BYBLOCK
 62
     0
100
AcDbLine
 10
3.8125
 20
6.0
 30
0.0
 11
4.863126678933479
 21
6.0
 31
0.0
  0
LINE
  5
6E
330
22
100
AcDbEntity
  8
0
  6
BYBLOCK
 62
     0
100
AcDbLine
 10
3.8125
 20
0.0
 30
0.0
 11
4.863126678933479
 21
-0.0000000000000001
 31
0.0
  0
LINE
  5
6F
330
22
100
AcDbEntity
  8
0
  6
BYBLOCK
 62
     0
100
AcDbLine
 10
4.683126678933479
 20
5.82
 30
0.0
 11
4.683126678933479
 21
3.179999999999999
 31
0.0
  0
LINE
  5
70
330
22
100
AcDbEntity
  8
0
  6
BYBLOCK
 62
     0
100
AcDbLine
 10
4.683126678933479
 20
0.1799999999999999
 30
0.0
 11
4.683126678933479
 21
2.819999999999999
 31
0.0
  0
SOLID
  5
71
330
22
100
AcDbEntity
  8
0
  6
BYBLOCK
 62
     0
100
AcDbTrace
 10
4.653126678933479
 20
5.82
 30
0.0
 11
4.71312667893348
 21
5.82
 31
0.0
 12
4.683126678933479
 22
6.0
 32
0.0
 13
4.683126678933479
 23
6.0
 33
0.0
  0
SOLID
  5
72
330
22
100
AcDbEntity
  8
0
  6
BYBLOCK
 62
     0
100
AcDbTrace
 10
4.653126678933479
 20
0.1799999999999999
 30
0.0
 11
4.71312667893348
 21
0.1799999999999999
 31
0.0
 12
4.683126678933479
 22
-0.0000000000000001
 32
0.0
 13
4.683126678933479
 23
-0.0000000000000001
 33
0.0
  0
TEXT
  5
73
330
22
100
AcDbEntity
  8
0
  6
BYBLOCK
 62
     0
100
AcDbText
 10
4.62312667893348
 20
2.909999999999999
 30
0.0
 40
0.18
  1
6
 72
     1
 11
4.683126678933479
 21
2.999999999999999
 31
0.0
100
AcDbText
 73
     2
  0
POINT
  5
74
330
22
100
AcDbEntity
  8
DEFPOINTS
  6
BYBLOCK
 62
     0
100
AcDbPoint
 10
3.75
 20
6.0
 30
0.0
  0
POINT
  5
75
330
22
100
AcDbEntity
  8
DEFPOINTS
  6
BYBLOCK
 62
     0
100
AcDbPoint
 10
3.75
 20
0.0
 30
0.0
  0
POINT
  5
76
330
22
100
AcDbEntity
  8
DEFPOINTS
  6
BYBLOCK
 62
     0
100
AcDbPoint
 10
4.683126678933479
 20
-0.0000000000000001
 30
0.0
  0
ENDBLK
  5
77
330
22
100
AcDbEntity
  8
0
100
AcDbBlockEnd
  0
ENDSEC
  0
SECTION
  2
ENTITIES
  0
LINE
  5
78
330
18
100
AcDbEntity
  8
ADP1DETAIL
100
AcDbLine
 10
3.75
 20
5.99401383530361
 30
0.0
 11
3.75
 21
48.0
 31
0.0
  0
LINE
  5
79
330
18
100
AcDbEntity
  8
ADP1DETAIL
100
AcDbLine
 10
0.0
 20
48.0
 30
0.0
 11
0.0
 21
5.99401383530361
 31
0.0
  0
DIMENSION
  5
7A
330
18
100
AcDbEntity
  8
ADPDIM
100
AcDbDimension
  2
*D2
 10
-1.236593602789131
 20
0.0000000000000001
 30
0.0
 11
-1.23659360278913
 21
24.0
 31
0.0
100
AcDbAlignedDimension
 13
0.0
 23
48.0
 33
0.0
 14
0.0
 24
0.0
 34
0.0
 50
90.0
100
AcDbRotatedDimension
  0
LINE
  5
7B
330
18
100
AcDbEntity
  8
ADP1DETAIL
100
AcDbLine
 10
1.75
 20
0.0
 30
0.0
 11
1.75
 21
48.0
 31
0.0
  0
LINE
  5
7C
330
18
100
AcDbEntity
  8
ADP1DETAIL
100
AcDbLine
 10
2.0
 20
48.0
 30
0.0
 11
2.0
 21
0.0
 31
0.0
  0
DIMENSION
  5
7D
330
18
100
AcDbEntity
  8
ADPDIM
100
AcDbDimension
  2
*D1
 10
4.337278130790485
 20
-2.581815924207168
 30
0.0
 11
4.337278130790485
 21
-1.644315924207168
 31
0.0
100
AcDbAlignedDimension
 13
2.5
 23
-0.7068159242071684
 33
0.0
 14
2.499999999999999
 24
-2.581815924207168
 34
0.0
 50
90.0
100
AcDbRotatedDimension
  0
ARC
  5
7E
330
18
100
AcDbEntity
  8
ADP1DETAIL
100
AcDbCircle
 10
2.5
 20
-2.706815924207168
 30
0.0
 40
2.0
100
AcDbArc
 50
51.31781254651056
 51
90.0
  0
LINE
  5
7F
330
18
100
AcDbEntity
  8
ADP1DETAIL
100
AcDbLine
 10
2.0
 20
-1.519315924207168
 30
0.0
 11
2.0
 21
-0.7693159242071684
 31
0.0
  0
LINE
  5
80
330
18
100
AcDbEntity
  8
ADP1DETAIL
100
AcDbLine
 10
1.75
 20
-1.519315924207168
 30
0.0
 11
1.75
 21
-0.7693159242071684
 31
0.0
  0
ARC
  5
81
330
18
100
AcDbEntity
  8
ADP1DETAIL
100
AcDbCircle
 10
1.25
 20
-2.706815924207168
 30
0.0
 40
2.0
100
AcDbArc
 50
90.0
 51
128.6821874534894
  0
DIMENSION
  5
82
330
18
100
AcDbEntity
  8
ADPDIM
100
AcDbDimension
  2
*D0
 10
3.75
 20
-0.4501010080111816
 30
0.0
 11
1.875
 21
-0.4501010080111816
 31
0.0
100
AcDbAlignedDimension
 13
0.0
 23
-1.145566424607568
 33
0.0
 14
3.75
 24
-1.145566424607568
 34
0.0
100
AcDbRotatedDimension
  0
ARC
  5
83
330
18
100
AcDbEntity
  8
ADP1DETAIL
100
AcDbCircle
 10
2.5
 20
-0.5818159242071684
 30
0.0
 40
2.0
100
AcDbArc
 50
270.0
 51
308.6821874534894
  0
LINE
  5
84
330
18
100
AcDbEntity
  8
ADP1DETAIL
100
AcDbLine
 10
3.0
 20
-1.519315924207168
 30
0.0
 11
2.0
 21
-1.519315924207168
 31
0.0
  0
LINE
  5
85
330
18
100
AcDbEntity
  8
ADP1DETAIL
100
AcDbLine
 10
3.0
 20
-1.769315924207168
 30
0.0
 11
2.0
 21
-1.769315924207168
 31
0.0
  0
LINE
  5
86
330
18
100
AcDbEntity
  8
ADP1DETAIL
100
AcDbLine
 10
0.7499999999999999
 20
-1.769315924207168
 30
0.0
 11
1.75
 21
-1.769315924207168
 31
0.0
  0
LINE
  5
87
330
18
100
AcDbEntity
  8
ADP1DETAIL
100
AcDbLine
 10
0.7499999999999999
 20
-1.519315924207168
 30
0.0
 11
1.75
 21
-1.519315924207168
 31
0.0
  0
ARC
  5
88
330
18
100
AcDbEntity
  8
ADP1DETAIL
100
AcDbCircle
 10
1.25
 20
-0.5818159242071684
 30
0.0
 40
2.0
100
AcDbArc
 50
231.3178125465105
 51
270.0
  0
LINE
  5
89
330
18
100
AcDbEntity
  8
ADP1DETAIL
100
AcDbLine
 10
0.3749999999999998
 20
-1.956315924207168
 30
0.0
 11
0.7499999999999999
 21
-1.956315924207168
 31
0.0
  0
LINE
  5
8A
330
18
100
AcDbEntity
  8
ADP1DETAIL
100
AcDbLine
 10
0.3749999999999998
 20
-1.332315924207168
 30
0.0
 11
0.7499999999999999
 21
-1.332315924207168
 31
0.0
  0
LINE
  5
8B
330
18
100
AcDbEntity
  8
ADP1DETAIL
100
AcDbLine
 10
0.0
 20
-1.831815924207168
 30
0.0
 11
0.0
 21
-2.143065423806767
 31
0.0
  0
LINE
  5
8C
330
18
100
AcDbEntity
  8
ADP1DETAIL
100
AcDbLine
 10
0.063
 20
-1.769315924207168
 30
0.0
 11
0.3749999999999998
 21
-1.769315924207168
 31
0.0
  0
LINE
  5
8D
330
18
100
AcDbEntity
  8
ADP1DETAIL
100
AcDbLine
 10
0.063
 20
-1.519315924207168
 30
0.0
 11
0.3749999999999998
 21
-1.519315924207168
 31
0.0
  0
LINE
  5
8E
330
18
100
AcDbEntity
  8
ADP1DETAIL
100
AcDbLine
 10
0.063
 20
-1.644315924207168
 30
0.0
 11
0.063
 21
-1.519315924207168
 31
0.0
  0
ARC
  5
8F
330
18
100
AcDbEntity
  8
ADP1DETAIL
100
AcDbCircle
 10
0.0625
 20
-1.831815924207168
 30
0.0
 40
0.0625
100
AcDbArc
 50
90.00000000000003
 51
180.0
  0
LINE
  5
90
330
18
100
AcDbEntity
  8
ADP1DETAIL
100
AcDbLine
 10
0.063
 20
-1.644315924207168
 30
0.0
 11
0.063
 21
-1.769315924207168
 31
0.0
  0
LINE
  5
91
330
18
100
AcDbEntity
  8
ADP1DETAIL
100
AcDbLine
 10
0.0
 20
-1.456815924207168
 30
0.0
 11
0.0
 21
-1.145566424607568
 31
0.0
  0
ARC
  5
92
330
18
100
AcDbEntity
  8
ADP1DETAIL
100
AcDbCircle
 10
0.0625
 20
-1.456815924207168
 30
0.0
 40
0.0625
100
AcDbArc
 50
180.0
 51
270.0
  0
LINE
  5
93
330
18
100
AcDbEntity
  8
ADP1DETAIL
100
AcDbLine
 10
0.3749999999999998
 20
-1.519315924207168
 30
0.0
 11
0.3749999999999998
 21
-1.332315924207168
 31
0.0
  0
LINE
  5
94
330
18
100
AcDbEntity
  8
ADP1DETAIL
100
AcDbLine
 10
0.3749999999999998
 20
-1.769315924207168
 30
0.0
 11
0.3749999999999998
 21
-1.956315924207168
 31
0.0
  0
LINE
  5
95
330
18
100
AcDbEntity
  8
ADP1DETAIL
100
AcDbLine
 10
0.7499999999999999
 20
-1.332315924207168
 30
0.0
 11
0.7499999999999999
 21
-1.519315924207168
 31
0.0
  0
LINE
  5
96
330
18
100
AcDbEntity
  8
ADP1DETAIL
100
AcDbLine
 10
0.7499999999999999
 20
-1.956315924207168
 30
0.0
 11
0.7499999999999999
 21
-1.769315924207168
 31
0.0
  0
LINE
  5
97
330
18
100
AcDbEntity
  8
ADP1DETAIL
100
AcDbLine
 10
2.0
 20
-2.519315924207168
 30
0.0
 11
1.875
 21
-2.519315924207168
 31
0.0
  0
LINE
  5
98
330
18
100
AcDbEntity
  8
ADP1DETAIL
100
AcDbLine
 10
1.75
 20
-1.769315924207168
 30
0.0
 11
1.75
 21
-2.519315924207168
 31
0.0
  0
LINE
  5
99
330
18
100
AcDbEntity
  8
ADP1DETAIL
100
AcDbLine
 10
1.6875
 20
-2.581815924207168
 30
0.0
 11
1.25
 21
-2.581815924207168
 31
0.0
  0
ARC
  5
9A
330
18
100
AcDbEntity
  8
ADP1DETAIL
100
AcDbCircle
 10
1.6875
 20
-2.519315924207168
 30
0.0
 40
0.0625
100
AcDbArc
 50
270.0
 51
0.0
  0
LINE
  5
9B
330
18
100
AcDbEntity
  8
ADP1DETAIL
100
AcDbLine
 10
1.75
 20
-2.519315924207168
 30
0.0
 11
1.875
 21
-2.519315924207168
 31
0.0
  0
LINE
  5
9C
330
18
100
AcDbEntity
  8
ADP1DETAIL
100
AcDbLine
 10
2.0
 20
-1.769315924207168
 30
0.0
 11
2.0
 21
-2.519315924207168
 31
0.0
  0
LINE
  5
9D
330
18
100
AcDbEntity
  8
ADP1DETAIL
100
AcDbLine
 10
2.0625
 20
-2.581815924207168
 30
0.0
 11
2.5
 21
-2.581815924207168
 31
0.0
  0
ARC
  5
9E
330
18
100
AcDbEntity
  8
ADP1DETAIL
100
AcDbCircle
 10
2.0625
 20
-2.519315924207168
 30
0.0
 40
0.0625
100
AcDbArc
 50
180.0
 51
270.0
  0
LINE
  5
9F
330
18
100
AcDbEntity
  8
ADP1DETAIL
100
AcDbLine
 10
3.687
 20
-1.519315924207168
 30
0.0
 11
3.375
 21
-1.519315924207168
 31
0.0
  0
LINE
  5
A0
330
18
100
AcDbEntity
  8
ADP1DETAIL
100
AcDbLine
 10
3.687
 20
-1.769315924207168
 30
0.0
 11
3.375
 21
-1.769315924207168
 31
0.0
  0
LINE
  5
A1
330
18
100
AcDbEntity
  8
ADP1DETAIL
100
AcDbLine
 10
3.375
 20
-1.332315924207168
 30
0.0
 11
3.0
 21
-1.332315924207168
 31
0.0
  0
LINE
  5
A2
330
18
100
AcDbEntity
  8
ADP1DETAIL
100
AcDbLine
 10
3.375
 20
-1.956315924207168
 30
0.0
 11
3.0
 21
-1.956315924207168
 31
0.0
  0
LINE
  5
A3
330
18
100
AcDbEntity
  8
ADP1DETAIL
100
AcDbLine
 10
3.0
 20
-1.332315924207168
 30
0.0
 11
3.0
 21
-1.519315924207168
 31
0.0
  0
LINE
  5
A4
330
18
100
AcDbEntity
  8
ADP1DETAIL
100
AcDbLine
 10
3.0
 20
-1.956315924207168
 30
0.0
 11
3.0
 21
-1.769315924207168
 31
0.0
  0
LINE
  5
A5
330
18
100
AcDbEntity
  8
ADP1DETAIL
100
AcDbLine
 10
3.375
 20
-1.519315924207168
 30
0.0
 11
3.375
 21
-1.332315924207168
 31
0.0
  0
LINE
  5
A6
330
18
100
AcDbEntity
  8
ADP1DETAIL
100
AcDbLine
 10
3.375
 20
-1.769315924207168
 30
0.0
 11
3.375
 21
-1.956315924207168
 31
0.0
  0
LINE
  5
A7
330
18
100
AcDbEntity
  8
ADP1DETAIL
100
AcDbLine
 10
3.75
 20
-1.831815924207168
 30
0.0
 11
3.75
 21
-2.143065423806767
 31
0.0
  0
LINE
  5
A8
330
18
100
AcDbEntity
  8
ADP1DETAIL
100
AcDbLine
 10
3.687
 20
-1.644315924207168
 30
0.0
 11
3.687
 21
-1.519315924207168
 31
0.0
  0
ARC
  5
A9
330
18
100
AcDbEntity
  8
ADP1DETAIL
100
AcDbCircle
 10
3.6875
 20
-1.831815924207168
 30
0.0
 40
0.0625
100
AcDbArc
 50
0.0
 51
90.00000000000003
  0
LINE
  5
AA
330
18
100
AcDbEntity
  8
ADP1DETAIL
100
AcDbLine
 10
3.687
 20
-1.644315924207168
 30
0.0
 11
3.687
 21
-1.769315924207168
 31
0.0
  0
ARC
  5
AB
330
18
100
AcDbEntity
  8
ADP1DETAIL
100
AcDbCircle
 10
3.6875
 20
-1.456815924207168
 30
0.0
 40
0.0625
100
AcDbArc
 50
270.0
 51
0.0
  0
LINE
  5
AC
330
18
100
AcDbEntity
  8
ADP1DETAIL
100
AcDbLine
 10
3.75
 20
-1.456815924207168
 30
0.0
 11
3.75
 21
-1.145566424607568
 31
0.0
  0
LINE
  5
AD
330
18
100
AcDbEntity
  8
ADP1DETAIL
100
AcDbLine
 10
0.063
 20
0.0
 30
0.0
 11
3.686999999999999
 21
0.0
 31
0.0
  0
LINE
  5
AE
330
18
100
AcDbEntity
  8
ADP1DETAIL
100
AcDbLine
 10
0.0
 20
5.99401383530361
 30
0.0
 11
3.75
 21
5.99401383530361
 31
0.0
  0
LINE
  5
AF
330
18
100
AcDbEntity
  8
ADP1DETAIL
100
AcDbLine
 10
0.063
 20
0.0
 30
0.0
 11
0.063
 21
5.99401383530361
 31
0.0
  0
LINE
  5
B0
330
18
100
AcDbEntity
  8
ADP1DETAIL
100
AcDbLine
 10
0.375
 20
0.0
 30
0.0
 11
0.375
 21
5.99401383530361
 31
0.0
  0
LINE
  5
B1
330
18
100
AcDbEntity
  8
ADP1DETAIL
100
AcDbLine
 10
0.7499999999999997
 20
0.0
 30
0.0
 11
0.75
 21
5.99401383530361
 31
0.0
  0
LINE
  5
B2
330
18
100
AcDbEntity
  8
ADP1DETAIL
100
AcDbLine
 10
2.0
 20
0.0
 30
0.0
 11
1.75
 21
0.0
 31
0.0
  0
LINE
  5
B3
330
18
100
AcDbEntity
  8
ADP1DETAIL
100
AcDbLine
 10
2.0
 20
-0.7693159242071684
 30
0.0
 11
1.875
 21
-0.7693159242071684
 31
0.0
  0
LINE
  5
B4
330
18
100
AcDbEntity
  8
ADP1DETAIL
100
AcDbLine
 10
1.6875
 20
-0.7068159242071684
 30
0.0
 11
1.25
 21
-0.7068159242071684
 31
0.0
  0
ARC
  5
B5
330
18
100
AcDbEntity
  8
ADP1DETAIL
100
AcDbCircle
 10
1.6875
 20
-0.7693159242071684
 30
0.0
 40
0.0625
100
AcDbArc
 50
0.000000000000007
 51
90.0
  0
LINE
  5
B6
330
18
100
AcDbEntity
  8
ADP1DETAIL
100
AcDbLine
 10
1.75
 20
-0.7693159242071684
 30
0.0
 11
1.875
 21
-0.7693159242071684
 31
0.0
  0
LINE
  5
B7
330
18
100
AcDbEntity
  8
ADP1DETAIL
100
AcDbLine
 10
2.0625
 20
-0.7068159242071684
 30
0.0
 11
2.5
 21
-0.7068159242071684
 31
0.0
  0
ARC
  5
B8
330
18
100
AcDbEntity
  8
ADP1DETAIL
100
AcDbCircle
 10
2.0625
 20
-0.7693159242071684
 30
0.0
 40
0.0625
100
AcDbArc
 50
90.0
 51
180.0
  0
LINE
  5
B9
330
18
100
AcDbEntity
  8
ADP1DETAIL
100
AcDbLine
 10
3.687
 20
0.0
 30
0.0
 11
3.686999999999999
 21
5.99401383530361
 31
0.0
  0
LINE
  5
BA
330
18
100
AcDbEntity
  8
ADP1DETAIL
100
AcDbLine
 10
3.374999999999999
 20
0.0
 30
0.0
 11
3.375
 21
5.99401383530361
 31
0.0
  0
LINE
  5
BB
330
18
100
AcDbEntity
  8
ADP1DETAIL
100
AcDbLine
 10
3.0
 20
0.0
 30
0.0
 11
3.0
 21
5.99401383530361
 31
0.0
  0
DIMENSION
  5
BC
330
18
100
AcDbEntity
  8
ADPDIM
100
AcDbDimension
  2
*D3
 10
4.683126678933479
 20
-0.0000000000000001
 30
0.0
 11
4.683126678933479
 21
2.999999999999999
 31
0.0
100
AcDbAlignedDimension
 13
3.75
 23
6.0
 33
0.0
 14
3.75
 24
0.0
 34
0.0
 50
90.0
100
AcDbRotatedDimension
  0
LINE
  5
BD
330
18
100
AcDbEntity
  8
ADP1DETAIL
100
AcDbLine
 10
3.75
 20
48.0
 30
0.0
 11
0.0
 21
48.0
 31
0.0
  0
LINE
  5
BE
330
18
100
AcDbEntity
  8
ADP1DETAIL
100
AcDbLine
 10
1.75
 20
48.0
 30
0.0
 11
2.0
 21
48.0
 31
0.0
  0
TEXT
  5
CC
330
18
100
AcDbEntity
  8
ADPDIM
100
AcDbText
 10
-43.16795276261937
 20
-4.607368768835737
 30
0.0
 40
0.875
  1
J U L I U S  B L U M  &  C O . ,  I N C .      ( 8 0 0 )  5 2 6 - 6 2 9 3        W W W . J U L I U S B L U M . C O M        P A R T  N o .  8 7 2
 41
1.25
  7
ARIAL_WIDE
 72
     1
 11
1.875
 21
-3.732368768835736
 31
0.0
100
AcDbText
 73
     3
  0
ENDSEC
  0
SECTION
  2
OBJECTS
  0
DICTIONARY
  5
C
330
0
100
AcDbDictionary
  3
ACAD_GROUP
350
D
  3
ACAD_LAYOUT
350
C5
  3
ACAD_MLINESTYLE
350
E
  3
ACAD_PLOTSETTINGS
350
C6
  3
ACAD_PLOTSTYLENAME
350
C3
  3
ACDBHEADERROUNDTRIPXREC
350
210
  3
ACDBVARIABLEDICTIONARY
350
126
  0
DICTIONARY
  5
120
330
18
100
AcDbDictionary
280
     1
  3
ACAD_LAYOUTSELFREF
360
231
  0
DICTIONARY
  5
11E
330
15
100
AcDbDictionary
280
     1
  3
ACAD_LAYOUTSELFREF
360
230
  0
DICTIONARY
  5
D
102
{ACAD_REACTORS
330
C
102
}
330
C
100
AcDbDictionary
  0
DICTIONARY
  5
C5
102
{ACAD_REACTORS
330
C
102
}
330
C
100
AcDbDictionary
  0
DICTIONARY
  5
E
102
{ACAD_REACTORS
330
C
102
}
330
C
100
AcDbDictionary
  3
STANDARD
350
1B
  0
DICTIONARY
  5
C6
102
{ACAD_REACTORS
330
C
102
}
330
C
100
AcDbDictionary
  0
ACDBDICTIONARYWDFLT
  5
C3
102
{ACAD_REACTORS
330
C
102
}
330
C
100
AcDbDictionary
281
     1
  3
Normal
350
C4
100
AcDbDictionaryWithDefault
340
C4
  0
DICTIONARY
  5
210
102
{ACAD_REACTORS
330
C
102
}
330
C
100
AcDbDictionary
  3
CEPSNTYPE
350
21A
  3
FINGERPRINTGUID
350
21B
  3
HYPERLINKBASE
350
213
  3
INSUNITS
350
219
  3
LAYOUTDICT
350
215
  3
LWETCUNION
350
218
  3
PLOTSETDICT
350
216
  3
PLOTSTYLNAMDICT
350
217
  3
PSVPSCALE
350
21D
  3
PUCSBASE
350
220
  3
PUCSORGBACK
350
226
  3
PUCSORGBOTTOM
350
222
  3
PUCSORGFRONT
350
225
  3
PUCSORGLEFT
350
223
  3
PUCSORGRIGHT
350
224
  3
PUCSORGTOP
350
221
  3
PUCSORTHOREF
350
21E
  3
PUCSORTHOVIEW
350
21F
  3
STYLESHEET
350
214
  3
TSTACKALIGN
350
211
  3
TSTACKSIZE
350
212
  3
UCSBASE
350
229
  3
UCSORGBACK
350
22F
  3
UCSORGBOTTOM
350
22B
  3
UCSORGFRONT
350
22E
  3
UCSORGLEFT
350
22C
  3
UCSORGRIGHT
350
22D
  3
UCSORGTOP
350
22A
  3
UCSORTHOREF
350
227
  3
UCSORTHOVIEW
350
228
  3
VERSIONGUID
350
21C
  0
DICTIONARY
  5
126
102
{ACAD_REACTORS
330
C
102
}
330
C
100
AcDbDictionary
  3
DIMASSOC
350
127
  0
XRECORD
  5
231
102
{ACAD_REACTORS
330
120
102
}
330
120
100
AcDbXrecord
340
18
  0
XRECORD
  5
230
102
{ACAD_REACTORS
330
11E
102
}
330
11E
100
AcDbXrecord
340
15
  0
MLINESTYLE
  5
1B
102
{ACAD_REACTORS
330
E
102
}
330
E
100
AcDbMlineStyle
  2
STANDARD
 70
     0
  3

 62
     0
 51
90.0
 52
90.0
 71
     2
 49
0.5
 62
   256
  6
BYLAYER
 49
-0.5
 62
   256
  6
BYLAYER
  0
ACDBPLACEHOLDER
  5
C4
102
{ACAD_REACTORS
330
C3
102
}
330
C3
100
AcDbPlaceHolder
280
     0
  0
XRECORD
  5
21A
102
{ACAD_REACTORS
330
210
102
}
330
210
100
AcDbXrecord
 90
        0
  0
XRECORD
  5
21B
102
{ACAD_REACTORS
330
210
102
}
330
210
100
AcDbXrecord
  1
{96356DA9-6BA2-40BD-A01B-A38A1FA6974F}
  0
XRECORD
  5
213
102
{ACAD_REACTORS
330
210
102
}
330
210
100
AcDbXrecord
  1

  0
XRECORD
  5
219
102
{ACAD_REACTORS
330
210
102
}
330
210
100
AcDbXrecord
 90
        0
  0
XRECORD
  5
215
102
{ACAD_REACTORS
330
210
102
}
330
210
100
AcDbXrecord
340
C5
  0
XRECORD
  5
218
102
{ACAD_REACTORS
330
210
102
}
330
210
100
AcDbXrecord
 90
    14877
  0
XRECORD
  5
216
102
{ACAD_REACTORS
330
210
102
}
330
210
100
AcDbXrecord
340
C6
  0
XRECORD
  5
217
102
{ACAD_REACTORS
330
210
102
}
330
210
100
AcDbXrecord
340
C3
  0
XRECORD
  5
21D
102
{ACAD_REACTORS
330
210
102
}
330
210
100
AcDbXrecord
 40
0.0
  0
XRECORD
  5
220
102
{ACAD_REACTORS
330
210
102
}
330
210
100
AcDbXrecord
340
0
  0
XRECORD
  5
226
102
{ACAD_REACTORS
330
210
102
}
330
210
100
AcDbXrecord
 10
0.0
 20
0.0
 30
0.0
  0
XRECORD
  5
222
102
{ACAD_REACTORS
330
210
102
}
330
210
100
AcDbXrecord
 10
0.0
 20
0.0
 30
0.0
  0
XRECORD
  5
225
102
{ACAD_REACTORS
330
210
102
}
330
210
100
AcDbXrecord
 10
0.0
 20
0.0
 30
0.0
  0
XRECORD
  5
223
102
{ACAD_REACTORS
330
210
102
}
330
210
100
AcDbXrecord
 10
0.0
 20
0.0
 30
0.0
  0
XRECORD
  5
224
102
{ACAD_REACTORS
330
210
102
}
330
210
100
AcDbXrecord
 10
0.0
 20
0.0
 30
0.0
  0
XRECORD
  5
221
102
{ACAD_REACTORS
330
210
102
}
330
210
100
AcDbXrecord
 10
0.0
 20
0.0
 30
0.0
  0
XRECORD
  5
21E
102
{ACAD_REACTORS
330
210
102
}
330
210
100
AcDbXrecord
340
0
  0
XRECORD
  5
21F
102
{ACAD_REACTORS
330
210
102
}
330
210
100
AcDbXrecord
 70
     0
  0
XRECORD
  5
214
102
{ACAD_REACTORS
330
210
102
}
330
210
100
AcDbXrecord
  1

  0
XRECORD
  5
211
102
{ACAD_REACTORS
330
210
102
}
330
210
100
AcDbXrecord
 90
        1
  0
XRECORD
  5
212
102
{ACAD_REACTORS
330
210
102
}
330
210
100
AcDbXrecord
 90
       70
  0
XRECORD
  5
229
102
{ACAD_REACTORS
330
210
102
}
330
210
100
AcDbXrecord
340
0
  0
XRECORD
  5
22F
102
{ACAD_REACTORS
330
210
102
}
330
210
100
AcDbXrecord
 10
0.0
 20
0.0
 30
0.0
  0
XRECORD
  5
22B
102
{ACAD_REACTORS
330
210
102
}
330
210
100
AcDbXrecord
 10
0.0
 20
0.0
 30
0.0
  0
XRECORD
  5
22E
102
{ACAD_REACTORS
330
210
102
}
330
210
100
AcDbXrecord
 10
0.0
 20
0.0
 30
0.0
  0
XRECORD
  5
22C
102
{ACAD_REACTORS
330
210
102
}
330
210
100
AcDbXrecord
 10
0.0
 20
0.0
 30
0.0
  0
XRECORD
  5
22D
102
{ACAD_REACTORS
330
210
102
}
330
210
100
AcDbXrecord
 10
0.0
 20
0.0
 30
0.0
  0
XRECORD
  5
22A
102
{ACAD_REACTORS
330
210
102
}
330
210
100
AcDbXrecord
 10
0.0
 20
0.0
 30
0.0
  0
XRECORD
  5
227
102
{ACAD_REACTORS
330
210
102
}
330
210
100
AcDbXrecord
340
0
  0
XRECORD
  5
228
102
{ACAD_REACTORS
330
210
102
}
330
210
100
AcDbXrecord
 70
     0
  0
XRECORD
  5
21C
102
{ACAD_REACTORS
330
210
102
}
330
210
100
AcDbXrecord
  1
{C1C9CE58-BDF3-4DC4-B17E-2AE7D424E082}
  0
DICTIONARYVAR
  5
127
102
{ACAD_REACTORS
330
126
102
}
330
126
100
DictionaryVariables
280
     0
  1
1
  0
ENDSEC
  0
EOF
