  0
SECTION
  2
HEADER
  9
$ACADVER
  1
AC1015
  9
$ACADMAINTVER
 70
    20
  9
$DWGCODEPAGE
  3
ANSI_1252
  9
$INSBASE
 10
0.0
 20
0.0
 30
0.0
  9
$EXTMIN
 10
-2.89248418297778
 20
60.2001447731129
 30
-0.0000000000291038
  9
$EXTMAX
 10
3.633244841578836
 20
62.26212500885225
 30
0.0
  9
$LIMMIN
 10
0.0
 20
0.0
  9
$LIMMAX
 10
0.0
 20
0.0
  9
$ORTHOMODE
 70
     1
  9
$REGENMODE
 70
     1
  9
$FILLMODE
 70
     1
  9
$QTEXTMODE
 70
     0
  9
$MIRRTEXT
 70
     1
  9
$LTSCALE
 40
1.0
  9
$ATTMODE
 70
     1
  9
$TEXTSIZE
 40
0.0
  9
$TRACEWID
 40
0.05
  9
$TEXTSTYLE
  7
STANDARD
  9
$CLAYER
  8
0
  9
$CELTYPE
  6
CONTINUOUS
  9
$CECOLOR
 62
   256
  9
$CELTSCALE
 40
1.0
  9
$DISPSILH
 70
     0
  9
$DIMSCALE
 40
1.0
  9
$DIMASZ
 40
0.18
  9
$DIMEXO
 40
0.0625
  9
$DIMDLI
 40
0.38
  9
$DIMRND
 40
0.0
  9
$DIMDLE
 40
0.0
  9
$DIMEXE
 40
0.18
  9
$DIMTP
 40
0.0
  9
$DIMTM
 40
0.0
  9
$DIMTXT
 40
0.18
  9
$DIMCEN
 40
0.09
  9
$DIMTSZ
 40
0.0
  9
$DIMTOL
 70
     0
  9
$DIMLIM
 70
     0
  9
$DIMTIH
 70
     1
  9
$DIMTOH
 70
     1
  9
$DIMSE1
 70
     0
  9
$DIMSE2
 70
     0
  9
$DIMTAD
 70
     0
  9
$DIMZIN
 70
     0
  9
$DIMBLK
  1

  9
$DIMASO
 70
     1
  9
$DIMSHO
 70
     1
  9
$DIMPOST
  1

  9
$DIMAPOST
  1

  9
$DIMALT
 70
     0
  9
$DIMALTD
 70
     2
  9
$DIMALTF
 40
25.4
  9
$DIMLFAC
 40
1.0
  9
$DIMTOFL
 70
     0
  9
$DIMTVP
 40
0.0
  9
$DIMTIX
 70
     0
  9
$DIMSOXD
 70
     0
  9
$DIMSAH
 70
     0
  9
$DIMBLK1
  1

  9
$DIMBLK2
  1

  9
$DIMSTYLE
  2
STANDARD
  9
$DIMCLRD
 70
     0
  9
$DIMCLRE
 70
     0
  9
$DIMCLRT
 70
     0
  9
$DIMTFAC
 40
1.0
  9
$DIMGAP
 40
0.09
  9
$DIMJUST
 70
     0
  9
$DIMSD1
 70
     0
  9
$DIMSD2
 70
     0
  9
$DIMTOLJ
 70
     1
  9
$DIMTZIN
 70
     0
  9
$DIMALTZ
 70
     0
  9
$DIMALTTZ
 70
     0
  9
$DIMUPT
 70
     0
  9
$DIMDEC
 70
     4
  9
$DIMTDEC
 70
     4
  9
$DIMALTU
 70
     2
  9
$DIMALTTD
 70
     2
  9
$DIMTXSTY
  7
STANDARD
  9
$DIMAUNIT
 70
     0
  9
$DIMADEC
 70
     0
  9
$DIMALTRND
 40
0.0
  9
$DIMAZIN
 70
     0
  9
$DIMDSEP
 70
    46
  9
$DIMATFIT
 70
     3
  9
$DIMFRAC
 70
     0
  9
$DIMLDRBLK
  1

  9
$DIMLUNIT
 70
     2
  9
$DIMLWD
 70
    -2
  9
$DIMLWE
 70
    -2
  9
$DIMTMOVE
 70
     0
  9
$LUNITS
 70
     2
  9
$LUPREC
 70
     4
  9
$SKETCHINC
 40
0.1
  9
$FILLETRAD
 40
0.0
  9
$AUNITS
 70
     0
  9
$AUPREC
 70
     0
  9
$MENU
  1
acad
  9
$ELEVATION
 40
0.0
  9
$PELEVATION
 40
0.0
  9
$THICKNESS
 40
0.0
  9
$LIMCHECK
 70
     0
  9
$CHAMFERA
 40
0.0
  9
$CHAMFERB
 40
0.0
  9
$CHAMFERC
 40
0.0
  9
$CHAMFERD
 40
0.0
  9
$SKPOLY
 70
     0
  9
$TDCREATE
 40
2444971.791666667
  9
$TDUCREATE
 40
2444971.958333334
  9
$TDUPDATE
 40
2453960.971942280
  9
$TDUUPDATE
 40
2453961.138608947
  9
$TDINDWG
 40
0.0119869097
  9
$TDUSRTIMER
 40
0.0119869097
  9
$USRTIMER
 70
     1
  9
$ANGBASE
 50
0.0
  9
$ANGDIR
 70
     0
  9
$PDMODE
 70
     0
  9
$PDSIZE
 40
0.0
  9
$PLINEWID
 40
0.0
  9
$SPLFRAME
 70
     0
  9
$SPLINETYPE
 70
     6
  9
$SPLINESEGS
 70
     8
  9
$HANDSEED
  5
4AF
  9
$SURFTAB1
 70
     6
  9
$SURFTAB2
 70
     6
  9
$SURFTYPE
 70
     6
  9
$SURFU
 70
     6
  9
$SURFV
 70
     6
  9
$UCSBASE
  2

  9
$UCSNAME
  2

  9
$UCSORG
 10
0.0
 20
0.0
 30
0.0
  9
$UCSXDIR
 10
1.0
 20
0.0
 30
0.0
  9
$UCSYDIR
 10
0.0
 20
1.0
 30
0.0
  9
$UCSORTHOREF
  2

  9
$UCSORTHOVIEW
 70
     0
  9
$UCSORGTOP
 10
0.0
 20
0.0
 30
0.0
  9
$UCSORGBOTTOM
 10
0.0
 20
0.0
 30
0.0
  9
$UCSORGLEFT
 10
0.0
 20
0.0
 30
0.0
  9
$UCSORGRIGHT
 10
0.0
 20
0.0
 30
0.0
  9
$UCSORGFRONT
 10
0.0
 20
0.0
 30
0.0
  9
$UCSORGBACK
 10
0.0
 20
0.0
 30
0.0
  9
$PUCSBASE
  2

  9
$PUCSNAME
  2

  9
$PUCSORG
 10
0.0
 20
0.0
 30
0.0
  9
$PUCSXDIR
 10
1.0
 20
0.0
 30
0.0
  9
$PUCSYDIR
 10
0.0
 20
1.0
 30
0.0
  9
$PUCSORTHOREF
  2

  9
$PUCSORTHOVIEW
 70
     0
  9
$PUCSORGTOP
 10
0.0
 20
0.0
 30
0.0
  9
$PUCSORGBOTTOM
 10
0.0
 20
0.0
 30
0.0
  9
$PUCSORGLEFT
 10
0.0
 20
0.0
 30
0.0
  9
$PUCSORGRIGHT
 10
0.0
 20
0.0
 30
0.0
  9
$PUCSORGFRONT
 10
0.0
 20
0.0
 30
0.0
  9
$PUCSORGBACK
 10
0.0
 20
0.0
 30
0.0
  9
$USERI1
 70
     0
  9
$USERI2
 70
     0
  9
$USERI3
 70
     0
  9
$USERI4
 70
     0
  9
$USERI5
 70
     0
  9
$USERR1
 40
0.0
  9
$USERR2
 40
0.0
  9
$USERR3
 40
0.0
  9
$USERR4
 40
0.0
  9
$USERR5
 40
0.0
  9
$WORLDVIEW
 70
     1
  9
$SHADEDGE
 70
     3
  9
$SHADEDIF
 70
    70
  9
$TILEMODE
 70
     1
  9
$MAXACTVP
 70
    16
  9
$PINSBASE
 10
0.0
 20
0.0
 30
0.0
  9
$PLIMCHECK
 70
     0
  9
$PEXTMIN
 10
1.000000000000000E+20
 20
1.000000000000000E+20
 30
1.000000000000000E+20
  9
$PEXTMAX
 10
-1.000000000000000E+20
 20
-1.000000000000000E+20
 30
-1.000000000000000E+20
  9
$PLIMMIN
 10
0.0
 20
0.0
  9
$PLIMMAX
 10
12.0
 20
9.0
  9
$UNITMODE
 70
     0
  9
$VISRETAIN
 70
     0
  9
$PLINEGEN
 70
     0
  9
$PSLTSCALE
 70
     0
  9
$TREEDEPTH
 70
  3020
  9
$CMLSTYLE
  2
STANDARD
  9
$CMLJUST
 70
     0
  9
$CMLSCALE
 40
1.0
  9
$PROXYGRAPHICS
 70
     1
  9
$MEASUREMENT
 70
     0
  9
$CELWEIGHT
370
    -1
  9
$ENDCAPS
280
     0
  9
$JOINSTYLE
280
     0
  9
$LWDISPLAY
290
     0
  9
$INSUNITS
 70
     0
  9
$HYPERLINKBASE
  1

  9
$STYLESHEET
  1

  9
$XEDIT
290
     1
  9
$CEPSNTYPE
380
     0
  9
$PSTYLEMODE
290
     1
  9
$FINGERPRINTGUID
  2
{E03F3E42-4D13-47CF-9F95-7C744480CF12}
  9
$VERSIONGUID
  2
{E6E4EBAB-1FE6-4D1F-A154-F5977A116A76}
  9
$EXTNAMES
290
     1
  9
$PSVPSCALE
 40
0.0
  9
$OLESTARTUP
290
     0
  0
ENDSEC
  0
SECTION
  2
CLASSES
  0
CLASS
  1
IMAGE
  2
AcDbRasterImage
  3
ISM
 90
    34943
280
     0
281
     1
  0
CLASS
  1
DICTIONARYVAR
  2
AcDbDictionaryVar
  3
ObjectDBX Classes
 90
        0
280
     0
281
     0
  0
CLASS
  1
RASTERVARIABLES
  2
AcDbRasterVariables
  3
ISM
 90
    32768
280
     0
281
     0
  0
CLASS
  1
IMAGEDEF
  2
AcDbRasterImageDef
  3
ISM
 90
    32768
280
     0
281
     0
  0
CLASS
  1
IMAGEDEF_REACTOR
  2
AcDbRasterImageDefReactor
  3
ISM
 90
    32769
280
     0
281
     0
  0
CLASS
  1
IDBUFFER
  2
AcDbIdBuffer
  3
ObjectDBX Classes
 90
    32768
280
     0
281
     0
  0
CLASS
  1
SPATIAL_FILTER
  2
AcDbSpatialFilter
  3
ObjectDBX Classes
 90
    32768
280
     0
281
     0
  0
CLASS
  1
SORTENTSTABLE
  2
AcDbSortentsTable
  3
ObjectDBX Classes
 90
    32768
280
     0
281
     0
  0
CLASS
  1
LAYER_INDEX
  2
AcDbLayerIndex
  3
ObjectDBX Classes
 90
    32768
280
     0
281
     0
  0
CLASS
  1
SPATIAL_INDEX
  2
AcDbSpatialIndex
  3
ObjectDBX Classes
 90
    32768
280
     0
281
     0
  0
CLASS
  1
OBJECT_PTR
  2
CAseDLPNTableRecord
  3
ASE-LPNTableRecord
 90
    32769
280
     0
281
     0
  0
CLASS
  1
ACDBDICTIONARYWDFLT
  2
AcDbDictionaryWithDefault
  3
ObjectDBX Classes
 90
        0
280
     0
281
     0
  0
CLASS
  1
ACDBPLACEHOLDER
  2
AcDbPlaceHolder
  3
ObjectDBX Classes
 90
        0
280
     0
281
     0
  0
CLASS
  1
LAYOUT
  2
AcDbLayout
  3
ObjectDBX Classes
 90
        0
280
     0
281
     0
  0
CLASS
  1
MATERIAL
  2
AcDbMaterial
  3
ObjectDBX Classes
 90
     1024
280
     0
281
     0
  0
CLASS
  1
VISUALSTYLE
  2
AcDbVisualStyle
  3
ObjectDBX Classes
 90
     4095
280
     0
281
     0
  0
CLASS
  1
TABLESTYLE
  2
AcDbTableStyle
  3
ObjectDBX Classes
 90
     4095
280
     0
281
     0
  0
ENDSEC
  0
SECTION
  2
TABLES
  0
TABLE
  2
VPORT
  5
7
102
{ACAD_XDICTIONARY
360
3FC
102
}
330
0
100
AcDbSymbolTable
 70
     2
  0
VPORT
  5
2C
330
7
100
AcDbSymbolTableRecord
100
AcDbViewportTableRecord
  2
DCADVPORT
 70
     0
 10
-0.4444628371605849
 20
60.63657951139483
 11
0.9749445929957477
 21
61.47826875134094
 12
6.209999999999999
 22
9.019999999999999
 13
0.0
 23
0.0
 14
1.0
 24
1.0
 15
0.0
 25
0.0
 16
0.0
 26
0.0
 36
1.0
 17
0.0
 27
0.0
 37
0.0
 40
18.04
 41
0.688564
 42
50.0
 43
1.0
 44
1.0
 50
0.0
 51
0.0
 71
     0
 72
   100
 73
     1
 74
     1
 75
     0
 76
     0
 77
     0
 78
     0
281
     0
 65
     1
110
0.0
120
0.0
130
0.0
111
1.0
121
0.0
131
0.0
112
0.0
122
1.0
132
0.0
 79
     0
146
0.0
  0
VPORT
  5
282
330
7
100
AcDbSymbolTableRecord
100
AcDbViewportTableRecord
  2
*Active
 70
     0
 10
0.0
 20
0.0
 11
1.0
 21
1.0
 12
0.8949483003937341
 22
61.19510926899311
 13
0.0
 23
0.0
 14
1.0
 24
1.0
 15
0.0
 25
0.0
 16
0.0
 26
0.0
 36
1.0
 17
0.0
 27
0.0
 37
0.0
 40
2.891628023729645
 41
1.774011299435028
 42
50.0
 43
0.0
 44
0.0
 50
0.0
 51
0.0
 71
     0
 72
   100
 73
     1
 74
     1
 75
     0
 76
     0
 77
     0
 78
     0
281
     0
 65
     1
110
0.0
120
0.0
130
0.0
111
1.0
121
0.0
131
0.0
112
0.0
122
1.0
132
0.0
 79
     0
146
0.0
  0
ENDTAB
  0
TABLE
  2
LTYPE
  5
4
330
0
100
AcDbSymbolTable
 70
     3
  0
LTYPE
  5
11
330
4
100
AcDbSymbolTableRecord
100
AcDbLinetypeTableRecord
  2
BYBLOCK
 70
     0
  3

 72
    65
 73
     0
 40
0.0
  0
LTYPE
  5
12
330
4
100
AcDbSymbolTableRecord
100
AcDbLinetypeTableRecord
  2
BYLAYER
 70
     0
  3

 72
    65
 73
     0
 40
0.0
  0
LTYPE
  5
13
330
4
100
AcDbSymbolTableRecord
100
AcDbLinetypeTableRecord
  2
CONTINUOUS
 70
     0
  3
Solid line
 72
    65
 73
     0
 40
0.0
  0
LTYPE
  5
1E
330
4
100
AcDbSymbolTableRecord
100
AcDbLinetypeTableRecord
  2
CONTINUOUS
 70
     0
  3
Solid line
 72
    65
 73
     0
 40
0.0
  0
ENDTAB
  0
TABLE
  2
LAYER
  5
2
330
0
100
AcDbSymbolTable
 70
     4
  0
LAYER
  5
14
330
2
100
AcDbSymbolTableRecord
100
AcDbLayerTableRecord
  2
0
 70
     0
 62
     7
  6
CONTINUOUS
370
    -3
390
98
  0
LAYER
  5
2A
330
2
100
AcDbSymbolTableRecord
100
AcDbLayerTableRecord
  2
0
 70
     0
 62
     7
  6
CONTINUOUS
370
    -3
390
98
  0
LAYER
  5
A0
330
2
100
AcDbSymbolTableRecord
100
AcDbLayerTableRecord
  2
ADPDIM
 70
     0
 62
     3
  6
CONTINUOUS
370
    -3
390
98
  0
LAYER
  5
2CC
330
2
100
AcDbSymbolTableRecord
100
AcDbLayerTableRecord
  2
Defpoints
 70
     0
 62
     7
  6
CONTINUOUS
290
     0
370
    -3
390
98
  0
ENDTAB
  0
TABLE
  2
STYLE
  5
3
330
0
100
AcDbSymbolTable
 70
     2
  0
STYLE
  5
17
330
3
100
AcDbSymbolTableRecord
100
AcDbTextStyleTableRecord
  2
STANDARD
 70
     0
 40
0.0
 41
1.0
 50
0.0
 71
     0
 42
0.0
  3
txt
  4

  0
STYLE
  5
A1
330
3
100
AcDbSymbolTableRecord
100
AcDbTextStyleTableRecord
  2
ARIAL_WIDE
 70
     0
 40
0.0
 41
1.25
 50
0.0
 71
     0
 42
0.2
  3
ARIAL.TTF
  4

1001
ACAD
1000
Arial
1071
       34
  0
ENDTAB
  0
TABLE
  2
VIEW
  5
5
330
0
100
AcDbSymbolTable
 70
     0
  0
ENDTAB
  0
TABLE
  2
UCS
  5
6
330
0
100
AcDbSymbolTable
 70
     0
  0
ENDTAB
  0
TABLE
  2
APPID
  5
8
330
0
100
AcDbSymbolTable
 70
     2
  0
APPID
  5
16
330
8
100
AcDbSymbolTableRecord
100
AcDbRegAppTableRecord
  2
ACAD
 70
     0
  0
APPID
  5
3F9
330
8
100
AcDbSymbolTableRecord
100
AcDbRegAppTableRecord
  2
DCO15
 70
     0
  0
ENDTAB
  0
TABLE
  2
DIMSTYLE
  5
9
330
0
100
AcDbSymbolTable
 70
     2
100
AcDbDimStyleTable
 71
     1
340
18
  0
DIMSTYLE
105
18
102
{ACAD_REACTORS
330
2DA
330
2E8
330
41A
330
428
102
}
330
9
100
AcDbSymbolTableRecord
100
AcDbDimStyleTableRecord
  2
STANDARD
 70
     0
289
     0
340
17
  0
ENDTAB
  0
TABLE
  2
BLOCK_RECORD
  5
1
330
0
100
AcDbSymbolTable
 70
     7
  0
BLOCK_RECORD
  5
A
102
{ACAD_XDICTIONARY
360
F6
102
}
330
1
100
AcDbSymbolTableRecord
100
AcDbBlockTableRecord
  2
*MODEL_SPACE
340
9B
  0
BLOCK_RECORD
  5
B
102
{ACAD_XDICTIONARY
360
F8
102
}
330
1
100
AcDbSymbolTableRecord
100
AcDbBlockTableRecord
  2
*PAPER_SPACE
340
9C
  0
BLOCK_RECORD
  5
2CD
330
1
100
AcDbSymbolTableRecord
100
AcDbBlockTableRecord
  2
*D0
340
0
  0
BLOCK_RECORD
  5
2DB
330
1
100
AcDbSymbolTableRecord
100
AcDbBlockTableRecord
  2
*D1
340
0
  0
BLOCK_RECORD
  5
2E9
330
1
100
AcDbSymbolTableRecord
100
AcDbBlockTableRecord
  2
*D2
340
0
  0
BLOCK_RECORD
  5
2F8
330
1
100
AcDbSymbolTableRecord
100
AcDbBlockTableRecord
  2
*D3
340
0
  0
BLOCK_RECORD
  5
41B
330
1
100
AcDbSymbolTableRecord
100
AcDbBlockTableRecord
  2
*D4
340
0
  0
BLOCK_RECORD
  5
429
330
1
100
AcDbSymbolTableRecord
100
AcDbBlockTableRecord
  2
*D5
340
0
  0
ENDTAB
  0
ENDSEC
  0
SECTION
  2
BLOCKS
  0
BLOCK
  5
D
330
A
100
AcDbEntity
  8
0
100
AcDbBlockBegin
  2
*MODEL_SPACE
 70
     0
 10
0.0
 20
0.0
 30
0.0
  3
*MODEL_SPACE
  1

  0
ENDBLK
  5
E
330
A
100
AcDbEntity
  8
0
100
AcDbBlockEnd
  0
BLOCK
  5
F
330
B
100
AcDbEntity
 67
     1
  8
0
100
AcDbBlockBegin
  2
*PAPER_SPACE
 70
     0
 10
0.0
 20
0.0
 30
0.0
  3
*PAPER_SPACE
  1

  0
ENDBLK
  5
10
330
B
100
AcDbEntity
 67
     1
  8
0
100
AcDbBlockEnd
  0
BLOCK
  5
2D8
330
2CD
100
AcDbEntity
  8
0
 62
     3
100
AcDbBlockBegin
  2
*D0
 70
     1
 10
0.0
 20
0.0
 30
0.0
  3
*D0
  1

  0
LINE
  5
3C5
330
2CD
100
AcDbEntity
  8
ADPDIM
  6
Continuous
 62
     0
370
    -2
100
AcDbLine
 10
0.0050580477977427
 20
61.60466850908126
 30
0.0
 11
0.0050580477977427
 21
62.26212500885225
 31
0.0
  0
LINE
  5
3C6
330
2CD
100
AcDbEntity
  8
ADPDIM
  6
Continuous
 62
     0
370
    -2
100
AcDbLine
 10
0.7550580477977426
 20
61.60466850908126
 30
0.0
 11
0.7550580477977426
 21
62.26212500885225
 31
0.0
  0
LINE
  5
3C7
330
2CD
100
AcDbEntity
  8
ADPDIM
  6
Continuous
 62
     0
370
    -2
100
AcDbLine
 10
-0.1749419522022573
 20
62.08212500885224
 30
0.0
 11
-0.3549419522022573
 21
62.08212500885224
 31
0.0
  0
LINE
  5
3C8
330
2CD
100
AcDbEntity
  8
ADPDIM
  6
Continuous
 62
     0
370
    -2
100
AcDbLine
 10
0.9350580477977425
 20
62.08212500885224
 30
0.0
 11
1.115058047797742
 21
62.08212500885224
 31
0.0
  0
SOLID
  5
3C9
330
2CD
100
AcDbEntity
  8
ADPDIM
  6
Continuous
 62
     0
100
AcDbTrace
 10
-0.1749419522022573
 20
62.11212500885224
 30
0.0
 11
-0.1749419522022573
 21
62.05212500885224
 31
0.0
 12
0.0050580477977427
 22
62.08212500885224
 32
0.0
 13
0.0050580477977427
 23
62.08212500885224
 33
0.0
  0
SOLID
  5
3CA
330
2CD
100
AcDbEntity
  8
ADPDIM
  6
Continuous
 62
     0
100
AcDbTrace
 10
0.9350580477977425
 20
62.11212500885224
 30
0.0
 11
0.9350580477977425
 21
62.05212500885224
 31
0.0
 12
0.7550580477977426
 22
62.08212500885224
 32
0.0
 13
0.7550580477977426
 23
62.08212500885224
 33
0.0
  0
MTEXT
  5
3CB
330
2CD
100
AcDbEntity
  8
ADPDIM
  6
Continuous
 62
     0
100
AcDbMText
 10
0.402708398198147
 20
62.08212500885224
 30
0.0
 40
0.125
 41
0.0
 71
     5
 72
     1
  1
\A1;3/4
 73
     1
 44
1.0
1001
ACAD
1000
MTEXTBEGIN
1070
    73
1070
     1
1070
    44
1040
1.0
1070
    74
1070
     0
1000
MTEXTEND
  0
POINT
  5
3CC
330
2CD
100
AcDbEntity
  8
Defpoints
  6
Continuous
 62
     0
100
AcDbPoint
 10
0.0050580477977427
 20
61.54216850908126
 30
0.0
  0
POINT
  5
3CD
330
2CD
100
AcDbEntity
  8
Defpoints
  6
Continuous
 62
     0
100
AcDbPoint
 10
0.7550580477977426
 20
61.54216850908126
 30
0.0
  0
POINT
  5
3CE
330
2CD
100
AcDbEntity
  8
Defpoints
  6
Continuous
 62
     0
100
AcDbPoint
 10
0.7550580477977426
 20
62.08212500885224
 30
0.0
  0
ENDBLK
  5
2D9
330
2CD
100
AcDbEntity
  8
0
 62
     3
100
AcDbBlockEnd
  0
BLOCK
  5
2E6
330
2DB
100
AcDbEntity
  8
0
 62
     3
100
AcDbBlockBegin
  2
*D1
 70
     1
 10
0.0
 20
0.0
 30
0.0
  3
*D1
  1

  0
LINE
  5
440
330
2DB
100
AcDbEntity
  8
ADPDIM
  6
Continuous
 62
     0
370
    -2
100
AcDbLine
 10
-0.1269705104544272
 20
61.4408572273836
 30
0.0
 11
-0.1269705104544272
 21
61.06425370433472
 31
0.0
  0
LINE
  5
441
330
2DB
100
AcDbEntity
  8
ADPDIM
  6
Continuous
 62
     0
370
    -2
100
AcDbLine
 10
-0.2519705104544272
 20
61.4408572273836
 30
0.0
 11
-0.2519705104544272
 21
61.06425370433472
 31
0.0
  0
LINE
  5
442
330
2DB
100
AcDbEntity
  8
ADPDIM
  6
Continuous
 62
     0
370
    -2
100
AcDbLine
 10
0.0530294895455728
 20
61.24425370433471
 30
0.0
 11
0.2330294895455728
 21
61.24425370433471
 31
0.0
  0
LINE
  5
443
330
2DB
100
AcDbEntity
  8
ADPDIM
  6
Continuous
 62
     0
370
    -2
100
AcDbLine
 10
-0.4319705104544272
 20
61.24425370433471
 30
0.0
 11
-0.6119705104544271
 21
61.24425370433471
 31
0.0
  0
SOLID
  5
444
330
2DB
100
AcDbEntity
  8
ADPDIM
  6
Continuous
 62
     0
100
AcDbTrace
 10
0.0530294895455728
 20
61.27425370433472
 30
0.0
 11
0.0530294895455728
 21
61.21425370433471
 31
0.0
 12
-0.1269705104544272
 22
61.24425370433471
 32
0.0
 13
-0.1269705104544272
 23
61.24425370433471
 33
0.0
  0
SOLID
  5
445
330
2DB
100
AcDbEntity
  8
ADPDIM
  6
Continuous
 62
     0
100
AcDbTrace
 10
-0.4319705104544272
 20
61.27425370433472
 30
0.0
 11
-0.4319705104544272
 21
61.21425370433471
 31
0.0
 12
-0.2519705104544272
 22
61.24425370433471
 32
0.0
 13
-0.2519705104544272
 23
61.24425370433471
 33
0.0
  0
MTEXT
  5
446
330
2DB
100
AcDbEntity
  8
ADPDIM
  6
Continuous
 62
     0
100
AcDbMText
 10
-0.8478038437877604
 20
61.24425370433471
 30
0.0
 40
0.125
 41
0.0
 71
     5
 72
     1
  1
\A1;1/8
 73
     1
 44
1.0
1001
ACAD
1000
MTEXTBEGIN
1070
    73
1070
     1
1070
    44
1040
1.0
1070
    74
1070
     0
1000
MTEXTEND
  0
POINT
  5
447
330
2DB
100
AcDbEntity
  8
Defpoints
  6
Continuous
 62
     0
100
AcDbPoint
 10
-0.1269705104544272
 20
61.50335722738359
 30
0.0
  0
POINT
  5
448
330
2DB
100
AcDbEntity
  8
Defpoints
  6
Continuous
 62
     0
100
AcDbPoint
 10
-0.2519705104544272
 20
61.50335722738359
 30
0.0
  0
POINT
  5
449
330
2DB
100
AcDbEntity
  8
Defpoints
  6
Continuous
 62
     0
100
AcDbPoint
 10
-0.2519705104544272
 20
61.24425370433471
 30
0.0
  0
ENDBLK
  5
2E7
330
2DB
100
AcDbEntity
  8
0
 62
     3
100
AcDbBlockEnd
  0
BLOCK
  5
2F5
330
2E9
100
AcDbEntity
  8
0
 62
     3
100
AcDbBlockBegin
  2
*D2
 70
     1
 10
0.0
 20
0.0
 30
0.0
  3
*D2
  1

  0
LINE
  5
3D9
330
2E9
100
AcDbEntity
  8
ADPDIM
  6
Continuous
 62
     0
370
    -2
100
AcDbLine
 10
0.7239918876499516
 20
61.58726100187921
 30
0.0
 11
1.423987912391001
 21
61.58726100187921
 31
0.0
  0
LINE
  5
3DA
330
2E9
100
AcDbEntity
  8
ADPDIM
  6
Continuous
 62
     0
370
    -2
100
AcDbLine
 10
0.7239918876499516
 20
60.96226100187921
 30
0.0
 11
1.423987912391001
 21
60.96226100187921
 31
0.0
  0
LINE
  5
3DB
330
2E9
100
AcDbEntity
  8
ADPDIM
  6
Continuous
 62
     0
370
    -2
100
AcDbLine
 10
1.243987912391001
 20
61.76726100187921
 30
0.0
 11
1.243987912391001
 21
61.94726100187921
 31
0.0
  0
LINE
  5
3DC
330
2E9
100
AcDbEntity
  8
ADPDIM
  6
Continuous
 62
     0
370
    -2
100
AcDbLine
 10
1.243987912391001
 20
60.78226100187921
 30
0.0
 11
1.243987912391001
 21
60.60226100187922
 31
0.0
  0
SOLID
  5
3DD
330
2E9
100
AcDbEntity
  8
ADPDIM
  6
Continuous
 62
     0
100
AcDbTrace
 10
1.213987912391001
 20
61.76726100187921
 30
0.0
 11
1.273987912391001
 21
61.76726100187921
 31
0.0
 12
1.243987912391001
 22
61.58726100187921
 32
0.0
 13
1.243987912391001
 23
61.58726100187921
 33
0.0
  0
SOLID
  5
3DE
330
2E9
100
AcDbEntity
  8
ADPDIM
  6
Continuous
 62
     0
100
AcDbTrace
 10
1.213987912391001
 20
60.78226100187921
 30
0.0
 11
1.273987912391001
 21
60.78226100187921
 31
0.0
 12
1.243987912391001
 22
60.96226100187921
 32
0.0
 13
1.243987912391001
 23
60.96226100187921
 33
0.0
  0
MTEXT
  5
3DF
330
2E9
100
AcDbEntity
  8
ADPDIM
  6
Continuous
 62
     0
100
AcDbMText
 10
1.243987912390991
 20
61.26745551183244
 30
0.0
 40
0.125
 41
0.0
 71
     5
 72
     1
  1
\A1;5/8
 73
     1
 44
1.0
1001
ACAD
1000
MTEXTBEGIN
1070
    73
1070
     1
1070
    44
1040
1.0
1070
    74
1070
     0
1000
MTEXTEND
  0
POINT
  5
3E0
330
2E9
100
AcDbEntity
  8
Defpoints
  6
Continuous
 62
     0
100
AcDbPoint
 10
0.6614918876499516
 20
61.58726100187921
 30
0.0
  0
POINT
  5
3E1
330
2E9
100
AcDbEntity
  8
Defpoints
  6
Continuous
 62
     0
100
AcDbPoint
 10
0.6614918876499516
 20
60.96226100187921
 30
0.0
  0
POINT
  5
3E2
330
2E9
100
AcDbEntity
  8
Defpoints
  6
Continuous
 62
     0
100
AcDbPoint
 10
1.243987912391001
 20
60.96226100187921
 30
0.0
  0
ENDBLK
  5
2F6
330
2E9
100
AcDbEntity
  8
0
 62
     3
100
AcDbBlockEnd
  0
BLOCK
  5
303
330
2F8
100
AcDbEntity
  8
0
 62
     3
100
AcDbBlockBegin
  2
*D3
 70
     1
 10
0.0
 20
0.0
 30
0.0
  3
*D3
  1

  0
LINE
  5
3ED
330
2F8
100
AcDbEntity
  8
ADPDIM
  6
Continuous
 62
     0
370
    -2
100
AcDbLine
 10
0.1296054908170667
 20
60.95262222880236
 30
0.0
 11
0.1296054908170667
 21
60.51926382538663
 31
0.0
  0
LINE
  5
3EE
330
2F8
100
AcDbEntity
  8
ADPDIM
  6
Continuous
 62
     0
370
    -2
100
AcDbLine
 10
0.6296054908170668
 20
60.95262222880236
 30
0.0
 11
0.6296054908170668
 21
60.51926382538663
 31
0.0
  0
LINE
  5
3EF
330
2F8
100
AcDbEntity
  8
ADPDIM
  6
Continuous
 62
     0
370
    -2
100
AcDbLine
 10
-0.0503945091829333
 20
60.69926382538663
 30
0.0
 11
-0.2303945091829333
 21
60.69926382538663
 31
0.0
  0
LINE
  5
3F0
330
2F8
100
AcDbEntity
  8
ADPDIM
  6
Continuous
 62
     0
370
    -2
100
AcDbLine
 10
0.8096054908170666
 20
60.69926382538663
 30
0.0
 11
0.9896054908170667
 21
60.69926382538663
 31
0.0
  0
SOLID
  5
3F1
330
2F8
100
AcDbEntity
  8
ADPDIM
  6
Continuous
 62
     0
100
AcDbTrace
 10
-0.0503945091829333
 20
60.72926382538663
 30
0.0
 11
-0.0503945091829333
 21
60.66926382538663
 31
0.0
 12
0.1296054908170667
 22
60.69926382538663
 32
0.0
 13
0.1296054908170667
 23
60.69926382538663
 33
0.0
  0
SOLID
  5
3F2
330
2F8
100
AcDbEntity
  8
ADPDIM
  6
Continuous
 62
     0
100
AcDbTrace
 10
0.8096054908170666
 20
60.72926382538663
 30
0.0
 11
0.8096054908170666
 21
60.66926382538663
 31
0.0
 12
0.6296054908170668
 22
60.69926382538663
 32
0.0
 13
0.6296054908170668
 23
60.69926382538663
 33
0.0
  0
MTEXT
  5
3F3
330
2F8
100
AcDbEntity
  8
ADPDIM
  6
Continuous
 62
     0
100
AcDbMText
 10
0.3796054908170667
 20
60.69926382538663
 30
0.0
 40
0.125
 41
0.0
 71
     5
 72
     1
  1
\A1;1/2
 73
     1
 44
1.0
1001
ACAD
1000
MTEXTBEGIN
1070
    73
1070
     1
1070
    44
1040
1.0
1070
    74
1070
     0
1000
MTEXTEND
  0
POINT
  5
3F4
330
2F8
100
AcDbEntity
  8
Defpoints
  6
Continuous
 62
     0
100
AcDbPoint
 10
0.1296054908170667
 20
61.01512222880235
 30
0.0
  0
POINT
  5
3F5
330
2F8
100
AcDbEntity
  8
Defpoints
  6
Continuous
 62
     0
100
AcDbPoint
 10
0.6296054908170668
 20
61.01512222880235
 30
0.0
  0
POINT
  5
3F6
330
2F8
100
AcDbEntity
  8
Defpoints
  6
Continuous
 62
     0
100
AcDbPoint
 10
0.6296054908170668
 20
60.69926382538663
 30
0.0
  0
ENDBLK
  5
304
330
2F8
100
AcDbEntity
  8
0
 62
     3
100
AcDbBlockEnd
  0
BLOCK
  5
426
330
41B
100
AcDbEntity
  8
0
 62
     3
100
AcDbBlockBegin
  2
*D4
 70
     1
 10
0.0
 20
0.0
 30
0.0
  3
*D4
  1

  0
LINE
  5
482
330
41B
100
AcDbEntity
  8
ADPDIM
  6
Continuous
 62
     0
370
    -2
100
AcDbLine
 10
0.7366374954934259
 20
61.60083192711375
 30
0.0
 11
0.7366374954934259
 21
62.18822486978042
 31
0.0
  0
LINE
  5
483
330
41B
100
AcDbEntity
  8
ADPDIM
  6
Continuous
 62
     0
370
    -2
100
AcDbLine
 10
-0.2633625045065742
 20
61.60083192711375
 30
0.0
 11
-0.2633625045065741
 21
62.18822486978042
 31
0.0
  0
LINE
  5
484
330
41B
100
AcDbEntity
  8
ADPDIM
  6
Continuous
 62
     0
370
    -2
100
AcDbLine
 10
0.556637495493426
 20
62.00822486978042
 30
0.0
 11
0.3474708288267592
 21
62.00822486978042
 31
0.0
  0
LINE
  5
485
330
41B
100
AcDbEntity
  8
ADPDIM
  6
Continuous
 62
     0
370
    -2
100
AcDbLine
 10
-0.0833625045065741
 20
62.00822486978042
 30
0.0
 11
0.1258041621600925
 21
62.00822486978042
 31
0.0
  0
SOLID
  5
486
330
41B
100
AcDbEntity
  8
ADPDIM
  6
Continuous
 62
     0
100
AcDbTrace
 10
0.556637495493426
 20
62.03822486978042
 30
0.0
 11
0.556637495493426
 21
61.97822486978042
 31
0.0
 12
0.7366374954934259
 22
62.00822486978042
 32
0.0
 13
0.7366374954934259
 23
62.00822486978042
 33
0.0
  0
SOLID
  5
487
330
41B
100
AcDbEntity
  8
ADPDIM
  6
Continuous
 62
     0
100
AcDbTrace
 10
-0.0833625045065741
 20
62.03822486978042
 30
0.0
 11
-0.0833625045065741
 21
61.97822486978042
 31
0.0
 12
-0.2633625045065741
 22
62.00822486978042
 32
0.0
 13
-0.2633625045065741
 23
62.00822486978042
 33
0.0
  0
MTEXT
  5
488
330
41B
100
AcDbEntity
  8
ADPDIM
  6
Continuous
 62
     0
100
AcDbMText
 10
0.2366374954934259
 20
62.00822486978042
 30
0.0
 40
0.125
 41
0.0
 71
     5
 72
     1
  1
\A1;1
 73
     1
 44
1.0
1001
ACAD
1000
MTEXTBEGIN
1070
    73
1070
     1
1070
    44
1040
1.0
1070
    74
1070
     0
1000
MTEXTEND
  0
POINT
  5
489
330
41B
100
AcDbEntity
  8
Defpoints
  6
Continuous
 62
     0
100
AcDbPoint
 10
0.7366374954934259
 20
61.53833192711374
 30
0.0
  0
POINT
  5
48A
330
41B
100
AcDbEntity
  8
Defpoints
  6
Continuous
 62
     0
100
AcDbPoint
 10
-0.2633625045065742
 20
61.53833192711374
 30
0.0
  0
POINT
  5
48B
330
41B
100
AcDbEntity
  8
Defpoints
  6
Continuous
 62
     0
100
AcDbPoint
 10
-0.2633625045065741
 20
62.00822486978042
 30
0.0
  0
ENDBLK
  5
427
330
41B
100
AcDbEntity
  8
0
 62
     3
100
AcDbBlockEnd
  0
BLOCK
  5
434
330
429
100
AcDbEntity
  8
0
 62
     3
100
AcDbBlockBegin
  2
*D5
 70
     1
 10
0.0
 20
0.0
 30
0.0
  3
*D5
  1

  0
LINE
  5
478
330
429
100
AcDbEntity
  8
ADPDIM
  6
Continuous
 62
     0
370
    -2
100
AcDbLine
 10
0.6243520847181437
 20
60.92127501670232
 30
0.0
 11
0.6243520847181437
 21
60.50523972039146
 31
0.0
  0
LINE
  5
479
330
429
100
AcDbEntity
  8
ADPDIM
  6
Continuous
 62
     0
370
    -2
100
AcDbLine
 10
-0.1256479152818564
 20
60.92127501670232
 30
0.0
 11
-0.1256479152818564
 21
60.50523972039146
 31
0.0
  0
LINE
  5
47A
330
429
100
AcDbEntity
  8
ADPDIM
  6
Continuous
 62
     0
370
    -2
100
AcDbLine
 10
0.4443520847181437
 20
60.68523972039145
 30
0.0
 11
0.0543520847181436
 21
60.68523972039145
 31
0.0
  0
LINE
  5
47B
330
429
100
AcDbEntity
  8
ADPDIM
  6
Continuous
 62
     0
370
    -2
100
AcDbLine
 10
-0.1256479152818564
 20
60.68523972039145
 30
0.0
 11
-0.3056479152818563
 21
60.68523972039145
 31
0.0
  0
SOLID
  5
47C
330
429
100
AcDbEntity
  8
ADPDIM
  6
Continuous
 62
     0
100
AcDbTrace
 10
0.4443520847181437
 20
60.71523972039146
 30
0.0
 11
0.4443520847181437
 21
60.65523972039145
 31
0.0
 12
0.6243520847181437
 22
60.68523972039145
 32
0.0
 13
0.6243520847181437
 23
60.68523972039145
 33
0.0
  0
SOLID
  5
47D
330
429
100
AcDbEntity
  8
ADPDIM
  6
Continuous
 62
     0
100
AcDbTrace
 10
0.0543520847181436
 20
60.71523972039146
 30
0.0
 11
0.0543520847181436
 21
60.65523972039145
 31
0.0
 12
-0.1256479152818564
 22
60.68523972039145
 32
0.0
 13
-0.1256479152818564
 23
60.68523972039145
 33
0.0
  0
MTEXT
  5
47E
330
429
100
AcDbEntity
  8
ADPDIM
  6
Continuous
 62
     0
100
AcDbMText
 10
-0.562314581948523
 20
60.68523972039145
 30
0.0
 40
0.125
 41
0.0
 71
     5
 72
     1
  1
\A1;3/4
 73
     1
 44
1.0
1001
ACAD
1000
MTEXTBEGIN
1070
    73
1070
     1
1070
    44
1040
1.0
1070
    74
1070
     0
1000
MTEXTEND
  0
POINT
  5
47F
330
429
100
AcDbEntity
  8
Defpoints
  6
Continuous
 62
     0
100
AcDbPoint
 10
0.6243520847181437
 20
60.98377501670232
 30
0.0
  0
POINT
  5
480
330
429
100
AcDbEntity
  8
Defpoints
  6
Continuous
 62
     0
100
AcDbPoint
 10
-0.1256479152818564
 20
60.98377501670232
 30
0.0
  0
POINT
  5
481
330
429
100
AcDbEntity
  8
Defpoints
  6
Continuous
 62
     0
100
AcDbPoint
 10
-0.1256479152818564
 20
60.68523972039145
 30
0.0
  0
ENDBLK
  5
435
330
429
100
AcDbEntity
  8
0
 62
     3
100
AcDbBlockEnd
  0
ENDSEC
  0
SECTION
  2
ENTITIES
  0
ARC
  5
2D
330
A
100
AcDbEntity
  8
0
  6
Continuous
 48
2.0
100
AcDbCircle
 10
0.2275833575908175
 20
61.56445061917146
 30
0.0000000000291038
 40
0.0270215977642252
210
0.0
220
0.0
230
-1.0
100
AcDbArc
 50
0.0
 51
90.0
  0
ARC
  5
2E
330
A
100
AcDbEntity
  8
0
  6
Continuous
 48
2.0
100
AcDbCircle
 10
-0.703729550673909
 20
61.55566534362185
 30
0.0000000000291038
 40
0.0347682558144319
210
0.0
220
0.0
230
-1.0
100
AcDbArc
 50
73.44292862437612
 51
163.4429286243649
  0
ARC
  5
2F
330
A
100
AcDbEntity
  8
0
  6
Continuous
 48
2.0
100
AcDbCircle
 10
-0.6995110054232066
 20
61.01394223677353
 30
0.0000000000291038
 40
0.03607380490287
210
0.0
220
0.0
230
-1.0
100
AcDbArc
 50
177.1375947738843
 51
267.1375947738908
  0
LWPOLYLINE
  5
30
330
A
100
AcDbEntity
  8
0
  6
Continuous
 48
2.0
100
AcDbPolyline
 90
        2
 70
   128
 43
0.0
 10
0.700104973555469
 20
60.97797836310258
 10
0.6266146229778393
 20
60.97797836310257
  0
LWPOLYLINE
  5
34
330
A
100
AcDbEntity
  8
0
  6
Continuous
 48
2.0
100
AcDbPolyline
 90
        2
 70
   128
 43
0.0
 10
-0.2548224589259538
 20
61.56560478734239
 10
-0.254822458925954
 20
60.98890492692737
  0
LWPOLYLINE
  5
38
330
A
100
AcDbEntity
  8
0
  6
Continuous
 48
2.0
100
AcDbPolyline
 90
        5
 70
   128
 43
0.0
 10
0.6266146229778393
 20
60.97797836310257
 10
0.6266146229778393
 20
61.4740780095551
 10
-0.1246988643669376
 20
61.4740780095551
 10
-0.1246988643669376
 20
60.9709414886848
 10
-0.2359562591638776
 20
60.9709414886848
  0
ARC
  5
3F
330
A
100
AcDbEntity
  8
0
  6
Continuous
 48
2.0
100
AcDbCircle
 10
0.2368629535285898
 20
60.98994836354837
 30
0.0
 40
0.0169492305308448
210
0.0
220
0.0
230
-1.0
100
AcDbArc
 50
266.9335144988693
 51
356.9335144988586
  0
LWPOLYLINE
  5
40
330
A
100
AcDbEntity
  8
0
  6
Continuous
 48
2.0
100
AcDbPolyline
 90
        2
 70
   128
 43
0.0
 10
0.7370239491670261
 20
61.00688987207607
 10
0.7370239491670261
 20
61.56703984687212
  0
LWPOLYLINE
  5
44
330
A
100
AcDbEntity
  8
0
  6
Continuous
 48
2.0
100
AcDbPolyline
 90
        2
 70
   128
 43
0.0
 10
-0.2275833575908175
 20
61.58868200498924
 10
0.7039241779290784
 20
61.58868200498924
  0
TEXT
  5
A2
330
A
100
AcDbEntity
  8
ADPDIM
100
AcDbText
 10
-2.89248418297778
 20
60.21864750162587
 30
0.0
 40
0.0625
  1
J U L I U S  B L U M  &  C O . ,  I N C .      ( 8 0 0 )  5 2 6 - 6 2 9 3        W W W . J U L I U S B L U M . C O M        P A R T  N o .  8 7 1 6
 41
1.25
  7
ARIAL_WIDE
 72
     1
 11
0.3703803293005279
 21
60.28114750162586
 31
0.0
100
AcDbText
 73
     3
  0
DIMENSION
  5
2DA
330
A
100
AcDbEntity
  8
ADPDIM
  6
Continuous
 62
     3
100
AcDbDimension
  2
*D1
 10
-0.2519705104544272
 20
61.24425370433471
 30
0.0
 11
-0.8478038437877604
 21
61.24425370433471
 31
0.0
 70
    32
 71
     5
 42
0.125
  3
STANDARD
100
AcDbAlignedDimension
 13
-0.1269705104544272
 23
61.50335722738359
 33
0.0
 14
-0.2519705104544272
 24
61.50335722738359
 34
0.0
100
AcDbRotatedDimension
1001
ACAD
1000
DSTYLE
1002
{
1070
   140
1040
0.125
1070
   276
1070
     2
1070
   277
1070
     5
1070
   289
1070
     3
1002
}
  0
DIMENSION
  5
2E8
330
A
100
AcDbEntity
  8
ADPDIM
  6
Continuous
 62
     3
100
AcDbDimension
  2
*D2
 10
1.243987912391001
 20
60.96226100187921
 30
0.0
 11
1.243987912390991
 21
61.26745551183244
 31
0.0
 70
   160
 71
     5
 42
0.625
  3
STANDARD
100
AcDbAlignedDimension
 13
0.6614918876499516
 23
61.58726100187921
 33
0.0
 14
0.6614918876499516
 24
60.96226100187921
 34
0.0
 50
90.0
100
AcDbRotatedDimension
1001
ACAD
1000
DSTYLE
1002
{
1070
   140
1040
0.125
1070
   276
1070
     2
1070
   277
1070
     5
1070
   289
1070
     3
1002
}
  0
DIMENSION
  5
41A
330
A
100
AcDbEntity
  8
ADPDIM
  6
Continuous
 62
     3
100
AcDbDimension
  2
*D4
 10
-0.2633625045065741
 20
62.00822486978042
 30
0.0
 11
0.2366374954934259
 21
62.00822486978042
 31
0.0
 70
    32
 71
     5
  3
STANDARD
100
AcDbAlignedDimension
 13
0.7366374954934259
 23
61.53833192711374
 33
0.0
 14
-0.2633625045065742
 24
61.53833192711374
 34
0.0
100
AcDbRotatedDimension
1001
ACAD
1000
DSTYLE
1002
{
1070
   276
1070
     2
1070
   140
1040
0.125
1070
   277
1070
     5
1070
   289
1070
     3
1002
}
  0
DIMENSION
  5
428
330
A
100
AcDbEntity
  8
ADPDIM
  6
Continuous
 62
     3
100
AcDbDimension
  2
*D5
 10
-0.1256479152818564
 20
60.68523972039145
 30
0.0
 11
-0.562314581948523
 21
60.68523972039145
 31
0.0
 70
    32
 71
     5
 42
0.75
  3
STANDARD
100
AcDbAlignedDimension
 13
0.6243520847181437
 23
60.98377501670232
 33
0.0
 14
-0.1256479152818564
 24
60.98377501670232
 34
0.0
100
AcDbRotatedDimension
1001
ACAD
1000
DSTYLE
1002
{
1070
   276
1070
     2
1070
   140
1040
0.125
1070
   277
1070
     5
1070
   289
1070
     3
1002
}
  0
ENDSEC
  0
SECTION
  2
OBJECTS
  0
DICTIONARY
  5
19
330
0
100
AcDbDictionary
281
     1
  3
ACAD_COLOR
350
2C5
  3
ACAD_GROUP
350
1A
  3
ACAD_LAYOUT
350
99
  3
ACAD_MATERIAL
350
2B0
  3
ACAD_MLINESTYLE
350
1B
  3
ACAD_PLOTSETTINGS
350
9A
  3
ACAD_PLOTSTYLENAME
350
97
  3
ACAD_TABLESTYLE
350
2C6
  3
ACAD_VISUALSTYLE
350
2B4
  3
AcDbVariableDictionary
350
100
  3
ASE_INDEX_DICTIONARY
350
3F8
  3
DWGPROPS
350
4A2
  0
DICTIONARY
  5
3FC
330
7
100
AcDbDictionary
280
     1
281
     1
  0
DICTIONARY
  5
F6
330
A
100
AcDbDictionary
280
     1
281
     1
  3
ACAD_LAYOUTSELFREF
360
2A5
  0
DICTIONARY
  5
F8
330
B
100
AcDbDictionary
280
     1
281
     1
  3
ACAD_LAYOUTSELFREF
360
2A6
  0
DICTIONARY
  5
2C5
102
{ACAD_REACTORS
330
19
102
}
330
19
100
AcDbDictionary
281
     1
  0
DICTIONARY
  5
1A
102
{ACAD_REACTORS
330
19
102
}
330
19
100
AcDbDictionary
281
     1
  0
DICTIONARY
  5
99
102
{ACAD_REACTORS
330
19
102
}
330
19
100
AcDbDictionary
281
     1
  3
Layout1
350
9C
  3
Model
350
9B
  0
DICTIONARY
  5
2B0
102
{ACAD_REACTORS
330
19
102
}
330
19
100
AcDbDictionary
281
     1
  3
ByBlock
350
2B2
  3
ByLayer
350
2B1
  3
Global
350
2B3
  0
DICTIONARY
  5
1B
102
{ACAD_REACTORS
330
19
102
}
330
19
100
AcDbDictionary
281
     1
  3
STANDARD
350
1C
  0
DICTIONARY
  5
9A
102
{ACAD_REACTORS
330
19
102
}
330
19
100
AcDbDictionary
281
     1
  0
ACDBDICTIONARYWDFLT
  5
97
102
{ACAD_REACTORS
330
19
102
}
330
19
100
AcDbDictionary
281
     1
  3
Normal
350
98
100
AcDbDictionaryWithDefault
340
98
  0
DICTIONARY
  5
2C6
102
{ACAD_REACTORS
330
19
102
}
330
19
100
AcDbDictionary
281
     1
  3
Standard
350
2C7
  0
DICTIONARY
  5
2B4
102
{ACAD_REACTORS
330
19
102
}
330
19
100
AcDbDictionary
281
     1
  3
2dWireframe
350
2BA
  3
3D Hidden
350
2BC
  3
3dWireframe
350
2BB
  3
Basic
350
2B9
  3
Brighten
350
2C0
  3
ColorChange
350
2C4
  3
Conceptual
350
2BD
  3
Dim
350
2BF
  3
Facepattern
350
2C3
  3
Flat
350
2B5
  3
FlatWithEdges
350
2B6
  3
Gouraud
350
2B7
  3
GouraudWithEdges
350
2B8
  3
Linepattern
350
2C2
  3
Realistic
350
2BE
  3
Thicken
350
2C1
  0
DICTIONARY
  5
100
102
{ACAD_REACTORS
330
19
102
}
330
19
100
AcDbDictionary
281
     1
  3
CTABLESTYLE
350
412
  3
DIMASSOC
350
101
  3
INDEXCTL
350
414
  3
SORTENTS
350
413
  0
DICTIONARY
  5
3F8
102
{ACAD_REACTORS
330
19
102
}
330
19
100
AcDbDictionary
281
     1
  3
ASEBlockHierarchyIndexRecord
350
3FA
1001
DCO15
1040
1568830471.813
  0
XRECORD
  5
4A2
102
{ACAD_REACTORS
330
19
102
}
330
19
100
AcDbXrecord
280
     1
  1
DWGPROPS COOKIE
  2

  3

  4

  6

  7

  8
Yu Hu
  9

300
=
301
=
302
=
303
=
304
=
305
=
306
=
307
=
308
=
309
=
 40
0.0119867939814815
 41
2444971.791666667
 42
2453960.97194228
  1

 90
        0
  0
XRECORD
  5
2A5
102
{ACAD_REACTORS
330
F6
102
}
330
F6
100
AcDbXrecord
280
     1
340
A
  0
XRECORD
  5
2A6
102
{ACAD_REACTORS
330
F8
102
}
330
F8
100
AcDbXrecord
280
     1
340
B
  0
LAYOUT
  5
9C
102
{ACAD_XDICTIONARY
360
4A5
102
}
102
{ACAD_REACTORS
330
99
102
}
330
99
100
AcDbPlotSettings
  1

  2
Fax
  4

  6

 40
0.0
 41
0.0
 42
0.0
 43
0.0
 44
0.0
 45
0.0
 46
0.0
 47
0.0
 48
0.0
 49
0.0
140
0.0
141
0.0
142
1.0
143
1.0
 70
   688
 72
     0
 73
     0
 74
     5
  7
Default R14 pen assignments.ctb
 75
    16
147
1.0
148
0.0
149
0.0
100
AcDbLayout
  1
Layout1
 70
     0
 71
     1
 10
0.0
 20
0.0
 11
12.0
 21
9.0
 12
0.0
 22
0.0
 32
0.0
 14
1.000000000000000E+20
 24
1.000000000000000E+20
 34
1.000000000000000E+20
 15
-1.000000000000000E+20
 25
-1.000000000000000E+20
 35
-1.000000000000000E+20
146
0.0
 13
0.0
 23
0.0
 33
0.0
 16
1.0
 26
0.0
 36
0.0
 17
0.0
 27
1.0
 37
0.0
 76
     0
330
B
  0
LAYOUT
  5
9B
102
{ACAD_XDICTIONARY
360
4A3
102
}
102
{ACAD_REACTORS
330
99
102
}
330
99
100
AcDbPlotSettings
  1

  2
Fax
  4

  6

 40
0.0
 41
0.0
 42
0.0
 43
0.0
 44
0.0
 45
0.0
 46
0.0
 47
0.0
 48
0.0
 49
0.0
140
0.0
141
0.0
142
1.0
143
1.0
 70
  1712
 72
     0
 73
     0
 74
     0
  7
Default R14 pen assignments.ctb
 75
     0
147
1.0
148
0.0
149
0.0
100
AcDbLayout
  1
Model
 70
     1
 71
     0
 10
0.0
 20
0.0
 11
12.0
 21
9.0
 12
0.0
 22
0.0
 32
0.0
 14
0.0
 24
0.0
 34
0.0
 15
0.0
 25
0.0
 35
0.0
146
0.0
 13
0.0
 23
0.0
 33
0.0
 16
1.0
 26
0.0
 36
0.0
 17
0.0
 27
1.0
 37
0.0
 76
     0
330
A
331
282
  0
MATERIAL
  5
2B2
102
{ACAD_XDICTIONARY
360
4A9
102
}
102
{ACAD_REACTORS
330
2B0
102
}
330
2B0
100
AcDbMaterial
  1
ByBlock
  0
MATERIAL
  5
2B1
102
{ACAD_XDICTIONARY
360
4A7
102
}
102
{ACAD_REACTORS
330
2B0
102
}
330
2B0
100
AcDbMaterial
  1
ByLayer
  0
MATERIAL
  5
2B3
102
{ACAD_XDICTIONARY
360
4AB
102
}
102
{ACAD_REACTORS
330
2B0
102
}
330
2B0
100
AcDbMaterial
  1
Global
  0
MLINESTYLE
  5
1C
102
{ACAD_REACTORS
330
1B
102
}
330
1B
100
AcDbMlineStyle
  2
STANDARD
 70
     0
  3

 62
     0
 51
90.00000000000019
 52
90.00000000000019
 71
     2
 49
0.5
 62
   256
  6
BYLAYER
 49
-0.5
 62
   256
  6
BYLAYER
  0
ACDBPLACEHOLDER
  5
98
102
{ACAD_REACTORS
330
97
102
}
330
97
  0
TABLESTYLE
  5
2C7
102
{ACAD_XDICTIONARY
360
4AD
102
}
102
{ACAD_REACTORS
330
2C6
102
}
330
2C6
100
AcDbTableStyle
  3
Standard
 70
     0
 71
     0
 40
0.06
 41
0.06
280
     0
281
     0
  7
STANDARD
140
0.18
170
     2
 62
     0
 63
     7
283
     0
274
    -2
284
     1
 64
     0
275
    -2
285
     1
 65
     0
276
    -2
286
     1
 66
     0
277
    -2
287
     1
 67
     0
278
    -2
288
     1
 68
     0
279
    -2
289
     1
 69
     0
  7
STANDARD
140
0.25
170
     5
 62
     0
 63
     7
283
     0
274
    -2
284
     1
 64
     0
275
    -2
285
     1
 65
     0
276
    -2
286
     1
 66
     0
277
    -2
287
     1
 67
     0
278
    -2
288
     1
 68
     0
279
    -2
289
     1
 69
     0
  7
STANDARD
140
0.18
170
     5
 62
     0
 63
     7
283
     0
274
    -2
284
     1
 64
     0
275
    -2
285
     1
 65
     0
276
    -2
286
     1
 66
     0
277
    -2
287
     1
 67
     0
278
    -2
288
     1
 68
     0
279
    -2
289
     1
 69
     0
  0
VISUALSTYLE
  5
2BA
102
{ACAD_REACTORS
330
2B4
102
}
330
2B4
100
AcDbVisualStyle
  2
2dWireframe
 70
     4
 71
     0
 72
     2
 73
     0
 90
        0
 40
-0.6
 41
-30.0
 62
     5
 63
     7
 74
     1
 91
        4
 64
     7
 65
   257
 75
     1
175
     1
 42
1.0
 92
        0
 66
   257
 43
1.0
 76
     1
 77
     6
 78
     2
 67
     7
 79
     5
170
     0
171
     0
290
     0
174
     0
 93
        1
 44
0.0
173
     0
291
     0
 45
0.0
1001
ACAD
1000
AcDbSavedByObjectVersion
1070
     0
  0
VISUALSTYLE
  5
2BC
102
{ACAD_REACTORS
330
2B4
102
}
330
2B4
100
AcDbVisualStyle
  2
3D Hidden
 70
     6
 71
     1
 72
     2
 73
     2
 90
        0
 40
-0.6
 41
-30.0
 62
     5
 63
     7
 74
     2
 91
        2
 64
     7
 65
   257
 75
     2
175
     1
 42
40.0
 92
        0
 66
   257
 43
1.0
 76
     1
 77
     6
 78
     2
 67
     7
 79
     3
170
     0
171
     0
290
     0
174
     0
 93
        1
 44
0.0
173
     0
291
     0
 45
0.0
1001
ACAD
1000
AcDbSavedByObjectVersion
1070
     0
  0
VISUALSTYLE
  5
2BB
102
{ACAD_REACTORS
330
2B4
102
}
330
2B4
100
AcDbVisualStyle
  2
3dWireframe
 70
     5
 71
     0
 72
     2
 73
     0
 90
        0
 40
-0.6
 41
-30.0
 62
     5
 63
     7
 74
     1
 91
        4
 64
     7
 65
   257
 75
     1
175
     1
 42
1.0
 92
        0
 66
   257
 43
1.0
 76
     1
 77
     6
 78
     2
 67
     7
 79
     5
170
     0
171
     0
290
     0
174
     0
 93
        1
 44
0.0
173
     0
291
     0
 45
0.0
1001
ACAD
1000
AcDbSavedByObjectVersion
1070
     0
  0
VISUALSTYLE
  5
2B9
102
{ACAD_REACTORS
330
2B4
102
}
330
2B4
100
AcDbVisualStyle
  2
Basic
 70
     7
 71
     1
 72
     0
 73
     1
 90
        0
 40
-0.6
 41
-30.0
 62
     5
 63
     7
 74
     0
 91
        4
 64
     7
 65
   257
 75
     1
175
     1
 42
1.0
 92
        8
 66
     7
 43
1.0
 76
     1
 77
     6
 78
     2
 67
     7
 79
     5
170
     0
171
     0
290
     0
174
     0
 93
        1
 44
0.0
173
     0
291
     1
 45
0.0
1001
ACAD
1000
AcDbSavedByObjectVersion
1070
     0
  0
VISUALSTYLE
  5
2C0
102
{ACAD_REACTORS
330
2B4
102
}
330
2B4
100
AcDbVisualStyle
  2
Brighten
 70
    12
 71
     2
 72
     2
 73
     0
 90
        0
 40
-0.6
 41
-30.0
 62
     5
 63
     7
 74
     1
 91
        4
 64
     7
 65
   257
 75
     1
175
     1
 42
1.0
 92
        8
 66
     7
 43
1.0
 76
     1
 77
     6
 78
     2
 67
     7
 79
     5
170
     0
171
     0
290
     0
174
     0
 93
        1
 44
50.0
173
     0
291
     1
 45
0.0
1001
ACAD
1000
AcDbSavedByObjectVersion
1070
     0
  0
VISUALSTYLE
  5
2C4
102
{ACAD_REACTORS
330
2B4
102
}
330
2B4
100
AcDbVisualStyle
  2
ColorChange
 70
    16
 71
     2
 72
     2
 73
     3
 90
        0
 40
-0.6
 41
-30.0
 62
     5
 63
     8
 74
     1
 91
        4
 64
     7
 65
   257
 75
     1
175
     1
 42
1.0
 92
        8
 66
     8
 43
1.0
 76
     1
 77
     6
 78
     2
 67
     7
 79
     5
170
     0
171
     0
290
     0
174
     0
 93
        1
 44
0.0
173
     0
291
     1
 45
0.0
1001
ACAD
1000
AcDbSavedByObjectVersion
1070
     0
  0
VISUALSTYLE
  5
2BD
102
{ACAD_REACTORS
330
2B4
102
}
330
2B4
100
AcDbVisualStyle
  2
Conceptual
 70
     9
 71
     3
 72
     2
 73
     0
 90
        0
 40
-0.6
 41
-30.0
 62
     5
 63
     7
 74
     2
 91
        2
 64
     7
 65
   257
 75
     1
175
     1
 42
40.0
 92
        8
 66
     7
 43
1.0
 76
     1
 77
     6
 78
     2
 67
     7
 79
     3
170
     0
171
     0
290
     0
174
     0
 93
        1
 44
0.0
173
     0
291
     0
 45
0.0
1001
ACAD
1000
AcDbSavedByObjectVersion
1070
     0
  0
VISUALSTYLE
  5
2BF
102
{ACAD_REACTORS
330
2B4
102
}
330
2B4
100
AcDbVisualStyle
  2
Dim
 70
    11
 71
     2
 72
     2
 73
     0
 90
        0
 40
-0.6
 41
-30.0
 62
     5
 63
     7
 74
     1
 91
        4
 64
     7
 65
   257
 75
     1
175
     1
 42
1.0
 92
        8
 66
     7
 43
1.0
 76
     1
 77
     6
 78
     2
 67
     7
 79
     5
170
     0
171
     0
290
     0
174
     0
 93
        1
 44
-50.0
173
     0
291
     1
 45
0.0
1001
ACAD
1000
AcDbSavedByObjectVersion
1070
     0
  0
VISUALSTYLE
  5
2C3
102
{ACAD_REACTORS
330
2B4
102
}
330
2B4
100
AcDbVisualStyle
  2
Facepattern
 70
    15
 71
     2
 72
     2
 73
     0
 90
        0
 40
-0.6
 41
-30.0
 62
     5
 63
     7
 74
     1
 91
        4
 64
     7
 65
   257
 75
     1
175
     1
 42
1.0
 92
        8
 66
     7
 43
1.0
 76
     1
 77
     6
 78
     2
 67
     7
 79
     5
170
     0
171
     0
290
     0
174
     0
 93
        1
 44
0.0
173
     0
291
     1
 45
0.0
1001
ACAD
1000
AcDbSavedByObjectVersion
1070
     0
  0
VISUALSTYLE
  5
2B5
102
{ACAD_REACTORS
330
2B4
102
}
330
2B4
100
AcDbVisualStyle
  2
Flat
 70
     0
 71
     2
 72
     1
 73
     1
 90
        2
 40
-0.6
 41
30.0
 62
     5
 63
     7
 74
     0
 91
        4
 64
     7
 65
   257
 75
     1
175
     1
 42
1.0
 92
        8
 66
     7
 43
1.0
 76
     1
 77
     6
 78
     2
 67
     7
 79
     5
170
     0
171
     0
290
     0
174
     0
 93
       13
 44
0.0
173
     0
291
     1
 45
0.0
1001
ACAD
1000
AcDbSavedByObjectVersion
1070
     0
  0
VISUALSTYLE
  5
2B6
102
{ACAD_REACTORS
330
2B4
102
}
330
2B4
100
AcDbVisualStyle
  2
FlatWithEdges
 70
     1
 71
     2
 72
     1
 73
     1
 90
        2
 40
-0.6
 41
30.0
 62
     5
 63
     7
 74
     1
 91
        4
 64
     7
 65
   257
 75
     1
175
     1
 42
1.0
 92
        0
 66
   257
 43
1.0
 76
     1
 77
     6
 78
     2
 67
     7
 79
     5
170
     0
171
     0
290
     0
174
     0
 93
       13
 44
0.0
173
     0
291
     1
 45
0.0
1001
ACAD
1000
AcDbSavedByObjectVersion
1070
     0
  0
VISUALSTYLE
  5
2B7
102
{ACAD_REACTORS
330
2B4
102
}
330
2B4
100
AcDbVisualStyle
  2
Gouraud
 70
     2
 71
     2
 72
     2
 73
     1
 90
        2
 40
-0.6
 41
30.0
 62
     5
 63
     7
 74
     0
 91
        4
 64
     7
 65
   257
 75
     1
175
     1
 42
1.0
 92
        0
 66
     7
 43
1.0
 76
     1
 77
     6
 78
     2
 67
     7
 79
     5
170
     0
171
     0
290
     0
174
     0
 93
       13
 44
0.0
173
     0
291
     1
 45
0.0
1001
ACAD
1000
AcDbSavedByObjectVersion
1070
     0
  0
VISUALSTYLE
  5
2B8
102
{ACAD_REACTORS
330
2B4
102
}
330
2B4
100
AcDbVisualStyle
  2
GouraudWithEdges
 70
     3
 71
     2
 72
     2
 73
     1
 90
        2
 40
-0.6
 41
30.0
 62
     5
 63
     7
 74
     1
 91
        4
 64
     7
 65
   257
 75
     1
175
     1
 42
1.0
 92
        0
 66
   257
 43
1.0
 76
     1
 77
     6
 78
     2
 67
     7
 79
     5
170
     0
171
     0
290
     0
174
     0
 93
       13
 44
0.0
173
     0
291
     1
 45
0.0
1001
ACAD
1000
AcDbSavedByObjectVersion
1070
     0
  0
VISUALSTYLE
  5
2C2
102
{ACAD_REACTORS
330
2B4
102
}
330
2B4
100
AcDbVisualStyle
  2
Linepattern
 70
    14
 71
     2
 72
     2
 73
     0
 90
        0
 40
-0.6
 41
-30.0
 62
     5
 63
     7
 74
     1
 91
        4
 64
     7
 65
   257
 75
     7
175
     7
 42
1.0
 92
        8
 66
     7
 43
1.0
 76
     1
 77
     6
 78
     2
 67
     7
 79
     5
170
     0
171
     0
290
     0
174
     0
 93
        1
 44
0.0
173
     0
291
     1
 45
0.0
1001
ACAD
1000
AcDbSavedByObjectVersion
1070
     0
  0
VISUALSTYLE
  5
2BE
102
{ACAD_REACTORS
330
2B4
102
}
330
2B4
100
AcDbVisualStyle
  2
Realistic
 70
     8
 71
     2
 72
     2
 73
     0
 90
        0
 40
-0.6
 41
-30.0
 62
     5
 63
     7
 74
     1
 91
        0
 64
     7
 65
   257
 75
     1
175
     1
 42
1.0
 92
        8
 66
     8
 43
1.0
 76
     1
 77
     6
 78
     2
 67
     7
 79
     5
170
     0
171
     0
290
     0
174
     0
 93
       13
 44
0.0
173
     0
291
     0
 45
0.0
1001
ACAD
1000
AcDbSavedByObjectVersion
1070
     0
  0
VISUALSTYLE
  5
2C1
102
{ACAD_REACTORS
330
2B4
102
}
330
2B4
100
AcDbVisualStyle
  2
Thicken
 70
    13
 71
     2
 72
     2
 73
     0
 90
        0
 40
-0.6
 41
-30.0
 62
     5
 63
     7
 74
     1
 91
        4
 64
     7
 65
   257
 75
     1
175
     1
 42
1.0
 92
       12
 66
     7
 43
1.0
 76
     1
 77
     6
 78
     2
 67
     7
 79
     5
170
     0
171
     0
290
     0
174
     0
 93
        1
 44
0.0
173
     0
291
     1
 45
0.0
1001
ACAD
1000
AcDbSavedByObjectVersion
1070
     0
  0
DICTIONARYVAR
  5
412
102
{ACAD_REACTORS
330
100
102
}
330
100
100
DictionaryVariables
280
     0
  1
STANDARD
  0
DICTIONARYVAR
  5
101
102
{ACAD_REACTORS
330
100
102
}
330
100
100
DictionaryVariables
280
     0
  1
1
  0
DICTIONARYVAR
  5
414
102
{ACAD_REACTORS
330
100
102
}
330
100
100
DictionaryVariables
280
     0
  1
0
  0
DICTIONARYVAR
  5
413
102
{ACAD_REACTORS
330
100
102
}
330
100
100
DictionaryVariables
280
     0
  1
127
  0
XRECORD
  5
3FA
102
{ACAD_REACTORS
330
3F8
102
}
330
3F8
100
AcDbXrecord
280
     1
  0
DICTIONARY
  5
4A5
330
9C
100
AcDbDictionary
280
     1
281
     1
  3
ACAD_XREC_ROUNDTRIP
360
4A6
  0
DICTIONARY
  5
4A3
330
9B
100
AcDbDictionary
280
     1
281
     1
  3
ACAD_XREC_ROUNDTRIP
360
4A4
  0
DICTIONARY
  5
4A9
330
2B2
100
AcDbDictionary
280
     1
281
     1
  3
ACAD_XREC_ROUNDTRIP
360
4AA
  0
DICTIONARY
  5
4A7
330
2B1
100
AcDbDictionary
280
     1
281
     1
  3
ACAD_XREC_ROUNDTRIP
360
4A8
  0
DICTIONARY
  5
4AB
330
2B3
100
AcDbDictionary
280
     1
281
     1
  3
ACAD_XREC_ROUNDTRIP
360
4AC
  0
DICTIONARY
  5
4AD
330
2C7
100
AcDbDictionary
280
     1
281
     1
  3
ACAD_XREC_ROUNDTRIP
360
4AE
  0
XRECORD
  5
4A6
102
{ACAD_REACTORS
330
4A5
102
}
330
4A5
100
AcDbXrecord
280
     1
102
SHADEPLOT
 70
     0
102
SHADEPLOTRESLEVEL
 70
     2
102
SHADEPLOTCUSTOMDPI
 70
   300
  0
XRECORD
  5
4A4
102
{ACAD_REACTORS
330
4A3
102
}
330
4A3
100
AcDbXrecord
280
     1
102
SHADEPLOT
 70
     0
102
SHADEPLOTRESLEVEL
 70
     2
102
SHADEPLOTCUSTOMDPI
 70
   300
  0
XRECORD
  5
4AA
102
{ACAD_REACTORS
330
4A9
102
}
330
4A9
100
AcDbXrecord
280
     1
102
MATERIAL
148
0.0
149
0.0
149
0.0
 93
        0
 94
       63
282
     0
 72
     1
 77
     1
171
     1
175
     1
179
     1
273
     0
  0
XRECORD
  5
4A8
102
{ACAD_REACTORS
330
4A7
102
}
330
4A7
100
AcDbXrecord
280
     1
102
MATERIAL
148
0.0
149
0.0
149
0.0
 93
        0
 94
       63
282
     0
 72
     1
 77
     1
171
     1
175
     1
179
     1
273
     0
  0
XRECORD
  5
4AC
102
{ACAD_REACTORS
330
4AB
102
}
330
4AB
100
AcDbXrecord
280
     1
102
MATERIAL
148
0.0
149
0.0
149
0.0
 93
        0
 94
       63
282
     0
 72
     1
 77
     1
171
     1
175
     1
179
     1
273
     0
  0
XRECORD
  5
4AE
102
{ACAD_REACTORS
330
4AD
102
}
330
4AD
100
AcDbXrecord
280
     1
102
ACAD_ROUNDTRIP_PRE2007_TABLESTYLE
 90
      512
 91
        0
  1

 92
      512
 93
        0
  2

 94
      512
 95
        0
  3

  0
ENDSEC
  0
EOF
