  0
SECTION
  2
HEADER
  9
$ACADVER
  1
AC1014
  9
$ACADMAINTVER
 70
     9
  9
$DWGCODEPAGE
  3
ANSI_1252
  9
$INSBASE
 10
-12.40109658000282
 20
20.99742627282002
 30
0.0
  9
$EXTMIN
 10
-18.72944204795542
 20
19.83191129152022
 30
0.0
  9
$EXTMAX
 10
-9.077380741679846
 20
22.32885692582984
 30
0.0
  9
$LIMMIN
 10
0.0
 20
0.0
  9
$LIMMAX
 10
36.0
 20
36.0
  9
$ORTHOMODE
 70
     1
  9
$REGENMODE
 70
     1
  9
$FILLMODE
 70
     1
  9
$QTEXTMODE
 70
     0
  9
$MIRRTEXT
 70
     1
  9
$DRAGMODE
 70
     0
  9
$LTSCALE
 40
1.0
  9
$OSMODE
 70
    37
  9
$ATTMODE
 70
     1
  9
$TEXTSIZE
 40
0.2
  9
$TRACEWID
 40
0.05
  9
$TEXTSTYLE
  7
STANDARD
  9
$CLAYER
  8
ADP1DETAIL
  9
$CELTYPE
  6
BYLAYER
  9
$CECOLOR
 62
   256
  9
$CELTSCALE
 40
1.0
  9
$DELOBJ
 70
     1
  9
$DISPSILH
 70
     0
  9
$DIMSCALE
 40
1.0
  9
$DIMASZ
 40
0.125
  9
$DIMEXO
 40
0.0625
  9
$DIMDLI
 40
0.38
  9
$DIMRND
 40
0.0
  9
$DIMDLE
 40
0.0
  9
$DIMEXE
 40
0.18
  9
$DIMTP
 40
0.0
  9
$DIMTM
 40
0.0
  9
$DIMTXT
 40
0.125
  9
$DIMCEN
 40
0.1875
  9
$DIMTSZ
 40
0.125
  9
$DIMTOL
 70
     0
  9
$DIMLIM
 70
     0
  9
$DIMTIH
 70
     0
  9
$DIMTOH
 70
     0
  9
$DIMSE1
 70
     0
  9
$DIMSE2
 70
     0
  9
$DIMTAD
 70
     0
  9
$DIMZIN
 70
     3
  9
$DIMBLK
  1

  9
$DIMASO
 70
     1
  9
$DIMSHO
 70
     1
  9
$DIMPOST
  1

  9
$DIMAPOST
  1

  9
$DIMALT
 70
     0
  9
$DIMALTD
 70
     1
  9
$DIMALTF
 40
25.4
  9
$DIMLFAC
 40
1.0
  9
$DIMTOFL
 70
     0
  9
$DIMTVP
 40
0.0
  9
$DIMTIX
 70
     0
  9
$DIMSOXD
 70
     0
  9
$DIMSAH
 70
     0
  9
$DIMBLK1
  1

  9
$DIMBLK2
  1

  9
$DIMSTYLE
  2
STANDARD
  9
$DIMCLRD
 70
     0
  9
$DIMCLRE
 70
     0
  9
$DIMCLRT
 70
     0
  9
$DIMTFAC
 40
1.0
  9
$DIMGAP
 40
0.125
  9
$DIMJUST
 70
     0
  9
$DIMSD1
 70
     0
  9
$DIMSD2
 70
     0
  9
$DIMTOLJ
 70
     1
  9
$DIMTZIN
 70
     0
  9
$DIMALTZ
 70
     0
  9
$DIMALTTZ
 70
     0
  9
$DIMFIT
 70
     3
  9
$DIMUPT
 70
     0
  9
$DIMUNIT
 70
     2
  9
$DIMDEC
 70
     4
  9
$DIMTDEC
 70
     4
  9
$DIMALTU
 70
     2
  9
$DIMALTTD
 70
     2
  9
$DIMTXSTY
  7
STANDARD
  9
$DIMAUNIT
 70
     0
  9
$LUNITS
 70
     5
  9
$LUPREC
 70
     4
  9
$SKETCHINC
 40
0.1
  9
$FILLETRAD
 40
0.062
  9
$AUNITS
 70
     0
  9
$AUPREC
 70
     0
  9
$MENU
  1
acad
  9
$ELEVATION
 40
0.0
  9
$PELEVATION
 40
0.0
  9
$THICKNESS
 40
0.0
  9
$LIMCHECK
 70
     0
  9
$BLIPMODE
 70
     0
  9
$CHAMFERA
 40
0.0
  9
$CHAMFERB
 40
0.0
  9
$CHAMFERC
 40
0.0
  9
$CHAMFERD
 40
0.0
  9
$SKPOLY
 70
     0
  9
$TDCREATE
 40
2450382.648073102
  9
$TDUPDATE
 40
2452297.076791446
  9
$TDINDWG
 40
0.0659070139
  9
$TDUSRTIMER
 40
0.0659070139
  9
$USRTIMER
 70
     1
  9
$ANGBASE
 50
0.0
  9
$ANGDIR
 70
     0
  9
$PDMODE
 70
     0
  9
$PDSIZE
 40
0.0
  9
$PLINEWID
 40
0.0
  9
$COORDS
 70
     2
  9
$SPLFRAME
 70
     0
  9
$SPLINETYPE
 70
     6
  9
$SPLINESEGS
 70
     8
  9
$ATTDIA
 70
     0
  9
$ATTREQ
 70
     1
  9
$HANDLING
 70
 22529
  9
$HANDSEED
  5
2C3
  9
$SURFTAB1
 70
     6
  9
$SURFTAB2
 70
     6
  9
$SURFTYPE
 70
     6
  9
$SURFU
 70
     6
  9
$SURFV
 70
     6
  9
$UCSNAME
  2

  9
$UCSORG
 10
0.0
 20
0.0
 30
0.0
  9
$UCSXDIR
 10
1.0
 20
0.0
 30
0.0
  9
$UCSYDIR
 10
0.0
 20
1.0
 30
0.0
  9
$PUCSNAME
  2

  9
$PUCSORG
 10
0.0
 20
0.0
 30
0.0
  9
$PUCSXDIR
 10
1.0
 20
0.0
 30
0.0
  9
$PUCSYDIR
 10
0.0
 20
1.0
 30
0.0
  9
$USERI1
 70
     0
  9
$USERI2
 70
     0
  9
$USERI3
 70
     0
  9
$USERI4
 70
     0
  9
$USERI5
 70
     0
  9
$USERR1
 40
0.0
  9
$USERR2
 40
0.0
  9
$USERR3
 40
0.0
  9
$USERR4
 40
0.0
  9
$USERR5
 40
0.0
  9
$WORLDVIEW
 70
     1
  9
$SHADEDGE
 70
     3
  9
$SHADEDIF
 70
    70
  9
$TILEMODE
 70
     1
  9
$MAXACTVP
 70
    15
  9
$PINSBASE
 10
0.0
 20
0.0
 30
0.0
  9
$PLIMCHECK
 70
     0
  9
$PEXTMIN
 10
1.000000000000000E+20
 20
1.000000000000000E+20
 30
1.000000000000000E+20
  9
$PEXTMAX
 10
-1.000000000000000E+20
 20
-1.000000000000000E+20
 30
-1.000000000000000E+20
  9
$PLIMMIN
 10
0.0
 20
0.0
  9
$PLIMMAX
 10
12.0
 20
9.0
  9
$UNITMODE
 70
     0
  9
$VISRETAIN
 70
     0
  9
$PLINEGEN
 70
     0
  9
$PSLTSCALE
 70
     1
  9
$TREEDEPTH
 70
  3020
  9
$PICKSTYLE
 70
     1
  9
$CMLSTYLE
  2
STANDARD
  9
$CMLJUST
 70
     0
  9
$CMLSCALE
 40
1.0
  9
$PROXYGRAPHICS
 70
     1
  9
$MEASUREMENT
 70
     0
  0
ENDSEC
  0
SECTION
  2
CLASSES
  0
CLASS
  1
ACDBDICTIONARYWDFLT
  2
AcDbDictionaryWithDefault
  3
AutoCAD 2000
 90
        0
280
     0
281
     0
  0
CLASS
  1
ACDBPLACEHOLDER
  2
AcDbPlaceHolder
  3
AutoCAD 2000
 90
        0
280
     0
281
     0
  0
CLASS
  1
LAYOUT
  2
AcDbLayout
  3
AutoCAD 2000
 90
        0
280
     0
281
     0
  0
CLASS
  1
DICTIONARYVAR
  2
AcDbDictionaryVar
  3
AutoCAD 2000
 90
        0
280
     0
281
     0
  0
CLASS
  1
LONG_TRANSACTION
  2
AcDbLongTransaction
  3
AutoCAD 2000
 90
        0
280
     0
281
     0
  0
CLASS
  1
LWPOLYLINE
  2
AcDbPolyline
  3
AutoCAD 2000
 90
        0
280
     0
281
     1
  0
CLASS
  1
HATCH
  2
AcDbHatch
  3
AutoCAD 2000
 90
        0
280
     0
281
     1
  0
CLASS
  1
XRECORD
  2
AcDbXrecord
  3
AutoCAD 2000
 90
        0
280
     0
281
     0
  0
CLASS
  1
LONG_TRANSACTION
  2
AcDbLongTransaction
  3
AutoCAD 2000
 90
        0
280
     0
281
     0
  0
CLASS
  1
LWPOLYLINE
  2
AcDbPolyline
  3
AutoCAD 2000
 90
        0
280
     0
281
     1
  0
CLASS
  1
HATCH
  2
AcDbHatch
  3
AutoCAD 2000
 90
        0
280
     0
281
     1
  0
CLASS
  1
XRECORD
  2
AcDbXrecord
  3
AutoCAD 2000
 90
        0
280
     0
281
     0
  0
CLASS
  1
LONG_TRANSACTION
  2
AcDbLongTransaction
  3
AutoCAD 2000
 90
        0
280
     0
281
     0
  0
CLASS
  1
LWPOLYLINE
  2
AcDbPolyline
  3
AutoCAD 2000
 90
        0
280
     0
281
     1
  0
CLASS
  1
HATCH
  2
AcDbHatch
  3
AutoCAD 2000
 90
        0
280
     0
281
     1
  0
CLASS
  1
XRECORD
  2
AcDbXrecord
  3
AutoCAD 2000
 90
        0
280
     0
281
     0
  0
CLASS
  1
LONG_TRANSACTION
  2
AcDbLongTransaction
  3
AutoCAD 2000
 90
        0
280
     0
281
     0
  0
CLASS
  1
LWPOLYLINE
  2
AcDbPolyline
  3
AutoCAD 2000
 90
        0
280
     0
281
     1
  0
CLASS
  1
HATCH
  2
AcDbHatch
  3
AutoCAD 2000
 90
        0
280
     0
281
     1
  0
CLASS
  1
XRECORD
  2
AcDbXrecord
  3
AutoCAD 2000
 90
        0
280
     0
281
     0
  0
CLASS
  1
LONG_TRANSACTION
  2
AcDbLongTransaction
  3
AutoCAD 2000
 90
        0
280
     0
281
     0
  0
CLASS
  1
LWPOLYLINE
  2
AcDbPolyline
  3
AutoCAD 2000
 90
        0
280
     0
281
     1
  0
CLASS
  1
HATCH
  2
AcDbHatch
  3
AutoCAD 2000
 90
        0
280
     0
281
     1
  0
CLASS
  1
XRECORD
  2
AcDbXrecord
  3
AutoCAD 2000
 90
        0
280
     0
281
     0
  0
ENDSEC
  0
SECTION
  2
TABLES
  0
TABLE
  2
VPORT
  5
8
330
0
100
AcDbSymbolTable
 70
     2
  0
VPORT
  5
2A0
330
8
100
AcDbSymbolTableRecord
100
AcDbViewportTableRecord
  2
*ACTIVE
 70
     0
 10
0.0
 20
0.0
 11
1.0
 21
1.0
 12
-13.89442895570443
 22
21.08029183545184
 13
0.0
 23
0.0
 14
0.5740882589684922
 24
0.5740882589684922
 15
0.5
 25
0.5
 16
0.0
 26
0.0
 36
1.0
 17
0.0
 27
0.0
 37
0.0
 40
6.189052106961268
 41
1.570528967254408
 42
50.0
 43
0.0
 44
0.0
 50
0.0
 51
0.0
 71
     0
 72
   100
 73
     1
 74
     0
 75
     0
 76
     0
 77
     0
 78
     0
  0
ENDTAB
  0
TABLE
  2
LTYPE
  5
5
330
0
100
AcDbSymbolTable
 70
     2
  0
LTYPE
  5
12
330
5
100
AcDbSymbolTableRecord
100
AcDbLinetypeTableRecord
  2
BYBLOCK
 70
     0
  3

 72
    65
 73
     0
 40
0.0
  0
LTYPE
  5
13
330
5
100
AcDbSymbolTableRecord
100
AcDbLinetypeTableRecord
  2
BYLAYER
 70
     0
  3

 72
    65
 73
     0
 40
0.0
  0
LTYPE
  5
14
330
5
100
AcDbSymbolTableRecord
100
AcDbLinetypeTableRecord
  2
CONTINUOUS
 70
     0
  3
Solid line
 72
    65
 73
     0
 40
0.0
  0
LTYPE
  5
9F
330
5
100
AcDbSymbolTableRecord
100
AcDbLinetypeTableRecord
  2
HIDDEN
 70
     0
  3
__ __ __ __ __ __ __ __ __ __ __ __ __ __ __ __
 72
    65
 73
     2
 40
0.375
 49
0.25
 74
     0
 49
-0.125
 74
     0
  0
ENDTAB
  0
TABLE
  2
LAYER
  5
2
330
0
100
AcDbSymbolTable
 70
     5
  0
LAYER
  5
F
330
2
100
AcDbSymbolTableRecord
100
AcDbLayerTableRecord
  2
0
 70
     0
 62
     7
  6
CONTINUOUS
  0
LAYER
  5
A0
330
2
100
AcDbSymbolTableRecord
100
AcDbLayerTableRecord
  2
ADP2DETAIL
 70
     0
 62
     5
  6
CONTINUOUS
  0
LAYER
  5
A3
330
2
100
AcDbSymbolTableRecord
100
AcDbLayerTableRecord
  2
ADP1DETAIL
 70
     0
 62
     7
  6
CONTINUOUS
  0
LAYER
  5
A5
330
2
100
AcDbSymbolTableRecord
100
AcDbLayerTableRecord
  2
DEFPOINTS
 70
     0
 62
     7
  6
CONTINUOUS
  0
LAYER
  5
A7
330
2
100
AcDbSymbolTableRecord
100
AcDbLayerTableRecord
  2
ADPDIM
 70
     0
 62
     3
  6
CONTINUOUS
  0
ENDTAB
  0
TABLE
  2
STYLE
  5
3
330
0
100
AcDbSymbolTable
 70
     2
  0
STYLE
  5
10
330
3
100
AcDbSymbolTableRecord
100
AcDbTextStyleTableRecord
  2
STANDARD
 70
     0
 40
0.0
 41
1.0
 50
0.0
 71
     0
 42
0.2
  3
txt
  4

  0
STYLE
  5
15C
330
3
100
AcDbSymbolTableRecord
100
AcDbTextStyleTableRecord
  2
ARIAL_WIDE
 70
     0
 40
0.0
 41
1.25
 50
0.0
 71
     0
 42
0.2
  3
ARIAL.TTF
  4

1001
ACAD
1000
Arial
1071
       34
  0
ENDTAB
  0
TABLE
  2
VIEW
  5
6
330
0
100
AcDbSymbolTable
 70
     0
  0
ENDTAB
  0
TABLE
  2
UCS
  5
7
330
0
100
AcDbSymbolTable
 70
     0
  0
ENDTAB
  0
TABLE
  2
APPID
  5
9
330
0
100
AcDbSymbolTable
 70
     1
  0
APPID
  5
11
330
9
100
AcDbSymbolTableRecord
100
AcDbRegAppTableRecord
  2
ACAD
 70
     0
  0
ENDTAB
  0
TABLE
  2
DIMSTYLE
  5
A
330
0
100
AcDbSymbolTable
 70
     1
  0
DIMSTYLE
105
150
330
A
100
AcDbSymbolTableRecord
100
AcDbDimStyleTableRecord
  2
STANDARD
 70
     0
  3

  4

  5

  6

  7

 40
1.0
 41
0.18
 42
0.0625
 43
0.38
 44
0.18
 45
0.0
 46
0.0
 47
0.0
 48
0.0
140
0.18
141
0.09
142
0.0
143
25.4
144
1.0
145
0.0
146
1.0
147
0.09
 71
     0
 72
     0
 73
     1
 74
     1
 75
     0
 76
     0
 77
     0
 78
     0
170
     0
171
     2
172
     0
173
     0
174
     0
175
     0
176
     0
177
     0
178
     0
270
     2
271
     4
272
     4
273
     2
274
     2
340
10
275
     0
280
     0
281
     0
282
     0
283
     1
284
     0
285
     0
286
     0
287
     3
288
     0
  0
ENDTAB
  0
TABLE
  2
BLOCK_RECORD
  5
1
330
0
100
AcDbSymbolTable
 70
     4
  0
BLOCK_RECORD
  5
18
102
{ACAD_XDICTIONARY
360
1B1
102
}
330
1
100
AcDbSymbolTableRecord
100
AcDbBlockTableRecord
  2
*MODEL_SPACE
  0
BLOCK_RECORD
  5
15
102
{ACAD_XDICTIONARY
360
1AF
102
}
330
1
100
AcDbSymbolTableRecord
100
AcDbBlockTableRecord
  2
*PAPER_SPACE
  0
BLOCK_RECORD
  5
88
330
1
100
AcDbSymbolTableRecord
100
AcDbBlockTableRecord
  2
*D0
  0
BLOCK_RECORD
  5
89
330
1
100
AcDbSymbolTableRecord
100
AcDbBlockTableRecord
  2
*D1
  0
BLOCK_RECORD
  5
8A
330
1
100
AcDbSymbolTableRecord
100
AcDbBlockTableRecord
  2
*D2
  0
BLOCK_RECORD
  5
8B
330
1
100
AcDbSymbolTableRecord
100
AcDbBlockTableRecord
  2
*D3
  0
ENDTAB
  0
ENDSEC
  0
SECTION
  2
BLOCKS
  0
BLOCK
  5
AA
330
18
100
AcDbEntity
  8
0
100
AcDbBlockBegin
  2
*MODEL_SPACE
 70
     0
 10
0.0
 20
0.0
 30
0.0
  3
*MODEL_SPACE
  1

  0
ENDBLK
  5
AB
330
18
100
AcDbEntity
  8
0
100
AcDbBlockEnd
  0
BLOCK
  5
A8
330
15
100
AcDbEntity
 67
     1
  8
0
100
AcDbBlockBegin
  2
*PAPER_SPACE
 70
     0
 10
0.0
 20
0.0
 30
0.0
  3
*PAPER_SPACE
  1

  0
ENDBLK
  5
A9
330
15
100
AcDbEntity
 67
     1
  8
0
100
AcDbBlockEnd
  0
BLOCK
  5
AD
330
88
100
AcDbEntity
  8
0
100
AcDbBlockBegin
  2
*D0
 70
     1
 10
0.0
 20
0.0
 30
0.0
  3
*D0
  1

  0
LINE
  5
AE
330
88
100
AcDbEntity
  8
0
  6
BYBLOCK
 62
     0
100
AcDbLine
 10
-15.40572620963244
 20
22.02933368022743
 30
0.0
 11
-15.40572620963244
 21
22.32885692582984
 31
0.0
  0
LINE
  5
AF
330
88
100
AcDbEntity
  8
0
  6
BYBLOCK
 62
     0
100
AcDbLine
 10
-12.40109658000282
 20
22.02933368022743
 30
0.0
 11
-12.40109658000282
 21
22.32885692582984
 31
0.0
  0
LINE
  5
B0
330
88
100
AcDbEntity
  8
0
  6
BYBLOCK
 62
     0
100
AcDbLine
 10
-15.40572620963244
 20
22.14885692582984
 30
0.0
 11
-14.0700780614843
 21
22.14885692582984
 31
0.0
  0
LINE
  5
B1
330
88
100
AcDbEntity
  8
0
  6
BYBLOCK
 62
     0
100
AcDbLine
 10
-12.40109658000282
 20
22.14885692582984
 30
0.0
 11
-13.73674472815097
 21
22.14885692582984
 31
0.0
  0
LINE
  5
B2
330
88
100
AcDbEntity
  8
0
  6
BYBLOCK
 62
     0
100
AcDbLine
 10
-15.53072620963244
 20
22.02385692582984
 30
0.0
 11
-15.28072620963244
 21
22.27385692582984
 31
0.0
  0
LINE
  5
B3
330
88
100
AcDbEntity
  8
0
  6
BYBLOCK
 62
     0
100
AcDbLine
 10
-12.52609658000282
 20
22.02385692582984
 30
0.0
 11
-12.27609658000282
 21
22.27385692582984
 31
0.0
  0
TEXT
  5
B4
330
88
100
AcDbEntity
  8
0
  6
BYBLOCK
 62
     0
100
AcDbText
 10
-13.9450780614843
 20
22.08635692582984
 30
0.0
 40
0.125
  1
3
 72
     1
 11
-13.90341139481763
 21
22.14885692582984
 31
0.0
100
AcDbText
 73
     2
  0
POINT
  5
B5
330
88
100
AcDbEntity
  8
DEFPOINTS
  6
BYBLOCK
 62
     0
100
AcDbPoint
 10
-15.40572620963244
 20
21.96683368022743
 30
0.0
  0
POINT
  5
B6
330
88
100
AcDbEntity
  8
DEFPOINTS
  6
BYBLOCK
 62
     0
100
AcDbPoint
 10
-12.40109658000282
 20
21.96683368022743
 30
0.0
  0
POINT
  5
B7
330
88
100
AcDbEntity
  8
DEFPOINTS
  6
BYBLOCK
 62
     0
100
AcDbPoint
 10
-12.40109658000282
 20
22.14885692582984
 30
0.0
  0
ENDBLK
  5
B8
330
88
100
AcDbEntity
  8
0
100
AcDbBlockEnd
  0
BLOCK
  5
B9
330
89
100
AcDbEntity
  8
0
100
AcDbBlockBegin
  2
*D1
 70
     1
 10
0.0
 20
0.0
 30
0.0
  3
*D1
  1

  0
LINE
  5
BA
330
89
100
AcDbEntity
  8
0
  6
BYBLOCK
 62
     0
100
AcDbLine
 10
-16.08859658000281
 20
21.87101886541261
 30
0.0
 11
-16.4050138454981
 21
21.87101886541261
 31
0.0
  0
LINE
  5
BB
330
89
100
AcDbEntity
  8
0
  6
BYBLOCK
 62
     0
100
AcDbLine
 10
-16.07933732074355
 20
21.09324108763483
 30
0.0
 11
-16.4050138454981
 21
21.09324108763483
 31
0.0
  0
LINE
  5
BC
330
89
100
AcDbEntity
  8
0
  6
BYBLOCK
 62
     0
100
AcDbLine
 10
-16.2250138454981
 20
21.87101886541261
 30
0.0
 11
-16.2250138454981
 21
22.12101886541261
 31
0.0
  0
LINE
  5
BD
330
89
100
AcDbEntity
  8
0
  6
BYBLOCK
 62
     0
100
AcDbLine
 10
-16.2250138454981
 20
21.09324108763483
 30
0.0
 11
-16.2250138454981
 21
20.84324108763483
 31
0.0
  0
LINE
  5
BE
330
89
100
AcDbEntity
  8
0
  6
BYBLOCK
 62
     0
100
AcDbLine
 10
-16.1000138454981
 20
21.74601886541262
 30
0.0
 11
-16.3500138454981
 21
21.99601886541262
 31
0.0
  0
LINE
  5
BF
330
89
100
AcDbEntity
  8
0
  6
BYBLOCK
 62
     0
100
AcDbLine
 10
-16.1000138454981
 20
20.96824108763483
 30
0.0
 11
-16.3500138454981
 21
21.21824108763483
 31
0.0
  0
TEXT
  5
C0
330
89
100
AcDbEntity
  8
0
  6
BYBLOCK
 62
     0
100
AcDbText
 10
-16.1625138454981
 20
20.3849077543015
 30
0.0
 40
0.125
  1
3/4
 50
90.0
 72
     1
 11
-16.2250138454981
 21
20.55157442096816
 31
0.0
100
AcDbText
 73
     2
  0
POINT
  5
C1
330
89
100
AcDbEntity
  8
DEFPOINTS
  6
BYBLOCK
 62
     0
100
AcDbPoint
 10
-16.02609658000281
 20
21.87101886541261
 30
0.0
  0
POINT
  5
C2
330
89
100
AcDbEntity
  8
DEFPOINTS
  6
BYBLOCK
 62
     0
100
AcDbPoint
 10
-16.01683732074356
 20
21.09324108763483
 30
0.0
  0
POINT
  5
C3
330
89
100
AcDbEntity
  8
DEFPOINTS
  6
BYBLOCK
 62
     0
100
AcDbPoint
 10
-16.2250138454981
 20
21.09324108763483
 30
0.0
  0
ENDBLK
  5
C4
330
89
100
AcDbEntity
  8
0
100
AcDbBlockEnd
  0
BLOCK
  5
C5
330
8A
100
AcDbEntity
  8
0
100
AcDbBlockBegin
  2
*D2
 70
     1
 10
0.0
 20
0.0
 30
0.0
  3
*D2
  1

  0
LINE
  5
C6
330
8A
100
AcDbEntity
  8
0
  6
BYBLOCK
 62
     0
100
AcDbLine
 10
-12.33859658000282
 20
20.99742627282002
 30
0.0
 11
-11.60182485088246
 21
20.99742627282002
 31
0.0
  0
LINE
  5
C7
330
8A
100
AcDbEntity
  8
0
  6
BYBLOCK
 62
     0
100
AcDbLine
 10
-12.33859658000282
 20
21.96683368022743
 30
0.0
 11
-11.60182485088246
 21
21.96683368022743
 31
0.0
  0
LINE
  5
C8
330
8A
100
AcDbEntity
  8
0
  6
BYBLOCK
 62
     0
100
AcDbLine
 10
-11.78182485088246
 20
20.99742627282002
 30
0.0
 11
-11.78182485088246
 21
21.33629664319039
 31
0.0
  0
LINE
  5
C9
330
8A
100
AcDbEntity
  8
0
  6
BYBLOCK
 62
     0
100
AcDbLine
 10
-11.78182485088246
 20
21.96683368022743
 30
0.0
 11
-11.78182485088246
 21
21.62796330985706
 31
0.0
  0
LINE
  5
CA
330
8A
100
AcDbEntity
  8
0
  6
BYBLOCK
 62
     0
100
AcDbLine
 10
-11.65682485088246
 20
20.87242627282002
 30
0.0
 11
-11.90682485088246
 21
21.12242627282002
 31
0.0
  0
LINE
  5
CB
330
8A
100
AcDbEntity
  8
0
  6
BYBLOCK
 62
     0
100
AcDbLine
 10
-11.65682485088246
 20
21.84183368022743
 30
0.0
 11
-11.90682485088246
 21
22.09183368022743
 31
0.0
  0
TEXT
  5
CC
330
8A
100
AcDbEntity
  8
0
  6
BYBLOCK
 62
     0
100
AcDbText
 10
-11.71932485088245
 20
21.46129664319039
 30
0.0
 40
0.125
  1
1
 50
90.0
 72
     1
 11
-11.78182485088246
 21
21.48212997652373
 31
0.0
100
AcDbText
 73
     2
  0
POINT
  5
CD
330
8A
100
AcDbEntity
  8
DEFPOINTS
  6
BYBLOCK
 62
     0
100
AcDbPoint
 10
-12.40109658000282
 20
20.99742627282002
 30
0.0
  0
POINT
  5
CE
330
8A
100
AcDbEntity
  8
DEFPOINTS
  6
BYBLOCK
 62
     0
100
AcDbPoint
 10
-12.40109658000282
 20
21.96683368022743
 30
0.0
  0
POINT
  5
CF
330
8A
100
AcDbEntity
  8
DEFPOINTS
  6
BYBLOCK
 62
     0
100
AcDbPoint
 10
-11.78182485088246
 20
21.96683368022743
 30
0.0
  0
ENDBLK
  5
D0
330
8A
100
AcDbEntity
  8
0
100
AcDbBlockEnd
  0
BLOCK
  5
D1
330
8B
100
AcDbEntity
  8
0
100
AcDbBlockBegin
  2
*D3
 70
     1
 10
0.0
 20
0.0
 30
0.0
  3
*D3
  1

  0
LINE
  5
D2
330
8B
100
AcDbEntity
  8
0
  6
BYBLOCK
 62
     0
100
AcDbLine
 10
-12.33859658000282
 20
21.87101886541261
 30
0.0
 11
-12.05316075854639
 21
21.87101886541261
 31
0.0
  0
LINE
  5
D3
330
8B
100
AcDbEntity
  8
0
  6
BYBLOCK
 62
     0
100
AcDbLine
 10
-12.33859658000282
 20
21.09324108763483
 30
0.0
 11
-12.05316075854639
 21
21.09324108763483
 31
0.0
  0
LINE
  5
D4
330
8B
100
AcDbEntity
  8
0
  6
BYBLOCK
 62
     0
100
AcDbLine
 10
-12.23316075854639
 20
21.87101886541261
 30
0.0
 11
-12.23316075854639
 21
22.12101886541261
 31
0.0
  0
LINE
  5
D5
330
8B
100
AcDbEntity
  8
0
  6
BYBLOCK
 62
     0
100
AcDbLine
 10
-12.23316075854639
 20
21.09324108763483
 30
0.0
 11
-12.23316075854639
 21
20.84324108763483
 31
0.0
  0
LINE
  5
D6
330
8B
100
AcDbEntity
  8
0
  6
BYBLOCK
 62
     0
100
AcDbLine
 10
-12.10816075854639
 20
21.74601886541262
 30
0.0
 11
-12.35816075854639
 21
21.99601886541262
 31
0.0
  0
LINE
  5
D7
330
8B
100
AcDbEntity
  8
0
  6
BYBLOCK
 62
     0
100
AcDbLine
 10
-12.10816075854639
 20
20.96824108763483
 30
0.0
 11
-12.35816075854639
 21
21.21824108763483
 31
0.0
  0
TEXT
  5
D8
330
8B
100
AcDbEntity
  8
0
  6
BYBLOCK
 62
     0
100
AcDbText
 10
-12.17066075854639
 20
20.3849077543015
 30
0.0
 40
0.125
  1
3/4
 50
90.0
 72
     1
 11
-12.23316075854639
 21
20.55157442096816
 31
0.0
100
AcDbText
 73
     2
  0
POINT
  5
D9
330
8B
100
AcDbEntity
  8
DEFPOINTS
  6
BYBLOCK
 62
     0
100
AcDbPoint
 10
-12.40109658000282
 20
21.87101886541261
 30
0.0
  0
POINT
  5
DA
330
8B
100
AcDbEntity
  8
DEFPOINTS
  6
BYBLOCK
 62
     0
100
AcDbPoint
 10
-12.40109658000282
 20
21.09324108763483
 30
0.0
  0
POINT
  5
DB
330
8B
100
AcDbEntity
  8
DEFPOINTS
  6
BYBLOCK
 62
     0
100
AcDbPoint
 10
-12.23316075854639
 20
21.09324108763483
 30
0.0
  0
ENDBLK
  5
DC
330
8B
100
AcDbEntity
  8
0
100
AcDbBlockEnd
  0
ENDSEC
  0
SECTION
  2
ENTITIES
  0
DIMENSION
  5
DD
330
18
100
AcDbEntity
  8
ADPDIM
100
AcDbDimension
  2
*D3
 10
-12.23316075854639
 20
21.09324108763483
 30
0.0
 11
-12.23316075854639
 21
20.55157442096816
 31
0.0
100
AcDbAlignedDimension
 13
-12.40109658000282
 23
21.87101886541261
 33
0.0
 14
-12.40109658000282
 24
21.09324108763483
 34
0.0
 50
90.0
100
AcDbRotatedDimension
  0
DIMENSION
  5
DE
330
18
100
AcDbEntity
  8
ADPDIM
100
AcDbDimension
  2
*D2
 10
-11.78182485088246
 20
21.96683368022743
 30
0.0
 11
-11.78182485088246
 21
21.48212997652373
 31
0.0
100
AcDbAlignedDimension
 13
-12.40109658000282
 23
20.99742627282002
 33
0.0
 14
-12.40109658000282
 24
21.96683368022743
 34
0.0
 50
90.0
100
AcDbRotatedDimension
  0
DIMENSION
  5
DF
330
18
100
AcDbEntity
  8
ADPDIM
100
AcDbDimension
  2
*D1
 10
-16.2250138454981
 20
21.09324108763483
 30
0.0
 11
-16.2250138454981
 21
20.55157442096816
 31
0.0
100
AcDbAlignedDimension
 13
-16.02609658000281
 23
21.87101886541261
 33
0.0
 14
-16.01683732074356
 24
21.09324108763483
 34
0.0
 50
90.0
100
AcDbRotatedDimension
  0
LINE
  5
E0
330
18
100
AcDbEntity
  8
ADP1DETAIL
100
AcDbLine
 10
-12.40109658000282
 20
21.96683368022743
 30
0.0
 11
-15.40572620963244
 21
21.96683368022743
 31
0.0
  0
LINE
  5
E1
330
18
100
AcDbEntity
  8
ADP1DETAIL
100
AcDbLine
 10
-15.40572620963244
 20
20.99742627282002
 30
0.0
 11
-12.40109658000282
 21
20.99742627282002
 31
0.0
  0
LINE
  5
E2
330
18
100
AcDbEntity
  8
ADP2DETAIL
  6
HIDDEN
100
AcDbLine
 10
-12.41776324666948
 20
21.87101886541261
 30
0.0
 11
-14.48442991333615
 21
21.87101886541261
 31
0.0
  0
LINE
  5
E3
330
18
100
AcDbEntity
  8
ADP2DETAIL
  6
HIDDEN
100
AcDbLine
 10
-14.48442991333615
 20
21.09324108763483
 30
0.0
 11
-12.41776324666948
 21
21.09324108763483
 31
0.0
  0
DIMENSION
  5
E4
330
18
100
AcDbEntity
  8
ADPDIM
100
AcDbDimension
  2
*D0
 10
-12.40109658000282
 20
22.14885692582984
 30
0.0
 11
-13.90341139481763
 21
22.14885692582984
 31
0.0
100
AcDbAlignedDimension
 13
-15.40572620963244
 23
21.96683368022743
 33
0.0
 14
-12.40109658000282
 24
21.96683368022743
 34
0.0
100
AcDbRotatedDimension
  0
LINE
  5
E5
330
18
100
AcDbEntity
  8
ADP1DETAIL
100
AcDbLine
 10
-15.52609658000281
 20
21.8062040505978
 30
0.0
 11
-15.57239287629911
 21
21.87101886541261
 31
0.0
  0
LINE
  5
E6
330
18
100
AcDbEntity
  8
ADP1DETAIL
100
AcDbLine
 10
-15.60017065407689
 20
21.15805590244965
 30
0.0
 11
-15.55387435778059
 21
21.09324108763483
 31
0.0
  0
LINE
  5
E7
330
18
100
AcDbEntity
  8
ADP1DETAIL
100
AcDbLine
 10
-15.63720769111393
 20
21.87101886541261
 30
0.0
 11
-15.55387435778059
 21
21.09324108763483
 31
0.0
  0
LINE
  5
E8
330
18
100
AcDbEntity
  8
ADP1DETAIL
100
AcDbLine
 10
-15.59091139481763
 20
21.8062040505978
 30
0.0
 11
-15.53535583926207
 21
21.15805590244965
 31
0.0
  0
LINE
  5
E9
330
18
100
AcDbEntity
  8
ADP1DETAIL
100
AcDbLine
 10
-15.57239287629911
 20
21.87101886541261
 30
0.0
 11
-15.48905954296578
 21
21.09324108763483
 31
0.0
  0
LINE
  5
EA
330
18
100
AcDbEntity
  8
ADP2DETAIL
  6
HIDDEN
100
AcDbLine
 10
-15.68350398741022
 20
21.50064849504224
 30
0.0
 11
-15.68350398741022
 21
21.58398182837558
 31
0.0
  0
LINE
  5
EB
330
18
100
AcDbEntity
  8
ADP1DETAIL
100
AcDbLine
 10
-15.70202250592874
 20
21.87101886541261
 30
0.0
 11
-15.6186891725954
 21
21.09324108763483
 31
0.0
  0
LINE
  5
EC
330
18
100
AcDbEntity
  8
ADP1DETAIL
100
AcDbLine
 10
-15.65572620963244
 20
21.8062040505978
 30
0.0
 11
-15.60017065407689
 21
21.15805590244965
 31
0.0
  0
LINE
  5
ED
330
18
100
AcDbEntity
  8
ADP1DETAIL
100
AcDbLine
 10
-15.72054102444726
 20
21.8062040505978
 30
0.0
 11
-15.6649854688917
 21
21.15805590244965
 31
0.0
  0
LINE
  5
EE
330
18
100
AcDbEntity
  8
ADP1DETAIL
100
AcDbLine
 10
-15.89646695037318
 20
21.87101886541261
 30
0.0
 11
-15.81313361703985
 21
21.09324108763483
 31
0.0
  0
LINE
  5
EF
330
18
100
AcDbEntity
  8
ADP1DETAIL
100
AcDbLine
 10
-15.85017065407689
 20
21.8062040505978
 30
0.0
 11
-15.79461509852133
 21
21.15805590244965
 31
0.0
  0
LINE
  5
F0
330
18
100
AcDbEntity
  8
ADP1DETAIL
100
AcDbLine
 10
-16.02609658000281
 20
21.87101886541261
 30
0.0
 11
-15.94276324666948
 21
21.09324108763483
 31
0.0
  0
LINE
  5
F1
330
18
100
AcDbEntity
  8
ADP1DETAIL
100
AcDbLine
 10
-15.97980028370652
 20
21.8062040505978
 30
0.0
 11
-15.92424472815096
 21
21.15805590244965
 31
0.0
  0
LINE
  5
F2
330
18
100
AcDbEntity
  8
ADP1DETAIL
100
AcDbLine
 10
-16.05387435778059
 20
21.8062040505978
 30
0.0
 11
-15.98905954296578
 21
21.15805590244965
 31
0.0
  0
LINE
  5
F3
330
18
100
AcDbEntity
  8
ADP1DETAIL
100
AcDbLine
 10
-16.05387435778059
 20
21.8062040505978
 30
0.0
 11
-16.05387435778059
 21
21.15805590244965
 31
0.0
  0
LINE
  5
F4
330
18
100
AcDbEntity
  8
ADP1DETAIL
100
AcDbLine
 10
-15.961281765188
 20
21.87101886541261
 30
0.0
 11
-15.87794843185466
 21
21.09324108763483
 31
0.0
  0
LINE
  5
F5
330
18
100
AcDbEntity
  8
ADP1DETAIL
100
AcDbLine
 10
-15.9149854688917
 20
21.8062040505978
 30
0.0
 11
-15.85942991333615
 21
21.15805590244965
 31
0.0
  0
LINE
  5
F6
330
18
100
AcDbEntity
  8
ADP1DETAIL
100
AcDbLine
 10
-15.76683732074355
 20
21.87101886541261
 30
0.0
 11
-15.68350398741022
 21
21.09324108763483
 31
0.0
  0
LINE
  5
F7
330
18
100
AcDbEntity
  8
ADP1DETAIL
100
AcDbLine
 10
-15.78535583926207
 20
21.8062040505978
 30
0.0
 11
-15.72980028370652
 21
21.15805590244965
 31
0.0
  0
LINE
  5
F8
330
18
100
AcDbEntity
  8
ADP1DETAIL
100
AcDbLine
 10
-15.83165213555837
 20
21.87101886541261
 30
0.0
 11
-15.74831880222504
 21
21.09324108763483
 31
0.0
  0
LINE
  5
F9
330
18
100
AcDbEntity
  8
ADP2DETAIL
  6
HIDDEN
100
AcDbLine
 10
-16.06313361703985
 20
21.26916701356076
 30
0.0
 11
-15.97980028370652
 21
21.26916701356076
 31
0.0
  0
LINE
  5
FA
330
18
100
AcDbEntity
  8
ADP2DETAIL
  6
HIDDEN
100
AcDbLine
 10
-15.90572620963244
 20
21.26916701356076
 30
0.0
 11
-15.83165213555837
 21
21.26916701356076
 31
0.0
  0
LINE
  5
FB
330
18
100
AcDbEntity
  8
ADP2DETAIL
  6
HIDDEN
100
AcDbLine
 10
-15.74831880222504
 20
21.26916701356076
 30
0.0
 11
-15.68350398741022
 21
21.26916701356076
 31
0.0
  0
LINE
  5
FC
330
18
100
AcDbEntity
  8
ADP2DETAIL
  6
HIDDEN
100
AcDbLine
 10
-15.68350398741022
 20
21.26916701356076
 30
0.0
 11
-15.68350398741022
 21
21.26916701356076
 31
0.0
  0
LINE
  5
FD
330
18
100
AcDbEntity
  8
ADP2DETAIL
  6
HIDDEN
100
AcDbLine
 10
-15.68350398741022
 20
21.35250034689409
 30
0.0
 11
-15.68350398741022
 21
21.42657442096817
 31
0.0
  0
LINE
  5
FE
330
18
100
AcDbEntity
  8
ADP1DETAIL
100
AcDbLine
 10
-15.68350398741022
 20
21.09324108763483
 30
0.0
 11
-15.6649854688917
 21
21.15805590244965
 31
0.0
  0
LINE
  5
FF
330
18
100
AcDbEntity
  8
ADP1DETAIL
100
AcDbLine
 10
-15.74831880222504
 20
21.09324108763483
 30
0.0
 11
-15.72980028370652
 21
21.15805590244965
 31
0.0
  0
LINE
  5
100
330
18
100
AcDbEntity
  8
ADP1DETAIL
100
AcDbLine
 10
-15.72980028370652
 20
21.15805590244965
 30
0.0
 11
-15.68350398741022
 21
21.09324108763483
 31
0.0
  0
LINE
  5
101
330
18
100
AcDbEntity
  8
ADP1DETAIL
100
AcDbLine
 10
-15.6649854688917
 20
21.15805590244965
 30
0.0
 11
-15.6186891725954
 21
21.09324108763483
 31
0.0
  0
LINE
  5
102
330
18
100
AcDbEntity
  8
ADP1DETAIL
100
AcDbLine
 10
-15.81313361703985
 20
21.09324108763483
 30
0.0
 11
-15.79461509852133
 21
21.15805590244965
 31
0.0
  0
LINE
  5
103
330
18
100
AcDbEntity
  8
ADP1DETAIL
100
AcDbLine
 10
-15.85942991333615
 20
21.15805590244965
 30
0.0
 11
-15.81313361703985
 21
21.09324108763483
 31
0.0
  0
LINE
  5
104
330
18
100
AcDbEntity
  8
ADP1DETAIL
100
AcDbLine
 10
-15.87794843185466
 20
21.09324108763483
 30
0.0
 11
-15.85942991333615
 21
21.15805590244965
 31
0.0
  0
LINE
  5
105
330
18
100
AcDbEntity
  8
ADP1DETAIL
100
AcDbLine
 10
-15.94276324666948
 20
21.09324108763483
 30
0.0
 11
-15.92424472815096
 21
21.15805590244965
 31
0.0
  0
LINE
  5
106
330
18
100
AcDbEntity
  8
ADP1DETAIL
100
AcDbLine
 10
-16.05387435778059
 20
21.4636114580052
 30
0.0
 11
-16.01683732074356
 21
21.09324108763483
 31
0.0
  0
LINE
  5
107
330
18
100
AcDbEntity
  8
ADP1DETAIL
100
AcDbLine
 10
-16.01683732074356
 20
21.09324108763483
 30
0.0
 11
-15.98905954296578
 21
21.15805590244965
 31
0.0
  0
LINE
  5
108
330
18
100
AcDbEntity
  8
ADP1DETAIL
100
AcDbLine
 10
-16.04461509852133
 20
21.15805590244965
 30
0.0
 11
-16.01683732074356
 21
21.09324108763483
 31
0.0
  0
LINE
  5
109
330
18
100
AcDbEntity
  8
ADP1DETAIL
100
AcDbLine
 10
-16.05387435778059
 20
21.15805590244965
 30
0.0
 11
-16.04461509852133
 21
21.15805590244965
 31
0.0
  0
LINE
  5
10A
330
18
100
AcDbEntity
  8
ADP1DETAIL
100
AcDbLine
 10
-15.98905954296578
 20
21.15805590244965
 30
0.0
 11
-15.94276324666948
 21
21.09324108763483
 31
0.0
  0
LINE
  5
10B
330
18
100
AcDbEntity
  8
ADP1DETAIL
100
AcDbLine
 10
-15.92424472815096
 20
21.15805590244965
 30
0.0
 11
-15.87794843185466
 21
21.09324108763483
 31
0.0
  0
LINE
  5
10C
330
18
100
AcDbEntity
  8
ADP1DETAIL
100
AcDbLine
 10
-15.79461509852133
 20
21.15805590244965
 30
0.0
 11
-15.74831880222504
 21
21.09324108763483
 31
0.0
  0
LINE
  5
10D
330
18
100
AcDbEntity
  8
ADP1DETAIL
100
AcDbLine
 10
-15.6186891725954
 20
21.09324108763483
 30
0.0
 11
-15.60017065407689
 21
21.15805590244965
 31
0.0
  0
LINE
  5
10E
330
18
100
AcDbEntity
  8
ADP2DETAIL
  6
HIDDEN
100
AcDbLine
 10
-15.68350398741022
 20
21.65805590244965
 30
0.0
 11
-15.7575780614843
 21
21.65805590244965
 31
0.0
  0
LINE
  5
10F
330
18
100
AcDbEntity
  8
ADP2DETAIL
  6
HIDDEN
100
AcDbLine
 10
-15.98905954296578
 20
21.65805590244965
 30
0.0
 11
-16.06313361703985
 21
21.65805590244965
 31
0.0
  0
LINE
  5
110
330
18
100
AcDbEntity
  8
ADP2DETAIL
  6
HIDDEN
100
AcDbLine
 10
-15.84091139481763
 20
21.65805590244965
 30
0.0
 11
-15.9149854688917
 21
21.65805590244965
 31
0.0
  0
LINE
  5
111
330
18
100
AcDbEntity
  8
ADP1DETAIL
100
AcDbLine
 10
-15.57239287629911
 20
21.87101886541261
 30
0.0
 11
-15.59091139481763
 21
21.8062040505978
 31
0.0
  0
LINE
  5
112
330
18
100
AcDbEntity
  8
ADP1DETAIL
100
AcDbLine
 10
-15.70202250592874
 20
21.87101886541261
 30
0.0
 11
-15.72980028370652
 21
21.8062040505978
 31
0.0
  0
LINE
  5
113
330
18
100
AcDbEntity
  8
ADP1DETAIL
100
AcDbLine
 10
-15.6649854688917
 20
21.8062040505978
 30
0.0
 11
-15.70202250592874
 21
21.87101886541261
 31
0.0
  0
LINE
  5
114
330
18
100
AcDbEntity
  8
ADP1DETAIL
100
AcDbLine
 10
-15.63720769111393
 20
21.87101886541261
 30
0.0
 11
-15.6649854688917
 21
21.8062040505978
 31
0.0
  0
LINE
  5
115
330
18
100
AcDbEntity
  8
ADP1DETAIL
100
AcDbLine
 10
-15.85942991333615
 20
21.8062040505978
 30
0.0
 11
-15.89646695037318
 21
21.87101886541261
 31
0.0
  0
LINE
  5
116
330
18
100
AcDbEntity
  8
ADP1DETAIL
100
AcDbLine
 10
-15.83165213555837
 20
21.87101886541261
 30
0.0
 11
-15.85942991333615
 21
21.8062040505978
 31
0.0
  0
LINE
  5
117
330
18
100
AcDbEntity
  8
ADP1DETAIL
100
AcDbLine
 10
-15.79461509852133
 20
21.8062040505978
 30
0.0
 11
-15.83165213555837
 21
21.87101886541261
 31
0.0
  0
LINE
  5
118
330
18
100
AcDbEntity
  8
ADP1DETAIL
100
AcDbLine
 10
-15.76683732074355
 20
21.87101886541261
 30
0.0
 11
-15.79461509852133
 21
21.8062040505978
 31
0.0
  0
LINE
  5
119
330
18
100
AcDbEntity
  8
ADP1DETAIL
100
AcDbLine
 10
-15.92424472815096
 20
21.8062040505978
 30
0.0
 11
-15.961281765188
 21
21.87101886541261
 31
0.0
  0
LINE
  5
11A
330
18
100
AcDbEntity
  8
ADP1DETAIL
100
AcDbLine
 10
-16.05387435778059
 20
21.8062040505978
 30
0.0
 11
-16.05387435778059
 21
21.8062040505978
 31
0.0
  0
LINE
  5
11B
330
18
100
AcDbEntity
  8
ADP1DETAIL
100
AcDbLine
 10
-16.02609658000281
 20
21.87101886541261
 30
0.0
 11
-16.05387435778059
 21
21.8062040505978
 31
0.0
  0
LINE
  5
11C
330
18
100
AcDbEntity
  8
ADP1DETAIL
100
AcDbLine
 10
-15.98905954296578
 20
21.8062040505978
 30
0.0
 11
-16.02609658000281
 21
21.87101886541261
 31
0.0
  0
LINE
  5
11D
330
18
100
AcDbEntity
  8
ADP1DETAIL
100
AcDbLine
 10
-15.961281765188
 20
21.87101886541261
 30
0.0
 11
-15.98905954296578
 21
21.8062040505978
 31
0.0
  0
LINE
  5
11E
330
18
100
AcDbEntity
  8
ADP1DETAIL
100
AcDbLine
 10
-15.89646695037318
 20
21.87101886541261
 30
0.0
 11
-15.92424472815096
 21
21.8062040505978
 31
0.0
  0
LINE
  5
11F
330
18
100
AcDbEntity
  8
ADP1DETAIL
100
AcDbLine
 10
-15.72980028370652
 20
21.8062040505978
 30
0.0
 11
-15.76683732074355
 21
21.87101886541261
 31
0.0
  0
LINE
  5
120
330
18
100
AcDbEntity
  8
ADP1DETAIL
100
AcDbLine
 10
-15.59091139481763
 20
21.8062040505978
 30
0.0
 11
-15.63720769111393
 21
21.87101886541261
 31
0.0
  0
LINE
  5
121
330
18
100
AcDbEntity
  8
ADP1DETAIL
100
AcDbLine
 10
-15.52609658000281
 20
21.8062040505978
 30
0.0
 11
-15.461281765188
 21
21.15805590244965
 31
0.0
  0
LINE
  5
122
330
18
100
AcDbEntity
  8
ADP1DETAIL
100
AcDbLine
 10
-15.40572620963244
 20
21.96683368022743
 30
0.0
 11
-15.40572620963244
 21
21.02842627282002
 31
0.0
  0
LINE
  5
123
330
18
100
AcDbEntity
  8
ADP2DETAIL
  6
HIDDEN
100
AcDbLine
 10
-14.48442991333615
 20
21.87101886541261
 30
0.0
 11
-14.48442991333615
 21
21.09324108763483
 31
0.0
  0
LINE
  5
124
330
18
100
AcDbEntity
  8
ADP2DETAIL
  6
HIDDEN
100
AcDbLine
 10
-14.42442991333615
 20
21.81101886541262
 30
0.0
 11
-14.42442991333615
 21
21.1599077543015
 31
0.0
  0
LINE
  5
125
330
18
100
AcDbEntity
  8
ADP1DETAIL
100
AcDbLine
 10
-15.461281765188
 20
21.15805590244965
 30
0.0
 11
-15.47054102444726
 21
21.15805590244965
 31
0.0
  0
LINE
  5
126
330
18
100
AcDbEntity
  8
ADP1DETAIL
100
AcDbLine
 10
-15.48905954296578
 20
21.09324108763483
 30
0.0
 11
-15.461281765188
 21
21.15805590244965
 31
0.0
  0
LINE
  5
127
330
18
100
AcDbEntity
  8
ADP1DETAIL
100
AcDbLine
 10
-15.55387435778059
 20
21.09324108763483
 30
0.0
 11
-15.53535583926207
 21
21.15805590244965
 31
0.0
  0
LINE
  5
128
330
18
100
AcDbEntity
  8
ADP1DETAIL
100
AcDbLine
 10
-15.53535583926207
 20
21.15805590244965
 30
0.0
 11
-15.48905954296578
 21
21.09324108763483
 31
0.0
  0
LINE
  5
129
330
18
100
AcDbEntity
  8
ADP1DETAIL
100
AcDbLine
 10
-15.47054102444726
 20
21.15805590244965
 30
0.0
 11
-15.40572620963244
 21
21.15805590244965
 31
0.0
  0
LINE
  5
12A
330
18
100
AcDbEntity
  8
ADP1DETAIL
100
AcDbLine
 10
-15.40572620963244
 20
21.96683368022743
 30
0.0
 11
-15.40572620963244
 21
21.96683368022743
 31
0.0
  0
LINE
  5
12B
330
18
100
AcDbEntity
  8
ADP1DETAIL
100
AcDbLine
 10
-15.39646695037318
 20
21.8062040505978
 30
0.0
 11
-15.52609658000281
 21
21.8062040505978
 31
0.0
  0
LINE
  5
12C
330
18
100
AcDbEntity
  8
ADP2DETAIL
  6
HIDDEN
100
AcDbLine
 10
-14.05776324666948
 20
21.81101886541262
 30
0.0
 11
-14.05776324666948
 21
21.1599077543015
 31
0.0
  0
LINE
  5
12D
330
18
100
AcDbEntity
  8
ADP2DETAIL
  6
HIDDEN
100
AcDbLine
 10
-14.17776324666948
 20
21.81101886541262
 30
0.0
 11
-14.17776324666948
 21
21.1599077543015
 31
0.0
  0
LINE
  5
12E
330
18
100
AcDbEntity
  8
ADP2DETAIL
  6
HIDDEN
100
AcDbLine
 10
-14.11776324666948
 20
21.87101886541261
 30
0.0
 11
-14.11776324666948
 21
21.09324108763483
 31
0.0
  0
LINE
  5
12F
330
18
100
AcDbEntity
  8
ADP2DETAIL
  6
HIDDEN
100
AcDbLine
 10
-14.23776324666948
 20
21.87101886541261
 30
0.0
 11
-14.23776324666948
 21
21.09324108763483
 31
0.0
  0
LINE
  5
130
330
18
100
AcDbEntity
  8
ADP2DETAIL
  6
HIDDEN
100
AcDbLine
 10
-14.29776324666948
 20
21.81101886541262
 30
0.0
 11
-14.29776324666948
 21
21.1599077543015
 31
0.0
  0
LINE
  5
131
330
18
100
AcDbEntity
  8
ADP2DETAIL
  6
HIDDEN
100
AcDbLine
 10
-13.81776324666948
 20
21.81101886541262
 30
0.0
 11
-13.81776324666948
 21
21.1599077543015
 31
0.0
  0
LINE
  5
132
330
18
100
AcDbEntity
  8
ADP2DETAIL
  6
HIDDEN
100
AcDbLine
 10
-13.93776324666948
 20
21.81101886541262
 30
0.0
 11
-13.93776324666948
 21
21.1599077543015
 31
0.0
  0
LINE
  5
133
330
18
100
AcDbEntity
  8
ADP2DETAIL
  6
HIDDEN
100
AcDbLine
 10
-13.99776324666948
 20
21.87101886541261
 30
0.0
 11
-13.99776324666948
 21
21.09324108763483
 31
0.0
  0
LINE
  5
134
330
18
100
AcDbEntity
  8
ADP2DETAIL
  6
HIDDEN
100
AcDbLine
 10
-13.87776324666948
 20
21.87101886541261
 30
0.0
 11
-13.87776324666948
 21
21.09324108763483
 31
0.0
  0
LINE
  5
135
330
18
100
AcDbEntity
  8
ADP2DETAIL
  6
HIDDEN
100
AcDbLine
 10
-13.27109658000281
 20
21.87101886541261
 30
0.0
 11
-13.27109658000281
 21
21.09324108763483
 31
0.0
  0
LINE
  5
136
330
18
100
AcDbEntity
  8
ADP2DETAIL
  6
HIDDEN
100
AcDbLine
 10
-13.39109658000282
 20
21.87101886541261
 30
0.0
 11
-13.39109658000282
 21
21.09324108763483
 31
0.0
  0
LINE
  5
137
330
18
100
AcDbEntity
  8
ADP2DETAIL
  6
HIDDEN
100
AcDbLine
 10
-13.33109658000282
 20
21.81101886541262
 30
0.0
 11
-13.33109658000282
 21
21.1599077543015
 31
0.0
  0
LINE
  5
138
330
18
100
AcDbEntity
  8
ADP2DETAIL
  6
HIDDEN
100
AcDbLine
 10
-13.75776324666948
 20
21.87101886541261
 30
0.0
 11
-13.75776324666948
 21
21.09324108763483
 31
0.0
  0
LINE
  5
139
330
18
100
AcDbEntity
  8
ADP2DETAIL
  6
HIDDEN
100
AcDbLine
 10
-13.81776324666948
 20
21.81101886541262
 30
0.0
 11
-13.81776324666948
 21
21.1599077543015
 31
0.0
  0
LINE
  5
13A
330
18
100
AcDbEntity
  8
ADP2DETAIL
  6
HIDDEN
100
AcDbLine
 10
-13.69109658000281
 20
21.81101886541262
 30
0.0
 11
-13.69109658000281
 21
21.1599077543015
 31
0.0
  0
LINE
  5
13B
330
18
100
AcDbEntity
  8
ADP2DETAIL
  6
HIDDEN
100
AcDbLine
 10
-13.63109658000282
 20
21.87101886541261
 30
0.0
 11
-13.63109658000281
 21
21.09324108763483
 31
0.0
  0
LINE
  5
13C
330
18
100
AcDbEntity
  8
ADP2DETAIL
  6
HIDDEN
100
AcDbLine
 10
-13.51109658000281
 20
21.87101886541261
 30
0.0
 11
-13.51109658000281
 21
21.09324108763483
 31
0.0
  0
LINE
  5
13D
330
18
100
AcDbEntity
  8
ADP2DETAIL
  6
HIDDEN
100
AcDbLine
 10
-13.57109658000282
 20
21.81101886541262
 30
0.0
 11
-13.57109658000282
 21
21.1599077543015
 31
0.0
  0
LINE
  5
13E
330
18
100
AcDbEntity
  8
ADP2DETAIL
  6
HIDDEN
100
AcDbLine
 10
-13.45109658000281
 20
21.81101886541262
 30
0.0
 11
-13.45109658000281
 21
21.1599077543015
 31
0.0
  0
LINE
  5
13F
330
18
100
AcDbEntity
  8
ADP2DETAIL
  6
HIDDEN
100
AcDbLine
 10
-14.36442991333615
 20
21.87101886541261
 30
0.0
 11
-14.36442991333615
 21
21.09324108763483
 31
0.0
  0
LINE
  5
140
330
18
100
AcDbEntity
  8
ADP1DETAIL
100
AcDbLine
 10
-12.40109658000282
 20
20.99742627282002
 30
0.0
 11
-12.40109658000282
 21
21.96683368022743
 31
0.0
  0
LINE
  5
141
330
18
100
AcDbEntity
  8
ADP2DETAIL
  6
HIDDEN
100
AcDbLine
 10
-12.66442991333615
 20
21.87101886541261
 30
0.0
 11
-12.66442991333615
 21
21.09324108763483
 31
0.0
  0
LINE
  5
142
330
18
100
AcDbEntity
  8
ADP2DETAIL
  6
HIDDEN
100
AcDbLine
 10
-12.60442991333615
 20
21.81101886541262
 30
0.0
 11
-12.60442991333615
 21
21.1599077543015
 31
0.0
  0
LINE
  5
143
330
18
100
AcDbEntity
  8
ADP2DETAIL
  6
HIDDEN
100
AcDbLine
 10
-12.54442991333615
 20
21.87101886541261
 30
0.0
 11
-12.54442991333615
 21
21.09324108763483
 31
0.0
  0
LINE
  5
144
330
18
100
AcDbEntity
  8
ADP2DETAIL
  6
HIDDEN
100
AcDbLine
 10
-12.47776324666948
 20
21.81101886541262
 30
0.0
 11
-12.47776324666948
 21
21.1599077543015
 31
0.0
  0
LINE
  5
145
330
18
100
AcDbEntity
  8
ADP2DETAIL
  6
HIDDEN
100
AcDbLine
 10
-12.78442991333615
 20
21.87101886541261
 30
0.0
 11
-12.78442991333615
 21
21.09324108763483
 31
0.0
  0
LINE
  5
146
330
18
100
AcDbEntity
  8
ADP2DETAIL
  6
HIDDEN
100
AcDbLine
 10
-12.72442991333615
 20
21.81101886541262
 30
0.0
 11
-12.72442991333615
 21
21.1599077543015
 31
0.0
  0
LINE
  5
147
330
18
100
AcDbEntity
  8
ADP2DETAIL
  6
HIDDEN
100
AcDbLine
 10
-12.90442991333615
 20
21.87101886541261
 30
0.0
 11
-12.90442991333615
 21
21.09324108763483
 31
0.0
  0
LINE
  5
148
330
18
100
AcDbEntity
  8
ADP2DETAIL
  6
HIDDEN
100
AcDbLine
 10
-12.84442991333615
 20
21.81101886541262
 30
0.0
 11
-12.84442991333615
 21
21.1599077543015
 31
0.0
  0
LINE
  5
149
330
18
100
AcDbEntity
  8
ADP2DETAIL
  6
HIDDEN
100
AcDbLine
 10
-13.21109658000282
 20
21.81101886541262
 30
0.0
 11
-13.21109658000281
 21
21.1599077543015
 31
0.0
  0
LINE
  5
14A
330
18
100
AcDbEntity
  8
ADP2DETAIL
  6
HIDDEN
100
AcDbLine
 10
-13.15109658000282
 20
21.87101886541261
 30
0.0
 11
-13.15109658000281
 21
21.09324108763483
 31
0.0
  0
LINE
  5
14B
330
18
100
AcDbEntity
  8
ADP2DETAIL
  6
HIDDEN
100
AcDbLine
 10
-13.21109658000282
 20
21.81101886541262
 30
0.0
 11
-13.21109658000281
 21
21.1599077543015
 31
0.0
  0
LINE
  5
14C
330
18
100
AcDbEntity
  8
ADP2DETAIL
  6
HIDDEN
100
AcDbLine
 10
-13.08442991333615
 20
21.81101886541262
 30
0.0
 11
-13.08442991333615
 21
21.1599077543015
 31
0.0
  0
LINE
  5
14D
330
18
100
AcDbEntity
  8
ADP2DETAIL
  6
HIDDEN
100
AcDbLine
 10
-13.02442991333615
 20
21.87101886541261
 30
0.0
 11
-13.02442991333615
 21
21.09324108763483
 31
0.0
  0
LINE
  5
14E
330
18
100
AcDbEntity
  8
ADP2DETAIL
  6
HIDDEN
100
AcDbLine
 10
-12.96442991333615
 20
21.81101886541262
 30
0.0
 11
-12.96442991333615
 21
21.1599077543015
 31
0.0
  0
LINE
  5
14F
330
18
100
AcDbEntity
  8
ADP2DETAIL
  6
HIDDEN
100
AcDbLine
 10
-12.40109658000282
 20
21.09324108763483
 30
0.0
 11
-12.40109658000282
 21
21.09324108763483
 31
0.0
  0
TEXT
  5
15D
330
18
100
AcDbEntity
  8
ADPDIM
100
AcDbText
 10
-18.72944204795542
 20
19.85966538428966
 30
0.0
 40
0.09375
  1
J U L I U S  B L U M  &  C O . ,  I N C .      ( 8 0 0 )  5 2 6 - 6 2 9 3        W W W . J U L I U S B L U M . C O M        P A R T  N o .  8 6 5
 41
1.25
  7
ARIAL_WIDE
 72
     1
 11
-13.90341139481763
 21
19.95341538428966
 31
0.0
100
AcDbText
 73
     3
  0
ENDSEC
  0
SECTION
  2
OBJECTS
  0
DICTIONARY
  5
C
330
0
100
AcDbDictionary
  3
ACAD_GROUP
350
D
  3
ACAD_LAYOUT
350
156
  3
ACAD_MLINESTYLE
350
E
  3
ACAD_PLOTSETTINGS
350
157
  3
ACAD_PLOTSTYLENAME
350
154
  3
ACDBHEADERROUNDTRIPXREC
350
2A1
  3
ACDBVARIABLEDICTIONARY
350
1B7
  0
DICTIONARY
  5
1B1
330
18
100
AcDbDictionary
280
     1
  3
ACAD_LAYOUTSELFREF
360
2C2
  0
DICTIONARY
  5
1AF
330
15
100
AcDbDictionary
280
     1
  3
ACAD_LAYOUTSELFREF
360
2C1
  0
DICTIONARY
  5
D
102
{ACAD_REACTORS
330
C
102
}
330
C
100
AcDbDictionary
  0
DICTIONARY
  5
156
102
{ACAD_REACTORS
330
C
102
}
330
C
100
AcDbDictionary
  0
DICTIONARY
  5
E
102
{ACAD_REACTORS
330
C
102
}
330
C
100
AcDbDictionary
  3
STANDARD
350
1B
  0
DICTIONARY
  5
157
102
{ACAD_REACTORS
330
C
102
}
330
C
100
AcDbDictionary
  0
ACDBDICTIONARYWDFLT
  5
154
102
{ACAD_REACTORS
330
C
102
}
330
C
100
AcDbDictionary
281
     1
  3
Normal
350
155
100
AcDbDictionaryWithDefault
340
155
  0
DICTIONARY
  5
2A1
102
{ACAD_REACTORS
330
C
102
}
330
C
100
AcDbDictionary
  3
CEPSNTYPE
350
2AB
  3
FINGERPRINTGUID
350
2AC
  3
HYPERLINKBASE
350
2A4
  3
INSUNITS
350
2AA
  3
LAYOUTDICT
350
2A6
  3
LWETCUNION
350
2A9
  3
PLOTSETDICT
350
2A7
  3
PLOTSTYLNAMDICT
350
2A8
  3
PSVPSCALE
350
2AE
  3
PUCSBASE
350
2B1
  3
PUCSORGBACK
350
2B7
  3
PUCSORGBOTTOM
350
2B3
  3
PUCSORGFRONT
350
2B6
  3
PUCSORGLEFT
350
2B4
  3
PUCSORGRIGHT
350
2B5
  3
PUCSORGTOP
350
2B2
  3
PUCSORTHOREF
350
2AF
  3
PUCSORTHOVIEW
350
2B0
  3
STYLESHEET
350
2A5
  3
TSTACKALIGN
350
2A2
  3
TSTACKSIZE
350
2A3
  3
UCSBASE
350
2BA
  3
UCSORGBACK
350
2C0
  3
UCSORGBOTTOM
350
2BC
  3
UCSORGFRONT
350
2BF
  3
UCSORGLEFT
350
2BD
  3
UCSORGRIGHT
350
2BE
  3
UCSORGTOP
350
2BB
  3
UCSORTHOREF
350
2B8
  3
UCSORTHOVIEW
350
2B9
  3
VERSIONGUID
350
2AD
  0
DICTIONARY
  5
1B7
102
{ACAD_REACTORS
330
C
102
}
330
C
100
AcDbDictionary
  3
DIMASSOC
350
1B8
  0
XRECORD
  5
2C2
102
{ACAD_REACTORS
330
1B1
102
}
330
1B1
100
AcDbXrecord
340
18
  0
XRECORD
  5
2C1
102
{ACAD_REACTORS
330
1AF
102
}
330
1AF
100
AcDbXrecord
340
15
  0
MLINESTYLE
  5
1B
102
{ACAD_REACTORS
330
E
102
}
330
E
100
AcDbMlineStyle
  2
STANDARD
 70
     0
  3

 62
     0
 51
90.0
 52
90.0
 71
     2
 49
0.5
 62
   256
  6
BYLAYER
 49
-0.5
 62
   256
  6
BYLAYER
  0
ACDBPLACEHOLDER
  5
155
102
{ACAD_REACTORS
330
154
102
}
330
154
100
AcDbPlaceHolder
280
     0
  0
XRECORD
  5
2AB
102
{ACAD_REACTORS
330
2A1
102
}
330
2A1
100
AcDbXrecord
 90
        0
  0
XRECORD
  5
2AC
102
{ACAD_REACTORS
330
2A1
102
}
330
2A1
100
AcDbXrecord
  1
{6A26C131-E2FC-4625-8590-05E9CD8A8005}
  0
XRECORD
  5
2A4
102
{ACAD_REACTORS
330
2A1
102
}
330
2A1
100
AcDbXrecord
  1

  0
XRECORD
  5
2AA
102
{ACAD_REACTORS
330
2A1
102
}
330
2A1
100
AcDbXrecord
 90
        0
  0
XRECORD
  5
2A6
102
{ACAD_REACTORS
330
2A1
102
}
330
2A1
100
AcDbXrecord
340
156
  0
XRECORD
  5
2A9
102
{ACAD_REACTORS
330
2A1
102
}
330
2A1
100
AcDbXrecord
 90
    14877
  0
XRECORD
  5
2A7
102
{ACAD_REACTORS
330
2A1
102
}
330
2A1
100
AcDbXrecord
340
157
  0
XRECORD
  5
2A8
102
{ACAD_REACTORS
330
2A1
102
}
330
2A1
100
AcDbXrecord
340
154
  0
XRECORD
  5
2AE
102
{ACAD_REACTORS
330
2A1
102
}
330
2A1
100
AcDbXrecord
 40
0.0
  0
XRECORD
  5
2B1
102
{ACAD_REACTORS
330
2A1
102
}
330
2A1
100
AcDbXrecord
340
0
  0
XRECORD
  5
2B7
102
{ACAD_REACTORS
330
2A1
102
}
330
2A1
100
AcDbXrecord
 10
0.0
 20
0.0
 30
0.0
  0
XRECORD
  5
2B3
102
{ACAD_REACTORS
330
2A1
102
}
330
2A1
100
AcDbXrecord
 10
0.0
 20
0.0
 30
0.0
  0
XRECORD
  5
2B6
102
{ACAD_REACTORS
330
2A1
102
}
330
2A1
100
AcDbXrecord
 10
0.0
 20
0.0
 30
0.0
  0
XRECORD
  5
2B4
102
{ACAD_REACTORS
330
2A1
102
}
330
2A1
100
AcDbXrecord
 10
0.0
 20
0.0
 30
0.0
  0
XRECORD
  5
2B5
102
{ACAD_REACTORS
330
2A1
102
}
330
2A1
100
AcDbXrecord
 10
0.0
 20
0.0
 30
0.0
  0
XRECORD
  5
2B2
102
{ACAD_REACTORS
330
2A1
102
}
330
2A1
100
AcDbXrecord
 10
0.0
 20
0.0
 30
0.0
  0
XRECORD
  5
2AF
102
{ACAD_REACTORS
330
2A1
102
}
330
2A1
100
AcDbXrecord
340
0
  0
XRECORD
  5
2B0
102
{ACAD_REACTORS
330
2A1
102
}
330
2A1
100
AcDbXrecord
 70
     0
  0
XRECORD
  5
2A5
102
{ACAD_REACTORS
330
2A1
102
}
330
2A1
100
AcDbXrecord
  1

  0
XRECORD
  5
2A2
102
{ACAD_REACTORS
330
2A1
102
}
330
2A1
100
AcDbXrecord
 90
        1
  0
XRECORD
  5
2A3
102
{ACAD_REACTORS
330
2A1
102
}
330
2A1
100
AcDbXrecord
 90
       70
  0
XRECORD
  5
2BA
102
{ACAD_REACTORS
330
2A1
102
}
330
2A1
100
AcDbXrecord
340
0
  0
XRECORD
  5
2C0
102
{ACAD_REACTORS
330
2A1
102
}
330
2A1
100
AcDbXrecord
 10
0.0
 20
0.0
 30
0.0
  0
XRECORD
  5
2BC
102
{ACAD_REACTORS
330
2A1
102
}
330
2A1
100
AcDbXrecord
 10
0.0
 20
0.0
 30
0.0
  0
XRECORD
  5
2BF
102
{ACAD_REACTORS
330
2A1
102
}
330
2A1
100
AcDbXrecord
 10
0.0
 20
0.0
 30
0.0
  0
XRECORD
  5
2BD
102
{ACAD_REACTORS
330
2A1
102
}
330
2A1
100
AcDbXrecord
 10
0.0
 20
0.0
 30
0.0
  0
XRECORD
  5
2BE
102
{ACAD_REACTORS
330
2A1
102
}
330
2A1
100
AcDbXrecord
 10
0.0
 20
0.0
 30
0.0
  0
XRECORD
  5
2BB
102
{ACAD_REACTORS
330
2A1
102
}
330
2A1
100
AcDbXrecord
 10
0.0
 20
0.0
 30
0.0
  0
XRECORD
  5
2B8
102
{ACAD_REACTORS
330
2A1
102
}
330
2A1
100
AcDbXrecord
340
0
  0
XRECORD
  5
2B9
102
{ACAD_REACTORS
330
2A1
102
}
330
2A1
100
AcDbXrecord
 70
     0
  0
XRECORD
  5
2AD
102
{ACAD_REACTORS
330
2A1
102
}
330
2A1
100
AcDbXrecord
  1
{5365D4A9-67A5-4A34-86D1-9A2DF63483D5}
  0
DICTIONARYVAR
  5
1B8
102
{ACAD_REACTORS
330
1B7
102
}
330
1B7
100
DictionaryVariables
280
     0
  1
1
  0
ENDSEC
  0
EOF
