  0
SECTION
  2
HEADER
  9
$ACADVER
  1
AC1015
  9
$ACADMAINTVER
 70
    18
  9
$DWGCODEPAGE
  3
ANSI_1252
  9
$INSBASE
 10
0.0
 20
0.0
 30
0.0
  9
$EXTMIN
 10
1.000000000000000E+20
 20
1.000000000000000E+20
 30
1.000000000000000E+20
  9
$EXTMAX
 10
0.0
 20
0.0
 30
0.0
  9
$LIMMIN
 10
-123.5686848958333
 20
-79.91656901041666
  9
$LIMMAX
 10
111.9270182291666
 20
0.0
  9
$ORTHOMODE
 70
     0
  9
$REGENMODE
 70
     1
  9
$FILLMODE
 70
     1
  9
$QTEXTMODE
 70
     0
  9
$MIRRTEXT
 70
     1
  9
$LTSCALE
 40
1.0
  9
$ATTMODE
 70
     1
  9
$TEXTSIZE
 40
0.0
  9
$TRACEWID
 40
0.05
  9
$TEXTSTYLE
  7
Standard
  9
$CLAYER
  8
0
  9
$CELTYPE
  6
Continuous
  9
$CECOLOR
 62
   256
  9
$CELTSCALE
 40
1.0
  9
$DISPSILH
 70
     0
  9
$DIMSCALE
 40
1.0
  9
$DIMASZ
 40
0.18
  9
$DIMEXO
 40
0.0625
  9
$DIMDLI
 40
0.38
  9
$DIMRND
 40
0.0
  9
$DIMDLE
 40
0.0
  9
$DIMEXE
 40
0.18
  9
$DIMTP
 40
0.0
  9
$DIMTM
 40
0.0
  9
$DIMTXT
 40
0.18
  9
$DIMCEN
 40
0.09
  9
$DIMTSZ
 40
0.0
  9
$DIMTOL
 70
     0
  9
$DIMLIM
 70
     0
  9
$DIMTIH
 70
     1
  9
$DIMTOH
 70
     1
  9
$DIMSE1
 70
     0
  9
$DIMSE2
 70
     0
  9
$DIMTAD
 70
     0
  9
$DIMZIN
 70
     0
  9
$DIMBLK
  1

  9
$DIMASO
 70
     1
  9
$DIMSHO
 70
     1
  9
$DIMPOST
  1

  9
$DIMAPOST
  1

  9
$DIMALT
 70
     0
  9
$DIMALTD
 70
     2
  9
$DIMALTF
 40
25.4
  9
$DIMLFAC
 40
1.0
  9
$DIMTOFL
 70
     0
  9
$DIMTVP
 40
0.0
  9
$DIMTIX
 70
     0
  9
$DIMSOXD
 70
     0
  9
$DIMSAH
 70
     0
  9
$DIMBLK1
  1

  9
$DIMBLK2
  1

  9
$DIMSTYLE
  2
Standard
  9
$DIMCLRD
 70
     0
  9
$DIMCLRE
 70
     0
  9
$DIMCLRT
 70
     0
  9
$DIMTFAC
 40
1.0
  9
$DIMGAP
 40
0.09
  9
$DIMJUST
 70
     0
  9
$DIMSD1
 70
     0
  9
$DIMSD2
 70
     0
  9
$DIMTOLJ
 70
     1
  9
$DIMTZIN
 70
     0
  9
$DIMALTZ
 70
     0
  9
$DIMALTTZ
 70
     0
  9
$DIMUPT
 70
     0
  9
$DIMDEC
 70
     4
  9
$DIMTDEC
 70
     4
  9
$DIMALTU
 70
     2
  9
$DIMALTTD
 70
     2
  9
$DIMTXSTY
  7
Standard
  9
$DIMAUNIT
 70
     0
  9
$DIMADEC
 70
     0
  9
$DIMALTRND
 40
0.0
  9
$DIMAZIN
 70
     0
  9
$DIMDSEP
 70
     0
  9
$DIMATFIT
 70
     3
  9
$DIMFRAC
 70
     0
  9
$DIMLDRBLK
  1

  9
$DIMLUNIT
 70
     2
  9
$DIMLWD
 70
     0
  9
$DIMLWE
 70
     0
  9
$DIMTMOVE
 70
     0
  9
$LUNITS
 70
     2
  9
$LUPREC
 70
     4
  9
$SKETCHINC
 40
0.1
  9
$FILLETRAD
 40
0.0
  9
$AUNITS
 70
     0
  9
$AUPREC
 70
     0
  9
$MENU
  1
acad
  9
$ELEVATION
 40
0.0
  9
$PELEVATION
 40
0.0
  9
$THICKNESS
 40
0.0
  9
$LIMCHECK
 70
     0
  9
$CHAMFERA
 40
0.0
  9
$CHAMFERB
 40
0.0
  9
$CHAMFERC
 40
0.0
  9
$CHAMFERD
 40
0.0
  9
$SKPOLY
 70
     0
  9
$TDCREATE
 40
2454257.526547847
  9
$TDUCREATE
 40
2454257.693214514
  9
$TDUPDATE
 40
2454263.511706447
  9
$TDUUPDATE
 40
2454263.678373113
  9
$TDINDWG
 40
0.0936022685
  9
$TDUSRTIMER
 40
0.0936022685
  9
$USRTIMER
 70
     1
  9
$ANGBASE
 50
0.0
  9
$ANGDIR
 70
     0
  9
$PDMODE
 70
     0
  9
$PDSIZE
 40
0.0
  9
$PLINEWID
 40
0.0
  9
$SPLFRAME
 70
     0
  9
$SPLINETYPE
 70
     6
  9
$SPLINESEGS
 70
     8
  9
$HANDSEED
  5
10A
  9
$SURFTAB1
 70
     6
  9
$SURFTAB2
 70
     6
  9
$SURFTYPE
 70
     6
  9
$SURFU
 70
     6
  9
$SURFV
 70
     6
  9
$UCSBASE
  2

  9
$UCSNAME
  2

  9
$UCSORG
 10
0.0
 20
0.0
 30
0.0
  9
$UCSXDIR
 10
1.0
 20
0.0
 30
0.0
  9
$UCSYDIR
 10
0.0
 20
1.0
 30
0.0
  9
$UCSORTHOREF
  2

  9
$UCSORTHOVIEW
 70
     0
  9
$UCSORGTOP
 10
0.0
 20
0.0
 30
0.0
  9
$UCSORGBOTTOM
 10
0.0
 20
0.0
 30
0.0
  9
$UCSORGLEFT
 10
0.0
 20
0.0
 30
0.0
  9
$UCSORGRIGHT
 10
0.0
 20
0.0
 30
0.0
  9
$UCSORGFRONT
 10
0.0
 20
0.0
 30
0.0
  9
$UCSORGBACK
 10
0.0
 20
0.0
 30
0.0
  9
$PUCSBASE
  2

  9
$PUCSNAME
  2

  9
$PUCSORG
 10
0.0
 20
0.0
 30
0.0
  9
$PUCSXDIR
 10
1.0
 20
0.0
 30
0.0
  9
$PUCSYDIR
 10
0.0
 20
1.0
 30
0.0
  9
$PUCSORTHOREF
  2

  9
$PUCSORTHOVIEW
 70
     0
  9
$PUCSORGTOP
 10
0.0
 20
0.0
 30
0.0
  9
$PUCSORGBOTTOM
 10
0.0
 20
0.0
 30
0.0
  9
$PUCSORGLEFT
 10
0.0
 20
0.0
 30
0.0
  9
$PUCSORGRIGHT
 10
0.0
 20
0.0
 30
0.0
  9
$PUCSORGFRONT
 10
0.0
 20
0.0
 30
0.0
  9
$PUCSORGBACK
 10
0.0
 20
0.0
 30
0.0
  9
$USERI1
 70
     0
  9
$USERI2
 70
     0
  9
$USERI3
 70
     0
  9
$USERI4
 70
     0
  9
$USERI5
 70
     0
  9
$USERR1
 40
0.0
  9
$USERR2
 40
0.0
  9
$USERR3
 40
0.0
  9
$USERR4
 40
0.0
  9
$USERR5
 40
0.0
  9
$WORLDVIEW
 70
     1
  9
$SHADEDGE
 70
     3
  9
$SHADEDIF
 70
    70
  9
$TILEMODE
 70
     1
  9
$MAXACTVP
 70
    16
  9
$PINSBASE
 10
0.0
 20
0.0
 30
0.0
  9
$PLIMCHECK
 70
     0
  9
$PEXTMIN
 10
1.000000000000000E+20
 20
1.000000000000000E+20
 30
1.000000000000000E+20
  9
$PEXTMAX
 10
-1.000000000000000E+20
 20
-1.000000000000000E+20
 30
-1.000000000000000E+20
  9
$PLIMMIN
 10
0.0
 20
0.0
  9
$PLIMMAX
 10
12.0
 20
9.0
  9
$UNITMODE
 70
     0
  9
$VISRETAIN
 70
     0
  9
$PLINEGEN
 70
     1
  9
$PSLTSCALE
 70
     0
  9
$TREEDEPTH
 70
  3020
  9
$CMLSTYLE
  2
Standard
  9
$CMLJUST
 70
     0
  9
$CMLSCALE
 40
1.0
  9
$PROXYGRAPHICS
 70
     0
  9
$MEASUREMENT
 70
     1
  9
$CELWEIGHT
370
    -1
  9
$ENDCAPS
280
     0
  9
$JOINSTYLE
280
     0
  9
$LWDISPLAY
290
     0
  9
$INSUNITS
 70
     0
  9
$HYPERLINKBASE
  1

  9
$STYLESHEET
  1

  9
$XEDIT
290
     1
  9
$CEPSNTYPE
380
     0
  9
$PSTYLEMODE
290
     1
  9
$FINGERPRINTGUID
  2

  9
$VERSIONGUID
  2
{133B2B8B-2C4F-48F1-8D3E-2679B3E7BE7B}
  9
$EXTNAMES
290
     1
  9
$PSVPSCALE
 40
0.0
  9
$OLESTARTUP
290
     0
  0
ENDSEC
  0
SECTION
  2
CLASSES
  0
CLASS
  1
IMAGE
  2
AcDbRasterImage
  3
ISM
 90
    32895
280
     0
281
     1
  0
CLASS
  1
DICTIONARYVAR
  2
AcDbDictionaryVar
  3
ObjectDBX Classes
 90
        0
280
     0
281
     0
  0
CLASS
  1
RASTERVARIABLES
  2
AcDbRasterVariables
  3
ISM
 90
    32768
280
     0
281
     0
  0
CLASS
  1
IMAGEDEF
  2
AcDbRasterImageDef
  3
ISM
 90
    32768
280
     0
281
     0
  0
CLASS
  1
IMAGEDEF_REACTOR
  2
AcDbRasterImageDefReactor
  3
ISM
 90
    32769
280
     0
281
     0
  0
CLASS
  1
IDBUFFER
  2
AcDbIdBuffer
  3
ObjectDBX Classes
 90
    32768
280
     0
281
     0
  0
CLASS
  1
SPATIAL_FILTER
  2
AcDbSpatialFilter
  3
ObjectDBX Classes
 90
    32768
280
     0
281
     0
  0
CLASS
  1
SORTENTSTABLE
  2
AcDbSortentsTable
  3
ObjectDBX Classes
 90
    32768
280
     0
281
     0
  0
CLASS
  1
LAYER_INDEX
  2
AcDbLayerIndex
  3
ObjectDBX Classes
 90
    32768
280
     0
281
     0
  0
CLASS
  1
SPATIAL_INDEX
  2
AcDbSpatialIndex
  3
ObjectDBX Classes
 90
    32768
280
     0
281
     0
  0
CLASS
  1
OBJECT_PTR
  2
CAseDLPNTableRecord
  3
ASE-LPNTableRecord
 90
    32769
280
     0
281
     0
  0
CLASS
  1
LAYOUT
  2
AcDbLayout
  3
ObjectDBX Classes
 90
        0
280
     0
281
     0
  0
CLASS
  1
PLOTSETTINGS
  2
AcDbPlotSettings
  3
ObjectDBX Classes
 90
    32768
280
     0
281
     0
  0
CLASS
  1
ACDBDICTIONARYWDFLT
  2
AcDbDictionaryWithDefault
  3
ObjectDBX Classes
 90
        0
280
     0
281
     0
  0
CLASS
  1
ACDBPLACEHOLDER
  2
AcDbPlaceHolder
  3
ObjectDBX Classes
 90
        0
280
     0
281
     0
  0
CLASS
  1
VBA_PROJECT
  2
AcDbVbaProject
  3
acad
 90
    32768
280
     0
281
     0
  0
CLASS
  1
WIPEOUT
  2
AcDbWipeout
  3
"WipeOut|Product Desc: Object Enabler for WipeOut entity^I^I^I^I^I^I|Company: Autodesk, Inc.^I^I^I^I^I^I|WEB Address: www.autodesk.com"
 90
    32895
280
     0
281
     1
  0
CLASS
  1
WIPEOUTVARIABLES
  2
AcDbWipeoutVariables
  3
"WipeOut|Product Desc:     WipeOut Dbx Application|Company:          Autodesk, Inc.|WEB Address:      www.autodesk.com"
 90
    32768
280
     0
281
     0
  0
CLASS
  1
RTEXT
  2
RText
  3
RText|AutoCAD Express Tool|expresstools@autodesk.com
 90
    32768
280
     1
281
     1
  0
CLASS
  1
ARCALIGNEDTEXT
  2
AcDbArcAlignedText
  3
ATEXT|AutoCAD Express Tool|expresstools@autodesk.com
 90
    32768
280
     1
281
     1
  0
CLASS
  1
MATERIAL
  2
AcDbMaterial
  3
ObjectDBX Classes
 90
        0
280
     0
281
     0
  0
CLASS
  1
AEC_VARS_DWG_SETUP
  2
AecDbVarsDwgSetup
  3
AecBase40|Product Desc: Autodesk Architectural Desktop 2004 |Company: Autodesk,Inc. |WEB Address: www.autodesk.com
 90
    32897
280
     0
281
     0
  0
CLASS
  1
AEC_DISP_REP_CONFIG
  2
AecDbDispRepConfig
  3
AecBase40|Product Desc: Autodesk Architectural Desktop 2004 |Company: Autodesk,Inc. |WEB Address: www.autodesk.com
 90
    32897
280
     0
281
     0
  0
CLASS
  1
AEC_DISP_REP_SET
  2
AecDbDispRepSet
  3
AecBase40|Product Desc: Autodesk Architectural Desktop 2004 |Company: Autodesk,Inc. |WEB Address: www.autodesk.com
 90
    32897
280
     0
281
     0
  0
CLASS
  1
AEC_DISP_REP_2D_SECTION
  2
AecDbDispRep2dSection
  3
AecBase40|Product Desc: Autodesk Architectural Desktop 2004 |Company: Autodesk,Inc. |WEB Address: www.autodesk.com
 90
    32897
280
     0
281
     0
  0
CLASS
  1
AEC_DISP_REP_ANCHOR_BUB_TO_GRID
  2
AecDbDispRepAnchorBubToGrid
  3
AecStructureBase40|Product Desc: Autodesk Architectural Desktop 2004 |Company: Autodesk,Inc. |WEB Address: www.autodesk.com
 90
    32897
280
     0
281
     0
  0
CLASS
  1
AEC_DISP_REP_ANCHOR_BUB_TO_GRID_MODEL
  2
AecDbDispRepAnchorBubToGridMdl
  3
AecStructureBase40|Product Desc: Autodesk Architectural Desktop 2004 |Company: Autodesk,Inc. |WEB Address: www.autodesk.com
 90
    32897
280
     0
281
     0
  0
CLASS
  1
AEC_DISP_REP_ANCHOR_ENT_TO_NODE
  2
AecDbDispRepAnchorEntToNode
  3
AecBase40|Product Desc: Autodesk Architectural Desktop 2004 |Company: Autodesk,Inc. |WEB Address: www.autodesk.com
 90
    32897
280
     0
281
     0
  0
CLASS
  1
AEC_DISP_REP_ANCHOR_TAG_TO_ENT
  2
AecDbDispRepAnchorTagToEnt
  3
AecScheduleData40|Product Desc: Autodesk Architectural Desktop 2004 |Company: Autodesk,Inc. |WEB Address: www.autodesk.com
 90
    32897
280
     0
281
     0
  0
CLASS
  1
AEC_DISP_REP_AREA
  2
AecDbDispRepArea
  3
AecAreaCalculationBase40|Product Desc: Autodesk Architectural Desktop 2004 |Company: Autodesk,Inc. |WEB Address: www.autodesk.com
 90
    32897
280
     0
281
     0
  0
CLASS
  1
AEC_DISP_REP_AREA_DECOMPOSED
  2
AecDbDispRepAreaDecomposed
  3
AecAreaCalculationBase40|Product Desc: Autodesk Architectural Desktop 2004 |Company: Autodesk,Inc. |WEB Address: www.autodesk.com
 90
    32897
280
     0
281
     0
  0
CLASS
  1
AEC_DISP_REP_AREAGROUP
  2
AecDbDispRepAreaGroup
  3
AecAreaCalculationBase40|Product Desc: Autodesk Architectural Desktop 2004 |Company: Autodesk,Inc. |WEB Address: www.autodesk.com
 90
    32897
280
     0
281
     0
  0
CLASS
  1
AEC_DISP_REP_BDG_ELEVLINE_MODEL
  2
AecDbDispRepBdgElevLineModel
  3
AecArchBase40|Product Desc: Autodesk Architectural Desktop 2004 |Company: Autodesk,Inc. |WEB Address: www.autodesk.com
 90
    32897
280
     0
281
     0
  0
CLASS
  1
AEC_DISP_REP_BDG_ELEVLINE_PLAN
  2
AecDbDispRepBdgElevLinePlan
  3
AecArchBase40|Product Desc: Autodesk Architectural Desktop 2004 |Company: Autodesk,Inc. |WEB Address: www.autodesk.com
 90
    32897
280
     0
281
     0
  0
CLASS
  1
AEC_DISP_REP_BDG_SECTIONLINE_MODEL
  2
AecDbDispRepBdgSectionLineModel
  3
AecArchBase40|Product Desc: Autodesk Architectural Desktop 2004 |Company: Autodesk,Inc. |WEB Address: www.autodesk.com
 90
    32897
280
     0
281
     0
  0
CLASS
  1
AEC_DISP_REP_BDG_SECTIONLINE_PLAN
  2
AecDbDispRepBdgSectionLinePlan
  3
AecArchBase40|Product Desc: Autodesk Architectural Desktop 2004 |Company: Autodesk,Inc. |WEB Address: www.autodesk.com
 90
    32897
280
     0
281
     0
  0
CLASS
  1
AEC_DISP_REP_BDG_SECTION_SUBDIV
  2
AecDbDispRepBdgSectionSubDiv
  3
AecArchBase40|Product Desc: Autodesk Architectural Desktop 2004 |Company: Autodesk,Inc. |WEB Address: www.autodesk.com
 90
    32897
280
     0
281
     0
  0
CLASS
  1
AEC_DISP_REP_CAMERA
  2
AecDbDispRepCamera
  3
AecBase40|Product Desc: Autodesk Architectural Desktop 2004 |Company: Autodesk,Inc. |WEB Address: www.autodesk.com
 90
    32897
280
     0
281
     0
  0
CLASS
  1
AEC_DISP_REP_CEILING_GRID
  2
AecDbDispRepCeilingGrid
  3
AecArchBase40|Product Desc: Autodesk Architectural Desktop 2004 |Company: Autodesk,Inc. |WEB Address: www.autodesk.com
 90
    33661
280
     0
281
     0
  0
CLASS
  1
AEC_DISP_REP_CEILING_GRID_MODEL
  2
AecDbDispRepCeilingGridModel
  3
AecArchBase40|Product Desc: Autodesk Architectural Desktop 2004 |Company: Autodesk,Inc. |WEB Address: www.autodesk.com
 90
    32897
280
     0
281
     0
  0
CLASS
  1
AEC_DISP_REP_CEILING_GRID_RCP
  2
AecDbDispRepCeilingGridRcp
  3
AecArchBase40|Product Desc: Autodesk Architectural Desktop 2004 |Company: Autodesk,Inc. |WEB Address: www.autodesk.com
 90
    32897
280
     0
281
     0
  0
CLASS
  1
AEC_DISP_REP_CLIP_VOLUME_MODEL
  2
AecDbDispRepClipVolModel
  3
AecBase40|Product Desc: Autodesk Architectural Desktop 2004 |Company: Autodesk,Inc. |WEB Address: www.autodesk.com
 90
    32897
280
     0
281
     0
  0
CLASS
  1
AEC_DISP_REP_CLIP_VOLUME_PLAN
  2
AecDbDispRepClipVolPlan
  3
AecBase40|Product Desc: Autodesk Architectural Desktop 2004 |Company: Autodesk,Inc. |WEB Address: www.autodesk.com
 90
    32897
280
     0
281
     0
  0
CLASS
  1
AEC_DISP_REP_CLIP_VOLUME_RESULT_SUBDIV
  2
AecDbDispRepClipVolResSubDiv
  3
AecBase40|Product Desc: Autodesk Architectural Desktop 2004 |Company: Autodesk,Inc. |WEB Address: www.autodesk.com
 90
    32897
280
     0
281
     0
  0
CLASS
  1
AEC_DISP_REP_CLIP_VOLUME_RESULT
  2
AecDbDispRepClipVolResult
  3
AecBase40|Product Desc: Autodesk Architectural Desktop 2004 |Company: Autodesk,Inc. |WEB Address: www.autodesk.com
 90
    32897
280
     0
281
     0
  0
CLASS
  1
AEC_DISP_REP_COLUMN_GRID
  2
AecDbDispRepColumnGrid
  3
AecStructureBase40|Product Desc: Autodesk Architectural Desktop 2004 |Company: Autodesk,Inc. |WEB Address: www.autodesk.com
 90
    32897
280
     0
281
     0
  0
CLASS
  1
AEC_DISP_REP_COLUMN_GRID_MODEL
  2
AecDbDispRepColumnGridModel
  3
AecStructureBase40|Product Desc: Autodesk Architectural Desktop 2004 |Company: Autodesk,Inc. |WEB Address: www.autodesk.com
 90
    32897
280
     0
281
     0
  0
CLASS
  1
AEC_DISP_REP_CURTAIN_WALL_LAYOUT_MODEL
  2
AecDbDispRepCurtainWallLayoutModel
  3
AecArchBase40|Product Desc: Autodesk Architectural Desktop 2004 |Company: Autodesk,Inc. |WEB Address: www.autodesk.com
 90
    32897
280
     0
281
     0
  0
CLASS
  1
AEC_DISP_REP_CURTAIN_WALL_LAYOUT_PLAN
  2
AecDbDispRepCurtainWallLayoutPlan
  3
AecArchBase40|Product Desc: Autodesk Architectural Desktop 2004 |Company: Autodesk,Inc. |WEB Address: www.autodesk.com
 90
    32897
280
     0
281
     0
  0
CLASS
  1
AEC_DISP_REP_CURTAIN_WALL_UNIT_MODEL
  2
AecDbDispRepCurtainWallUnitModel
  3
AecArchBase40|Product Desc: Autodesk Architectural Desktop 2004 |Company: Autodesk,Inc. |WEB Address: www.autodesk.com
 90
    32897
280
     0
281
     0
  0
CLASS
  1
AEC_DISP_REP_CURTAIN_WALL_UNIT_PLAN
  2
AecDbDispRepCurtainWallUnitPlan
  3
AecArchBase40|Product Desc: Autodesk Architectural Desktop 2004 |Company: Autodesk,Inc. |WEB Address: www.autodesk.com
 90
    32897
280
     0
281
     0
  0
CLASS
  1
AEC_DB_DISP_REP_DIM_GROUP_PLAN
  2
AecDbDispRepDimGroupPlan
  3
AecArchDACHBase40|Product Desc: Autodesk Architectural Desktop 2004 |Company: Autodesk,Inc. |WEB Address: www.autodesk.com
 90
    32897
280
     0
281
     0
  0
CLASS
  1
AEC_DISP_REP_DOOR_MODEL
  2
AecDbDispRepDoorModel
  3
AecArchBase40|Product Desc: Autodesk Architectural Desktop 2004 |Company: Autodesk,Inc. |WEB Address: www.autodesk.com
 90
    32897
280
     0
281
     0
  0
CLASS
  1
AEC_DISP_REP_DOOR_NOMINAL
  2
AecDbDispRepDoorNominal
  3
AecArchBase40|Product Desc: Autodesk Architectural Desktop 2004 |Company: Autodesk,Inc. |WEB Address: www.autodesk.com
 90
    32897
280
     0
281
     0
  0
CLASS
  1
AEC_DISP_REP_DOOR_PLAN
  2
AecDbDispRepDoorPlan
  3
AecArchBase40|Product Desc: Autodesk Architectural Desktop 2004 |Company: Autodesk,Inc. |WEB Address: www.autodesk.com
 90
    32897
280
     0
281
     0
  0
CLASS
  1
AEC_DISP_REP_EDITINPLACEPROFILE
  2
AecDbDispRepEditInPlaceProfile
  3
AecBase40|Product Desc: Autodesk Architectural Desktop 2004 |Company: Autodesk,Inc. |WEB Address: www.autodesk.com
 90
    32897
280
     0
281
     0
  0
CLASS
  1
AEC_DISP_REP_ENT_REF
  2
AecDbDispRepEntRef
  3
AecBase40|Product Desc: Autodesk Architectural Desktop 2004 |Company: Autodesk,Inc. |WEB Address: www.autodesk.com
 90
    32897
280
     0
281
     0
  0
CLASS
  1
AEC_DISP_REP_LAYOUT_CURVE
  2
AecDbDispRepLayoutCurve
  3
AecBase40|Product Desc: Autodesk Architectural Desktop 2004 |Company: Autodesk,Inc. |WEB Address: www.autodesk.com
 90
    32897
280
     0
281
     0
  0
CLASS
  1
AEC_DISP_REP_LAYOUT_GRID2D
  2
AecDbDispRepLayoutGrid2d
  3
AecBase40|Product Desc: Autodesk Architectural Desktop 2004 |Company: Autodesk,Inc. |WEB Address: www.autodesk.com
 90
    32897
280
     0
281
     0
  0
CLASS
  1
AEC_DISP_REP_LAYOUT_GRID3D
  2
AecDbDispRepLayoutGrid3d
  3
AecBase40|Product Desc: Autodesk Architectural Desktop 2004 |Company: Autodesk,Inc. |WEB Address: www.autodesk.com
 90
    32897
280
     0
281
     0
  0
CLASS
  1
AEC_DISP_REP_MASKBLOCK_REF
  2
AecDbDispRepMaskBlockRef
  3
AecBase40|Product Desc: Autodesk Architectural Desktop 2004 |Company: Autodesk,Inc. |WEB Address: www.autodesk.com
 90
    32897
280
     0
281
     0
  0
CLASS
  1
AEC_DISP_REP_MASKBLOCK_REF_RCP
  2
AecDbDispRepMaskBlockRefRcp
  3
AecArchBase40|Product Desc: Autodesk Architectural Desktop 2004 |Company: Autodesk,Inc. |WEB Address: www.autodesk.com
 90
    32897
280
     0
281
     0
  0
CLASS
  1
AEC_DISP_REP_MASS_ELEM_MODEL
  2
AecDbDispRepMassElemModel
  3
AecBase40|Product Desc: Autodesk Architectural Desktop 2004 |Company: Autodesk,Inc. |WEB Address: www.autodesk.com
 90
    32897
280
     0
281
     0
  0
CLASS
  1
AEC_DISP_REP_MASS_ELEM_SCHEM
  2
AecDbDispRepMassElemSchem
  3
AecBase40|Product Desc: Autodesk Architectural Desktop 2004 |Company: Autodesk,Inc. |WEB Address: www.autodesk.com
 90
    32897
280
     0
281
     0
  0
CLASS
  1
AEC_DISP_REP_MASS_GROUP_MODEL
  2
AecDbDispRepMassGroupModel
  3
AecBase40|Product Desc: Autodesk Architectural Desktop 2004 |Company: Autodesk,Inc. |WEB Address: www.autodesk.com
 90
    32897
280
     0
281
     0
  0
CLASS
  1
AEC_DISP_REP_MASS_GROUP_PLAN
  2
AecDbDispRepMassGroupPlan
  3
AecBase40|Product Desc: Autodesk Architectural Desktop 2004 |Company: Autodesk,Inc. |WEB Address: www.autodesk.com
 90
    32897
280
     0
281
     0
  0
CLASS
  1
AEC_DISP_REP_MATERIAL
  2
AecDbDispRepMaterial
  3
AecBase40|Product Desc: Autodesk Architectural Desktop 2004 |Company: Autodesk,Inc. |WEB Address: www.autodesk.com
 90
    32897
280
     0
281
     0
  0
CLASS
  1
AEC_DISP_REP_MVBLOCK_REF
  2
AecDbDispRepMvBlockRef
  3
AecBase40|Product Desc: Autodesk Architectural Desktop 2004 |Company: Autodesk,Inc. |WEB Address: www.autodesk.com
 90
    32897
280
     0
281
     0
  0
CLASS
  1
AEC_DISP_REP_MVBLOCK_REF_MODEL
  2
AecDbDispRepMvBlockRefModel
  3
AecBase40|Product Desc: Autodesk Architectural Desktop 2004 |Company: Autodesk,Inc. |WEB Address: www.autodesk.com
 90
    32897
280
     0
281
     0
  0
CLASS
  1
AEC_DISP_REP_OPENING
  2
AecDbDispRepOpening
  3
AecArchBase40|Product Desc: Autodesk Architectural Desktop 2004 |Company: Autodesk,Inc. |WEB Address: www.autodesk.com
 90
    32897
280
     0
281
     0
  0
CLASS
  1
AEC_DISP_REP_OPENING_MODEL
  2
AecDbDispRepOpeningModel
  3
AecArchBase40|Product Desc: Autodesk Architectural Desktop 2004 |Company: Autodesk,Inc. |WEB Address: www.autodesk.com
 90
    32897
280
     0
281
     0
  0
CLASS
  1
AEC_DISP_REP_POLYGON_MODEL
  2
AecDbDispRepPolygonModel
  3
AecBase40|Product Desc: Autodesk Architectural Desktop 2004 |Company: Autodesk,Inc. |WEB Address: www.autodesk.com
 90
    32897
280
     0
281
     0
  0
CLASS
  1
AEC_DISP_REP_RAILING_MODEL
  2
AecDbDispRepRailingModel
  3
AecArchBase40|Product Desc: Autodesk Architectural Desktop 2004 |Company: Autodesk,Inc. |WEB Address: www.autodesk.com
 90
    32897
280
     0
281
     0
  0
CLASS
  1
AEC_DISP_REP_RAILING_PLAN
  2
AecDbDispRepRailingPlan
  3
AecArchBase40|Product Desc: Autodesk Architectural Desktop 2004 |Company: Autodesk,Inc. |WEB Address: www.autodesk.com
 90
    32897
280
     0
281
     0
  0
CLASS
  1
AEC_DISP_REP_ROOF_MODEL
  2
AecDbDispRepRoofModel
  3
AecArchBase40|Product Desc: Autodesk Architectural Desktop 2004 |Company: Autodesk,Inc. |WEB Address: www.autodesk.com
 90
    32897
280
     0
281
     0
  0
CLASS
  1
AEC_DISP_REP_ROOF_PLAN
  2
AecDbDispRepRoofPlan
  3
AecArchBase40|Product Desc: Autodesk Architectural Desktop 2004 |Company: Autodesk,Inc. |WEB Address: www.autodesk.com
 90
    32897
280
     0
281
     0
  0
CLASS
  1
AEC_DISP_REP_ROOFSLAB_MODEL
  2
AecDbDispRepRoofSlabModel
  3
AecArchBase40|Product Desc: Autodesk Architectural Desktop 2004 |Company: Autodesk,Inc. |WEB Address: www.autodesk.com
 90
    32897
280
     0
281
     0
  0
CLASS
  1
AEC_DISP_REP_ROOFSLAB_PLAN
  2
AecDbDispRepRoofSlabPlan
  3
AecArchBase40|Product Desc: Autodesk Architectural Desktop 2004 |Company: Autodesk,Inc. |WEB Address: www.autodesk.com
 90
    32897
280
     0
281
     0
  0
CLASS
  1
AEC_DISP_REP_SCHEDULE_TABLE
  2
AecDbDispRepScheduleTable
  3
AecSchedule40|Product Desc: Autodesk Architectural Desktop 2004 |Company: Autodesk,Inc. |WEB Address: www.autodesk.com
 90
    32897
280
     0
281
     0
  0
CLASS
  1
AEC_DISP_REP_SLAB_MODEL
  2
AecDbDispRepSlabModel
  3
AecArchBase40|Product Desc: Autodesk Architectural Desktop 2004 |Company: Autodesk,Inc. |WEB Address: www.autodesk.com
 90
    32897
280
     0
281
     0
  0
CLASS
  1
AEC_DISP_REP_SLAB_PLAN
  2
AecDbDispRepSlabPlan
  3
AecArchBase40|Product Desc: Autodesk Architectural Desktop 2004 |Company: Autodesk,Inc. |WEB Address: www.autodesk.com
 90
    32897
280
     0
281
     0
  0
CLASS
  1
AEC_DISP_REP_SLICE
  2
AecDbDispRepSlice
  3
AecBase40|Product Desc: Autodesk Architectural Desktop 2004 |Company: Autodesk,Inc. |WEB Address: www.autodesk.com
 90
    32897
280
     0
281
     0
  0
CLASS
  1
AEC_DISP_REP_SPACE_BOUNDARY_MODEL
  2
AecDbDispRepSpaceBoundaryModel
  3
AecArchBase40|Product Desc: Autodesk Architectural Desktop 2004 |Company: Autodesk,Inc. |WEB Address: www.autodesk.com
 90
    32897
280
     0
281
     0
  0
CLASS
  1
AEC_DISP_REP_SPACE_BOUNDARY_PLAN
  2
AecDbDispRepSpaceBoundaryPlan
  3
AecArchBase40|Product Desc: Autodesk Architectural Desktop 2004 |Company: Autodesk,Inc. |WEB Address: www.autodesk.com
 90
    32897
280
     0
281
     0
  0
CLASS
  1
AEC_DISP_REP_SPACE_BOUNDARY_SCHEM
  2
AecDbDispRepSpaceBoundarySketch
  3
AecArchBase40|Product Desc: Autodesk Architectural Desktop 2004 |Company: Autodesk,Inc. |WEB Address: www.autodesk.com
 90
    32897
280
     0
281
     0
  0
CLASS
  1
AEC_DISP_REP_SPACE_MODEL
  2
AecDbDispRepSpaceModel
  3
AecArchBase40|Product Desc: Autodesk Architectural Desktop 2004 |Company: Autodesk,Inc. |WEB Address: www.autodesk.com
 90
    32897
280
     0
281
     0
  0
CLASS
  1
AEC_DISP_REP_SPACE_PLAN
  2
AecDbDispRepSpacePlan
  3
AecArchBase40|Product Desc: Autodesk Architectural Desktop 2004 |Company: Autodesk,Inc. |WEB Address: www.autodesk.com
 90
    32897
280
     0
281
     0
  0
CLASS
  1
AEC_DISP_REP_STAIR_MODEL
  2
AecDbDispRepStairModel
  3
AecArchBase40|Product Desc: Autodesk Architectural Desktop 2004 |Company: Autodesk,Inc. |WEB Address: www.autodesk.com
 90
    32897
280
     0
281
     0
  0
CLASS
  1
AEC_DISP_REP_STAIR_PLAN
  2
AecDbDispRepStairPlan
  3
AecArchBase40|Product Desc: Autodesk Architectural Desktop 2004 |Company: Autodesk,Inc. |WEB Address: www.autodesk.com
 90
    32897
280
     0
281
     0
  0
CLASS
  1
AEC_DISP_REP_WALL_GRAPH
  2
AecDbDispRepWallGraph
  3
AecArchBase40|Product Desc: Autodesk Architectural Desktop 2004 |Company: Autodesk,Inc. |WEB Address: www.autodesk.com
 90
    32897
280
     0
281
     0
  0
CLASS
  1
AEC_DISP_REP_WALL_MODEL
  2
AecDbDispRepWallModel
  3
AecArchBase40|Product Desc: Autodesk Architectural Desktop 2004 |Company: Autodesk,Inc. |WEB Address: www.autodesk.com
 90
    32897
280
     0
281
     0
  0
CLASS
  1
AEC_DISP_REP_WALL_PLAN
  2
AecDbDispRepWallPlan
  3
AecArchBase40|Product Desc: Autodesk Architectural Desktop 2004 |Company: Autodesk,Inc. |WEB Address: www.autodesk.com
 90
    32897
280
     0
281
     0
  0
CLASS
  1
AEC_DISP_REP_WALL_SCHEM
  2
AecDbDispRepWallSchem
  3
AecArchBase40|Product Desc: Autodesk Architectural Desktop 2004 |Company: Autodesk,Inc. |WEB Address: www.autodesk.com
 90
    32897
280
     0
281
     0
  0
CLASS
  1
AEC_DISP_REP_WINDOW_ASSEMBLY_MODEL
  2
AecDbDispRepWindowAssemblyModel
  3
AecArchBase40|Product Desc: Autodesk Architectural Desktop 2004 |Company: Autodesk,Inc. |WEB Address: www.autodesk.com
 90
    32897
280
     0
281
     0
  0
CLASS
  1
AEC_DISP_REP_WINDOW_ASSEMBLY_PLAN
  2
AecDbDispRepWindowAssemblyPlan
  3
AecArchBase40|Product Desc: Autodesk Architectural Desktop 2004 |Company: Autodesk,Inc. |WEB Address: www.autodesk.com
 90
    32897
280
     0
281
     0
  0
CLASS
  1
AEC_AECDBDISPREPWINDOWASSEMBLYPLAN100
  2
AecDbDispRepWindowAssemblyPlan100
  3
AecBase40|Product Desc: Autodesk Architectural Desktop 2004 |Company: Autodesk,Inc. |WEB Address: www.autodesk.com
 90
    32897
280
     0
281
     0
  0
CLASS
  1
AEC_DISP_REP_WINDOW_MODEL
  2
AecDbDispRepWindowModel
  3
AecArchBase40|Product Desc: Autodesk Architectural Desktop 2004 |Company: Autodesk,Inc. |WEB Address: www.autodesk.com
 90
    32897
280
     0
281
     0
  0
CLASS
  1
AEC_DISP_REP_WINDOW_NOMINAL
  2
AecDbDispRepWindowNominal
  3
AecArchBase40|Product Desc: Autodesk Architectural Desktop 2004 |Company: Autodesk,Inc. |WEB Address: www.autodesk.com
 90
    32897
280
     0
281
     0
  0
CLASS
  1
AEC_DISP_REP_WINDOW_PLAN
  2
AecDbDispRepWindowPlan
  3
AecArchBase40|Product Desc: Autodesk Architectural Desktop 2004 |Company: Autodesk,Inc. |WEB Address: www.autodesk.com
 90
    32897
280
     0
281
     0
  0
CLASS
  1
AECS_DISP_REP_MEMBER_LOGICAL
  2
AecsDbDispRepMemberLogical
  3
AecStructureBase40|Product Desc: Autodesk Architectural Desktop 2004 |Company: Autodesk,Inc. |WEB Address: www.autodesk.com
 90
    32897
280
     0
281
     0
  0
CLASS
  1
AECS_DISP_REP_MEMBER_MODEL_DESIGN
  2
AecsDbDispRepMemberModelDesign
  3
AecStructureBase40|Product Desc: Autodesk Architectural Desktop 2004 |Company: Autodesk,Inc. |WEB Address: www.autodesk.com
 90
    32897
280
     0
281
     0
  0
CLASS
  1
AECS_DISP_REP_MEMBER_PLAN_DESIGN
  2
AecsDbDispRepMemberPlanDesign
  3
AecStructureBase40|Product Desc: Autodesk Architectural Desktop 2004 |Company: Autodesk,Inc. |WEB Address: www.autodesk.com
 90
    32897
280
     0
281
     0
  0
CLASS
  1
AEC_DISP_PROPS_ENT
  2
AecDbDispPropsEnt
  3
AecBase40|Product Desc: Autodesk Architectural Desktop 2004 |Company: Autodesk,Inc. |WEB Address: www.autodesk.com
 90
    32897
280
     0
281
     0
  0
CLASS
  1
AEC_DISP_PROPS_CLIP_VOLUME
  2
AecDbDispPropsClipVol
  3
AecBase40|Product Desc: Autodesk Architectural Desktop 2004 |Company: Autodesk,Inc. |WEB Address: www.autodesk.com
 90
    32897
280
     0
281
     0
  0
CLASS
  1
AEC_DISP_PROPS_SLICE
  2
AecDbDispPropsSlice
  3
AecBase40|Product Desc: Autodesk Architectural Desktop 2004 |Company: Autodesk,Inc. |WEB Address: www.autodesk.com
 90
    32897
280
     0
281
     0
  0
CLASS
  1
AEC_DISP_PROPS_ROOFSLAB_PLAN
  2
AecDbDispPropsRoofSlabPlan
  3
AecArchBase40|Product Desc: Autodesk Architectural Desktop 2004 |Company: Autodesk,Inc. |WEB Address: www.autodesk.com
 90
    32897
280
     0
281
     0
  0
CLASS
  1
AEC_DISP_PROPS_GRID_ASSEMBLY_MODEL
  2
AecDbDispPropsGridAssemblyModel
  3
AecArchBase40|Product Desc: Autodesk Architectural Desktop 2004 |Company: Autodesk,Inc. |WEB Address: www.autodesk.com
 90
    32897
280
     0
281
     0
  0
CLASS
  1
AEC_DISP_PROPS_ROOF
  2
AecDbDispPropsRoof
  3
AecArchBase40|Product Desc: Autodesk Architectural Desktop 2004 |Company: Autodesk,Inc. |WEB Address: www.autodesk.com
 90
    32897
280
     0
281
     0
  0
CLASS
  1
AEC_DISP_PROPS_SPACE_MODEL
  2
AecDbDispPropsSpaceModel
  3
AecArchBase40|Product Desc: Autodesk Architectural Desktop 2004 |Company: Autodesk,Inc. |WEB Address: www.autodesk.com
 90
    32897
280
     0
281
     0
  0
CLASS
  1
AEC_DISP_PROPS_EDITINPLACEPROFILE_MODEL
  2
AecDbDispPropsEditInPlaceProfile
  3
AecBase40|Product Desc: Autodesk Architectural Desktop 2004 |Company: Autodesk,Inc. |WEB Address: www.autodesk.com
 90
    32897
280
     0
281
     0
  0
CLASS
  1
AEC_DISP_PROPS_DOOR
  2
AecDbDispPropsDoor
  3
AecArchBase40|Product Desc: Autodesk Architectural Desktop 2004 |Company: Autodesk,Inc. |WEB Address: www.autodesk.com
 90
    32897
280
     0
281
     0
  0
CLASS
  1
AEC_DISP_PROPS_MASKBLOCK
  2
AecDbDispPropsMaskBlock
  3
AecBase40|Product Desc: Autodesk Architectural Desktop 2004 |Company: Autodesk,Inc. |WEB Address: www.autodesk.com
 90
    32897
280
     0
281
     0
  0
CLASS
  1
AEC_DISP_PROPS_SPACE_PLAN
  2
AecDbDispPropsSpacePlan
  3
AecArchBase40|Product Desc: Autodesk Architectural Desktop 2004 |Company: Autodesk,Inc. |WEB Address: www.autodesk.com
 90
    32897
280
     0
281
     0
  0
CLASS
  1
AEC_DISP_PROPS_RAILING_PLAN
  2
AecDbDispPropsRailingPlan
  3
AecArchBase40|Product Desc: Autodesk Architectural Desktop 2004 |Company: Autodesk,Inc. |WEB Address: www.autodesk.com
 90
    32897
280
     0
281
     0
  0
CLASS
  1
AEC_DISP_PROPS_LAYOUT_GRID2D
  2
AecDbDispPropsLayoutGrid2d
  3
AecBase40|Product Desc: Autodesk Architectural Desktop 2004 |Company: Autodesk,Inc. |WEB Address: www.autodesk.com
 90
    32897
280
     0
281
     0
  0
CLASS
  1
AEC_DISP_PROPS_CLIP_VOLUME_RESULT
  2
AecDbDispPropsClipVolResSubDiv
  3
AecBase40|Product Desc: Autodesk Architectural Desktop 2004 |Company: Autodesk,Inc. |WEB Address: www.autodesk.com
 90
    32897
280
     0
281
     0
  0
CLASS
  1
AEC_DISP_PROPS_STAIR_MODEL
  2
AecDbDispPropsStairModel
  3
AecArchBase40|Product Desc: Autodesk Architectural Desktop 2004 |Company: Autodesk,Inc. |WEB Address: www.autodesk.com
 90
    32897
280
     0
281
     0
  0
CLASS
  1
AEC_DISP_PROPS_LAYOUT_CURVE
  2
AecDbDispPropsLayoutCurve
  3
AecBase40|Product Desc: Autodesk Architectural Desktop 2004 |Company: Autodesk,Inc. |WEB Address: www.autodesk.com
 90
    32897
280
     0
281
     0
  0
CLASS
  1
AEC_DISP_PROPS_POLYGON_MODEL
  2
AecDbDispPropsPolygonModel
  3
AecBase40|Product Desc: Autodesk Architectural Desktop 2004 |Company: Autodesk,Inc. |WEB Address: www.autodesk.com
 90
    32897
280
     0
281
     0
  0
CLASS
  1
AEC_DISP_PROPS_MASS_GROUP
  2
AecDbDispPropsMassGroup
  3
AecBase40|Product Desc: Autodesk Architectural Desktop 2004 |Company: Autodesk,Inc. |WEB Address: www.autodesk.com
 90
    32897
280
     0
281
     0
  0
CLASS
  1
AEC_DISP_PROPS_STAIR_PLAN
  2
AecDbDispPropsStairPlan
  3
AecArchBase40|Product Desc: Autodesk Architectural Desktop 2004 |Company: Autodesk,Inc. |WEB Address: www.autodesk.com
 90
    32897
280
     0
281
     0
  0
CLASS
  1
AEC_DISP_PROPS_OPENING
  2
AecDbDispPropsOpening
  3
AecArchBase40|Product Desc: Autodesk Architectural Desktop 2004 |Company: Autodesk,Inc. |WEB Address: www.autodesk.com
 90
    32897
280
     0
281
     0
  0
CLASS
  1
AEC_DISP_PROPS_WALL_GRAPH
  2
AecDbDispPropsWallGraph
  3
AecArchBase40|Product Desc: Autodesk Architectural Desktop 2004 |Company: Autodesk,Inc. |WEB Address: www.autodesk.com
 90
    32897
280
     0
281
     0
  0
CLASS
  1
AEC_DISP_PROPS_DOOR_NOMINAL
  2
AecDbDispPropsDoorNominal
  3
AecArchBase40|Product Desc: Autodesk Architectural Desktop 2004 |Company: Autodesk,Inc. |WEB Address: www.autodesk.com
 90
    32897
280
     0
281
     0
  0
CLASS
  1
AEC_DISP_PROPS_SLAB
  2
AecDbDispPropsSlab
  3
AecArchBase40|Product Desc: Autodesk Architectural Desktop 2004 |Company: Autodesk,Inc. |WEB Address: www.autodesk.com
 90
    32897
280
     0
281
     0
  0
CLASS
  1
AEC_DISP_PROPS_WALL_MODEL
  2
AecDbDispPropsWallModel
  3
AecArchBase40|Product Desc: Autodesk Architectural Desktop 2004 |Company: Autodesk,Inc. |WEB Address: www.autodesk.com
 90
    32897
280
     0
281
     0
  0
CLASS
  1
AEC_DISP_PROPS_MATERIAL
  2
AecDbDispPropsMaterial
  3
AecBase40|Product Desc: Autodesk Architectural Desktop 2004 |Company: Autodesk,Inc. |WEB Address: www.autodesk.com
 90
    32897
280
     0
281
     0
  0
CLASS
  1
AEC_DISP_PROPS_WINDOW
  2
AecDbDispPropsWindow
  3
AecArchBase40|Product Desc: Autodesk Architectural Desktop 2004 |Company: Autodesk,Inc. |WEB Address: www.autodesk.com
 90
    32897
280
     0
281
     0
  0
CLASS
  1
AEC_DISP_PROPS_LAYOUT_GRID3D
  2
AecDbDispPropsLayoutGrid3d
  3
AecBase40|Product Desc: Autodesk Architectural Desktop 2004 |Company: Autodesk,Inc. |WEB Address: www.autodesk.com
 90
    32897
280
     0
281
     0
  0
CLASS
  1
AEC_DISP_PROPS_GRID_ASSEMBLY_PLAN
  2
AecDbDispPropsGridAssemblyPlan
  3
AecArchBase40|Product Desc: Autodesk Architectural Desktop 2004 |Company: Autodesk,Inc. |WEB Address: www.autodesk.com
 90
    32897
280
     0
281
     0
  0
CLASS
  1
AEC_DISP_PROPS_WALL_SCHEM
  2
AecDbDispPropsWallSchem
  3
AecArchBase40|Product Desc: Autodesk Architectural Desktop 2004 |Company: Autodesk,Inc. |WEB Address: www.autodesk.com
 90
    32897
280
     0
281
     0
  0
CLASS
  1
AEC_DISP_PROPS_WALL_PLAN
  2
AecDbDispPropsWallPlan
  3
AecArchBase40|Product Desc: Autodesk Architectural Desktop 2004 |Company: Autodesk,Inc. |WEB Address: www.autodesk.com
 90
    32897
280
     0
281
     0
  0
CLASS
  1
AEC_DISP_PROPS_SPACE_BOUNDARY
  2
AecDbDispPropsSpaceBoundary
  3
AecArchBase40|Product Desc: Autodesk Architectural Desktop 2004 |Company: Autodesk,Inc. |WEB Address: www.autodesk.com
 90
    32897
280
     0
281
     0
  0
CLASS
  1
AEC_DISP_PROPS_SLAB_PLAN
  2
AecDbDispPropsSlabPlan
  3
AecArchBase40|Product Desc: Autodesk Architectural Desktop 2004 |Company: Autodesk,Inc. |WEB Address: www.autodesk.com
 90
    32897
280
     0
281
     0
  0
CLASS
  1
AEC_DISP_PROPS_RAILING_MODEL
  2
AecDbDispPropsRailingModel
  3
AecArchBase40|Product Desc: Autodesk Architectural Desktop 2004 |Company: Autodesk,Inc. |WEB Address: www.autodesk.com
 90
    32897
280
     0
281
     0
  0
CLASS
  1
AEC_DISP_PROPS_MASS_ELEM_MODEL
  2
AecDbDispPropsMassElem
  3
AecBase40|Product Desc: Autodesk Architectural Desktop 2004 |Company: Autodesk,Inc. |WEB Address: www.autodesk.com
 90
    32897
280
     0
281
     0
  0
CLASS
  1
AEC_DISP_PROPS_DIM
  2
AecDbDispPropsDimGroup
  3
AecArchDACHBase40|Product Desc: Autodesk Architectural Desktop 2004 |Company: Autodesk,Inc. |WEB Address: www.autodesk.com
 90
    32897
280
     0
281
     0
  0
CLASS
  1
AEC_DISP_PROPS_ROOFSLAB
  2
AecDbDispPropsRoofSlab
  3
AecArchBase40|Product Desc: Autodesk Architectural Desktop 2004 |Company: Autodesk,Inc. |WEB Address: www.autodesk.com
 90
    32897
280
     0
281
     0
  0
CLASS
  1
AEC_DISP_PROPS_ENT_REF
  2
AecDbDispPropsEntRef
  3
AecBase40|Product Desc: Autodesk Architectural Desktop 2004 |Company: Autodesk,Inc. |WEB Address: www.autodesk.com
 90
    32897
280
     0
281
     0
  0
CLASS
  1
AEC_DISP_PROPS_2D_SECTION
  2
AecDbDispProps2dSection
  3
AecBase40|Product Desc: Autodesk Architectural Desktop 2004 |Company: Autodesk,Inc. |WEB Address: www.autodesk.com
 90
    32897
280
     0
281
     0
  0
CLASS
  1
AECS_DISP_PROPS_MEMBER_LOGICAL
  2
AecsDbDispPropsMemberLogical
  3
AecStructureBase40|Product Desc: Autodesk Architectural Desktop 2004 |Company: Autodesk,Inc. |WEB Address: www.autodesk.com
 90
    32897
280
     0
281
     0
  0
CLASS
  1
AEC_DISP_PROPS_AREA_DECOMPOSED
  2
AecDbDispPropsAreaDecomposed
  3
AecAreaCalculationBase40|Product Desc: Autodesk Architectural Desktop 2004 |Company: Autodesk,Inc. |WEB Address: www.autodesk.com
 90
    32897
280
     0
281
     0
  0
CLASS
  1
AEC_DISP_PROPS_CAMERA
  2
AecDbDispPropsCamera
  3
AecBase40|Product Desc: Autodesk Architectural Desktop 2004 |Company: Autodesk,Inc. |WEB Address: www.autodesk.com
 90
    32897
280
     0
281
     0
  0
CLASS
  1
AECS_DISP_PROPS_MEMBER
  2
AecsDbDispPropsMember
  3
AecStructureBase40|Product Desc: Autodesk Architectural Desktop 2004 |Company: Autodesk,Inc. |WEB Address: www.autodesk.com
 90
    32897
280
     0
281
     0
  0
CLASS
  1
AECS_DISP_PROPS_MEMBER_PLAN
  2
AecsDbDispPropsMemberPlan
  3
AecStructureBase40|Product Desc: Autodesk Architectural Desktop 2004 |Company: Autodesk,Inc. |WEB Address: www.autodesk.com
 90
    32897
280
     0
281
     0
  0
CLASS
  1
AEC_DISP_PROPS_AREAGROUP
  2
AecDbDispPropsAreaGroup
  3
AecAreaCalculationBase40|Product Desc: Autodesk Architectural Desktop 2004 |Company: Autodesk,Inc. |WEB Address: www.autodesk.com
 90
    32897
280
     0
281
     0
  0
CLASS
  1
AEC_DISP_PROPS_WINDOW_NOMINAL
  2
AecDbDispPropsWindowNominal
  3
AecArchBase40|Product Desc: Autodesk Architectural Desktop 2004 |Company: Autodesk,Inc. |WEB Address: www.autodesk.com
 90
    32897
280
     0
281
     0
  0
CLASS
  1
AEC_DISP_PROPS_AREA
  2
AecDbDispPropsArea
  3
AecAreaCalculationBase40|Product Desc: Autodesk Architectural Desktop 2004 |Company: Autodesk,Inc. |WEB Address: www.autodesk.com
 90
    32897
280
     0
281
     0
  0
CLASS
  1
AEC_DISP_PROPS_SCHEDULE_TABLE
  2
AecDbDispPropsScheduleTable
  3
AecSchedule40|Product Desc: Autodesk Architectural Desktop 2004 |Company: Autodesk,Inc. |WEB Address: www.autodesk.com
 90
    32897
280
     0
281
     0
  0
CLASS
  1
AEC_LAYERKEY_STYLE
  2
AecDbLayerKeyStyle
  3
AecBase40|Product Desc: Autodesk Architectural Desktop 2004 |Company: Autodesk,Inc. |WEB Address: www.autodesk.com
 90
    32897
280
     0
281
     0
  0
CLASS
  1
AEC_VARS_ARCHBASE
  2
AecDbVarsArchBase
  3
AecArchBase40|Product Desc: Autodesk Architectural Desktop 2004 |Company: Autodesk,Inc. |WEB Address: www.autodesk.com
 90
    32897
280
     0
281
     0
  0
CLASS
  1
AEC_VARS_MUNICH
  2
AecDbVarsMunich
  3
AecArchDACHBase40|Product Desc: Autodesk Architectural Desktop 2004 |Company: Autodesk,Inc. |WEB Address: www.autodesk.com
 90
    32897
280
     0
281
     0
  0
CLASS
  1
AEC_NOTIFICATION_TRACKER
  2
AecDbNotificationTracker
  3
AecBase40|Product Desc: Autodesk Architectural Desktop 2004 |Company: Autodesk,Inc. |WEB Address: www.autodesk.com
 90
    32897
280
     0
281
     0
  0
CLASS
  1
AEC_DISP_REP_ANCHOR
  2
AecDbDispRepAnchor
  3
AecBase40|Product Desc: Autodesk Architectural Desktop 2004 |Company: Autodesk,Inc. |WEB Address: www.autodesk.com
 90
    32897
280
     0
281
     0
  0
CLASS
  1
AEC_DISP_REP_POLYGON_TRUECOLOUR
  2
AecDbDispRepPolygonTrueColour
  3
AecBase40|Product Desc: Autodesk Architectural Desktop 2004 |Company: Autodesk,Inc. |WEB Address: www.autodesk.com
 90
    32897
280
     0
281
     0
  0
CLASS
  1
AEC_DISP_PROPS_POLYGON_TRUECOLOUR
  2
AecDbDispPropsPolygonTrueColour
  3
AecBase40|Product Desc: Autodesk Architectural Desktop 2004 |Company: Autodesk,Inc. |WEB Address: www.autodesk.com
 90
    32897
280
     0
281
     0
  0
CLASS
  1
AEC_DISP_REP_BDG_ELEVLINE_RCP
  2
AecDbDispRepBdgElevLineRcp
  3
AecArchBase40|Product Desc: Autodesk Architectural Desktop 2004 |Company: Autodesk,Inc. |WEB Address: www.autodesk.com
 90
    32897
280
     0
281
     0
  0
CLASS
  1
AEC_DISP_REP_BDG_SECTIONLINE_RCP
  2
AecDbDispRepBdgSectionLineRcp
  3
AecArchBase40|Product Desc: Autodesk Architectural Desktop 2004 |Company: Autodesk,Inc. |WEB Address: www.autodesk.com
 90
    32897
280
     0
281
     0
  0
CLASS
  1
AEC_DISP_REP_BDG_SECTION_MODEL
  2
AecDbDispRepBdgSectionModel
  3
AecArchBase40|Product Desc: Autodesk Architectural Desktop 2004 |Company: Autodesk,Inc. |WEB Address: www.autodesk.com
 90
    32897
280
     0
281
     0
  0
CLASS
  1
AEC_DISP_REP_DOOR_ELEV
  2
AecDbDispRepDoorElev
  3
AecArchBase40|Product Desc: Autodesk Architectural Desktop 2004 |Company: Autodesk,Inc. |WEB Address: www.autodesk.com
 90
    32897
280
     0
281
     0
  0
CLASS
  1
AEC_DISP_REP_DOOR_RCP
  2
AecDbDispRepDoorRcp
  3
AecArchBase40|Product Desc: Autodesk Architectural Desktop 2004 |Company: Autodesk,Inc. |WEB Address: www.autodesk.com
 90
    32897
280
     0
281
     0
  0
CLASS
  1
AEC_DISP_REP_DOOR_THRESHOLD_PLAN
  2
AecDbDispRepDoorThresholdPlan
  3
AecArchBase40|Product Desc: Autodesk Architectural Desktop 2004 |Company: Autodesk,Inc. |WEB Address: www.autodesk.com
 90
    32897
280
     0
281
     0
  0
CLASS
  1
AEC_DISP_PROPS_DOOR_THRESHOLD_PLAN
  2
AecDbDispPropsDoorThresholdPlan
  3
AecArchBase40|Product Desc: Autodesk Architectural Desktop 2004 |Company: Autodesk,Inc. |WEB Address: www.autodesk.com
 90
    32897
280
     0
281
     0
  0
CLASS
  1
AEC_DISP_REP_MASS_ELEM_RCP
  2
AecDbDispRepMassElemRcp
  3
AecArchBase40|Product Desc: Autodesk Architectural Desktop 2004 |Company: Autodesk,Inc. |WEB Address: www.autodesk.com
 90
    32897
280
     0
281
     0
  0
CLASS
  1
AEC_DISP_REP_MASS_GROUP_RCP
  2
AecDbDispRepMassGroupRcp
  3
AecArchBase40|Product Desc: Autodesk Architectural Desktop 2004 |Company: Autodesk,Inc. |WEB Address: www.autodesk.com
 90
    32897
280
     0
281
     0
  0
CLASS
  1
AEC_DISP_REP_MVBLOCK_REF_RCP
  2
AecDbDispRepMvBlockRefRcp
  3
AecArchBase40|Product Desc: Autodesk Architectural Desktop 2004 |Company: Autodesk,Inc. |WEB Address: www.autodesk.com
 90
    32897
280
     0
281
     0
  0
CLASS
  1
AEC_DISP_REP_ROOF_RCP
  2
AecDbDispRepRoofRcp
  3
AecArchBase40|Product Desc: Autodesk Architectural Desktop 2004 |Company: Autodesk,Inc. |WEB Address: www.autodesk.com
 90
    32897
280
     0
281
     0
  0
CLASS
  1
AEC_DISP_REP_SPACE_BOUNDARY_DIAGRAM
  2
AecDbDispRepSpaceBoundaryDgrm
  3
AecArchBase40|Product Desc: Autodesk Architectural Desktop 2004 |Company: Autodesk,Inc. |WEB Address: www.autodesk.com
 90
    32897
280
     0
281
     0
  0
CLASS
  1
AEC_DISP_REP_SPACE_RCP
  2
AecDbDispRepSpaceRcp
  3
AecArchBase40|Product Desc: Autodesk Architectural Desktop 2004 |Company: Autodesk,Inc. |WEB Address: www.autodesk.com
 90
    32897
280
     0
281
     0
  0
CLASS
  1
AEC_DISP_REP_SPACE_VOLUME
  2
AecDbDispRepSpaceVolume
  3
AecArchBase40|Product Desc: Autodesk Architectural Desktop 2004 |Company: Autodesk,Inc. |WEB Address: www.autodesk.com
 90
    32897
280
     0
281
     0
  0
CLASS
  1
AEC_DISP_REP_STAIR_PLAN_OVERLAPPING
  2
AecDbDispRepStairPlanOverlapping
  3
AecArchBase40|Product Desc: Autodesk Architectural Desktop 2004 |Company: Autodesk,Inc. |WEB Address: www.autodesk.com
 90
    32897
280
     0
281
     0
  0
CLASS
  1
AEC_DISP_PROPS_STAIR_PLAN_OVERLAPPING
  2
AecDbDispPropsStairPlanOverlapping
  3
AecArchBase40|Product Desc: Autodesk Architectural Desktop 2004 |Company: Autodesk,Inc. |WEB Address: www.autodesk.com
 90
    32897
280
     0
281
     0
  0
CLASS
  1
AEC_DISP_REP_STAIR_RCP
  2
AecDbDispRepStairRcp
  3
AecArchBase40|Product Desc: Autodesk Architectural Desktop 2004 |Company: Autodesk,Inc. |WEB Address: www.autodesk.com
 90
    32897
280
     0
281
     0
  0
CLASS
  1
AEC_DISP_REP_WALL_RCP
  2
AecDbDispRepWallRcp
  3
AecArchBase40|Product Desc: Autodesk Architectural Desktop 2004 |Company: Autodesk,Inc. |WEB Address: www.autodesk.com
 90
    32897
280
     0
281
     0
  0
CLASS
  1
AEC_DISP_REP_WINDOWASSEMBLY_SILL_PLAN
  2
AecDbDispRepWindowAssemblySillPlan
  3
AecArchBase40|Product Desc: Autodesk Architectural Desktop 2004 |Company: Autodesk,Inc. |WEB Address: www.autodesk.com
 90
    32897
280
     0
281
     0
  0
CLASS
  1
AEC_DISP_PROPS_WINDOW_ASSEMBLY_SILL_PLAN
  2
AecDbDispPropsWindowAssemblySillPlan
  3
AecArchBase40|Product Desc: Autodesk Architectural Desktop 2004 |Company: Autodesk,Inc. |WEB Address: www.autodesk.com
 90
    32897
280
     0
281
     0
  0
CLASS
  1
AEC_DISP_REP_WINDOW_ELEV
  2
AecDbDispRepWindowElev
  3
AecArchBase40|Product Desc: Autodesk Architectural Desktop 2004 |Company: Autodesk,Inc. |WEB Address: www.autodesk.com
 90
    32897
280
     0
281
     0
  0
CLASS
  1
AEC_DISP_REP_WINDOW_RCP
  2
AecDbDispRepWindowRcp
  3
AecArchBase40|Product Desc: Autodesk Architectural Desktop 2004 |Company: Autodesk,Inc. |WEB Address: www.autodesk.com
 90
    32897
280
     0
281
     0
  0
CLASS
  1
AEC_DISP_REP_WINDOW_SILL_PLAN
  2
AecDbDispRepWindowSillPlan
  3
AecArchBase40|Product Desc: Autodesk Architectural Desktop 2004 |Company: Autodesk,Inc. |WEB Address: www.autodesk.com
 90
    32897
280
     0
281
     0
  0
CLASS
  1
AEC_DISP_PROPS_WINDOW_SILL_PLAN
  2
AecDbDispPropsWindowSillPlan
  3
AecArchBase40|Product Desc: Autodesk Architectural Desktop 2004 |Company: Autodesk,Inc. |WEB Address: www.autodesk.com
 90
    32897
280
     0
281
     0
  0
CLASS
  1
AEC_DISP_REP_ANCHOR_BUB_TO_GRID_RCP
  2
AecDbDispRepAnchorBubToGridRcp
  3
AecStructureBase40|Product Desc: Autodesk Architectural Desktop 2004 |Company: Autodesk,Inc. |WEB Address: www.autodesk.com
 90
    32897
280
     0
281
     0
  0
CLASS
  1
AEC_DISP_REP_COLUMN_GRID_RCP
  2
AecDbDispRepColumnGridRcp
  3
AecStructureBase40|Product Desc: Autodesk Architectural Desktop 2004 |Company: Autodesk,Inc. |WEB Address: www.autodesk.com
 90
    32897
280
     0
281
     0
  0
CLASS
  1
AECS_DISP_REP_MEMBER_ELEVATION_DESIGN
  2
AecsDbDispRepMemberElevationDesign
  3
AecStructureBase40|Product Desc: Autodesk Architectural Desktop 2004 |Company: Autodesk,Inc. |WEB Address: www.autodesk.com
 90
    32897
280
     0
281
     0
  0
CLASS
  1
AECS_DISP_PROPS_MEMBER_PROJECTED
  2
AecsDbDispPropsMemberProjected
  3
AecStructureBase40|Product Desc: Autodesk Architectural Desktop 2004 |Company: Autodesk,Inc. |WEB Address: www.autodesk.com
 90
    32897
280
     0
281
     0
  0
CLASS
  1
AECS_DISP_REP_MEMBER_ELEVATION_DETAIL
  2
AecsDbDispRepMemberElevationDetail
  3
AecStructureBase40|Product Desc: Autodesk Architectural Desktop 2004 |Company: Autodesk,Inc. |WEB Address: www.autodesk.com
 90
    32897
280
     0
281
     0
  0
CLASS
  1
AECS_DISP_REP_MEMBER_MODEL_DETAIL
  2
AecsDbDispRepMemberModelDetail
  3
AecStructureBase40|Product Desc: Autodesk Architectural Desktop 2004 |Company: Autodesk,Inc. |WEB Address: www.autodesk.com
 90
    32897
280
     0
281
     0
  0
CLASS
  1
AECS_DISP_REP_MEMBER_PLAN_DETAIL
  2
AecsDbDispRepMemberPlanDetail
  3
AecStructureBase40|Product Desc: Autodesk Architectural Desktop 2004 |Company: Autodesk,Inc. |WEB Address: www.autodesk.com
 90
    32897
280
     0
281
     0
  0
CLASS
  1
AECS_DISP_REP_MEMBER_PLAN_SKETCH
  2
AecsDbDispRepMemberPlanSketch
  3
AecStructureBase40|Product Desc: Autodesk Architectural Desktop 2004 |Company: Autodesk,Inc. |WEB Address: www.autodesk.com
 90
    32897
280
     0
281
     0
  0
CLASS
  1
AECS_DISP_PROPS_MEMBER_PLAN_SKETCH
  2
AecsDbDispPropsMemberPlanSketch
  3
AecStructureBase40|Product Desc: Autodesk Architectural Desktop 2004 |Company: Autodesk,Inc. |WEB Address: www.autodesk.com
 90
    32897
280
     0
281
     0
  0
CLASS
  1
AEC_AECDBDISPREPAREA100
  2
AecDbDispRepArea100
  3
AecBase40|Product Desc: Autodesk Architectural Desktop 2004 |Company: Autodesk,Inc. |WEB Address: www.autodesk.com
 90
    32897
280
     0
281
     0
  0
CLASS
  1
AEC_AECDBDISPREPAREAGROUP100
  2
AecDbDispRepAreaGroup100
  3
AecBase40|Product Desc: Autodesk Architectural Desktop 2004 |Company: Autodesk,Inc. |WEB Address: www.autodesk.com
 90
    32897
280
     0
281
     0
  0
CLASS
  1
AEC_AECDBDISPREPBDGELEVLINEPLAN100
  2
AecDbDispRepBdgElevLinePlan100
  3
AecBase40|Product Desc: Autodesk Architectural Desktop 2004 |Company: Autodesk,Inc. |WEB Address: www.autodesk.com
 90
    32897
280
     0
281
     0
  0
CLASS
  1
AEC_AECDBDISPREPBDGSECTIONLINEPLAN100
  2
AecDbDispRepBdgSectionLinePlan100
  3
AecBase40|Product Desc: Autodesk Architectural Desktop 2004 |Company: Autodesk,Inc. |WEB Address: www.autodesk.com
 90
    32897
280
     0
281
     0
  0
CLASS
  1
AEC_AECDBDISPREPCEILINGGRIDPLAN100
  2
AecDbDispRepCeilingGridPlan100
  3
AecBase40|Product Desc: Autodesk Architectural Desktop 2004 |Company: Autodesk,Inc. |WEB Address: www.autodesk.com
 90
    32897
280
     0
281
     0
  0
CLASS
  1
AEC_AECDBDISPREPCOLUMNGRIDPLAN100
  2
AecDbDispRepColumnGridPlan100
  3
AecBase40|Product Desc: Autodesk Architectural Desktop 2004 |Company: Autodesk,Inc. |WEB Address: www.autodesk.com
 90
    32897
280
     0
281
     0
  0
CLASS
  1
AEC_AECDBDISPREPCURTAINWALLLAYOUTPLAN100
  2
AecDbDispRepCurtainWallLayoutPlan100
  3
AecBase40|Product Desc: Autodesk Architectural Desktop 2004 |Company: Autodesk,Inc. |WEB Address: www.autodesk.com
 90
    32897
280
     0
281
     0
  0
CLASS
  1
AEC_AECDBDISPREPCURTAINWALLUNITPLAN100
  2
AecDbDispRepCurtainWallUnitPlan100
  3
AecBase40|Product Desc: Autodesk Architectural Desktop 2004 |Company: Autodesk,Inc. |WEB Address: www.autodesk.com
 90
    32897
280
     0
281
     0
  0
CLASS
  1
AEC_AECDBDISPREPMVBLOCKREFPLAN100
  2
AecDbDispRepMvBlockRefPlan100
  3
AecBase40|Product Desc: Autodesk Architectural Desktop 2004 |Company: Autodesk,Inc. |WEB Address: www.autodesk.com
 90
    32897
280
     0
281
     0
  0
CLASS
  1
AEC_AECDBDISPREPROOFPLAN100
  2
AecDbDispRepRoofPlan100
  3
AecBase40|Product Desc: Autodesk Architectural Desktop 2004 |Company: Autodesk,Inc. |WEB Address: www.autodesk.com
 90
    32897
280
     0
281
     0
  0
CLASS
  1
AEC_AECDBDISPREPROOFSLABPLAN100
  2
AecDbDispRepRoofSlabPlan100
  3
AecBase40|Product Desc: Autodesk Architectural Desktop 2004 |Company: Autodesk,Inc. |WEB Address: www.autodesk.com
 90
    32897
280
     0
281
     0
  0
CLASS
  1
AEC_AECDBDISPREPSLABPLAN100
  2
AecDbDispRepSlabPlan100
  3
AecBase40|Product Desc: Autodesk Architectural Desktop 2004 |Company: Autodesk,Inc. |WEB Address: www.autodesk.com
 90
    32897
280
     0
281
     0
  0
CLASS
  1
AEC_AECDBDISPREPSPACEBOUNDARYPLAN100
  2
AecDbDispRepSpaceBoundaryPlan100
  3
AecBase40|Product Desc: Autodesk Architectural Desktop 2004 |Company: Autodesk,Inc. |WEB Address: www.autodesk.com
 90
    32897
280
     0
281
     0
  0
CLASS
  1
AEC_AECDBDISPREPSPACEPLAN100
  2
AecDbDispRepSpacePlan100
  3
AecBase40|Product Desc: Autodesk Architectural Desktop 2004 |Company: Autodesk,Inc. |WEB Address: www.autodesk.com
 90
    32897
280
     0
281
     0
  0
CLASS
  1
AEC_AECDBDISPREPWALLPLAN100
  2
AecDbDispRepWallPlan100
  3
AecBase40|Product Desc: Autodesk Architectural Desktop 2004 |Company: Autodesk,Inc. |WEB Address: www.autodesk.com
 90
    32897
280
     0
281
     0
  0
CLASS
  1
AEC_AECDBDISPREPAREA50
  2
AecDbDispRepArea50
  3
AecBase40|Product Desc: Autodesk Architectural Desktop 2004 |Company: Autodesk,Inc. |WEB Address: www.autodesk.com
 90
    32897
280
     0
281
     0
  0
CLASS
  1
AEC_AECDBDISPREPAREAGROUP50
  2
AecDbDispRepAreaGroup50
  3
AecBase40|Product Desc: Autodesk Architectural Desktop 2004 |Company: Autodesk,Inc. |WEB Address: www.autodesk.com
 90
    32897
280
     0
281
     0
  0
CLASS
  1
AEC_AECDBDISPREPBDGELEVLINEPLAN50
  2
AecDbDispRepBdgElevLinePlan50
  3
AecBase40|Product Desc: Autodesk Architectural Desktop 2004 |Company: Autodesk,Inc. |WEB Address: www.autodesk.com
 90
    32897
280
     0
281
     0
  0
CLASS
  1
AEC_AECDBDISPREPBDGSECTIONLINEPLAN50
  2
AecDbDispRepBdgSectionLinePlan50
  3
AecBase40|Product Desc: Autodesk Architectural Desktop 2004 |Company: Autodesk,Inc. |WEB Address: www.autodesk.com
 90
    32897
280
     0
281
     0
  0
CLASS
  1
AEC_AECDBDISPREPCEILINGGRIDPLAN50
  2
AecDbDispRepCeilingGridPlan50
  3
AecBase40|Product Desc: Autodesk Architectural Desktop 2004 |Company: Autodesk,Inc. |WEB Address: www.autodesk.com
 90
    32897
280
     0
281
     0
  0
CLASS
  1
AEC_AECDBDISPREPCOLUMNGRIDPLAN50
  2
AecDbDispRepColumnGridPlan50
  3
AecBase40|Product Desc: Autodesk Architectural Desktop 2004 |Company: Autodesk,Inc. |WEB Address: www.autodesk.com
 90
    32897
280
     0
281
     0
  0
CLASS
  1
AEC_AECDBDISPREPCURTAINWALLLAYOUTPLAN50
  2
AecDbDispRepCurtainWallLayoutPlan50
  3
AecBase40|Product Desc: Autodesk Architectural Desktop 2004 |Company: Autodesk,Inc. |WEB Address: www.autodesk.com
 90
    32897
280
     0
281
     0
  0
CLASS
  1
AEC_AECDBDISPREPCURTAINWALLUNITPLAN50
  2
AecDbDispRepCurtainWallUnitPlan50
  3
AecBase40|Product Desc: Autodesk Architectural Desktop 2004 |Company: Autodesk,Inc. |WEB Address: www.autodesk.com
 90
    32897
280
     0
281
     0
  0
CLASS
  1
AEC_AECDBDISPREPMVBLOCKREFPLAN50
  2
AecDbDispRepMvBlockRefPlan50
  3
AecBase40|Product Desc: Autodesk Architectural Desktop 2004 |Company: Autodesk,Inc. |WEB Address: www.autodesk.com
 90
    32897
280
     0
281
     0
  0
CLASS
  1
AEC_AECDBDISPREPROOFPLAN50
  2
AecDbDispRepRoofPlan50
  3
AecBase40|Product Desc: Autodesk Architectural Desktop 2004 |Company: Autodesk,Inc. |WEB Address: www.autodesk.com
 90
    32897
280
     0
281
     0
  0
CLASS
  1
AEC_AECDBDISPREPROOFSLABPLAN50
  2
AecDbDispRepRoofSlabPlan50
  3
AecBase40|Product Desc: Autodesk Architectural Desktop 2004 |Company: Autodesk,Inc. |WEB Address: www.autodesk.com
 90
    32897
280
     0
281
     0
  0
CLASS
  1
AEC_AECDBDISPREPSLABPLAN50
  2
AecDbDispRepSlabPlan50
  3
AecBase40|Product Desc: Autodesk Architectural Desktop 2004 |Company: Autodesk,Inc. |WEB Address: www.autodesk.com
 90
    32897
280
     0
281
     0
  0
CLASS
  1
AEC_AECDBDISPREPSPACEBOUNDARYPLAN50
  2
AecDbDispRepSpaceBoundaryPlan50
  3
AecBase40|Product Desc: Autodesk Architectural Desktop 2004 |Company: Autodesk,Inc. |WEB Address: www.autodesk.com
 90
    32897
280
     0
281
     0
  0
CLASS
  1
AEC_AECDBDISPREPSPACEPLAN50
  2
AecDbDispRepSpacePlan50
  3
AecBase40|Product Desc: Autodesk Architectural Desktop 2004 |Company: Autodesk,Inc. |WEB Address: www.autodesk.com
 90
    32897
280
     0
281
     0
  0
CLASS
  1
AEC_AECDBDISPREPWALLPLAN50
  2
AecDbDispRepWallPlan50
  3
AecBase40|Product Desc: Autodesk Architectural Desktop 2004 |Company: Autodesk,Inc. |WEB Address: www.autodesk.com
 90
    32897
280
     0
281
     0
  0
CLASS
  1
AEC_AECDBDISPREPWINDOWASSEMBLYPLAN50
  2
AecDbDispRepWindowAssemblyPlan50
  3
AecBase40|Product Desc: Autodesk Architectural Desktop 2004 |Company: Autodesk,Inc. |WEB Address: www.autodesk.com
 90
    32897
280
     0
281
     0
  0
CLASS
  1
AEC_DB_DISP_REP_DIM_GROUP_PLAN100
  2
AecDbDispRepDimGroupPlan100
  3
AecArchDACHBase40|Product Desc: Autodesk Architectural Desktop 2004 |Company: Autodesk,Inc. |WEB Address: www.autodesk.com
 90
    32897
280
     0
281
     0
  0
CLASS
  1
AEC_DB_DISP_REP_DIM_GROUP_PLAN50
  2
AecDbDispRepDimGroupPlan50
  3
AecArchDACHBase40|Product Desc: Autodesk Architectural Desktop 2004 |Company: Autodesk,Inc. |WEB Address: www.autodesk.com
 90
    32897
280
     0
281
     0
  0
CLASS
  1
AEC_DISP_REP_DOOR_PLAN_50
  2
AecDbDispRepDoorPlan50
  3
AecArchDACHBase40|Product Desc: Autodesk Architectural Desktop 2004 |Company: Autodesk,Inc. |WEB Address: www.autodesk.com
 90
    32897
280
     0
281
     0
  0
CLASS
  1
AEC_DISP_PROPS_DOOR_PLAN_50
  2
AecDbDispPropsDoorPlan50
  3
AecArchDACHBase40|Product Desc: Autodesk Architectural Desktop 2004 |Company: Autodesk,Inc. |WEB Address: www.autodesk.com
 90
    32897
280
     0
281
     0
  0
CLASS
  1
AEC_DISP_REP_DOOR_PLAN_HEKTO
  2
AecDbDispRepDoorPlanHekto
  3
AecArchDACHBase40|Product Desc: Autodesk Architectural Desktop 2004 |Company: Autodesk,Inc. |WEB Address: www.autodesk.com
 90
    32897
280
     0
281
     0
  0
CLASS
  1
AEC_DISP_PROPS_DOOR_PLAN_100
  2
AecDbDispPropsDoorPlan100
  3
AecArchDACHBase40|Product Desc: Autodesk Architectural Desktop 2004 |Company: Autodesk,Inc. |WEB Address: www.autodesk.com
 90
    32897
280
     0
281
     0
  0
CLASS
  1
AEC_DISP_REP_DOOR_THRESHOLD_SYMBOL_PLAN
  2
AecDbDispRepDoorThresholdSymbolPlan
  3
AecArchDACHBase40|Product Desc: Autodesk Architectural Desktop 2004 |Company: Autodesk,Inc. |WEB Address: www.autodesk.com
 90
    32897
280
     0
281
     0
  0
CLASS
  1
AEC_DISP_PROPS_DOOR_THRESHOLD_SYMBOL_PLAN
  2
AecDbDispPropsDoorThresholdSymbolPlan
  3
AecArchDACHBase40|Product Desc: Autodesk Architectural Desktop 2004 |Company: Autodesk,Inc. |WEB Address: www.autodesk.com
 90
    32897
280
     0
281
     0
  0
CLASS
  1
AEC_DISPREPAECDBDISPREPMASSELEMPLAN100
  2
AecDbDispRepMassElemPlan100
  3
AecArchDACHBase40|Product Desc: Autodesk Architectural Desktop 2004 |Company: Autodesk,Inc. |WEB Address: www.autodesk.com
 90
    32897
280
     0
281
     0
  0
CLASS
  1
AEC_DISPROPSMASSELEMPLANCOMMON
  2
AecDbDispPropsMassElemPlanCommon
  3
AecArchDACHBase40|Product Desc: Autodesk Architectural Desktop 2004 |Company: Autodesk,Inc. |WEB Address: www.autodesk.com
 90
    32897
280
     0
281
     0
  0
CLASS
  1
AEC_DISPREPAECDBDISPREPMASSELEMPLAN50
  2
AecDbDispRepMassElemPlan50
  3
AecArchDACHBase40|Product Desc: Autodesk Architectural Desktop 2004 |Company: Autodesk,Inc. |WEB Address: www.autodesk.com
 90
    32897
280
     0
281
     0
  0
CLASS
  1
AEC_DISPREPAECDBDISPREPMASSGROUPPLAN100
  2
AecDbDispRepMassGroupPlan100
  3
AecArchDACHBase40|Product Desc: Autodesk Architectural Desktop 2004 |Company: Autodesk,Inc. |WEB Address: www.autodesk.com
 90
    32897
280
     0
281
     0
  0
CLASS
  1
AEC_DISPROPSMASSGROUPPLANCOMMON
  2
AecDbDispPropsMassGroupPlanCommon
  3
AecArchDACHBase40|Product Desc: Autodesk Architectural Desktop 2004 |Company: Autodesk,Inc. |WEB Address: www.autodesk.com
 90
    32897
280
     0
281
     0
  0
CLASS
  1
AEC_DISPREPAECDBDISPREPMASSGROUPPLAN50
  2
AecDbDispRepMassGroupPlan50
  3
AecArchDACHBase40|Product Desc: Autodesk Architectural Desktop 2004 |Company: Autodesk,Inc. |WEB Address: www.autodesk.com
 90
    32897
280
     0
281
     0
  0
CLASS
  1
AEC_DISPREPAECDBDISPREPOPENINGPLAN100
  2
AecDbDispRepOpeningPlan100
  3
AecArchDACHBase40|Product Desc: Autodesk Architectural Desktop 2004 |Company: Autodesk,Inc. |WEB Address: www.autodesk.com
 90
    32897
280
     0
281
     0
  0
CLASS
  1
AEC_DISPROPSOPENINGPLANCOMMONHATCHED
  2
AecDbDispPropsOpeningPlanCommonHatched
  3
AecArchDACHBase40|Product Desc: Autodesk Architectural Desktop 2004 |Company: Autodesk,Inc. |WEB Address: www.autodesk.com
 90
    32897
280
     0
281
     0
  0
CLASS
  1
AEC_DISPREPAECDBDISPREPOPENINGPLAN50
  2
AecDbDispRepOpeningPlan50
  3
AecArchDACHBase40|Product Desc: Autodesk Architectural Desktop 2004 |Company: Autodesk,Inc. |WEB Address: www.autodesk.com
 90
    32897
280
     0
281
     0
  0
CLASS
  1
AEC_DISPREPAECDBDISPREPOPENINGPLANREFLECTED
  2
AecDbDispRepOpeningPlanReflected
  3
AecArchDACHBase40|Product Desc: Autodesk Architectural Desktop 2004 |Company: Autodesk,Inc. |WEB Address: www.autodesk.com
 90
    32897
280
     0
281
     0
  0
CLASS
  1
AEC_DISPROPSOPENINGPLANCOMMON
  2
AecDbDispPropsOpeningPlanCommon
  3
AecArchDACHBase40|Product Desc: Autodesk Architectural Desktop 2004 |Company: Autodesk,Inc. |WEB Address: www.autodesk.com
 90
    32897
280
     0
281
     0
  0
CLASS
  1
AEC_DISPREPAECDBDISPREPOPENINGSILLPLAN
  2
AecDbDispRepOpeningSillPlan
  3
AecArchDACHBase40|Product Desc: Autodesk Architectural Desktop 2004 |Company: Autodesk,Inc. |WEB Address: www.autodesk.com
 90
    32897
280
     0
281
     0
  0
CLASS
  1
AEC_DISPROPSOPENINGSILLPLAN
  2
AecDbDispPropsOpeningSillPlan
  3
AecArchDACHBase40|Product Desc: Autodesk Architectural Desktop 2004 |Company: Autodesk,Inc. |WEB Address: www.autodesk.com
 90
    32897
280
     0
281
     0
  0
CLASS
  1
AEC_DISP_REP_RAILING_PLAN_100
  2
AecDbDispRepRailingPlan100
  3
AecArchDACHBase40|Product Desc: Autodesk Architectural Desktop 2004 |Company: Autodesk,Inc. |WEB Address: www.autodesk.com
 90
    32897
280
     0
281
     0
  0
CLASS
  1
AEC_DISP_ROPS_RAILING_PLAN_100
  2
AecDbDispPropsRailingPlan100
  3
AecArchDACHBase40|Product Desc: Autodesk Architectural Desktop 2004 |Company: Autodesk,Inc. |WEB Address: www.autodesk.com
 90
    32897
280
     0
281
     0
  0
CLASS
  1
AEC_DISP_REP_RAILING_PLAN_50
  2
AecDbDispRepRailingPlan50
  3
AecArchDACHBase40|Product Desc: Autodesk Architectural Desktop 2004 |Company: Autodesk,Inc. |WEB Address: www.autodesk.com
 90
    32897
280
     0
281
     0
  0
CLASS
  1
AEC_DISP_ROPS_RAILING_PLAN_50
  2
AecDbDispPropsRailingPlan50
  3
AecArchDACHBase40|Product Desc: Autodesk Architectural Desktop 2004 |Company: Autodesk,Inc. |WEB Address: www.autodesk.com
 90
    32897
280
     0
281
     0
  0
CLASS
  1
AEC_DISP_REP_STAIR_PLAN_100
  2
AecDbDispRepStairPlan100
  3
AecArchDACHBase40|Product Desc: Autodesk Architectural Desktop 2004 |Company: Autodesk,Inc. |WEB Address: www.autodesk.com
 90
    32897
280
     0
281
     0
  0
CLASS
  1
AEC_DISP_ROPS_STAIR_PLAN_100
  2
AecDbDispPropsStairPlan100
  3
AecArchDACHBase40|Product Desc: Autodesk Architectural Desktop 2004 |Company: Autodesk,Inc. |WEB Address: www.autodesk.com
 90
    32897
280
     0
281
     0
  0
CLASS
  1
AEC_DISP_REP_STAIR_PLAN_50
  2
AecDbDispRepStairPlan50
  3
AecArchDACHBase40|Product Desc: Autodesk Architectural Desktop 2004 |Company: Autodesk,Inc. |WEB Address: www.autodesk.com
 90
    32897
280
     0
281
     0
  0
CLASS
  1
AEC_DISP_ROPS_STAIR_PLAN_50
  2
AecDbDispPropsStairPlan50
  3
AecArchDACHBase40|Product Desc: Autodesk Architectural Desktop 2004 |Company: Autodesk,Inc. |WEB Address: www.autodesk.com
 90
    32897
280
     0
281
     0
  0
CLASS
  1
AEC_DISP_REP_WINDOW_PLAN_100
  2
AecDbDispRepWindowPlan100
  3
AecArchDACHBase40|Product Desc: Autodesk Architectural Desktop 2004 |Company: Autodesk,Inc. |WEB Address: www.autodesk.com
 90
    32897
280
     0
281
     0
  0
CLASS
  1
AEC_DISP_PROPS_WINDOW_PLAN_100
  2
AecDbDispPropsWindowPlan100
  3
AecArchDACHBase40|Product Desc: Autodesk Architectural Desktop 2004 |Company: Autodesk,Inc. |WEB Address: www.autodesk.com
 90
    32897
280
     0
281
     0
  0
CLASS
  1
AEC_DISP_REP_WINDOW_PLAN_50
  2
AecDbDispRepWindowPlan50
  3
AecArchDACHBase40|Product Desc: Autodesk Architectural Desktop 2004 |Company: Autodesk,Inc. |WEB Address: www.autodesk.com
 90
    32897
280
     0
281
     0
  0
CLASS
  1
AEC_DISP_PROPS_WINDOW_PLAN_50
  2
AecDbDispPropsWindowPlan50
  3
AecArchDACHBase40|Product Desc: Autodesk Architectural Desktop 2004 |Company: Autodesk,Inc. |WEB Address: www.autodesk.com
 90
    32897
280
     0
281
     0
  0
CLASS
  1
BINRECORD
  2
AcAecBinRecord
  3
AecBase40|Product Desc: Autodesk Architectural Desktop 2004 |Company: Autodesk,Inc. |WEB Address: www.autodesk.com
 90
    32897
280
     0
281
     0
  0
ENDSEC
  0
SECTION
  2
TABLES
  0
TABLE
  2
VPORT
  5
F4
330
0
100
AcDbSymbolTable
 70
     1
  0
VPORT
  5
F5
330
F4
100
AcDbSymbolTableRecord
100
AcDbViewportTableRecord
  2
*Active
 70
     0
 10
0.0
 20
0.0
 11
1.0
 21
1.0
 12
-5.945870963186115
 22
-36.27018792380083
 13
0.0
 23
0.0
 14
1.0
 24
1.0
 15
0.0
 25
0.0
 16
0.0
 26
0.0
 36
1.0
 17
0.0
 27
0.0
 37
0.0
 40
7.737223669063503
 41
1.974155069582504
 42
50.0
 43
0.0
 44
0.0
 50
0.0
 51
0.0
 71
     0
 72
   100
 73
     1
 74
     1
 75
     0
 76
     0
 77
     0
 78
     0
281
     0
 65
     0
110
0.0
120
0.0
130
0.0
111
1.0
121
0.0
131
0.0
112
0.0
122
1.0
132
0.0
 79
     0
146
0.0
  0
ENDTAB
  0
TABLE
  2
LTYPE
  5
EF
330
0
100
AcDbSymbolTable
 70
     3
  0
LTYPE
  5
F0
330
EF
100
AcDbSymbolTableRecord
100
AcDbLinetypeTableRecord
  2
ByBlock
 70
     0
  3

 72
    65
 73
     0
 40
0.0
  0
LTYPE
  5
F1
330
EF
100
AcDbSymbolTableRecord
100
AcDbLinetypeTableRecord
  2
ByLayer
 70
     0
  3

 72
    65
 73
     0
 40
0.0
  0
LTYPE
  5
9
330
EF
100
AcDbSymbolTableRecord
100
AcDbLinetypeTableRecord
  2
Continuous
 70
     0
  3
Solid line
 72
    65
 73
     0
 40
0.0
  0
LTYPE
  5
3A
330
EF
100
AcDbSymbolTableRecord
100
AcDbLinetypeTableRecord
  2
AI9-LType2
 70
     0
  3
Illustrator Dash Style No.2
 72
    65
 73
     2
 40
1.41111111111111
 49
0.7055555555555556
 74
     0
 49
-0.7055555555555556
 74
     0
  0
LTYPE
  5
22
330
EF
100
AcDbSymbolTableRecord
100
AcDbLinetypeTableRecord
  2
AI9-LType5
 70
     0
  3
Illustrator Dash Style No.5
 72
    65
 73
     2
 40
0.5079999781317181
 49
0.253999989065859
 74
     0
 49
-0.253999989065859
 74
     0
  0
ENDTAB
  0
TABLE
  2
LAYER
  5
EA
102
{ACAD_XDICTIONARY
360
EB
102
}
330
0
100
AcDbSymbolTable
 70
     5
  0
LAYER
  5
5
330
EA
100
AcDbSymbolTableRecord
100
AcDbLayerTableRecord
  2
0
 70
     0
 62
     7
  6
Continuous
370
    -3
390
6
  0
LAYER
  5
21
330
EA
100
AcDbSymbolTableRecord
100
AcDbLayerTableRecord
  2
ADP2DETAIL
 70
     0
 62
     5
  6
Continuous
370
    -3
390
6
  0
LAYER
  5
F
330
EA
100
AcDbSymbolTableRecord
100
AcDbLayerTableRecord
  2
ADP1DETAIL
 70
     0
 62
     1
  6
Continuous
370
    -3
390
6
  0
LAYER
  5
B
330
EA
100
AcDbSymbolTableRecord
100
AcDbLayerTableRecord
  2
ADPDIM
 70
     0
 62
   160
  6
Continuous
370
    -3
390
6
  0
LAYER
  5
83
102
{ACAD_XDICTIONARY
360
84
102
}
330
EA
100
AcDbSymbolTableRecord
100
AcDbLayerTableRecord
  2
DEFPOINTS
 70
     0
 62
     7
  6
Continuous
290
     0
370
    -3
390
6
  0
ENDTAB
  0
TABLE
  2
STYLE
  5
ED
330
0
100
AcDbSymbolTable
 70
     2
  0
STYLE
  5
77
330
ED
100
AcDbSymbolTableRecord
100
AcDbTextStyleTableRecord
  2
Standard
 70
     0
 40
0.0
 41
1.0
 50
0.0
 71
     0
 42
0.0
  3
txt
  4

  0
STYLE
  5
C
330
ED
100
AcDbSymbolTableRecord
100
AcDbTextStyleTableRecord
  2
ARIAL_WIDE
 70
     0
 40
0.0
 41
1.25
 50
0.0
 71
     0
 42
0.2
  3
ARIAL.TTF
  4

1001
ACAD
1000
Arial
1071
       34
  0
ENDTAB
  0
TABLE
  2
VIEW
  5
F2
330
0
100
AcDbSymbolTable
 70
     0
  0
ENDTAB
  0
TABLE
  2
UCS
  5
F3
330
0
100
AcDbSymbolTable
 70
     0
  0
ENDTAB
  0
TABLE
  2
APPID
  5
F6
330
0
100
AcDbSymbolTable
 70
     1
  0
APPID
  5
D
330
F6
100
AcDbSymbolTableRecord
100
AcDbRegAppTableRecord
  2
ACAD
 70
     0
  0
ENDTAB
  0
TABLE
  2
DIMSTYLE
  5
F7
330
0
100
AcDbSymbolTable
 70
     1
100
AcDbDimStyleTable
 71
     1
340
78
  0
DIMSTYLE
105
78
102
{ACAD_REACTORS
330
76
330
8D
330
9B
330
A9
330
B7
330
C3
330
D1
102
}
330
F7
100
AcDbSymbolTableRecord
100
AcDbDimStyleTableRecord
  2
Standard
 70
     0
340
77
  0
ENDTAB
  0
TABLE
  2
BLOCK_RECORD
  5
1
330
0
100
AcDbSymbolTable
 70
     7
  0
BLOCK_RECORD
  5
2
102
{ACAD_XDICTIONARY
360
3
102
}
330
1
100
AcDbSymbolTableRecord
100
AcDbBlockTableRecord
  2
*MODEL_SPACE
340
E4
  0
BLOCK_RECORD
  5
E6
330
1
100
AcDbSymbolTableRecord
100
AcDbBlockTableRecord
  2
*PAPER_SPACE
340
E9
  0
BLOCK_RECORD
  5
79
330
1
100
AcDbSymbolTableRecord
100
AcDbBlockTableRecord
  2
*D0
340
0
  0
BLOCK_RECORD
  5
8E
330
1
100
AcDbSymbolTableRecord
100
AcDbBlockTableRecord
  2
*D1
340
0
  0
BLOCK_RECORD
  5
9C
330
1
100
AcDbSymbolTableRecord
100
AcDbBlockTableRecord
  2
*D2
340
0
  0
BLOCK_RECORD
  5
AA
330
1
100
AcDbSymbolTableRecord
100
AcDbBlockTableRecord
  2
*D3
340
0
  0
BLOCK_RECORD
  5
B8
330
1
100
AcDbSymbolTableRecord
100
AcDbBlockTableRecord
  2
*D4
340
0
  0
BLOCK_RECORD
  5
C4
330
1
100
AcDbSymbolTableRecord
100
AcDbBlockTableRecord
  2
*D5
340
0
  0
BLOCK_RECORD
  5
D2
330
1
100
AcDbSymbolTableRecord
100
AcDbBlockTableRecord
  2
*D6
340
0
  0
ENDTAB
  0
ENDSEC
  0
SECTION
  2
BLOCKS
  0
BLOCK
  5
4
330
2
100
AcDbEntity
  8
0
100
AcDbBlockBegin
  2
*MODEL_SPACE
 70
     0
 10
0.0
 20
0.0
 30
0.0
  3
*MODEL_SPACE
  1

  0
ENDBLK
  5
E3
330
2
100
AcDbEntity
  8
0
100
AcDbBlockEnd
  0
BLOCK
  5
E7
330
E6
100
AcDbEntity
 67
     1
  8
0
100
AcDbBlockBegin
  2
*PAPER_SPACE
 70
     0
 10
0.0
 20
0.0
 30
0.0
  3
*PAPER_SPACE
  1

  0
ENDBLK
  5
E8
330
E6
100
AcDbEntity
 67
     1
  8
0
100
AcDbBlockEnd
  0
BLOCK
  5
7A
330
79
100
AcDbEntity
  8
0
370
     0
100
AcDbBlockBegin
  2
*D0
 70
     1
 10
0.0
 20
0.0
 30
0.0
  3
*D0
  1

  0
LINE
  5
7B
330
79
100
AcDbEntity
  8
ADPDIM
 62
     0
370
    -2
100
AcDbLine
 10
-9.005714107147614
 20
-35.15462017691123
 30
0.0
 11
-9.005714107147614
 21
-33.91805372686574
 31
0.0
  0
LINE
  5
7C
330
79
100
AcDbEntity
  8
ADPDIM
 62
     0
370
    -2
100
AcDbLine
 10
-6.755714107147614
 20
-35.46712017691123
 30
0.0
 11
-6.755714107147614
 21
-33.91805372686574
 31
0.0
  0
LINE
  5
7D
330
79
100
AcDbEntity
  8
ADPDIM
 62
     0
370
    -2
100
AcDbLine
 10
-8.825714107147614
 20
-34.09805372686574
 30
0.0
 11
-8.420714107147613
 21
-34.09805372686574
 31
0.0
  0
LINE
  5
7E
330
79
100
AcDbEntity
  8
ADPDIM
 62
     0
370
    -2
100
AcDbLine
 10
-6.935714107147614
 20
-34.09805372686574
 30
0.0
 11
-7.340714107147614
 21
-34.09805372686574
 31
0.0
  0
SOLID
  5
7F
330
79
100
AcDbEntity
  8
ADPDIM
 62
     0
370
     0
100
AcDbTrace
 10
-8.825714107147614
 20
-34.06805372686573
 30
0.0
 11
-8.825714107147614
 21
-34.12805372686574
 31
0.0
 12
-9.005714107147614
 22
-34.09805372686574
 32
0.0
 13
-9.005714107147614
 23
-34.09805372686574
 33
0.0
  0
SOLID
  5
80
330
79
100
AcDbEntity
  8
ADPDIM
 62
     0
370
     0
100
AcDbTrace
 10
-6.935714107147614
 20
-34.06805372686573
 30
0.0
 11
-6.935714107147614
 21
-34.12805372686574
 31
0.0
 12
-6.755714107147614
 22
-34.09805372686574
 32
0.0
 13
-6.755714107147614
 23
-34.09805372686574
 33
0.0
  0
MTEXT
  5
81
330
79
100
AcDbEntity
  8
ADPDIM
 62
     0
100
AcDbMText
 10
-7.880714107147614
 20
-34.09805372686574
 30
0.0
 40
0.18
 41
0.0
 71
     5
 72
     1
  1
\A1;2 1/4"
 73
     1
 44
1.0
1001
ACAD
1000
MTEXTBEGIN
1070
    73
1070
     1
1070
    44
1040
1.0
1070
    74
1070
     0
1000
MTEXTEND
  0
POINT
  5
82
330
79
100
AcDbEntity
  8
DEFPOINTS
 62
     0
370
     0
100
AcDbPoint
 10
-9.005714107147614
 20
-35.21712017691122
 30
0.0
  0
POINT
  5
8A
330
79
100
AcDbEntity
  8
DEFPOINTS
 62
     0
370
     0
100
AcDbPoint
 10
-6.755714107147614
 20
-35.52962017691122
 30
0.0
  0
POINT
  5
8B
330
79
100
AcDbEntity
  8
DEFPOINTS
 62
     0
370
     0
100
AcDbPoint
 10
-6.755714107147614
 20
-34.09805372686574
 30
0.0
  0
ENDBLK
  5
8C
330
79
100
AcDbEntity
  8
0
370
     0
100
AcDbBlockEnd
  0
BLOCK
  5
8F
330
8E
100
AcDbEntity
  8
0
370
     0
100
AcDbBlockBegin
  2
*D1
 70
     1
 10
0.0
 20
0.0
 30
0.0
  3
*D1
  1

  0
LINE
  5
90
330
8E
100
AcDbEntity
  8
ADPDIM
 62
     0
370
    -2
100
AcDbLine
 10
-6.130714107147614
 20
-36.71712017691123
 30
0.0
 11
-5.575714107147614
 21
-36.71712017691123
 31
0.0
  0
LINE
  5
91
330
8E
100
AcDbEntity
  8
ADPDIM
 62
     0
370
    -2
100
AcDbLine
 10
-6.443214107147614
 20
-35.65462017691122
 30
0.0
 11
-5.575714107147614
 21
-35.65462017691122
 31
0.0
  0
LINE
  5
92
330
8E
100
AcDbEntity
  8
ADPDIM
 62
     0
370
    -2
100
AcDbLine
 10
-5.755714107147614
 20
-36.53712017691122
 30
0.0
 11
-5.755714107147614
 21
-36.36587017691122
 31
0.0
  0
LINE
  5
93
330
8E
100
AcDbEntity
  8
ADPDIM
 62
     0
370
    -2
100
AcDbLine
 10
-5.755714107147614
 20
-35.83462017691122
 30
0.0
 11
-5.755714107147614
 21
-36.00587017691122
 31
0.0
  0
SOLID
  5
94
330
8E
100
AcDbEntity
  8
ADPDIM
 62
     0
370
     0
100
AcDbTrace
 10
-5.785714107147614
 20
-36.53712017691122
 30
0.0
 11
-5.725714107147614
 21
-36.53712017691122
 31
0.0
 12
-5.755714107147614
 22
-36.71712017691123
 32
0.0
 13
-5.755714107147614
 23
-36.71712017691123
 33
0.0
  0
SOLID
  5
95
330
8E
100
AcDbEntity
  8
ADPDIM
 62
     0
370
     0
100
AcDbTrace
 10
-5.785714107147614
 20
-35.83462017691122
 30
0.0
 11
-5.725714107147614
 21
-35.83462017691122
 31
0.0
 12
-5.755714107147614
 22
-35.65462017691122
 32
0.0
 13
-5.755714107147614
 23
-35.65462017691122
 33
0.0
  0
MTEXT
  5
96
330
8E
100
AcDbEntity
  8
ADPDIM
 62
     0
100
AcDbMText
 10
-5.755714107147608
 20
-36.18587017691123
 30
0.0
 40
0.18
 41
0.0
 71
     5
 72
     1
  1
\A1;1 1/16"
 73
     1
 44
1.0
1001
ACAD
1000
MTEXTBEGIN
1070
    73
1070
     1
1070
    44
1040
1.0
1070
    74
1070
     0
1000
MTEXTEND
  0
POINT
  5
97
330
8E
100
AcDbEntity
  8
DEFPOINTS
 62
     0
370
     0
100
AcDbPoint
 10
-6.193214107147614
 20
-36.71712017691123
 30
0.0
  0
POINT
  5
98
330
8E
100
AcDbEntity
  8
DEFPOINTS
 62
     0
370
     0
100
AcDbPoint
 10
-6.505714107147614
 20
-35.65462017691122
 30
0.0
  0
POINT
  5
99
330
8E
100
AcDbEntity
  8
DEFPOINTS
 62
     0
370
     0
100
AcDbPoint
 10
-5.755714107147614
 20
-35.65462017691122
 30
0.0
  0
ENDBLK
  5
9A
330
8E
100
AcDbEntity
  8
0
370
     0
100
AcDbBlockEnd
  0
BLOCK
  5
9D
330
9C
100
AcDbEntity
  8
0
370
     0
100
AcDbBlockBegin
  2
*D2
 70
     1
 10
0.0
 20
0.0
 30
0.0
  3
*D2
  1

  0
LINE
  5
9E
330
9C
100
AcDbEntity
  8
ADPDIM
 62
     0
370
    -2
100
AcDbLine
 10
-4.387544957504601
 20
-35.56179130745689
 30
0.0
 11
-4.387544957504601
 21
-33.9334037901015
 31
0.0
  0
LINE
  5
9F
330
9C
100
AcDbEntity
  8
ADPDIM
 62
     0
370
    -2
100
AcDbLine
 10
-1.887544957504601
 20
-35.618336709085
 30
0.0
 11
-1.887544957504601
 21
-33.9334037901015
 31
0.0
  0
LINE
  5
A0
330
9C
100
AcDbEntity
  8
ADPDIM
 62
     0
370
    -2
100
AcDbLine
 10
-4.207544957504602
 20
-34.11340379010149
 30
0.0
 11
-3.65718346863968
 21
-34.11340379010149
 31
0.0
  0
LINE
  5
A1
330
9C
100
AcDbEntity
  8
ADPDIM
 62
     0
370
    -2
100
AcDbLine
 10
-2.067544957504602
 20
-34.11340379010149
 30
0.0
 11
-2.57718346863968
 21
-34.11340379010149
 31
0.0
  0
SOLID
  5
A2
330
9C
100
AcDbEntity
  8
ADPDIM
 62
     0
370
     0
100
AcDbTrace
 10
-4.207544957504602
 20
-34.08340379010149
 30
0.0
 11
-4.207544957504602
 21
-34.1434037901015
 31
0.0
 12
-4.387544957504601
 22
-34.11340379010149
 32
0.0
 13
-4.387544957504601
 23
-34.11340379010149
 33
0.0
  0
SOLID
  5
A3
330
9C
100
AcDbEntity
  8
ADPDIM
 62
     0
370
     0
100
AcDbTrace
 10
-2.067544957504602
 20
-34.08340379010149
 30
0.0
 11
-2.067544957504602
 21
-34.1434037901015
 31
0.0
 12
-1.887544957504601
 22
-34.11340379010149
 32
0.0
 13
-1.887544957504601
 23
-34.11340379010149
 33
0.0
  0
MTEXT
  5
A4
330
9C
100
AcDbEntity
  8
ADPDIM
 62
     0
100
AcDbMText
 10
-3.11718346863968
 20
-34.11340379010149
 30
0.0
 40
0.18
 41
0.0
 71
     5
 72
     1
  1
\A1;2 1/2"
 73
     1
 44
1.0
1001
ACAD
1000
MTEXTBEGIN
1070
    73
1070
     1
1070
    44
1040
1.0
1070
    74
1070
     0
1000
MTEXTEND
  0
POINT
  5
A5
330
9C
100
AcDbEntity
  8
DEFPOINTS
 62
     0
370
     0
100
AcDbPoint
 10
-4.387544957504601
 20
-35.62429130745689
 30
0.0
  0
POINT
  5
A6
330
9C
100
AcDbEntity
  8
DEFPOINTS
 62
     0
370
     0
100
AcDbPoint
 10
-1.887544957504601
 20
-35.680836709085
 30
0.0
  0
POINT
  5
A7
330
9C
100
AcDbEntity
  8
DEFPOINTS
 62
     0
370
     0
100
AcDbPoint
 10
-1.887544957504601
 20
-34.11340379010149
 30
0.0
  0
ENDBLK
  5
A8
330
9C
100
AcDbEntity
  8
0
370
     0
100
AcDbBlockEnd
  0
BLOCK
  5
AB
330
AA
100
AcDbEntity
  8
0
370
     0
100
AcDbBlockBegin
  2
*D3
 70
     1
 10
0.0
 20
0.0
 30
0.0
  3
*D3
  1

  0
LINE
  5
AC
330
AA
100
AcDbEntity
  8
ADPDIM
 62
     0
370
    -2
100
AcDbLine
 10
-3.951190224658866
 20
-35.66947276728811
 30
0.0
 11
-3.951190224658866
 21
-34.59829237074447
 31
0.0
  0
LINE
  5
AD
330
AA
100
AcDbEntity
  8
ADPDIM
 62
     0
370
    -2
100
AcDbLine
 10
-2.326190224658866
 20
-35.66947276728811
 30
0.0
 11
-2.326190224658866
 21
-34.59829237074447
 31
0.0
  0
LINE
  5
AE
330
AA
100
AcDbEntity
  8
ADPDIM
 62
     0
370
    -2
100
AcDbLine
 10
-3.771190224658865
 20
-34.77829237074447
 30
0.0
 11
-3.61803405262716
 21
-34.77829237074447
 31
0.0
  0
LINE
  5
AF
330
AA
100
AcDbEntity
  8
ADPDIM
 62
     0
370
    -2
100
AcDbLine
 10
-2.506190224658866
 20
-34.77829237074447
 30
0.0
 11
-2.53803405262716
 21
-34.77829237074447
 31
0.0
  0
SOLID
  5
B0
330
AA
100
AcDbEntity
  8
ADPDIM
 62
     0
370
     0
100
AcDbTrace
 10
-3.771190224658865
 20
-34.74829237074447
 30
0.0
 11
-3.771190224658865
 21
-34.80829237074447
 31
0.0
 12
-3.951190224658866
 22
-34.77829237074447
 32
0.0
 13
-3.951190224658866
 23
-34.77829237074447
 33
0.0
  0
SOLID
  5
B1
330
AA
100
AcDbEntity
  8
ADPDIM
 62
     0
370
     0
100
AcDbTrace
 10
-2.506190224658866
 20
-34.74829237074447
 30
0.0
 11
-2.506190224658866
 21
-34.80829237074447
 31
0.0
 12
-2.326190224658866
 22
-34.77829237074447
 32
0.0
 13
-2.326190224658866
 23
-34.77829237074447
 33
0.0
  0
MTEXT
  5
B2
330
AA
100
AcDbEntity
  8
ADPDIM
 62
     0
100
AcDbMText
 10
-3.07803405262716
 20
-34.77829237074447
 30
0.0
 40
0.18
 41
0.0
 71
     5
 72
     1
  1
\A1;1 5/8"
 73
     1
 44
1.0
1001
ACAD
1000
MTEXTBEGIN
1070
    73
1070
     1
1070
    44
1040
1.0
1070
    74
1070
     0
1000
MTEXTEND
  0
POINT
  5
B3
330
AA
100
AcDbEntity
  8
DEFPOINTS
 62
     0
370
     0
100
AcDbPoint
 10
-3.951190224658866
 20
-35.73197276728811
 30
0.0
  0
POINT
  5
B4
330
AA
100
AcDbEntity
  8
DEFPOINTS
 62
     0
370
     0
100
AcDbPoint
 10
-2.326190224658866
 20
-35.73197276728811
 30
0.0
  0
POINT
  5
B5
330
AA
100
AcDbEntity
  8
DEFPOINTS
 62
     0
370
     0
100
AcDbPoint
 10
-2.326190224658866
 20
-34.77829237074447
 30
0.0
  0
ENDBLK
  5
B6
330
AA
100
AcDbEntity
  8
0
370
     0
100
AcDbBlockEnd
  0
BLOCK
  5
B9
330
B8
100
AcDbEntity
  8
0
370
     0
100
AcDbBlockBegin
  2
*D4
 70
     1
 10
0.0
 20
0.0
 30
0.0
  3
*D4
  1

  0
LINE
  5
BA
330
B8
100
AcDbEntity
  8
ADPDIM
 62
     0
370
    -2
100
AcDbLine
 10
-4.728474893492549
 20
-37.96839340855641
 30
0.0
 11
-4.548474893492549
 21
-37.96839340855641
 31
0.0
  0
LINE
  5
BB
330
B8
100
AcDbEntity
  8
ADPDIM
 62
     0
370
    -2
100
AcDbLine
 10
-4.548474893492549
 20
-37.96839340855641
 30
0.0
 11
-4.413779223099162
 21
-37.84899040868926
 31
0.0
  0
MTEXT
  5
BC
330
B8
100
AcDbEntity
  8
ADPDIM
 62
     0
100
AcDbMText
 10
-5.028474893492557
 20
-37.96839340855642
 30
0.0
 40
0.18
 41
0.0
 71
     5
 72
     1
  1
\A1;\U+22053"
 73
     1
 44
1.0
1001
ACAD
1000
MTEXTBEGIN
1070
    73
1070
     1
1070
    44
1040
1.0
1070
    74
1070
     0
1000
MTEXTEND
  0
SOLID
  5
BD
330
B8
100
AcDbEntity
  8
ADPDIM
 62
     0
370
     0
100
AcDbTrace
 10
-4.433679723077023
 20
-37.82654113029037
 30
0.0
 11
-4.393878723121304
 21
-37.87143968708816
 31
0.0
 12
-4.27908355270577
 22
-37.72958740882212
 32
0.0
 13
-4.27908355270577
 23
-37.72958740882212
 33
0.0
  0
LINE
  5
BE
330
B8
100
AcDbEntity
  8
ADPDIM
 62
     0
370
    -2
100
AcDbLine
 10
-3.246619632760847
 20
-36.73456240992918
 30
0.0
 11
-3.066619632760847
 21
-36.73456240992918
 31
0.0
  0
LINE
  5
BF
330
B8
100
AcDbEntity
  8
ADPDIM
 62
     0
370
    -2
100
AcDbLine
 10
-3.156619632760843
 20
-36.82456240992919
 30
0.0
 11
-3.15661963276084
 21
-36.64456240992918
 31
0.0
  0
POINT
  5
C0
330
B8
100
AcDbEntity
  8
DEFPOINTS
 62
     0
370
     0
100
AcDbPoint
 10
-4.27908355270577
 20
-37.72958740882212
 30
0.0
  0
POINT
  5
C1
330
B8
100
AcDbEntity
  8
DEFPOINTS
 62
     0
370
     0
100
AcDbPoint
 10
-2.034155712815916
 20
-35.73953741103625
 30
0.0
  0
ENDBLK
  5
C2
330
B8
100
AcDbEntity
  8
0
370
     0
100
AcDbBlockEnd
  0
BLOCK
  5
C5
330
C4
100
AcDbEntity
  8
0
370
     0
100
AcDbBlockBegin
  2
*D5
 70
     1
 10
0.0
 20
0.0
 30
0.0
  3
*D5
  1

  0
LINE
  5
C6
330
C4
100
AcDbEntity
  8
ADPDIM
  6
Continuous
 62
     0
370
     0
100
AcDbLine
 10
-9.094981930579933
 20
-36.54950781331656
 30
0.0
 11
-9.917171549805395
 21
-36.54950781331656
 31
0.0
  0
LINE
  5
C7
330
C4
100
AcDbEntity
  8
ADPDIM
  6
Continuous
 62
     0
370
     0
100
AcDbLine
 10
-9.094981930579933
 20
-36.93084096107918
 30
0.0
 11
-9.917171549805395
 21
-36.93084096107918
 31
0.0
  0
LINE
  5
C8
330
C4
100
AcDbEntity
  8
ADPDIM
  6
Continuous
 62
     0
370
     0
100
AcDbLine
 10
-9.737171549805395
 20
-36.36950781331656
 30
0.0
 11
-9.737171549805395
 21
-36.18950781331656
 31
0.0
  0
LINE
  5
C9
330
C4
100
AcDbEntity
  8
ADPDIM
  6
Continuous
 62
     0
370
     0
100
AcDbLine
 10
-9.737171549805395
 20
-37.11084096107918
 30
0.0
 11
-9.737171549805395
 21
-37.29084096107918
 31
0.0
  0
SOLID
  5
CA
330
C4
100
AcDbEntity
  8
ADPDIM
  6
Continuous
 62
     0
370
     0
100
AcDbTrace
 10
-9.767171549805395
 20
-36.36950781331656
 30
0.0
 11
-9.707171549805396
 21
-36.36950781331656
 31
0.0
 12
-9.737171549805395
 22
-36.54950781331656
 32
0.0
 13
-9.737171549805395
 23
-36.54950781331656
 33
0.0
  0
SOLID
  5
CB
330
C4
100
AcDbEntity
  8
ADPDIM
  6
Continuous
 62
     0
370
     0
100
AcDbTrace
 10
-9.767171549805395
 20
-37.11084096107918
 30
0.0
 11
-9.707171549805396
 21
-37.11084096107918
 31
0.0
 12
-9.737171549805395
 22
-36.93084096107918
 32
0.0
 13
-9.737171549805395
 23
-36.93084096107918
 33
0.0
  0
MTEXT
  5
CC
330
C4
100
AcDbEntity
  8
ADPDIM
  6
Continuous
 62
     0
370
     0
100
AcDbMText
 10
-9.737171549805388
 20
-36.74017438719787
 30
0.0
 40
0.18
 41
0.0
 71
     5
 72
     1
  1
\A1;3/8"
 73
     1
 44
1.0
1001
ACAD
1000
MTEXTBEGIN
1070
    73
1070
     1
1070
    44
1040
1.0
1070
    74
1070
     0
1000
MTEXTEND
  0
POINT
  5
CD
330
C4
100
AcDbEntity
  8
DEFPOINTS
  6
Continuous
 62
     0
370
     0
100
AcDbPoint
 10
-9.032481930579933
 20
-36.54950781331656
 30
0.0
  0
POINT
  5
CE
330
C4
100
AcDbEntity
  8
DEFPOINTS
  6
Continuous
 62
     0
370
     0
100
AcDbPoint
 10
-9.032481930579933
 20
-36.93084096107918
 30
0.0
  0
POINT
  5
CF
330
C4
100
AcDbEntity
  8
DEFPOINTS
  6
Continuous
 62
     0
370
     0
100
AcDbPoint
 10
-9.737171549805395
 20
-36.93084096107918
 30
0.0
  0
ENDBLK
  5
D0
330
C4
100
AcDbEntity
  8
0
370
     0
100
AcDbBlockEnd
  0
BLOCK
  5
D3
330
D2
100
AcDbEntity
  8
0
370
     0
100
AcDbBlockBegin
  2
*D6
 70
     1
 10
0.0
 20
0.0
 30
0.0
  3
*D6
  1

  0
LINE
  5
D4
330
D2
100
AcDbEntity
  8
ADPDIM
  6
Continuous
 62
     0
370
     0
100
AcDbLine
 10
-7.171494596216774
 20
-37.17958520550482
 30
0.0
 11
-7.171494596216774
 21
-37.87397381621074
 31
0.0
  0
LINE
  5
D5
330
D2
100
AcDbEntity
  8
ADPDIM
  6
Continuous
 62
     0
370
     0
100
AcDbLine
 10
-6.417868223350666
 20
-37.17958520550482
 30
0.0
 11
-6.417868223350666
 21
-37.87397381621074
 31
0.0
  0
LINE
  5
D6
330
D2
100
AcDbEntity
  8
ADPDIM
  6
Continuous
 62
     0
370
     0
100
AcDbLine
 10
-7.351494596216774
 20
-37.69397381621074
 30
0.0
 11
-7.531494596216774
 21
-37.69397381621074
 31
0.0
  0
LINE
  5
D7
330
D2
100
AcDbEntity
  8
ADPDIM
  6
Continuous
 62
     0
370
     0
100
AcDbLine
 10
-6.237868223350666
 20
-37.69397381621074
 30
0.0
 11
-6.057868223350665
 21
-37.69397381621074
 31
0.0
  0
SOLID
  5
D8
330
D2
100
AcDbEntity
  8
ADPDIM
  6
Continuous
 62
     0
370
     0
100
AcDbTrace
 10
-7.351494596216774
 20
-37.66397381621074
 30
0.0
 11
-7.351494596216774
 21
-37.72397381621074
 31
0.0
 12
-7.171494596216774
 22
-37.69397381621074
 32
0.0
 13
-7.171494596216774
 23
-37.69397381621074
 33
0.0
  0
SOLID
  5
D9
330
D2
100
AcDbEntity
  8
ADPDIM
  6
Continuous
 62
     0
370
     0
100
AcDbTrace
 10
-6.237868223350666
 20
-37.66397381621074
 30
0.0
 11
-6.237868223350666
 21
-37.72397381621074
 31
0.0
 12
-6.417868223350666
 22
-37.69397381621074
 32
0.0
 13
-6.417868223350666
 23
-37.69397381621074
 33
0.0
  0
MTEXT
  5
DA
330
D2
100
AcDbEntity
  8
ADPDIM
  6
Continuous
 62
     0
370
     0
100
AcDbMText
 10
-6.780000370591523
 20
-37.69397381621074
 30
0.0
 40
0.18
 41
0.0
 71
     5
 72
     1
  1
\A1;3/4"
 73
     1
 44
1.0
1001
ACAD
1000
MTEXTBEGIN
1070
    73
1070
     1
1070
    44
1040
1.0
1070
    74
1070
     0
1000
MTEXTEND
  0
POINT
  5
DB
330
D2
100
AcDbEntity
  8
DEFPOINTS
  6
Continuous
 62
     0
370
     0
100
AcDbPoint
 10
-7.171494596216774
 20
-37.11708520550482
 30
0.0
  0
POINT
  5
DC
330
D2
100
AcDbEntity
  8
DEFPOINTS
  6
Continuous
 62
     0
370
     0
100
AcDbPoint
 10
-6.417868223350666
 20
-37.11708520550482
 30
0.0
  0
POINT
  5
DD
330
D2
100
AcDbEntity
  8
DEFPOINTS
  6
Continuous
 62
     0
370
     0
100
AcDbPoint
 10
-6.417868223350666
 20
-37.69397381621074
 30
0.0
  0
ENDBLK
  5
DE
330
D2
100
AcDbEntity
  8
0
370
     0
100
AcDbBlockEnd
  0
ENDSEC
  0
SECTION
  2
ENTITIES
  0
TEXT
  5
A
330
2
100
AcDbEntity
  8
ADPDIM
 62
     3
100
AcDbText
 10
-12.20643721258914
 20
-39.30344889131799
 30
0.0
 40
0.125
  1
J U L I U S  B L U M  &  C O . ,  I N C .      ( 8 0 0 )  5 2 6 - 6 2 9 3        W W W . J U L I U S B L U M . C O M        P A R T  N O .  8 4 2
 41
1.25
  7
ARIAL_WIDE
 72
     1
 11
-5.747535439055724
 21
-39.17844889131798
 31
0.0
100
AcDbText
 73
     3
  0
CIRCLE
  5
E
330
2
100
AcDbEntity
  8
ADP1DETAIL
 62
     7
100
AcDbCircle
 10
-3.135481604045679
 20
-36.72592302540378
 30
0.0
 40
0.6215813530815972
  0
CIRCLE
  5
10
330
2
100
AcDbEntity
  8
ADP1DETAIL
 62
     7
100
AcDbCircle
 10
-3.135481604045679
 20
-36.72592302540378
 30
0.0
 40
0.4350294325086806
  0
CIRCLE
  5
11
330
2
100
AcDbEntity
  8
ADP1DETAIL
 62
     7
100
AcDbCircle
 10
-3.135481604045679
 20
-36.72592302540378
 30
0.0
 40
0.4972134060329861
  0
CIRCLE
  5
12
330
2
100
AcDbEntity
  8
ADP1DETAIL
 62
     7
100
AcDbCircle
 10
-3.135481604045679
 20
-36.72600915279094
 30
0.0
 40
1.367358398437499
  0
CIRCLE
  5
13
330
2
100
AcDbEntity
  8
ADP1DETAIL
 62
     7
100
AcDbCircle
 10
-3.135481604045679
 20
-36.72600915279094
 30
0.0
 40
1.49172634548611
  0
CIRCLE
  5
14
330
2
100
AcDbEntity
  8
ADP1DETAIL
 62
     7
100
AcDbCircle
 10
-3.135481604045679
 20
-36.72592302540378
 30
0.0
 40
0.4358907063802083
  0
CIRCLE
  5
15
330
2
100
AcDbEntity
  8
ADP1DETAIL
 62
     7
100
AcDbCircle
 10
-3.135481604045679
 20
-36.72592302540378
 30
0.0
 40
0.1864657931857639
  0
POLYLINE
  5
16
330
2
100
AcDbEntity
  8
ADP1DETAIL
 62
     7
100
AcDb2dPolyline
 66
     1
 10
0.0
 20
0.0
 30
0.0
 70
     1
  0
VERTEX
  5
17
330
16
100
AcDbEntity
  8
ADP1DETAIL
 62
     7
100
AcDbVertex
100
AcDb2dVertex
 10
-2.955647619670678
 20
-36.59526777909302
 30
0.0
  0
VERTEX
  5
18
330
16
100
AcDbEntity
  8
ADP1DETAIL
 62
     7
100
AcDbVertex
100
AcDb2dVertex
 10
-2.955303110122066
 20
-35.57896461069024
 30
0.0
  0
VERTEX
  5
19
330
16
100
AcDbEntity
  8
ADP1DETAIL
 62
     7
100
AcDbVertex
100
AcDb2dVertex
 10
-3.331163027656785
 20
-35.57896461069024
 30
0.0
  0
VERTEX
  5
1A
330
16
100
AcDbEntity
  8
ADP1DETAIL
 62
     7
100
AcDbVertex
100
AcDb2dVertex
 10
-3.331507537205396
 20
-36.59526777909302
 30
0.0
  0
SEQEND
  5
1B
330
16
100
AcDbEntity
  8
ADP1DETAIL
 62
     7
  0
SPLINE
  5
1C
330
2
100
AcDbEntity
  8
ADP1DETAIL
 62
     7
100
AcDbSpline
210
0.0
220
0.0
230
1.0
 70
    11
 71
     3
 72
    71
 73
    67
 74
     0
 42
0.0000000001
 43
0.0000000001
 40
0.0
 40
0.0
 40
0.0
 40
0.0
 40
1.0
 40
1.0
 40
1.0
 40
2.0
 40
2.0
 40
2.0
 40
3.0
 40
3.0
 40
3.0
 40
4.0
 40
4.0
 40
4.0
 40
5.0
 40
5.0
 40
5.0
 40
6.0
 40
6.0
 40
6.0
 40
7.0
 40
7.0
 40
7.0
 40
8.0
 40
8.0
 40
8.0
 40
9.0
 40
9.0
 40
9.0
 40
10.0
 40
10.0
 40
10.0
 40
11.0
 40
11.0
 40
11.0
 40
12.0
 40
12.0
 40
12.0
 40
13.0
 40
13.0
 40
13.0
 40
14.0
 40
14.0
 40
14.0
 40
15.0
 40
15.0
 40
15.0
 40
16.0
 40
16.0
 40
16.0
 40
17.0
 40
17.0
 40
17.0
 40
18.0
 40
18.0
 40
18.0
 40
19.0
 40
19.0
 40
19.0
 40
20.0
 40
20.0
 40
20.0
 40
21.0
 40
21.0
 40
21.0
 40
22.0
 40
22.0
 40
22.0
 40
22.0
 10
-3.331163027656785
 20
-35.90693770096802
 30
0.0
 10
-3.331163027656785
 20
-35.73416616233955
 30
0.0
 10
-3.471378413941508
 20
-35.59412303082913
 30
0.0
 10
-3.643977697795676
 20
-35.59412303082913
 30
0.0
 10
-3.643977697795676
 20
-35.59412303082913
 30
0.0
 10
-4.395353023316509
 20
-35.59412303082913
 30
0.0
 10
-4.395353023316509
 20
-35.59412303082913
 30
0.0
 10
-4.395353023316509
 20
-35.59412303082913
 30
0.0
 10
-4.395353023316509
 20
-35.87145321746108
 30
0.0
 10
-4.395353023316509
 20
-35.87145321746108
 30
0.0
 10
-4.395353023316509
 20
-35.87145321746108
 30
0.0
 10
-3.769379173490122
 20
-35.87145321746108
 30
0.0
 10
-3.769379173490122
 20
-35.87145321746108
 30
0.0
 10
-3.630886334948456
 20
-35.87145321746108
 30
0.0
 10
-3.518920731649842
 20
-35.98359107553399
 30
0.0
 10
-3.518920731649842
 20
-36.12173940452705
 30
0.0
 10
-3.518920731649842
 20
-36.12173940452705
 30
0.0
 10
-3.518920731649842
 20
-36.61473256858954
 30
0.0
 10
-3.518920731649842
 20
-36.61473256858954
 30
0.0
 10
-3.518920731649842
 20
-36.61473256858954
 30
0.0
 10
-3.518920731649842
 20
-36.74702423525622
 30
0.0
 10
-3.518920731649842
 20
-36.74702423525622
 30
0.0
 10
-3.518920731649842
 20
-36.9544189835201
 30
0.0
 10
-3.350800071927622
 20
-37.12253964324233
 30
0.0
 10
-3.143405323663735
 20
-37.12253964324233
 30
0.0
 10
-3.143405323663735
 20
-37.12253964324233
 30
0.0
 10
-3.143405323663735
 20
-37.12253964324233
 30
0.0
 10
-3.143405323663735
 20
-37.12253964324233
 30
0.0
 10
-2.936010575399841
 20
-37.12253964324233
 30
0.0
 10
-2.767889915677621
 20
-36.9544189835201
 30
0.0
 10
-2.767889915677621
 20
-36.74702423525622
 30
0.0
 10
-2.767889915677621
 20
-36.74702423525622
 30
0.0
 10
-2.767889915677621
 20
-36.12105038542983
 30
0.0
 10
-2.767889915677621
 20
-36.12105038542983
 30
0.0
 10
-2.767889915677621
 20
-35.98272980166246
 30
0.0
 10
-2.655579802830402
 20
-35.87059194358955
 30
0.0
 10
-2.517431473837341
 20
-35.87059194358955
 30
0.0
 10
-2.517431473837341
 20
-35.87059194358955
 30
0.0
 10
-1.891457624010953
 20
-35.87059194358955
 30
0.0
 10
-1.891457624010953
 20
-35.87059194358955
 30
0.0
 10
-1.891457624010953
 20
-35.87059194358955
 30
0.0
 10
-1.891457624010953
 20
-35.87145321746108
 30
0.0
 10
-1.891457624010953
 20
-35.87145321746108
 30
0.0
 10
-1.891457624010953
 20
-35.87145321746108
 30
0.0
 10
-1.891457624010953
 20
-35.59412303082913
 30
0.0
 10
-1.891457624010953
 20
-35.59412303082913
 30
0.0
 10
-1.891457624010953
 20
-35.59412303082913
 30
0.0
 10
-2.642488439983175
 20
-35.59412303082913
 30
0.0
 10
-2.642488439983175
 20
-35.59412303082913
 30
0.0
 10
-2.815432233385955
 20
-35.59412303082913
 30
0.0
 10
-2.955647619670678
 20
-35.73416616233955
 30
0.0
 10
-2.955647619670678
 20
-35.90693770096802
 30
0.0
 10
-2.955647619670678
 20
-35.90693770096802
 30
0.0
 10
-2.955647619670678
 20
-36.74702423525622
 30
0.0
 10
-2.955647619670678
 20
-36.74702423525622
 30
0.0
 10
-2.955647619670678
 20
-36.85072160938816
 30
0.0
 10
-3.039707949531788
 20
-36.93478193924927
 30
0.0
 10
-3.143405323663735
 20
-36.93478193924927
 30
0.0
 10
-3.143405323663735
 20
-36.93478193924927
 30
0.0
 10
-3.143405323663735
 20
-36.93478193924927
 30
0.0
 10
-3.143405323663735
 20
-36.93478193924927
 30
0.0
 10
-3.247102697795675
 20
-36.93478193924927
 30
0.0
 10
-3.331163027656785
 20
-36.85072160938816
 30
0.0
 10
-3.331163027656785
 20
-36.74702423525622
 30
0.0
 10
-3.331163027656785
 20
-36.74702423525622
 30
0.0
 10
-3.331163027656785
 20
-35.90693770096802
 30
0.0
 10
-3.331163027656785
 20
-35.90693770096802
 30
0.0
  0
SPLINE
  5
1D
330
2
100
AcDbEntity
  8
ADP1DETAIL
 62
     7
100
AcDbSpline
210
0.0
220
0.0
230
1.0
 70
     8
 71
     3
 72
    11
 73
     7
 74
     0
 42
0.0000000001
 43
0.0000000001
 40
0.0
 40
0.0
 40
0.0
 40
0.0
 40
1.0
 40
1.0
 40
1.0
 40
2.0
 40
2.0
 40
2.0
 40
2.0
 10
-2.773402068455396
 20
-36.13551978647149
 30
0.0
 10
-2.773402068455396
 20
-36.13551978647149
 30
0.0
 10
-2.794072641372068
 20
-35.77395701520413
 30
0.0
 10
-2.606314937379011
 20
-35.77395701520413
 30
0.0
 10
-2.418557233385953
 20
-35.77395701520413
 30
0.0
 10
-1.896969776788736
 20
-35.77395701520413
 30
0.0
 10
-1.896969776788736
 20
-35.77395701520413
 30
0.0
  0
CIRCLE
  5
1E
330
2
100
AcDbEntity
  8
ADP1DETAIL
 62
     7
100
AcDbCircle
 10
-3.135481604045679
 20
-36.72600915279094
 30
0.0
 40
0.3107476128472222
  0
CIRCLE
  5
1F
330
2
100
AcDbEntity
  8
ADP1DETAIL
 62
     7
100
AcDbCircle
 10
-3.135481604045679
 20
-36.72592302540378
 30
0.0
 40
0.2929192437065972
  0
POLYLINE
  5
20
330
2
100
AcDbEntity
  8
ADP2DETAIL
  6
AI9-LType5
 62
     5
100
AcDb2dPolyline
 66
     1
 10
0.0
 20
0.0
 30
0.0
  0
VERTEX
  5
23
330
20
100
AcDbEntity
  8
ADP2DETAIL
  6
AI9-LType5
 62
     5
100
AcDbVertex
100
AcDb2dVertex
 10
-2.234244624879011
 20
-35.67249895313816
 30
0.0
  0
VERTEX
  5
24
330
20
100
AcDbEntity
  8
ADP2DETAIL
  6
AI9-LType5
 62
     5
100
AcDbVertex
100
AcDb2dVertex
 10
-2.234244624879011
 20
-35.79359405947496
 30
0.0
  0
VERTEX
  5
25
330
20
100
AcDbEntity
  8
ADP2DETAIL
  6
AI9-LType5
 62
     5
100
AcDbVertex
100
AcDb2dVertex
 10
-2.175678001615125
 20
-35.8566393068708
 30
0.0
  0
SEQEND
  5
26
330
20
100
AcDbEntity
  8
ADP2DETAIL
  6
AI9-LType5
 62
     5
  0
POLYLINE
  5
27
330
2
100
AcDbEntity
  8
ADP2DETAIL
  6
AI9-LType5
 62
     5
100
AcDb2dPolyline
 66
     1
 10
0.0
 20
0.0
 30
0.0
  0
VERTEX
  5
28
330
27
100
AcDbEntity
  8
ADP2DETAIL
  6
AI9-LType5
 62
     5
100
AcDbVertex
100
AcDb2dVertex
 10
-2.420968800226233
 20
-35.67249895313816
 30
0.0
  0
VERTEX
  5
29
330
27
100
AcDbEntity
  8
ADP2DETAIL
  6
AI9-LType5
 62
     5
100
AcDbVertex
100
AcDb2dVertex
 10
-2.420968800226233
 20
-35.79359405947496
 30
0.0
  0
VERTEX
  5
2A
330
27
100
AcDbEntity
  8
ADP2DETAIL
  6
AI9-LType5
 62
     5
100
AcDbVertex
100
AcDb2dVertex
 10
-2.486425614462341
 20
-35.8566393068708
 30
0.0
  0
SEQEND
  5
2B
330
27
100
AcDbEntity
  8
ADP2DETAIL
  6
AI9-LType5
 62
     5
  0
POLYLINE
  5
2C
330
2
100
AcDbEntity
  8
ADP2DETAIL
  6
AI9-LType5
 62
     5
100
AcDb2dPolyline
 66
     1
 10
0.0
 20
0.0
 30
0.0
  0
VERTEX
  5
2D
330
2C
100
AcDbEntity
  8
ADP2DETAIL
  6
AI9-LType5
 62
     5
100
AcDbVertex
100
AcDb2dVertex
 10
-3.849994407865125
 20
-35.67249895313816
 30
0.0
  0
VERTEX
  5
2E
330
2C
100
AcDbEntity
  8
ADP2DETAIL
  6
AI9-LType5
 62
     5
100
AcDbVertex
100
AcDb2dVertex
 10
-3.849994407865125
 20
-35.79359405947496
 30
0.0
  0
VERTEX
  5
2F
330
2C
100
AcDbEntity
  8
ADP2DETAIL
  6
AI9-LType5
 62
     5
100
AcDbVertex
100
AcDb2dVertex
 10
-3.791772294149843
 20
-35.8566393068708
 30
0.0
  0
SEQEND
  5
30
330
2C
100
AcDbEntity
  8
ADP2DETAIL
  6
AI9-LType5
 62
     5
  0
POLYLINE
  5
31
330
2
100
AcDbEntity
  8
ADP2DETAIL
  6
AI9-LType5
 62
     5
100
AcDb2dPolyline
 66
     1
 10
0.0
 20
0.0
 30
0.0
  0
VERTEX
  5
32
330
31
100
AcDbEntity
  8
ADP2DETAIL
  6
AI9-LType5
 62
     5
100
AcDbVertex
100
AcDb2dVertex
 10
-4.037063092760956
 20
-35.67249895313816
 30
0.0
  0
VERTEX
  5
33
330
31
100
AcDbEntity
  8
ADP2DETAIL
  6
AI9-LType5
 62
     5
100
AcDbVertex
100
AcDb2dVertex
 10
-4.037063092760956
 20
-35.79359405947496
 30
0.0
  0
VERTEX
  5
34
330
31
100
AcDbEntity
  8
ADP2DETAIL
  6
AI9-LType5
 62
     5
100
AcDbVertex
100
AcDb2dVertex
 10
-4.102519906997066
 20
-35.8566393068708
 30
0.0
  0
SEQEND
  5
35
330
31
100
AcDbEntity
  8
ADP2DETAIL
  6
AI9-LType5
 62
     5
  0
SPLINE
  5
36
330
2
100
AcDbEntity
  8
ADP1DETAIL
 62
     7
100
AcDbSpline
210
0.0
220
0.0
230
1.0
 70
     8
 71
     3
 72
    11
 73
     7
 74
     0
 42
0.0000000001
 43
0.0000000001
 40
0.0
 40
0.0
 40
0.0
 40
0.0
 40
1.0
 40
1.0
 40
1.0
 40
2.0
 40
2.0
 40
2.0
 40
2.0
 10
-3.517542693455396
 20
-36.13551978647149
 30
0.0
 10
-3.517542693455396
 20
-36.13551978647149
 30
0.0
 10
-3.496527610990121
 20
-35.77395701520413
 30
0.0
 10
-3.684285314983178
 20
-35.77395701520413
 30
0.0
 10
-3.872043018976235
 20
-35.77395701520413
 30
0.0
 10
-4.393630475573456
 20
-35.77395701520413
 30
0.0
 10
-4.393630475573456
 20
-35.77395701520413
 30
0.0
  0
LINE
  5
37
330
2
100
AcDbEntity
  8
ADP2DETAIL
  6
AI9-LType5
 62
     5
100
AcDbLine
 10
-2.841959468629013
 20
-35.67353248178399
 30
0.0
 11
-1.899036834080398
 21
-35.67387699133261
 31
0.0
  0
LINE
  5
38
330
2
100
AcDbEntity
  8
ADP2DETAIL
  6
AI9-LType5
 62
     5
100
AcDbLine
 10
-4.402932233385953
 20
-35.67387699133261
 30
0.0
 11
-3.427970210816511
 21
-35.67353248178399
 31
0.0
  0
LINE
  5
39
330
2
100
AcDbEntity
  8
ADP1DETAIL
  6
AI9-LType2
 62
     7
100
AcDbLine
 10
-2.962882320191511
 20
-35.65699602345066
 30
0.0
 11
-3.343220861858178
 21
-35.65699602345066
 31
0.0
  0
SPLINE
  5
3B
330
2
100
AcDbEntity
  8
ADP1DETAIL
 62
     7
100
AcDbSpline
210
0.0
220
0.0
230
1.0
 70
    11
 71
     3
 72
    53
 73
    49
 74
     0
 42
0.0000000001
 43
0.0000000001
 40
0.0
 40
0.0
 40
0.0
 40
0.0
 40
1.0
 40
1.0
 40
1.0
 40
2.0
 40
2.0
 40
2.0
 40
3.0
 40
3.0
 40
3.0
 40
4.0
 40
4.0
 40
4.0
 40
5.0
 40
5.0
 40
5.0
 40
6.0
 40
6.0
 40
6.0
 40
7.0
 40
7.0
 40
7.0
 40
8.0
 40
8.0
 40
8.0
 40
9.0
 40
9.0
 40
9.0
 40
10.0
 40
10.0
 40
10.0
 40
11.0
 40
11.0
 40
11.0
 40
12.0
 40
12.0
 40
12.0
 40
13.0
 40
13.0
 40
13.0
 40
14.0
 40
14.0
 40
14.0
 40
15.0
 40
15.0
 40
15.0
 40
16.0
 40
16.0
 40
16.0
 40
16.0
 10
-8.286588374879009
 20
-37.18248430470066
 30
0.0
 10
-8.286588374879009
 20
-37.18248430470066
 30
0.0
 10
-8.286588374879009
 20
-37.23829485157566
 30
0.0
 10
-8.286588374879009
 20
-37.23829485157566
 30
0.0
 10
-8.286588374879009
 20
-37.23829485157566
 30
0.0
 10
-8.7575329278304
 20
-37.34095869706177
 30
0.0
 10
-8.7575329278304
 20
-37.34095869706177
 30
0.0
 10
-8.7575329278304
 20
-37.34095869706177
 30
0.0
 10
-8.780959577135956
 20
-37.34061418751316
 30
0.0
 10
-8.779237029392898
 20
-37.36421309159303
 30
0.0
 10
-8.777858991198453
 20
-37.38781199567288
 30
0.0
 10
-8.779237029392898
 20
-38.07321374263469
 30
0.0
 10
-8.779237029392898
 20
-38.07321374263469
 30
0.0
 10
-8.779237029392898
 20
-38.07321374263469
 30
0.0
 10
-8.78612722036512
 20
-38.11593292666247
 30
0.0
 10
-8.802663678698454
 20
-38.13005781815552
 30
0.0
 10
-8.802663678698454
 20
-38.13005781815552
 30
0.0
 10
-9.031073509427621
 20
-38.23427195661038
 30
0.0
 10
-9.031073509427621
 20
-38.23427195661038
 30
0.0
 10
-9.031073509427621
 20
-38.23427195661038
 30
0.0
 10
-9.031073509427621
 20
-36.73496640105483
 30
0.0
 10
-9.031073509427621
 20
-36.73496640105483
 30
0.0
 10
-9.031073509427621
 20
-36.73496640105483
 30
0.0
 10
-9.031073509427621
 20
-36.73548316537774
 30
0.0
 10
-9.031073509427621
 20
-36.73548316537774
 30
0.0
 10
-9.031073509427621
 20
-36.73548316537774
 30
0.0
 10
-9.031073509427621
 20
-35.23617760982219
 30
0.0
 10
-9.031073509427621
 20
-35.23617760982219
 30
0.0
 10
-9.031073509427621
 20
-35.23617760982219
 30
0.0
 10
-8.802663678698454
 20
-35.34039174827705
 30
0.0
 10
-8.802663678698454
 20
-35.34039174827705
 30
0.0
 10
-8.78612722036512
 20
-35.3543443849958
 30
0.0
 10
-8.779237029392898
 20
-35.39723582379788
 30
0.0
 10
-8.779237029392898
 20
-35.39723582379788
 30
0.0
 10
-8.779237029392898
 20
-35.39723582379788
 30
0.0
 10
-8.777858991198453
 20
-36.08246531598538
 30
0.0
 10
-8.779237029392898
 20
-36.10606422006525
 30
0.0
 10
-8.780959577135956
 20
-36.1296631241451
 30
0.0
 10
-8.7575329278304
 20
-36.1294908693708
 30
0.0
 10
-8.7575329278304
 20
-36.1294908693708
 30
0.0
 10
-8.7575329278304
 20
-36.1294908693708
 30
0.0
 10
-8.286588374879009
 20
-36.23198246008261
 30
0.0
 10
-8.286588374879009
 20
-36.23198246008261
 30
0.0
 10
-8.286588374879009
 20
-36.23198246008261
 30
0.0
 10
-8.286588374879009
 20
-36.28796526173191
 30
0.0
 10
-8.286588374879009
 20
-36.28796526173191
 30
0.0
 10
-8.286588374879009
 20
-36.28796526173191
 30
0.0
 10
-8.286588374879009
 20
-37.18248430470066
 30
0.0
 10
-8.286588374879009
 20
-37.18248430470066
 30
0.0
  0
POLYLINE
  5
3C
330
2
100
AcDbEntity
  8
ADP1DETAIL
 62
     7
100
AcDb2dPolyline
 66
     1
 10
0.0
 20
0.0
 30
0.0
 70
     1
  0
VERTEX
  5
3D
330
3C
100
AcDbEntity
  8
ADP1DETAIL
 62
     7
100
AcDbVertex
100
AcDb2dVertex
 10
-7.168654889635956
 20
-36.74512943273885
 30
0.0
  0
VERTEX
  5
3E
330
3C
100
AcDbEntity
  8
ADP1DETAIL
 62
     7
100
AcDbVertex
100
AcDb2dVertex
 10
-7.168654889635956
 20
-37.06207821746108
 30
0.0
  0
VERTEX
  5
3F
330
3C
100
AcDbEntity
  8
ADP1DETAIL
 62
     7
100
AcDbVertex
100
AcDb2dVertex
 10
-7.409811573663731
 20
-36.99679365799927
 30
0.0
  0
VERTEX
  5
40
330
3C
100
AcDbEntity
  8
ADP1DETAIL
 62
     7
100
AcDbVertex
100
AcDb2dVertex
 10
-8.160842389635956
 20
-37.11771650956177
 30
0.0
  0
VERTEX
  5
41
330
3C
100
AcDbEntity
  8
ADP1DETAIL
 62
     7
100
AcDbVertex
100
AcDb2dVertex
 10
-8.160842389635956
 20
-37.16577559159302
 30
0.0
  0
VERTEX
  5
42
330
3C
100
AcDbEntity
  8
ADP1DETAIL
 62
     7
100
AcDbVertex
100
AcDb2dVertex
 10
-8.286588374879009
 20
-37.18300106902358
 30
0.0
  0
VERTEX
  5
43
330
3C
100
AcDbEntity
  8
ADP1DETAIL
 62
     7
100
AcDbVertex
100
AcDb2dVertex
 10
-8.286588374879009
 20
-36.73548316537774
 30
0.0
  0
VERTEX
  5
44
330
3C
100
AcDbEntity
  8
ADP1DETAIL
 62
     7
100
AcDbVertex
100
AcDb2dVertex
 10
-8.286588374879009
 20
-36.28796526173191
 30
0.0
  0
VERTEX
  5
45
330
3C
100
AcDbEntity
  8
ADP1DETAIL
 62
     7
100
AcDbVertex
100
AcDb2dVertex
 10
-8.160842389635956
 20
-36.30519073916246
 30
0.0
  0
VERTEX
  5
46
330
3C
100
AcDbEntity
  8
ADP1DETAIL
 62
     7
100
AcDbVertex
100
AcDb2dVertex
 10
-8.160842389635956
 20
-36.35324982119371
 30
0.0
  0
VERTEX
  5
47
330
3C
100
AcDbEntity
  8
ADP1DETAIL
 62
     7
100
AcDbVertex
100
AcDb2dVertex
 10
-7.409811573663731
 20
-36.49329295270413
 30
0.0
  0
VERTEX
  5
48
330
3C
100
AcDbEntity
  8
ADP1DETAIL
 62
     7
100
AcDbVertex
100
AcDb2dVertex
 10
-7.168654889635956
 20
-36.42818064801663
 30
0.0
  0
SEQEND
  5
49
330
3C
100
AcDbEntity
  8
ADP1DETAIL
 62
     7
  0
POLYLINE
  5
4A
330
2
100
AcDbEntity
  8
ADP1DETAIL
 62
     7
100
AcDb2dPolyline
 66
     1
 10
0.0
 20
0.0
 30
0.0
 70
     1
  0
VERTEX
  5
4B
330
4A
100
AcDbEntity
  8
ADP1DETAIL
 62
     7
100
AcDbVertex
100
AcDb2dVertex
 10
-6.287743973837343
 20
-36.74512943273885
 30
0.0
  0
VERTEX
  5
4C
330
4A
100
AcDbEntity
  8
ADP1DETAIL
 62
     7
100
AcDbVertex
100
AcDb2dVertex
 10
-6.287743973837343
 20
-37.04485274003052
 30
0.0
  0
VERTEX
  5
4D
330
4A
100
AcDbEntity
  8
ADP1DETAIL
 62
     7
100
AcDbVertex
100
AcDb2dVertex
 10
-6.413489959080401
 20
-37.06207821746108
 30
0.0
  0
VERTEX
  5
4E
330
4A
100
AcDbEntity
  8
ADP1DETAIL
 62
     7
100
AcDbVertex
100
AcDb2dVertex
 10
-6.413489959080401
 20
-36.74512943273885
 30
0.0
  0
VERTEX
  5
4F
330
4A
100
AcDbEntity
  8
ADP1DETAIL
 62
     7
100
AcDbVertex
100
AcDb2dVertex
 10
-6.413489959080401
 20
-36.42818064801663
 30
0.0
  0
VERTEX
  5
50
330
4A
100
AcDbEntity
  8
ADP1DETAIL
 62
     7
100
AcDbVertex
100
AcDb2dVertex
 10
-6.287743973837343
 20
-36.44523387067288
 30
0.0
  0
SEQEND
  5
51
330
4A
100
AcDbEntity
  8
ADP1DETAIL
 62
     7
  0
POLYLINE
  5
52
330
2
100
AcDbEntity
  8
ADP1DETAIL
 62
     7
100
AcDb2dPolyline
 66
     1
 10
0.0
 20
0.0
 30
0.0
  0
VERTEX
  5
53
330
52
100
AcDbEntity
  8
ADP1DETAIL
 62
     7
100
AcDbVertex
100
AcDb2dVertex
 10
-8.160842389635956
 20
-37.11771650956177
 30
0.0
  0
VERTEX
  5
54
330
52
100
AcDbEntity
  8
ADP1DETAIL
 62
     7
100
AcDbVertex
100
AcDb2dVertex
 10
-8.160842389635956
 20
-36.73548316537774
 30
0.0
  0
VERTEX
  5
55
330
52
100
AcDbEntity
  8
ADP1DETAIL
 62
     7
100
AcDbVertex
100
AcDb2dVertex
 10
-8.160842389635956
 20
-36.35324982119371
 30
0.0
  0
SEQEND
  5
56
330
52
100
AcDbEntity
  8
ADP1DETAIL
 62
     7
  0
POLYLINE
  5
57
330
2
100
AcDbEntity
  8
ADP1DETAIL
 62
     7
100
AcDb2dPolyline
 66
     1
 10
0.0
 20
0.0
 30
0.0
  0
VERTEX
  5
58
330
57
100
AcDbEntity
  8
ADP1DETAIL
 62
     7
100
AcDbVertex
100
AcDb2dVertex
 10
-7.409811573663731
 20
-36.99679365799927
 30
0.0
  0
VERTEX
  5
59
330
57
100
AcDbEntity
  8
ADP1DETAIL
 62
     7
100
AcDbVertex
100
AcDb2dVertex
 10
-7.409811573663731
 20
-36.74512943273885
 30
0.0
  0
VERTEX
  5
5A
330
57
100
AcDbEntity
  8
ADP1DETAIL
 62
     7
100
AcDbVertex
100
AcDb2dVertex
 10
-7.409811573663731
 20
-36.49329295270413
 30
0.0
  0
SEQEND
  5
5B
330
57
100
AcDbEntity
  8
ADP1DETAIL
 62
     7
  0
SPLINE
  5
5C
330
2
100
AcDbEntity
  8
ADP1DETAIL
  6
AI9-LType2
 62
     7
100
AcDbSpline
210
0.0
220
0.0
230
1.0
 70
     8
 71
     3
 72
    11
 73
     7
 74
     0
 42
0.0000000001
 43
0.0000000001
 40
0.0
 40
0.0
 40
0.0
 40
0.0
 40
1.0
 40
1.0
 40
1.0
 40
2.0
 40
2.0
 40
2.0
 40
2.0
 10
-6.291189069323454
 20
-36.45109053299927
 30
0.0
 10
-6.329429629219287
 20
-36.54152428950969
 30
0.0
 10
-6.350444711684566
 20
-36.64091529428399
 30
0.0
 10
-6.350444711684566
 20
-36.74512943273885
 30
0.0
 10
-6.350444711684566
 20
-36.85209964758261
 30
0.0
 10
-6.328396100573456
 20
-36.95390221919718
 30
0.0
 10
-6.288088483385955
 20
-37.04605852345066
 30
0.0
  0
SPLINE
  5
5D
330
2
100
AcDbEntity
  8
ADP1DETAIL
 62
     7
100
AcDbSpline
210
0.0
220
0.0
230
1.0
 70
    11
 71
     3
 72
    20
 73
    16
 74
     0
 42
0.0000000001
 43
0.0000000001
 40
0.0
 40
0.0
 40
0.0
 40
0.0
 40
1.0
 40
1.0
 40
1.0
 40
2.0
 40
2.0
 40
2.0
 40
3.0
 40
3.0
 40
3.0
 40
4.0
 40
4.0
 40
4.0
 40
5.0
 40
5.0
 40
5.0
 40
5.0
 10
-6.791416933906788
 20
-35.66647003603747
 30
0.0
 10
-6.927498205608177
 20
-35.66647003603747
 30
0.0
 10
-7.055655757691511
 20
-35.63391388369371
 30
0.0
 10
-7.168999399184567
 20
-35.57620853430135
 30
0.0
 10
-7.168999399184567
 20
-35.57620853430135
 30
0.0
 10
-7.168999399184567
 20
-37.11375464975275
 30
0.0
 10
-7.168999399184567
 20
-37.11375464975275
 30
0.0
 10
-7.168999399184567
 20
-37.11375464975275
 30
0.0
 10
-6.413834468629008
 20
-37.11375464975275
 30
0.0
 10
-6.413834468629008
 20
-37.11375464975275
 30
0.0
 10
-6.413834468629008
 20
-37.11375464975275
 30
0.0
 10
-6.413834468629008
 20
-35.57620853430135
 30
0.0
 10
-6.413834468629008
 20
-35.57620853430135
 30
0.0
 10
-6.527178110122065
 20
-35.63391388369371
 30
0.0
 10
-6.655335662205398
 20
-35.66647003603747
 30
0.0
 10
-6.791416933906788
 20
-35.66647003603747
 30
0.0
  0
SPLINE
  5
5E
330
2
100
AcDbEntity
  8
ADP2DETAIL
  6
AI9-LType5
 62
     5
100
AcDbSpline
210
0.0
220
0.0
230
1.0
 70
     8
 71
     3
 72
    20
 73
    16
 74
     0
 42
0.0000000001
 43
0.0000000001
 40
0.0
 40
0.0
 40
0.0
 40
0.0
 40
1.0
 40
1.0
 40
1.0
 40
2.0
 40
2.0
 40
2.0
 40
3.0
 40
3.0
 40
3.0
 40
4.0
 40
4.0
 40
4.0
 40
5.0
 40
5.0
 40
5.0
 40
5.0
 10
-9.031073509427621
 20
-35.60273576954441
 30
0.0
 10
-9.031073509427621
 20
-35.60273576954441
 30
0.0
 10
-9.00316823599012
 20
-35.60273576954441
 30
0.0
 10
-9.00316823599012
 20
-35.60273576954441
 30
0.0
 10
-8.985942758559566
 20
-35.60273576954441
 30
0.0
 10
-8.971817867066508
 20
-35.61668840626316
 30
0.0
 10
-8.971817867066508
 20
-35.63391388369371
 30
0.0
 10
-8.971817867066508
 20
-35.63391388369371
 30
0.0
 10
-8.971817867066508
 20
-37.83705244706177
 30
0.0
 10
-8.971817867066508
 20
-37.83705244706177
 30
0.0
 10
-8.971817867066508
 20
-37.85427792449232
 30
0.0
 10
-8.985942758559566
 20
-37.86840281598538
 30
0.0
 10
-9.00316823599012
 20
-37.86840281598538
 30
0.0
 10
-9.00316823599012
 20
-37.86840281598538
 30
0.0
 10
-9.031073509427621
 20
-37.86840281598538
 30
0.0
 10
-9.031073509427621
 20
-37.86840281598538
 30
0.0
  0
LINE
  5
5F
330
2
100
AcDbEntity
  8
ADP2DETAIL
  6
Continuous
 62
     5
100
AcDbLine
 10
-7.168999399184567
 20
-35.85577803299927
 30
0.0
 11
-6.413834468629008
 21
-35.85577803299927
 31
0.0
  0
POLYLINE
  5
60
330
2
100
AcDbEntity
  8
ADP2DETAIL
  6
AI9-LType5
 62
     5
100
AcDb2dPolyline
 66
     1
 10
0.0
 20
0.0
 30
0.0
  0
VERTEX
  5
61
330
60
100
AcDbEntity
  8
ADP2DETAIL
  6
AI9-LType5
 62
     5
100
AcDbVertex
100
AcDb2dVertex
 10
-6.694265241198454
 20
-35.67835561546455
 30
0.0
  0
VERTEX
  5
62
330
60
100
AcDbEntity
  8
ADP2DETAIL
  6
AI9-LType5
 62
     5
100
AcDbVertex
100
AcDb2dVertex
 10
-6.694265241198454
 20
-35.80117326954441
 30
0.0
  0
VERTEX
  5
63
330
60
100
AcDbEntity
  8
ADP2DETAIL
  6
AI9-LType5
 62
     5
100
AcDbVertex
100
AcDb2dVertex
 10
-6.635009598837342
 20
-35.86490753603746
 30
0.0
  0
SEQEND
  5
64
330
60
100
AcDbEntity
  8
ADP2DETAIL
  6
AI9-LType5
 62
     5
  0
POLYLINE
  5
65
330
2
100
AcDbEntity
  8
ADP2DETAIL
  6
AI9-LType5
 62
     5
100
AcDb2dPolyline
 66
     1
 10
0.0
 20
0.0
 30
0.0
  0
VERTEX
  5
66
330
65
100
AcDbEntity
  8
ADP2DETAIL
  6
AI9-LType5
 62
     5
100
AcDbVertex
100
AcDb2dVertex
 10
-6.883745492934565
 20
-35.67835561546455
 30
0.0
  0
VERTEX
  5
67
330
65
100
AcDbEntity
  8
ADP2DETAIL
  6
AI9-LType5
 62
     5
100
AcDbVertex
100
AcDb2dVertex
 10
-6.883745492934565
 20
-35.80117326954441
 30
0.0
  0
VERTEX
  5
68
330
65
100
AcDbEntity
  8
ADP2DETAIL
  6
AI9-LType5
 62
     5
100
AcDbVertex
100
AcDb2dVertex
 10
-6.949891326267898
 20
-35.86490753603746
 30
0.0
  0
SEQEND
  5
69
330
65
100
AcDbEntity
  8
ADP2DETAIL
  6
AI9-LType5
 62
     5
  0
LINE
  5
6A
330
2
100
AcDbEntity
  8
ADP1DETAIL
 62
     7
100
AcDbLine
 10
-8.779237029392898
 20
-36.10606422006525
 30
0.0
 11
-8.779237029392898
 21
-37.36421309159303
 31
0.0
  0
POLYLINE
  5
6B
330
2
100
AcDbEntity
  8
ADP2DETAIL
  6
AI9-LType5
 62
     5
100
AcDb2dPolyline
 66
     1
 10
0.0
 20
0.0
 30
0.0
  0
VERTEX
  5
6C
330
6B
100
AcDbEntity
  8
ADP2DETAIL
  6
AI9-LType5
 62
     5
100
AcDbVertex
100
AcDb2dVertex
 10
-8.968028262031786
 20
-36.92427439801663
 30
0.0
  0
VERTEX
  5
6D
330
6B
100
AcDbEntity
  8
ADP2DETAIL
  6
AI9-LType5
 62
     5
100
AcDbVertex
100
AcDb2dVertex
 10
-8.590445796754011
 20
-36.92427439801663
 30
0.0
  0
VERTEX
  5
6E
330
6B
100
AcDbEntity
  8
ADP2DETAIL
  6
AI9-LType5
 62
     5
100
AcDbVertex
100
AcDb2dVertex
 10
-8.590445796754011
 20
-36.54669193273885
 30
0.0
  0
VERTEX
  5
6F
330
6B
100
AcDbEntity
  8
ADP2DETAIL
  6
AI9-LType5
 62
     5
100
AcDbVertex
100
AcDb2dVertex
 10
-8.968028262031786
 20
-36.54669193273885
 30
0.0
  0
SEQEND
  5
70
330
6B
100
AcDbEntity
  8
ADP2DETAIL
  6
AI9-LType5
 62
     5
  0
LINE
  5
71
330
2
100
AcDbEntity
  8
ADP2DETAIL
  6
AI9-LType5
 62
     5
100
AcDbLine
 10
-8.907739091024843
 20
-36.58889435244372
 30
0.0
 11
-8.907739091024843
 21
-36.90136451303399
 31
0.0
  0
LINE
  5
72
330
2
100
AcDbEntity
  8
ADP2DETAIL
  6
AI9-LType5
 62
     5
100
AcDbLine
 10
-8.843660314983175
 20
-36.58889435244372
 30
0.0
 11
-8.843660314983175
 21
-36.90136451303399
 31
0.0
  0
LINE
  5
73
330
2
100
AcDbEntity
  8
ADP2DETAIL
  6
AI9-LType5
 62
     5
100
AcDbLine
 10
-8.77958153894151
 20
-36.58889435244372
 30
0.0
 11
-8.77958153894151
 21
-36.90136451303399
 31
0.0
  0
LINE
  5
74
330
2
100
AcDbEntity
  8
ADP2DETAIL
  6
AI9-LType5
 62
     5
100
AcDbLine
 10
-8.715502762899845
 20
-36.58889435244372
 30
0.0
 11
-8.715502762899845
 21
-36.90136451303399
 31
0.0
  0
LINE
  5
75
330
2
100
AcDbEntity
  8
ADP2DETAIL
  6
AI9-LType5
 62
     5
100
AcDbLine
 10
-8.651423986858176
 20
-36.58889435244372
 30
0.0
 11
-8.651423986858176
 21
-36.90136451303399
 31
0.0
  0
DIMENSION
  5
76
330
2
100
AcDbEntity
  8
ADPDIM
 62
     3
100
AcDbDimension
  2
*D0
 10
-6.755714107147614
 20
-34.09805372686574
 30
0.0
 11
-7.880714107147614
 21
-34.09805372686574
 31
0.0
 71
     5
 42
2.25
  3
Standard
100
AcDbAlignedDimension
 13
-9.005714107147614
 23
-35.21712017691122
 33
0.0
 14
-6.755714107147614
 24
-35.52962017691122
 34
0.0
100
AcDbRotatedDimension
1001
ACAD
1000
DSTYLE
1002
{
1070
     3
1000
"
1070
   276
1070
     2
1070
   277
1070
     5
1002
}
  0
DIMENSION
  5
8D
330
2
100
AcDbEntity
  8
ADPDIM
 62
     3
100
AcDbDimension
  2
*D1
 10
-5.755714107147614
 20
-35.65462017691122
 30
0.0
 11
-5.755714107147608
 21
-36.18587017691123
 31
0.0
 71
     5
 42
1.0625
  3
Standard
100
AcDbAlignedDimension
 13
-6.193214107147614
 23
-36.71712017691123
 33
0.0
 14
-6.505714107147614
 24
-35.65462017691122
 34
0.0
 50
90.0
100
AcDbRotatedDimension
1001
ACAD
1000
DSTYLE
1002
{
1070
     3
1000
"
1070
   276
1070
     2
1070
   277
1070
     5
1002
}
  0
DIMENSION
  5
9B
330
2
100
AcDbEntity
  8
ADPDIM
 62
     3
100
AcDbDimension
  2
*D2
 10
-1.887544957504601
 20
-34.11340379010149
 30
0.0
 11
-3.11718346863968
 21
-34.11340379010149
 31
0.0
 70
   128
 71
     5
 42
2.5
  3
Standard
100
AcDbAlignedDimension
 13
-4.387544957504601
 23
-35.62429130745689
 33
0.0
 14
-1.887544957504601
 24
-35.680836709085
 34
0.0
100
AcDbRotatedDimension
1001
ACAD
1000
DSTYLE
1002
{
1070
     3
1000
"
1070
   276
1070
     2
1070
   277
1070
     5
1002
}
  0
DIMENSION
  5
A9
330
2
100
AcDbEntity
  8
ADPDIM
 62
     3
100
AcDbDimension
  2
*D3
 10
-2.326190224658866
 20
-34.77829237074447
 30
0.0
 11
-3.07803405262716
 21
-34.77829237074447
 31
0.0
 70
   128
 71
     5
 42
1.625
  3
Standard
100
AcDbAlignedDimension
 13
-3.951190224658866
 23
-35.73197276728811
 33
0.0
 14
-2.326190224658866
 24
-35.73197276728811
 34
0.0
100
AcDbRotatedDimension
1001
ACAD
1000
DSTYLE
1002
{
1070
     3
1000
"
1070
   276
1070
     2
1070
   277
1070
     5
1002
}
  0
DIMENSION
  5
B7
330
2
100
AcDbEntity
  8
ADPDIM
 62
     3
100
AcDbDimension
  2
*D4
 10
-2.034155712815916
 20
-35.73953741103625
 30
0.0
 11
-5.028474893492557
 21
-37.96839340855642
 31
0.0
 70
     3
 71
     5
 42
3.000000000000003
  3
Standard
100
AcDbDiametricDimension
 15
-4.27908355270577
 25
-37.72958740882212
 35
0.0
 40
0.0
1001
ACAD
1000
DSTYLE
1002
{
1070
     3
1000
"
1070
   276
1070
     2
1070
   277
1070
     5
1002
}
  0
DIMENSION
  5
C3
330
2
100
AcDbEntity
  8
ADPDIM
  6
Continuous
 62
     3
370
     0
100
AcDbDimension
  2
*D5
 10
-9.737171549805395
 20
-36.93084096107918
 30
0.0
 11
-9.737171549805388
 21
-36.74017438719787
 31
0.0
 71
     5
 42
0.3813331477626178
  3
Standard
100
AcDbAlignedDimension
 13
-9.032481930579933
 23
-36.54950781331656
 33
0.0
 14
-9.032481930579933
 24
-36.93084096107918
 34
0.0
 50
90.0
100
AcDbRotatedDimension
1001
ACAD
1000
DSTYLE
1002
{
1070
     3
1000
"
1070
   276
1070
     2
1070
   277
1070
     5
1070
   278
1070
     0
1070
   371
1070
     0
1070
   372
1070
     0
1002
}
  0
DIMENSION
  5
D1
330
2
100
AcDbEntity
  8
ADPDIM
  6
Continuous
 62
     3
370
     0
100
AcDbDimension
  2
*D6
 10
-6.417868223350666
 20
-37.69397381621074
 30
0.0
 11
-6.780000370591523
 21
-37.69397381621074
 31
0.0
 70
   128
 71
     5
 42
0.7536263728661084
  3
Standard
100
AcDbAlignedDimension
 13
-7.171494596216774
 23
-37.11708520550482
 33
0.0
 14
-6.417868223350666
 24
-37.11708520550482
 34
0.0
100
AcDbRotatedDimension
1001
ACAD
1000
DSTYLE
1002
{
1070
     3
1000
"
1070
   276
1070
     2
1070
   277
1070
     5
1070
   278
1070
     0
1070
   371
1070
     0
1070
   372
1070
     0
1002
}
  0
MTEXT
  5
DF
102
{ACAD_REACTORS
330
E0
102
}
330
2
100
AcDbEntity
  8
ADPDIM
  6
Continuous
 62
     3
370
     0
100
AcDbMText
 10
-6.154930477293568
 20
-35.12661323231351
 30
0.0
 40
0.18
 41
0.0
 71
     7
 72
     1
  1
Ctsk for\P#10 FHMS
 73
     1
 44
1.0
1001
ACAD
1000
MTEXTBEGIN
1070
    73
1070
     1
1070
    44
1040
1.0
1070
    74
1070
     0
1000
MTEXTEND
  0
LEADER
  5
E0
330
2
100
AcDbEntity
  8
ADPDIM
  6
Continuous
 62
     3
370
     0
100
AcDbLeader
  3
Standard
 73
     0
 74
     0
 75
     1
 40
0.48
 41
1.379999999999999
 76
     3
 10
-6.782225884180618
 20
-35.87347285530898
 30
0.0
 10
-6.424930477293568
 20
-35.0366132323135
 30
0.0
 10
-6.244930477293568
 20
-35.0366132323135
 30
0.0
340
DF
213
0.0
223
0.09
233
0.0
1001
ACAD
1000
DSTYLE
1002
{
1070
   147
1040
0.09
1070
    77
1070
     0
1070
   278
1070
     0
1070
   371
1070
     0
1070
   372
1070
     0
1002
}
  0
LEADER
  5
E1
330
2
100
AcDbEntity
  8
ADPDIM
  6
Continuous
 62
     3
370
     0
100
AcDbLeader
  3
Standard
 73
     0
 75
     1
 40
0.18
 41
1.199999999999999
 76
     3
 10
-7.092297946120282
 20
-35.60251390055868
 30
0.0
 10
-6.929864699811499
 20
-35.11337140127093
 30
0.0
 10
-7.109864699811499
 20
-35.11337140127093
 30
0.0
340
E2
213
0.0
223
0.09
233
0.0
1001
ACAD
1000
DSTYLE
1002
{
1070
   147
1040
0.09
1070
    77
1070
     0
1070
   278
1070
     0
1070
   371
1070
     0
1070
   372
1070
     0
1002
}
  0
MTEXT
  5
E2
102
{ACAD_REACTORS
330
E1
102
}
330
2
100
AcDbEntity
  8
ADPDIM
  6
Continuous
 62
     3
370
     0
100
AcDbMText
 10
-7.199864699811499
 20
-35.20337140127093
 30
0.0
 40
0.18
 41
0.0
 71
     9
 72
     1
  1
13/16" r
 73
     1
 44
1.0
1001
ACAD
1000
MTEXTBEGIN
1070
    73
1070
     1
1070
    44
1040
1.0
1070
    74
1070
     0
1000
MTEXTEND
  0
ENDSEC
  0
SECTION
  2
OBJECTS
  0
DICTIONARY
  5
8
330
0
100
AcDbDictionary
281
     1
  3
ACAD_COLOR
350
FC
  3
ACAD_GROUP
350
F9
  3
ACAD_LAYOUT
350
E5
  3
ACAD_MATERIAL
350
87
  3
ACAD_MLINESTYLE
350
FA
  3
ACAD_PLOTSETTINGS
350
FB
  3
ACAD_PLOTSTYLENAME
350
7
  3
ACDBHEADERROUNDTRIPXREC
350
102
  3
AcDbVariableDictionary
350
FE
  0
DICTIONARY
  5
EB
330
EA
100
AcDbDictionary
280
     1
281
     1
  3
ACAD_LAYERSTATES
360
EC
  0
DICTIONARY
  5
84
330
83
100
AcDbDictionary
280
     1
281
     1
  3
ACAD_XREC_ROUNDTRIP
360
85
  0
DICTIONARY
  5
3
330
2
100
AcDbDictionary
280
     1
281
     1
  0
DICTIONARY
  5
FC
102
{ACAD_REACTORS
330
8
102
}
330
8
100
AcDbDictionary
281
     1
  0
DICTIONARY
  5
F9
102
{ACAD_REACTORS
330
8
102
}
330
8
100
AcDbDictionary
281
     1
  0
DICTIONARY
  5
E5
102
{ACAD_REACTORS
330
8
102
}
330
8
100
AcDbDictionary
281
     1
  3
Layout1
350
E9
  3
Model
350
E4
  0
DICTIONARY
  5
87
102
{ACAD_REACTORS
330
8
102
}
330
8
100
AcDbDictionary
281
     1
  3
Global
350
86
  0
DICTIONARY
  5
FA
102
{ACAD_REACTORS
330
8
102
}
330
8
100
AcDbDictionary
281
     1
  3
Standard
350
FD
  0
DICTIONARY
  5
FB
102
{ACAD_REACTORS
330
8
102
}
330
8
100
AcDbDictionary
281
     1
  0
ACDBDICTIONARYWDFLT
  5
7
102
{ACAD_REACTORS
330
8
102
}
330
8
100
AcDbDictionary
281
     1
  3
Normal
350
6
100
AcDbDictionaryWithDefault
340
6
  0
DICTIONARY
  5
102
102
{ACAD_REACTORS
330
8
102
}
330
8
100
AcDbDictionary
281
     1
  3
COLORDICT
350
104
  3
MATERIALDICT
350
103
  0
DICTIONARY
  5
FE
102
{ACAD_REACTORS
330
8
102
}
330
8
100
AcDbDictionary
281
     1
  3
DIMASSOC
350
100
  3
HIDETEXT
350
FF
  3
PROJECTNAME
350
101
  0
DICTIONARY
  5
EC
102
{ACAD_REACTORS
330
EB
102
}
330
EB
100
AcDbDictionary
281
     1
  0
XRECORD
  5
85
102
{ACAD_REACTORS
330
84
102
}
330
84
100
AcDbXrecord
280
     1
102
MATERIAL
340
86
  0
LAYOUT
  5
E9
102
{ACAD_XDICTIONARY
360
108
102
}
102
{ACAD_REACTORS
330
E5
102
}
330
E5
100
AcDbPlotSettings
  1

  2

  4

  6

 40
0.0
 41
0.0
 42
0.0
 43
0.0
 44
0.0
 45
0.0
 46
0.0
 47
0.0
 48
0.0
 49
0.0
140
0.0
141
0.0
142
1.0
143
1.0
 70
     0
 72
     0
 73
     0
 74
     0
  7

 75
     0
147
1.0
148
0.0
149
0.0
100
AcDbLayout
  1
Layout1
 70
     0
 71
     1
 10
0.0
 20
0.0
 11
12.0
 21
9.0
 12
0.0
 22
0.0
 32
0.0
 14
1.000000000000000E+20
 24
1.000000000000000E+20
 34
1.000000000000000E+20
 15
-1.000000000000000E+20
 25
-1.000000000000000E+20
 35
-1.000000000000000E+20
146
0.0
 13
0.0
 23
0.0
 33
0.0
 16
1.0
 26
0.0
 36
0.0
 17
0.0
 27
1.0
 37
0.0
 76
     0
330
E6
  0
LAYOUT
  5
E4
102
{ACAD_XDICTIONARY
360
106
102
}
102
{ACAD_REACTORS
330
E5
102
}
330
E5
100
AcDbPlotSettings
  1

  2

  4

  6

 40
0.0
 41
0.0
 42
0.0
 43
0.0
 44
0.0
 45
0.0
 46
0.0
 47
0.0
 48
0.0
 49
0.0
140
0.0
141
0.0
142
1.0
143
1.0
 70
  1024
 72
     0
 73
     0
 74
     0
  7

 75
     0
147
1.0
148
0.0
149
0.0
100
AcDbLayout
  1
Model
 70
     0
 71
     0
 10
0.0
 20
0.0
 11
0.0
 21
0.0
 12
0.0
 22
0.0
 32
0.0
 14
0.0
 24
0.0
 34
0.0
 15
0.0
 25
0.0
 35
0.0
146
0.0
 13
0.0
 23
0.0
 33
0.0
 16
0.0
 26
0.0
 36
0.0
 17
0.0
 27
0.0
 37
0.0
 76
     0
330
2
  0
MATERIAL
  5
86
102
{ACAD_XDICTIONARY
360
88
102
}
102
{ACAD_REACTORS
330
87
102
}
330
87
100
AcDbMaterial
  1
Global
  0
MLINESTYLE
  5
FD
102
{ACAD_REACTORS
330
FA
102
}
330
FA
100
AcDbMlineStyle
  2
STANDARD
 70
     0
  3

 62
     0
 51
90.0
 52
90.0
 71
     2
 49
0.5
 62
   256
  6
BYLAYER
 49
-0.5
 62
   256
  6
BYLAYER
  0
ACDBPLACEHOLDER
  5
6
102
{ACAD_REACTORS
330
7
102
}
330
7
  0
XRECORD
  5
104
102
{ACAD_REACTORS
330
102
102
}
330
102
100
AcDbXrecord
280
     1
340
FC
  0
XRECORD
  5
103
102
{ACAD_REACTORS
330
102
102
}
330
102
100
AcDbXrecord
280
     1
340
87
  0
DICTIONARYVAR
  5
100
102
{ACAD_REACTORS
330
FE
102
}
330
FE
100
DictionaryVariables
280
     0
  1
1
  0
DICTIONARYVAR
  5
FF
102
{ACAD_REACTORS
330
FE
102
}
330
FE
100
DictionaryVariables
280
     0
  1
1
  0
DICTIONARYVAR
  5
101
102
{ACAD_REACTORS
330
FE
102
}
330
FE
100
DictionaryVariables
280
     0
  1

  0
DICTIONARY
  5
108
330
E9
100
AcDbDictionary
280
     1
281
     1
  3
ACAD_XREC_ROUNDTRIP
360
109
  0
DICTIONARY
  5
106
330
E4
100
AcDbDictionary
280
     1
281
     1
  3
ACAD_XREC_ROUNDTRIP
360
107
  0
DICTIONARY
  5
88
330
86
100
AcDbDictionary
280
     1
281
     1
  3
ACAD_XREC_ROUNDTRIP
360
89
  0
XRECORD
  5
109
102
{ACAD_REACTORS
330
108
102
}
330
108
100
AcDbXrecord
280
     1
102
SHADEPLOT
 70
     0
102
SHADEPLOTRESLEVEL
 70
     2
102
SHADEPLOTCUSTOMDPI
 70
   300
  0
XRECORD
  5
107
102
{ACAD_REACTORS
330
106
102
}
330
106
100
AcDbXrecord
280
     1
102
SHADEPLOT
 70
     0
102
SHADEPLOTRESLEVEL
 70
     2
102
SHADEPLOTCUSTOMDPI
 70
   300
  0
XRECORD
  5
89
102
{ACAD_REACTORS
330
88
102
}
330
88
100
AcDbXrecord
280
     1
102
MATERIAL
148
0.0
149
0.0
149
0.0
 93
        0
 94
       63
282
     0
 72
     1
 77
     1
171
     1
175
     1
179
     1
273
     0
  0
ENDSEC
  0
EOF
