  0
SECTION
  2
HEADER
  9
$ACADVER
  1
AC1015
  9
$ACADMAINTVER
 70
    20
  9
$DWGCODEPAGE
  3
ANSI_1252
  9
$INSBASE
 10
10.66580314078042
 20
7.973946821480968
 30
0.0
  9
$EXTMIN
 10
3.386485103776663
 20
6.454086600924703
 30
0.0
  9
$EXTMAX
 10
16.34660191823778
 20
11.89156872974407
 30
0.0
  9
$LIMMIN
 10
0.0
 20
0.0
  9
$LIMMAX
 10
36.0
 20
36.0
  9
$ORTHOMODE
 70
     0
  9
$REGENMODE
 70
     1
  9
$FILLMODE
 70
     1
  9
$QTEXTMODE
 70
     0
  9
$MIRRTEXT
 70
     1
  9
$LTSCALE
 40
1.0
  9
$ATTMODE
 70
     1
  9
$TEXTSIZE
 40
0.2
  9
$TRACEWID
 40
0.05
  9
$TEXTSTYLE
  7
STANDARD
  9
$CLAYER
  8
0
  9
$CELTYPE
  6
ByLayer
  9
$CECOLOR
 62
   256
  9
$CELTSCALE
 40
1.0
  9
$DISPSILH
 70
     0
  9
$DIMSCALE
 40
1.0
  9
$DIMASZ
 40
0.125
  9
$DIMEXO
 40
0.0625
  9
$DIMDLI
 40
0.38
  9
$DIMRND
 40
0.0
  9
$DIMDLE
 40
0.0
  9
$DIMEXE
 40
0.18
  9
$DIMTP
 40
0.0
  9
$DIMTM
 40
0.0
  9
$DIMTXT
 40
0.125
  9
$DIMCEN
 40
0.1875
  9
$DIMTSZ
 40
0.125
  9
$DIMTOL
 70
     0
  9
$DIMLIM
 70
     0
  9
$DIMTIH
 70
     0
  9
$DIMTOH
 70
     0
  9
$DIMSE1
 70
     0
  9
$DIMSE2
 70
     0
  9
$DIMTAD
 70
     0
  9
$DIMZIN
 70
     3
  9
$DIMBLK
  1

  9
$DIMASO
 70
     1
  9
$DIMSHO
 70
     1
  9
$DIMPOST
  1

  9
$DIMAPOST
  1

  9
$DIMALT
 70
     0
  9
$DIMALTD
 70
     1
  9
$DIMALTF
 40
25.4
  9
$DIMLFAC
 40
1.0
  9
$DIMTOFL
 70
     0
  9
$DIMTVP
 40
0.0
  9
$DIMTIX
 70
     0
  9
$DIMSOXD
 70
     0
  9
$DIMSAH
 70
     0
  9
$DIMBLK1
  1

  9
$DIMBLK2
  1

  9
$DIMSTYLE
  2
Standard
  9
$DIMCLRD
 70
     0
  9
$DIMCLRE
 70
     0
  9
$DIMCLRT
 70
     0
  9
$DIMTFAC
 40
1.0
  9
$DIMGAP
 40
0.125
  9
$DIMJUST
 70
     0
  9
$DIMSD1
 70
     0
  9
$DIMSD2
 70
     0
  9
$DIMTOLJ
 70
     1
  9
$DIMTZIN
 70
     3
  9
$DIMALTZ
 70
     3
  9
$DIMALTTZ
 70
     3
  9
$DIMUPT
 70
     0
  9
$DIMDEC
 70
     4
  9
$DIMTDEC
 70
     4
  9
$DIMALTU
 70
     5
  9
$DIMALTTD
 70
     1
  9
$DIMTXSTY
  7
STANDARD
  9
$DIMAUNIT
 70
     0
  9
$DIMADEC
 70
     0
  9
$DIMALTRND
 40
0.0
  9
$DIMAZIN
 70
     0
  9
$DIMDSEP
 70
    46
  9
$DIMATFIT
 70
     3
  9
$DIMFRAC
 70
     0
  9
$DIMLDRBLK
  1

  9
$DIMLUNIT
 70
     5
  9
$DIMLWD
 70
    -2
  9
$DIMLWE
 70
    -2
  9
$DIMTMOVE
 70
     2
  9
$LUNITS
 70
     5
  9
$LUPREC
 70
     4
  9
$SKETCHINC
 40
0.1
  9
$FILLETRAD
 40
0.062
  9
$AUNITS
 70
     0
  9
$AUPREC
 70
     0
  9
$MENU
  1
acad
  9
$ELEVATION
 40
0.0
  9
$PELEVATION
 40
0.0
  9
$THICKNESS
 40
0.0
  9
$LIMCHECK
 70
     0
  9
$CHAMFERA
 40
0.0
  9
$CHAMFERB
 40
0.0
  9
$CHAMFERC
 40
0.0
  9
$CHAMFERD
 40
0.0
  9
$SKPOLY
 70
     0
  9
$TDCREATE
 40
2450375.479341435
  9
$TDUCREATE
 40
2450375.646008102
  9
$TDUPDATE
 40
2453950.878343959
  9
$TDUUPDATE
 40
2453951.045010625
  9
$TDINDWG
 40
0.0319114815
  9
$TDUSRTIMER
 40
0.0319114815
  9
$USRTIMER
 70
     1
  9
$ANGBASE
 50
0.0
  9
$ANGDIR
 70
     0
  9
$PDMODE
 70
     0
  9
$PDSIZE
 40
0.0
  9
$PLINEWID
 40
0.0
  9
$SPLFRAME
 70
     0
  9
$SPLINETYPE
 70
     6
  9
$SPLINESEGS
 70
     8
  9
$HANDSEED
  5
473
  9
$SURFTAB1
 70
     6
  9
$SURFTAB2
 70
     6
  9
$SURFTYPE
 70
     6
  9
$SURFU
 70
     6
  9
$SURFV
 70
     6
  9
$UCSBASE
  2

  9
$UCSNAME
  2

  9
$UCSORG
 10
0.0
 20
0.0
 30
0.0
  9
$UCSXDIR
 10
1.0
 20
0.0
 30
0.0
  9
$UCSYDIR
 10
0.0
 20
1.0
 30
0.0
  9
$UCSORTHOREF
  2

  9
$UCSORTHOVIEW
 70
     0
  9
$UCSORGTOP
 10
0.0
 20
0.0
 30
0.0
  9
$UCSORGBOTTOM
 10
0.0
 20
0.0
 30
0.0
  9
$UCSORGLEFT
 10
0.0
 20
0.0
 30
0.0
  9
$UCSORGRIGHT
 10
0.0
 20
0.0
 30
0.0
  9
$UCSORGFRONT
 10
0.0
 20
0.0
 30
0.0
  9
$UCSORGBACK
 10
0.0
 20
0.0
 30
0.0
  9
$PUCSBASE
  2

  9
$PUCSNAME
  2

  9
$PUCSORG
 10
0.0
 20
0.0
 30
0.0
  9
$PUCSXDIR
 10
1.0
 20
0.0
 30
0.0
  9
$PUCSYDIR
 10
0.0
 20
1.0
 30
0.0
  9
$PUCSORTHOREF
  2

  9
$PUCSORTHOVIEW
 70
     0
  9
$PUCSORGTOP
 10
0.0
 20
0.0
 30
0.0
  9
$PUCSORGBOTTOM
 10
0.0
 20
0.0
 30
0.0
  9
$PUCSORGLEFT
 10
0.0
 20
0.0
 30
0.0
  9
$PUCSORGRIGHT
 10
0.0
 20
0.0
 30
0.0
  9
$PUCSORGFRONT
 10
0.0
 20
0.0
 30
0.0
  9
$PUCSORGBACK
 10
0.0
 20
0.0
 30
0.0
  9
$USERI1
 70
     0
  9
$USERI2
 70
     0
  9
$USERI3
 70
     0
  9
$USERI4
 70
     0
  9
$USERI5
 70
     0
  9
$USERR1
 40
0.0
  9
$USERR2
 40
0.0
  9
$USERR3
 40
0.0
  9
$USERR4
 40
0.0
  9
$USERR5
 40
0.0
  9
$WORLDVIEW
 70
     1
  9
$SHADEDGE
 70
     3
  9
$SHADEDIF
 70
    70
  9
$TILEMODE
 70
     1
  9
$MAXACTVP
 70
    15
  9
$PINSBASE
 10
6.111119585016845E+90
 20
8.346071047958366E+93
 30
0.0
  9
$PLIMCHECK
 70
     0
  9
$PEXTMIN
 10
1.000000000000000E+20
 20
1.000000000000000E+20
 30
1.000000000000000E+20
  9
$PEXTMAX
 10
-1.000000000000000E+20
 20
-1.000000000000000E+20
 30
-1.000000000000000E+20
  9
$PLIMMIN
 10
0.0
 20
0.0
  9
$PLIMMAX
 10
12.0
 20
9.0
  9
$UNITMODE
 70
     0
  9
$VISRETAIN
 70
     0
  9
$PLINEGEN
 70
     0
  9
$PSLTSCALE
 70
     1
  9
$TREEDEPTH
 70
  3020
  9
$CMLSTYLE
  2
Standard
  9
$CMLJUST
 70
     0
  9
$CMLSCALE
 40
1.0
  9
$PROXYGRAPHICS
 70
     1
  9
$MEASUREMENT
 70
     0
  9
$CELWEIGHT
370
    -1
  9
$ENDCAPS
280
     0
  9
$JOINSTYLE
280
     0
  9
$LWDISPLAY
290
     0
  9
$INSUNITS
 70
     0
  9
$HYPERLINKBASE
  1

  9
$STYLESHEET
  1

  9
$XEDIT
290
     1
  9
$CEPSNTYPE
380
     0
  9
$PSTYLEMODE
290
     1
  9
$FINGERPRINTGUID
  2
{7B05729A-D0CF-4DAD-BF0F-77F10C54F3CD}
  9
$VERSIONGUID
  2
{3D2833AB-0B38-493B-8FB5-0310E2B485C1}
  9
$EXTNAMES
290
     1
  9
$PSVPSCALE
 40
0.0
  9
$OLESTARTUP
290
     0
  0
ENDSEC
  0
SECTION
  2
CLASSES
  0
CLASS
  1
ACDBDICTIONARYWDFLT
  2
AcDbDictionaryWithDefault
  3
ObjectDBX Classes
 90
        0
280
     0
281
     0
  0
CLASS
  1
ACDBPLACEHOLDER
  2
AcDbPlaceHolder
  3
ObjectDBX Classes
 90
        0
280
     0
281
     0
  0
CLASS
  1
LAYOUT
  2
AcDbLayout
  3
ObjectDBX Classes
 90
        0
280
     0
281
     0
  0
CLASS
  1
DICTIONARYVAR
  2
AcDbDictionaryVar
  3
ObjectDBX Classes
 90
        0
280
     0
281
     0
  0
CLASS
  1
MATERIAL
  2
AcDbMaterial
  3
ObjectDBX Classes
 90
     1024
280
     0
281
     0
  0
CLASS
  1
VISUALSTYLE
  2
AcDbVisualStyle
  3
ObjectDBX Classes
 90
     4095
280
     0
281
     0
  0
CLASS
  1
TABLESTYLE
  2
AcDbTableStyle
  3
ObjectDBX Classes
 90
     4095
280
     0
281
     0
  0
ENDSEC
  0
SECTION
  2
TABLES
  0
TABLE
  2
VPORT
  5
8
330
0
100
AcDbSymbolTable
 70
     1
  0
VPORT
  5
29D
330
8
100
AcDbSymbolTableRecord
100
AcDbViewportTableRecord
  2
*Active
 70
     0
 10
0.0
 20
0.0
 11
1.0
 21
1.0
 12
11.48546359926386
 22
8.65630314742893
 13
0.0
 23
0.0
 14
0.5740882589684922
 24
0.5740882589684922
 15
0.5
 25
0.5
 16
0.0
 26
0.0
 36
1.0
 17
0.0
 27
0.0
 37
0.0
 40
5.640151031883107
 41
1.774011299435028
 42
50.0
 43
0.0
 44
0.0
 50
0.0
 51
0.0
 71
     0
 72
   100
 73
     1
 74
     0
 75
     0
 76
     0
 77
     0
 78
     0
281
     0
 65
     1
110
0.0
120
0.0
130
0.0
111
1.0
121
0.0
131
0.0
112
0.0
122
1.0
132
0.0
 79
     0
146
0.0
  0
ENDTAB
  0
TABLE
  2
LTYPE
  5
5
330
0
100
AcDbSymbolTable
 70
     3
  0
LTYPE
  5
13
330
5
100
AcDbSymbolTableRecord
100
AcDbLinetypeTableRecord
  2
ByBlock
 70
     0
  3

 72
    65
 73
     0
 40
0.0
  0
LTYPE
  5
14
330
5
100
AcDbSymbolTableRecord
100
AcDbLinetypeTableRecord
  2
ByLayer
 70
     0
  3

 72
    65
 73
     0
 40
0.0
  0
LTYPE
  5
15
330
5
100
AcDbSymbolTableRecord
100
AcDbLinetypeTableRecord
  2
CONTINUOUS
 70
     0
  3
Solid line
 72
    65
 73
     0
 40
0.0
  0
LTYPE
  5
26
330
5
100
AcDbSymbolTableRecord
100
AcDbLinetypeTableRecord
  2
HIDDEN2
 70
     0
  3
_ _ _ _ _ _ _ _ _ _ _ _ _ _ _ _ _ _ _ _ _ _ _ _
 72
    65
 73
     2
 40
0.1875
 49
0.125
 74
     0
 49
-0.0625
 74
     0
  0
ENDTAB
  0
TABLE
  2
LAYER
  5
2
330
0
100
AcDbSymbolTable
 70
     4
  0
LAYER
  5
10
330
2
100
AcDbSymbolTableRecord
100
AcDbLayerTableRecord
  2
0
 70
     0
 62
     7
  6
CONTINUOUS
370
    -3
390
F
  0
LAYER
  5
28
330
2
100
AcDbSymbolTableRecord
100
AcDbLayerTableRecord
  2
DEFPOINTS
 70
     0
 62
     7
  6
CONTINUOUS
290
     0
370
    -3
390
F
  0
LAYER
  5
29
330
2
100
AcDbSymbolTableRecord
100
AcDbLayerTableRecord
  2
ADP2DETAIL
 70
     0
 62
     5
  6
HIDDEN2
370
    -3
390
F
  0
LAYER
  5
2A
330
2
100
AcDbSymbolTableRecord
100
AcDbLayerTableRecord
  2
ADPDIM
 70
     0
 62
     3
  6
CONTINUOUS
370
    -3
390
F
  0
ENDTAB
  0
TABLE
  2
STYLE
  5
3
330
0
100
AcDbSymbolTable
 70
     2
  0
STYLE
  5
11
330
3
100
AcDbSymbolTableRecord
100
AcDbTextStyleTableRecord
  2
STANDARD
 70
     0
 40
0.0
 41
1.0
 50
0.0
 71
     0
 42
0.2
  3
txt
  4

  0
STYLE
  5
101
330
3
100
AcDbSymbolTableRecord
100
AcDbTextStyleTableRecord
  2
ARIAL_WIDE
 70
     0
 40
0.0
 41
1.25
 50
0.0
 71
     0
 42
0.2
  3
ARIAL.TTF
  4

1001
ACAD
1000
Arial
1071
       34
  0
ENDTAB
  0
TABLE
  2
VIEW
  5
6
330
0
100
AcDbSymbolTable
 70
     0
  0
ENDTAB
  0
TABLE
  2
UCS
  5
7
330
0
100
AcDbSymbolTable
 70
     0
  0
ENDTAB
  0
TABLE
  2
APPID
  5
9
330
0
100
AcDbSymbolTable
 70
     1
  0
APPID
  5
12
330
9
100
AcDbSymbolTableRecord
100
AcDbRegAppTableRecord
  2
ACAD
 70
     0
  0
ENDTAB
  0
TABLE
  2
DIMSTYLE
  5
A
330
0
100
AcDbSymbolTable
 70
     2
100
AcDbDimStyleTable
 71
     1
340
FF
  0
DIMSTYLE
105
FF
102
{ACAD_REACTORS
330
2F0
102
}
330
A
100
AcDbSymbolTableRecord
100
AcDbDimStyleTableRecord
  2
Standard
 70
     0
340
11
  0
ENDTAB
  0
TABLE
  2
BLOCK_RECORD
  5
1
330
0
100
AcDbSymbolTable
 70
     9
  0
BLOCK_RECORD
  5
1E
102
{ACAD_XDICTIONARY
360
142
102
}
330
1
100
AcDbSymbolTableRecord
100
AcDbBlockTableRecord
  2
*Model_Space
340
21
  0
BLOCK_RECORD
  5
1A
102
{ACAD_XDICTIONARY
360
144
102
}
330
1
100
AcDbSymbolTableRecord
100
AcDbBlockTableRecord
  2
*Paper_Space
340
1D
  0
BLOCK_RECORD
  5
22
330
1
100
AcDbSymbolTableRecord
100
AcDbBlockTableRecord
  2
*D0
340
0
  0
BLOCK_RECORD
  5
23
330
1
100
AcDbSymbolTableRecord
100
AcDbBlockTableRecord
  2
*D1
340
0
  0
BLOCK_RECORD
  5
24
330
1
100
AcDbSymbolTableRecord
100
AcDbBlockTableRecord
  2
*D2
340
0
  0
BLOCK_RECORD
  5
25
330
1
100
AcDbSymbolTableRecord
100
AcDbBlockTableRecord
  2
*D3
340
0
  0
BLOCK_RECORD
  5
2F1
330
1
100
AcDbSymbolTableRecord
100
AcDbBlockTableRecord
  2
*D4
340
0
  0
ENDTAB
  0
ENDSEC
  0
SECTION
  2
BLOCKS
  0
BLOCK
  5
2D
330
1E
100
AcDbEntity
  8
0
100
AcDbBlockBegin
  2
*Model_Space
 70
     0
 10
0.0
 20
0.0
 30
0.0
  3
*Model_Space
  1

  0
ENDBLK
  5
2E
330
1E
100
AcDbEntity
  8
0
100
AcDbBlockEnd
  0
BLOCK
  5
2B
330
1A
100
AcDbEntity
 67
     1
  8
0
100
AcDbBlockBegin
  2
*Paper_Space
 70
     0
 10
0.0
 20
0.0
 30
0.0
  3
*Paper_Space
  1

  0
ENDBLK
  5
2C
330
1A
100
AcDbEntity
 67
     1
  8
0
100
AcDbBlockEnd
  0
BLOCK
  5
2F
330
22
100
AcDbEntity
  8
0
100
AcDbBlockBegin
  2
*D0
 70
     1
 10
0.0
 20
0.0
 30
0.0
  3
*D0
  1

  0
LINE
  5
30
330
22
100
AcDbEntity
  8
0
  6
ByBlock
 62
     0
100
AcDbLine
 10
8.785936255692805
 20
9.70936499628563
 30
0.0
 11
7.958603936028108
 21
10.62600837553446
 31
0.0
  0
LINE
  5
31
330
22
100
AcDbEntity
  8
0
  6
ByBlock
 62
     0
100
AcDbLine
 10
8.609390911424979
 20
9.718406092311813
 30
0.0
 11
8.962481599960632
 21
9.700323900259448
 31
0.0
  0
LINE
  5
32
330
22
100
AcDbEntity
  8
0
  6
ByBlock
 62
     0
100
AcDbLine
 10
8.81091699690754
 20
9.47394682148097
 30
0.0
 11
9.18591699690754
 21
9.47394682148097
 31
0.0
  0
LINE
  5
33
330
22
100
AcDbEntity
  8
0
  6
ByBlock
 62
     0
100
AcDbLine
 10
8.99841699690754
 20
9.28644682148097
 30
0.0
 11
8.99841699690754
 21
9.66144682148097
 31
0.0
  0
TEXT
  5
34
330
22
100
AcDbEntity
  8
0
  6
ByBlock
 62
     0
100
AcDbText
 10
7.521364080057437
 20
11.01716734082674
 30
0.0
 40
0.125
  1
%%c5/8
 50
312.0683763412142
 72
     1
 11
7.721306251019113
 21
10.88892249928431
 31
0.0
100
AcDbText
 73
     2
  0
POINT
  5
36
330
22
100
AcDbEntity
  8
DEFPOINTS
  6
ByBlock
 62
     0
100
AcDbPoint
 10
8.785936255692805
 20
9.70936499628563
 30
0.0
  0
POINT
  5
37
330
22
100
AcDbEntity
  8
DEFPOINTS
  6
ByBlock
 62
     0
100
AcDbPoint
 10
9.210897738122273
 20
9.238528646676307
 30
0.0
  0
ENDBLK
  5
38
330
22
100
AcDbEntity
  8
0
100
AcDbBlockEnd
  0
BLOCK
  5
39
330
23
100
AcDbEntity
  8
0
100
AcDbBlockBegin
  2
*D1
 70
     1
 10
0.0
 20
0.0
 30
0.0
  3
*D1
  1

  0
LINE
  5
3A
330
23
100
AcDbEntity
  8
0
  6
ByBlock
 62
     0
100
AcDbLine
 10
7.742426008510876
 20
8.653893995703038
 30
0.0
 11
7.533094177111432
 21
8.51721852474005
 31
0.0
  0
LINE
  5
3B
330
23
100
AcDbEntity
  8
0
  6
ByBlock
 62
     0
100
AcDbLine
 10
7.706097828292648
 20
8.480890344521823
 30
0.0
 11
7.778754188729103
 21
8.826897646884255
 31
0.0
  0
LINE
  5
3C
330
23
100
AcDbEntity
  8
0
  6
ByBlock
 62
     0
100
AcDbLine
 10
8.810916996907538
 20
9.473946821480971
 30
0.0
 11
9.185916996907538
 21
9.473946821480971
 31
0.0
  0
LINE
  5
3D
330
23
100
AcDbEntity
  8
0
  6
ByBlock
 62
     0
100
AcDbLine
 10
8.998416996907538
 20
9.286446821480971
 30
0.0
 11
8.998416996907538
 21
9.661446821480971
 31
0.0
  0
TEXT
  5
3E
330
23
100
AcDbEntity
  8
0
  6
ByBlock
 62
     0
100
AcDbText
 10
7.288153936319588
 20
8.282651605606202
 30
0.0
 40
0.125
  1
%%c3
 50
33.14104131383583
 72
     1
 11
7.341206664995276
 21
8.39193267635731
 31
0.0
100
AcDbText
 73
     2
  0
POINT
  5
3F
330
23
100
AcDbEntity
  8
DEFPOINTS
  6
ByBlock
 62
     0
100
AcDbPoint
 10
7.742426008510876
 20
8.653893995703038
 30
0.0
  0
POINT
  5
40
330
23
100
AcDbEntity
  8
DEFPOINTS
  6
ByBlock
 62
     0
100
AcDbPoint
 10
10.2544079853042
 20
10.2939996472589
 30
0.0
  0
ENDBLK
  5
41
330
23
100
AcDbEntity
  8
0
100
AcDbBlockEnd
  0
BLOCK
  5
42
330
24
100
AcDbEntity
  8
0
100
AcDbBlockBegin
  2
*D2
 70
     1
 10
0.0
 20
0.0
 30
0.0
  3
*D2
  1

  0
LINE
  5
43
330
24
100
AcDbEntity
  8
0
  6
ByBlock
 62
     0
100
AcDbLine
 10
10.85380314078042
 20
7.911446821480968
 30
0.0
 11
10.85380314078042
 21
7.477576300759791
 31
0.0
  0
LINE
  5
44
330
24
100
AcDbEntity
  8
0
  6
ByBlock
 62
     0
100
AcDbLine
 10
10.66580314078042
 20
7.911446821480968
 30
0.0
 11
10.66580314078042
 21
7.477576300759791
 31
0.0
  0
LINE
  5
45
330
24
100
AcDbEntity
  8
0
  6
ByBlock
 62
     0
100
AcDbLine
 10
10.85380314078042
 20
7.657576300759791
 30
0.0
 11
11.10380314078042
 21
7.657576300759791
 31
0.0
  0
LINE
  5
46
330
24
100
AcDbEntity
  8
0
  6
ByBlock
 62
     0
100
AcDbLine
 10
10.66580314078042
 20
7.657576300759791
 30
0.0
 11
10.41580314078042
 21
7.657576300759791
 31
0.0
  0
LINE
  5
47
330
24
100
AcDbEntity
  8
0
  6
ByBlock
 62
     0
100
AcDbLine
 10
10.72880314078042
 20
7.532576300759791
 30
0.0
 11
10.97880314078042
 21
7.782576300759791
 31
0.0
  0
LINE
  5
48
330
24
100
AcDbEntity
  8
0
  6
ByBlock
 62
     0
100
AcDbLine
 10
10.54080314078042
 20
7.532576300759791
 30
0.0
 11
10.79080314078042
 21
7.782576300759791
 31
0.0
  0
TEXT
  5
49
330
24
100
AcDbEntity
  8
0
  6
ByBlock
 62
     0
100
AcDbText
 10
9.874136474113758
 20
7.595076300759791
 30
0.0
 40
0.125
  1
3/16
 72
     1
 11
10.08246980744709
 21
7.657576300759791
 31
0.0
100
AcDbText
 73
     2
  0
POINT
  5
4A
330
24
100
AcDbEntity
  8
DEFPOINTS
  6
ByBlock
 62
     0
100
AcDbPoint
 10
10.85380314078042
 20
7.973946821480968
 30
0.0
  0
POINT
  5
4B
330
24
100
AcDbEntity
  8
DEFPOINTS
  6
ByBlock
 62
     0
100
AcDbPoint
 10
10.66580314078042
 20
7.973946821480968
 30
0.0
  0
POINT
  5
4C
330
24
100
AcDbEntity
  8
DEFPOINTS
  6
ByBlock
 62
     0
100
AcDbPoint
 10
10.66580314078042
 20
7.657576300759791
 30
0.0
  0
ENDBLK
  5
4D
330
24
100
AcDbEntity
  8
0
100
AcDbBlockEnd
  0
BLOCK
  5
4E
330
25
100
AcDbEntity
  8
0
100
AcDbBlockBegin
  2
*D3
 70
     1
 10
0.0
 20
0.0
 30
0.0
  3
*D3
  1

  0
LINE
  5
4F
330
25
100
AcDbEntity
  8
0
  6
ByBlock
 62
     0
100
AcDbLine
 10
10.88480314078043
 20
11.03644682148097
 30
0.0
 11
10.88480314078043
 21
11.36107630669997
 31
0.0
  0
LINE
  5
50
330
25
100
AcDbEntity
  8
0
  6
ByBlock
 62
     0
100
AcDbLine
 10
11.39753375012382
 20
11.03644682148097
 30
0.0
 11
11.39753375012382
 21
11.36107630669997
 31
0.0
  0
LINE
  5
51
330
25
100
AcDbEntity
  8
0
  6
ByBlock
 62
     0
100
AcDbLine
 10
10.88480314078043
 20
11.18107630669998
 30
0.0
 11
10.63480314078042
 21
11.18107630669998
 31
0.0
  0
LINE
  5
52
330
25
100
AcDbEntity
  8
0
  6
ByBlock
 62
     0
100
AcDbLine
 10
11.39753375012382
 20
11.18107630669998
 30
0.0
 11
11.64753375012383
 21
11.18107630669998
 31
0.0
  0
LINE
  5
53
330
25
100
AcDbEntity
  8
0
  6
ByBlock
 62
     0
100
AcDbLine
 10
10.75980314078043
 20
11.05607630669998
 30
0.0
 11
11.00980314078042
 21
11.30607630669998
 31
0.0
  0
LINE
  5
54
330
25
100
AcDbEntity
  8
0
  6
ByBlock
 62
     0
100
AcDbLine
 10
11.27253375012382
 20
11.05607630669998
 30
0.0
 11
11.52253375012382
 21
11.30607630669998
 31
0.0
  0
TEXT
  5
55
330
25
100
AcDbEntity
  8
0
  6
ByBlock
 62
     0
100
AcDbText
 10
11.77253375012383
 20
11.11857630669998
 30
0.0
 40
0.125
  1
1/2
 72
     1
 11
11.91836708345716
 21
11.18107630669998
 31
0.0
100
AcDbText
 73
     2
  0
POINT
  5
56
330
25
100
AcDbEntity
  8
DEFPOINTS
  6
ByBlock
 62
     0
100
AcDbPoint
 10
10.88480314078043
 20
10.97394682148097
 30
0.0
  0
POINT
  5
57
330
25
100
AcDbEntity
  8
DEFPOINTS
  6
ByBlock
 62
     0
100
AcDbPoint
 10
11.39753375012382
 20
10.97394682148097
 30
0.0
  0
POINT
  5
58
330
25
100
AcDbEntity
  8
DEFPOINTS
  6
ByBlock
 62
     0
100
AcDbPoint
 10
11.39753375012382
 20
11.18107630669998
 30
0.0
  0
ENDBLK
  5
59
330
25
100
AcDbEntity
  8
0
100
AcDbBlockEnd
  0
BLOCK
  5
2FC
330
2F1
100
AcDbEntity
  8
0
 62
     3
100
AcDbBlockBegin
  2
*D4
 70
     1
 10
0.0
 20
0.0
 30
0.0
  3
*D4
  1

  0
LINE
  5
2FE
330
2F1
100
AcDbEntity
  8
ADPDIM
 62
     0
370
    -2
100
AcDbLine
 10
10.88480314078043
 20
10.9797843110042
 30
0.0
 11
10.88480314078043
 21
11.4477767340483
 31
0.0
  0
LINE
  5
2FF
330
2F1
100
AcDbEntity
  8
ADPDIM
 62
     0
370
    -2
100
AcDbLine
 10
11.63480314078042
 20
10.9797843110042
 30
0.0
 11
11.63480314078042
 21
11.4477767340483
 31
0.0
  0
LINE
  5
300
330
2F1
100
AcDbEntity
  8
ADPDIM
 62
     0
370
    -2
100
AcDbLine
 10
10.88480314078043
 20
11.2677767340483
 30
0.0
 11
11.09313647411376
 21
11.2677767340483
 31
0.0
  0
LINE
  5
301
330
2F1
100
AcDbEntity
  8
ADPDIM
 62
     0
370
    -2
100
AcDbLine
 10
11.63480314078042
 20
11.2677767340483
 30
0.0
 11
11.42646980744709
 21
11.2677767340483
 31
0.0
  0
LINE
  5
302
330
2F1
100
AcDbEntity
  8
ADPDIM
 62
     0
370
    -2
100
AcDbLine
 10
11.50980314078043
 20
11.1427767340483
 30
0.0
 11
11.75980314078042
 21
11.3927767340483
 31
0.0
  0
LINE
  5
303
330
2F1
100
AcDbEntity
  8
ADPDIM
 62
     0
370
    -2
100
AcDbLine
 10
10.75980314078043
 20
11.1427767340483
 30
0.0
 11
11.00980314078042
 21
11.3927767340483
 31
0.0
  0
MTEXT
  5
304
330
2F1
100
AcDbEntity
  8
ADPDIM
 62
     0
100
AcDbMText
 10
11.25980314078042
 20
11.2677767340483
 30
0.0
 40
0.125
 41
0.0
 71
     5
 72
     1
  1
\A1;{\H1.000000x;\S3/4;}
 73
     1
 44
1.0
1001
ACAD
1000
MTEXTBEGIN
1070
    73
1070
     1
1070
    44
1040
1.0
1070
    74
1070
     0
1000
MTEXTEND
  0
POINT
  5
305
330
2F1
100
AcDbEntity
  8
DEFPOINTS
 62
     0
100
AcDbPoint
 10
10.88480314078043
 20
10.9172843110042
 30
0.0
  0
POINT
  5
306
330
2F1
100
AcDbEntity
  8
DEFPOINTS
 62
     0
100
AcDbPoint
 10
11.63480314078042
 20
10.9172843110042
 30
0.0
  0
POINT
  5
307
330
2F1
100
AcDbEntity
  8
DEFPOINTS
 62
     0
100
AcDbPoint
 10
11.63480314078042
 20
11.2677767340483
 30
0.0
  0
ENDBLK
  5
2FD
330
2F1
100
AcDbEntity
  8
0
 62
     3
100
AcDbBlockEnd
  0
ENDSEC
  0
SECTION
  2
ENTITIES
  0
DIMENSION
  5
5A
330
1E
100
AcDbEntity
  8
ADPDIM
100
AcDbDimension
  2
*D1
 10
10.2544079853042
 20
10.2939996472589
 30
0.0
 11
7.341206664995276
 21
8.39193267635731
 31
0.0
 70
     3
 71
     5
 42
-1.0
100
AcDbDiametricDimension
 15
7.742426008510876
 25
8.653893995703038
 35
0.0
 40
0.0
  0
CIRCLE
  5
5B
330
1E
100
AcDbEntity
  8
0
100
AcDbCircle
 10
8.998416996907538
 20
9.473946821480968
 30
0.0
 40
1.5
  0
CIRCLE
  5
5C
330
1E
100
AcDbEntity
  8
0
100
AcDbCircle
 10
8.998416996907538
 20
9.473946821480968
 30
0.0
 40
0.3171273914620452
  0
CIRCLE
  5
5D
330
1E
100
AcDbEntity
  8
0
100
AcDbCircle
 10
8.998416996907538
 20
9.473946821480968
 30
0.0
 40
0.1873934420861377
  0
DIMENSION
  5
5E
330
1E
100
AcDbEntity
  8
ADPDIM
100
AcDbDimension
  2
*D0
 10
9.210897738122273
 20
9.238528646676307
 30
0.0
 11
7.721306251019113
 21
10.88892249928431
 31
0.0
 70
     3
 71
     5
 42
-1.0
100
AcDbDiametricDimension
 15
8.785936255692805
 25
9.70936499628563
 35
0.0
 40
1.234793040101251
  0
LINE
  5
5F
330
1E
100
AcDbEntity
  8
0
100
AcDbLine
 10
12.08919432790396
 20
9.612609629901022
 30
0.0
 11
12.12919432790396
 21
9.325942963234355
 31
0.0
  0
LINE
  5
60
330
1E
100
AcDbEntity
  8
0
100
AcDbLine
 10
12.05586099457062
 20
9.325942963234355
 30
0.0
 11
12.02252766123729
 21
9.612609629901022
 31
0.0
  0
LINE
  5
61
330
1E
100
AcDbEntity
  8
0
100
AcDbLine
 10
11.87586099457062
 20
9.605942963234355
 30
0.0
 11
11.90919432790396
 21
9.325942963234355
 31
0.0
  0
LINE
  5
62
330
1E
100
AcDbEntity
  8
0
100
AcDbLine
 10
11.80252766123729
 20
9.605942963234355
 30
0.0
 11
11.83586099457063
 21
9.325942963234355
 31
0.0
  0
LINE
  5
63
330
1E
100
AcDbEntity
  8
0
100
AcDbLine
 10
11.94919432790396
 20
9.612609629901022
 30
0.0
 11
11.98252766123729
 21
9.325942963234355
 31
0.0
  0
LINE
  5
66
330
1E
100
AcDbEntity
  8
ADP2DETAIL
100
AcDbLine
 10
11.13952810801865
 20
9.606169043703189
 30
0.0
 11
11.17952810801865
 21
9.32616904370319
 31
0.0
  0
LINE
  5
67
330
1E
100
AcDbEntity
  8
ADP2DETAIL
100
AcDbLine
 10
11.21286144135198
 20
9.612835710369857
 30
0.0
 11
11.25286144135198
 21
9.32616904370319
 31
0.0
  0
LINE
  5
68
330
1E
100
AcDbEntity
  8
ADP2DETAIL
100
AcDbLine
 10
11.13952810801865
 20
9.612835710369857
 30
0.0
 11
11.17952810801865
 21
9.32616904370319
 31
0.0
  0
LINE
  5
69
330
1E
100
AcDbEntity
  8
ADP2DETAIL
100
AcDbLine
 10
11.21286144135198
 20
9.612835710369857
 30
0.0
 11
11.25286144135198
 21
9.332835710369858
 31
0.0
  0
LINE
  5
6C
330
1E
100
AcDbEntity
  8
0
100
AcDbLine
 10
11.65586099457062
 20
9.612609629901022
 30
0.0
 11
11.68919432790396
 21
9.325942963234355
 31
0.0
  0
LINE
  5
6D
330
1E
100
AcDbEntity
  8
ADP2DETAIL
100
AcDbLine
 10
10.99286144135198
 20
9.612835710369857
 30
0.0
 11
11.03286144135198
 21
9.32616904370319
 31
0.0
  0
LINE
  5
6E
330
1E
100
AcDbEntity
  8
ADP2DETAIL
100
AcDbLine
 10
10.99286144135198
 20
9.612835710369857
 30
0.0
 11
11.03286144135198
 21
9.332835710369858
 31
0.0
  0
LINE
  5
6F
330
1E
100
AcDbEntity
  8
ADP2DETAIL
100
AcDbLine
 10
11.06619477468531
 20
9.606169043703189
 30
0.0
 11
11.10619477468532
 21
9.32616904370319
 31
0.0
  0
LINE
  5
70
330
1E
100
AcDbEntity
  8
ADP2DETAIL
100
AcDbLine
 10
11.06619477468531
 20
9.612835710369857
 30
0.0
 11
11.10619477468532
 21
9.32616904370319
 31
0.0
  0
LINE
  5
71
330
1E
100
AcDbEntity
  8
0
100
AcDbLine
 10
11.72919432790396
 20
9.612609629901022
 30
0.0
 11
11.76252766123729
 21
9.325942963234355
 31
0.0
  0
LINE
  5
72
330
1E
100
AcDbEntity
  8
0
100
AcDbLine
 10
12.12919432790396
 20
9.659276296567689
 30
0.0
 11
12.16252766123729
 21
9.279276296567688
 31
0.0
  0
LINE
  5
73
330
1E
100
AcDbEntity
  8
0
100
AcDbLine
 10
12.05586099457062
 20
9.659276296567689
 30
0.0
 11
12.08919432790396
 21
9.279276296567688
 31
0.0
  0
LINE
  5
74
330
1E
100
AcDbEntity
  8
0
100
AcDbLine
 10
11.83586099457063
 20
9.659276296567689
 30
0.0
 11
11.87586099457062
 21
9.279276296567688
 31
0.0
  0
LINE
  5
75
330
1E
100
AcDbEntity
  8
0
100
AcDbLine
 10
11.76252766123729
 20
9.659276296567689
 30
0.0
 11
11.80252766123729
 21
9.279276296567688
 31
0.0
  0
LINE
  5
76
330
1E
100
AcDbEntity
  8
0
100
AcDbLine
 10
11.68919432790396
 20
9.659276296567689
 30
0.0
 11
11.72919432790396
 21
9.279276296567688
 31
0.0
  0
LINE
  5
77
330
1E
100
AcDbEntity
  8
0
100
AcDbLine
 10
11.90919432790396
 20
9.659276296567689
 30
0.0
 11
11.94919432790396
 21
9.279276296567688
 31
0.0
  0
LINE
  5
78
330
1E
100
AcDbEntity
  8
0
100
AcDbLine
 10
11.98252766123729
 20
9.659276296567689
 30
0.0
 11
12.02252766123729
 21
9.279276296567688
 31
0.0
  0
LINE
  5
79
330
1E
100
AcDbEntity
  8
ADP2DETAIL
100
AcDbLine
 10
11.10619477468532
 20
9.659502377036524
 30
0.0
 11
11.13952810801865
 21
9.279502377036523
 31
0.0
  0
LINE
  5
7A
330
1E
100
AcDbEntity
  8
ADP2DETAIL
100
AcDbLine
 10
11.17952810801865
 20
9.659502377036524
 30
0.0
 11
11.21286144135198
 21
9.279502377036523
 31
0.0
  0
LINE
  5
7B
330
1E
100
AcDbEntity
  8
ADP2DETAIL
100
AcDbLine
 10
11.25286144135198
 20
9.659502377036524
 30
0.0
 11
11.28619477468531
 21
9.279502377036523
 31
0.0
  0
LINE
  5
7C
330
1E
100
AcDbEntity
  8
ADP2DETAIL
100
AcDbLine
 10
11.10619477468532
 20
9.659502377036524
 30
0.0
 11
11.13952810801865
 21
9.286169043703191
 31
0.0
  0
LINE
  5
7D
330
1E
100
AcDbEntity
  8
ADP2DETAIL
100
AcDbLine
 10
11.17952810801865
 20
9.659502377036524
 30
0.0
 11
11.21286144135198
 21
9.286169043703191
 31
0.0
  0
LINE
  5
7E
330
1E
100
AcDbEntity
  8
ADP2DETAIL
100
AcDbLine
 10
11.25286144135198
 20
9.659502377036524
 30
0.0
 11
11.28619477468531
 21
9.286169043703191
 31
0.0
  0
LINE
  5
82
330
1E
100
AcDbEntity
  8
ADP2DETAIL
100
AcDbLine
 10
11.03286144135198
 20
9.659502377036524
 30
0.0
 11
11.06619477468531
 21
9.279502377036523
 31
0.0
  0
LINE
  5
83
330
1E
100
AcDbEntity
  8
ADP2DETAIL
100
AcDbLine
 10
11.03286144135198
 20
9.659502377036524
 30
0.0
 11
11.06619477468531
 21
9.286169043703191
 31
0.0
  0
LINE
  5
84
330
1E
100
AcDbEntity
  8
0
100
AcDbLine
 10
12.16919432790396
 20
9.612609629901022
 30
0.0
 11
12.20252766123729
 21
9.325942963234355
 31
0.0
  0
LINE
  5
85
330
1E
100
AcDbEntity
  8
ADP2DETAIL
100
AcDbLine
 10
10.92619477468532
 20
9.612835710369857
 30
0.0
 11
10.95952810801865
 21
9.32616904370319
 31
0.0
  0
LINE
  5
86
330
1E
100
AcDbEntity
  8
ADP2DETAIL
100
AcDbLine
 10
10.92619477468532
 20
9.612835710369857
 30
0.0
 11
10.95952810801865
 21
9.332835710369858
 31
0.0
  0
LINE
  5
87
330
1E
100
AcDbEntity
  8
ADP2DETAIL
100
AcDbLine
 10
10.88619477468531
 20
9.659502377036524
 30
0.0
 11
10.91952810801865
 21
9.279502377036523
 31
0.0
  0
LINE
  5
88
330
1E
100
AcDbEntity
  8
ADP2DETAIL
100
AcDbLine
 10
10.88619477468531
 20
9.659502377036524
 30
0.0
 11
10.91952810801865
 21
9.286169043703191
 31
0.0
  0
LINE
  5
89
330
1E
100
AcDbEntity
  8
ADP2DETAIL
100
AcDbLine
 10
10.95952810801865
 20
9.659502377036524
 30
0.0
 11
10.99286144135198
 21
9.279502377036523
 31
0.0
  0
LINE
  5
8A
330
1E
100
AcDbEntity
  8
ADP2DETAIL
100
AcDbLine
 10
10.95952810801865
 20
9.659502377036524
 30
0.0
 11
10.99286144135198
 21
9.286169043703191
 31
0.0
  0
LWPOLYLINE
  5
8B
330
1E
100
AcDbEntity
  8
0
100
AcDbPolyline
 90
        4
 70
     1
 43
0.0
 10
11.63557683362747
 20
7.976033220686378
 10
11.63557683362747
 20
10.97603322068638
 10
11.66657683362746
 20
10.97603322068638
 10
11.66657683362746
 20
7.976033220686378
  0
LWPOLYLINE
  5
91
330
1E
100
AcDbEntity
  8
0
100
AcDbPolyline
 90
        4
 70
     1
 43
0.0
 10
10.85380314078042
 20
7.973946821480968
 10
10.85380314078042
 20
10.97394682148097
 10
10.88480314078043
 20
10.97394682148097
 10
10.88480314078043
 20
7.973946821480968
  0
LWPOLYLINE
  5
97
330
1E
100
AcDbEntity
  8
0
100
AcDbPolyline
 90
        4
 70
     1
 43
0.0
 10
10.66580314078042
 20
7.973946821480968
 10
10.66580314078042
 20
10.97394682148097
 10
10.85380314078042
 20
10.97394682148097
 10
10.85380314078042
 20
7.973946821480968
  0
LINE
  5
9D
330
1E
100
AcDbEntity
  8
0
100
AcDbLine
 10
10.88480314078043
 20
9.153991956536243
 30
0.0
 11
11.63220689187121
 21
9.153991956536243
 31
0.0
  0
LINE
  5
9E
330
1E
100
AcDbEntity
  8
ADP2DETAIL
100
AcDbLine
 10
10.88480314078043
 20
9.28911652559516
 30
0.0
 11
11.63220689187121
 21
9.28911652559516
 31
0.0
  0
LINE
  5
9F
330
1E
100
AcDbEntity
  8
ADP2DETAIL
100
AcDbLine
 10
10.95952810801865
 20
9.32616904370319
 30
0.0
 11
10.99286144135198
 21
9.286169043703191
 31
0.0
  0
LINE
  5
A0
330
1E
100
AcDbEntity
  8
ADP2DETAIL
100
AcDbLine
 10
10.95952810801865
 20
9.32616904370319
 30
0.0
 11
10.99286144135198
 21
9.286169043703191
 31
0.0
  0
LINE
  5
A1
330
1E
100
AcDbEntity
  8
ADP2DETAIL
100
AcDbLine
 10
10.95644641850847
 20
9.321143408140125
 30
0.0
 11
10.98860317148224
 21
9.28901473277502
 31
0.0
  0
DIMENSION
  5
A2
330
1E
100
AcDbEntity
  8
ADPDIM
100
AcDbDimension
  2
*D2
 10
10.66580314078042
 20
7.657576300759791
 30
0.0
 11
10.08246980744709
 21
7.657576300759791
 31
0.0
 71
     5
 42
-1.0
100
AcDbAlignedDimension
 13
10.85380314078042
 23
7.973946821480968
 33
0.0
 14
10.66580314078042
 24
7.973946821480968
 34
0.0
100
AcDbRotatedDimension
  0
LINE
  5
A3
330
1E
100
AcDbEntity
  8
ADP2DETAIL
100
AcDbLine
 10
10.91952810801865
 20
9.286169043703191
 30
0.0
 11
10.95952810801865
 21
9.32616904370319
 31
0.0
  0
LINE
  5
A4
330
1E
100
AcDbEntity
  8
ADP2DETAIL
100
AcDbLine
 10
10.91952810801865
 20
9.286169043703191
 30
0.0
 11
10.95952810801865
 21
9.32616904370319
 31
0.0
  0
LINE
  5
A5
330
1E
100
AcDbEntity
  8
ADP2DETAIL
100
AcDbLine
 10
10.92428962408224
 20
9.28901473277502
 30
0.0
 11
10.95644641850847
 21
9.321143408140125
 31
0.0
  0
LINE
  5
A6
330
1E
100
AcDbEntity
  8
0
100
AcDbLine
 10
11.63664520774733
 20
7.975431228902889
 30
0.0
 11
11.66478239768872
 21
7.975431228902889
 31
0.0
  0
LINE
  5
A7
330
1E
100
AcDbEntity
  8
0
100
AcDbLine
 10
11.87586099457062
 20
9.285942963234356
 30
0.0
 11
11.90919432790396
 21
9.325942963234355
 31
0.0
  0
LINE
  5
AA
330
1E
100
AcDbEntity
  8
ADP2DETAIL
100
AcDbLine
 10
11.21286144135198
 20
9.286169043703191
 30
0.0
 11
11.25286144135198
 21
9.32616904370319
 31
0.0
  0
LINE
  5
AB
330
1E
100
AcDbEntity
  8
ADP2DETAIL
100
AcDbLine
 10
11.21286144135198
 20
9.286169043703191
 30
0.0
 11
11.25286144135198
 21
9.32616904370319
 31
0.0
  0
LINE
  5
AC
330
1E
100
AcDbEntity
  8
ADP2DETAIL
100
AcDbLine
 10
11.10619477468532
 20
9.32616904370319
 30
0.0
 11
11.14619477468531
 21
9.286169043703191
 31
0.0
  0
LINE
  5
AD
330
1E
100
AcDbEntity
  8
ADP2DETAIL
100
AcDbLine
 10
11.14619477468531
 20
9.286169043703191
 30
0.0
 11
11.17952810801865
 21
9.32616904370319
 31
0.0
  0
LINE
  5
AE
330
1E
100
AcDbEntity
  8
ADP2DETAIL
100
AcDbLine
 10
11.17952810801865
 20
9.32616904370319
 30
0.0
 11
11.21286144135198
 21
9.286169043703191
 31
0.0
  0
LINE
  5
AF
330
1E
100
AcDbEntity
  8
ADP2DETAIL
100
AcDbLine
 10
11.10619477468532
 20
9.32616904370319
 30
0.0
 11
11.14619477468531
 21
9.286169043703191
 31
0.0
  0
LINE
  5
B0
330
1E
100
AcDbEntity
  8
ADP2DETAIL
100
AcDbLine
 10
11.14619477468531
 20
9.286169043703191
 30
0.0
 11
11.17952810801865
 21
9.32616904370319
 31
0.0
  0
LINE
  5
B1
330
1E
100
AcDbEntity
  8
ADP2DETAIL
100
AcDbLine
 10
11.17952810801865
 20
9.32616904370319
 30
0.0
 11
11.21286144135198
 21
9.286169043703191
 31
0.0
  0
LINE
  5
B2
330
1E
100
AcDbEntity
  8
ADP2DETAIL
100
AcDbLine
 10
10.99286144135198
 20
9.286169043703191
 30
0.0
 11
11.03286144135198
 21
9.32616904370319
 31
0.0
  0
LINE
  5
B3
330
1E
100
AcDbEntity
  8
ADP2DETAIL
100
AcDbLine
 10
11.03286144135198
 20
9.32616904370319
 30
0.0
 11
11.06619477468531
 21
9.286169043703191
 31
0.0
  0
LINE
  5
B4
330
1E
100
AcDbEntity
  8
ADP2DETAIL
100
AcDbLine
 10
10.99286144135198
 20
9.286169043703191
 30
0.0
 11
11.03286144135198
 21
9.32616904370319
 31
0.0
  0
LINE
  5
B5
330
1E
100
AcDbEntity
  8
ADP2DETAIL
100
AcDbLine
 10
11.03286144135198
 20
9.32616904370319
 30
0.0
 11
11.06619477468531
 21
9.286169043703191
 31
0.0
  0
LINE
  5
B6
330
1E
100
AcDbEntity
  8
ADP2DETAIL
100
AcDbLine
 10
11.06619477468531
 20
9.286169043703191
 30
0.0
 11
11.10619477468532
 21
9.32616904370319
 31
0.0
  0
LINE
  5
B7
330
1E
100
AcDbEntity
  8
ADP2DETAIL
100
AcDbLine
 10
11.06619477468531
 20
9.286169043703191
 30
0.0
 11
11.10619477468532
 21
9.32616904370319
 31
0.0
  0
LINE
  5
B8
330
1E
100
AcDbEntity
  8
ADP2DETAIL
100
AcDbLine
 10
11.28619477468531
 20
9.286169043703191
 30
0.0
 11
11.31952810801865
 21
9.32616904370319
 31
0.0
  0
LINE
  5
B9
330
1E
100
AcDbEntity
  8
ADP2DETAIL
100
AcDbLine
 10
11.28619477468531
 20
9.286169043703191
 30
0.0
 11
11.31952810801865
 21
9.32616904370319
 31
0.0
  0
LINE
  5
BA
330
1E
100
AcDbEntity
  8
ADP2DETAIL
100
AcDbLine
 10
11.25286144135198
 20
9.32616904370319
 30
0.0
 11
11.28619477468531
 21
9.286169043703191
 31
0.0
  0
LINE
  5
BB
330
1E
100
AcDbEntity
  8
ADP2DETAIL
100
AcDbLine
 10
11.25286144135198
 20
9.32616904370319
 30
0.0
 11
11.28619477468531
 21
9.286169043703191
 31
0.0
  0
LINE
  5
BC
330
1E
100
AcDbEntity
  8
0
100
AcDbLine
 10
11.67757119152229
 20
9.454922109575267
 30
0.0
 11
11.67757119152229
 21
9.454922109575267
 31
0.0
  0
LINE
  5
BD
330
1E
100
AcDbEntity
  8
0
100
AcDbLine
 10
11.80252766123729
 20
9.285942963234356
 30
0.0
 11
11.83586099457063
 21
9.325942963234355
 31
0.0
  0
LINE
  5
BE
330
1E
100
AcDbEntity
  8
0
100
AcDbLine
 10
11.76252766123729
 20
9.325942963234355
 30
0.0
 11
11.80252766123729
 21
9.285942963234356
 31
0.0
  0
LINE
  5
BF
330
1E
100
AcDbEntity
  8
0
100
AcDbLine
 10
11.72919432790396
 20
9.285942963234356
 30
0.0
 11
11.76252766123729
 21
9.325942963234355
 31
0.0
  0
LINE
  5
C0
330
1E
100
AcDbEntity
  8
0
100
AcDbLine
 10
11.68919432790396
 20
9.325942963234355
 30
0.0
 11
11.72919432790396
 21
9.285942963234356
 31
0.0
  0
LINE
  5
C4
330
1E
100
AcDbEntity
  8
0
100
AcDbLine
 10
11.65586099457062
 20
9.285942963234356
 30
0.0
 11
11.68919432790396
 21
9.325942963234355
 31
0.0
  0
LINE
  5
C5
330
1E
100
AcDbEntity
  8
0
100
AcDbLine
 10
11.83586099457063
 20
9.325942963234355
 30
0.0
 11
11.87586099457062
 21
9.285942963234356
 31
0.0
  0
LINE
  5
C6
330
1E
100
AcDbEntity
  8
0
100
AcDbLine
 10
12.16252766123729
 20
9.285942963234356
 30
0.0
 11
12.20252766123729
 21
9.325942963234355
 31
0.0
  0
LINE
  5
C7
330
1E
100
AcDbEntity
  8
0
100
AcDbLine
 10
12.12919432790396
 20
9.325942963234355
 30
0.0
 11
12.16252766123729
 21
9.285942963234356
 31
0.0
  0
LINE
  5
C8
330
1E
100
AcDbEntity
  8
0
100
AcDbLine
 10
12.09586099457062
 20
9.285942963234356
 30
0.0
 11
12.12919432790396
 21
9.325942963234355
 31
0.0
  0
LINE
  5
C9
330
1E
100
AcDbEntity
  8
0
100
AcDbLine
 10
12.05586099457062
 20
9.325942963234355
 30
0.0
 11
12.09586099457062
 21
9.285942963234356
 31
0.0
  0
LINE
  5
CA
330
1E
100
AcDbEntity
  8
0
100
AcDbLine
 10
12.01586099457063
 20
9.285942963234356
 30
0.0
 11
12.05586099457062
 21
9.325942963234355
 31
0.0
  0
LINE
  5
CB
330
1E
100
AcDbEntity
  8
0
100
AcDbLine
 10
11.94919432790396
 20
9.285942963234356
 30
0.0
 11
11.98252766123729
 21
9.325942963234355
 31
0.0
  0
LINE
  5
CC
330
1E
100
AcDbEntity
  8
0
100
AcDbLine
 10
11.90919432790396
 20
9.325942963234355
 30
0.0
 11
11.94919432790396
 21
9.285942963234356
 31
0.0
  0
LINE
  5
CD
330
1E
100
AcDbEntity
  8
0
100
AcDbLine
 10
11.98252766123729
 20
9.325942963234355
 30
0.0
 11
12.01586099457063
 21
9.285942963234356
 31
0.0
  0
LINE
  5
CF
330
1E
100
AcDbEntity
  8
0
100
AcDbLine
 10
11.63220689187121
 20
9.793160612148424
 30
0.0
 11
10.88480314078043
 21
9.793160612148424
 31
0.0
  0
LINE
  5
D0
330
1E
100
AcDbEntity
  8
ADP2DETAIL
100
AcDbLine
 10
10.88619477468531
 20
9.659502377036524
 30
0.0
 11
11.63220689187121
 21
9.662469119119
 31
0.0
  0
LINE
  5
D1
330
1E
100
AcDbEntity
  8
ADP2DETAIL
100
AcDbLine
 10
10.99286144135198
 20
9.612835710369857
 30
0.0
 11
10.95952810801865
 21
9.659502377036524
 31
0.0
  0
LINE
  5
D2
330
1E
100
AcDbEntity
  8
ADP2DETAIL
100
AcDbLine
 10
10.99286144135198
 20
9.612835710369857
 30
0.0
 11
10.95952810801865
 21
9.659502377036524
 31
0.0
  0
LINE
  5
D3
330
1E
100
AcDbEntity
  8
ADP2DETAIL
100
AcDbLine
 10
10.95952810801865
 20
9.659502377036524
 30
0.0
 11
10.91952810801865
 21
9.612835710369857
 31
0.0
  0
LINE
  5
D4
330
1E
100
AcDbEntity
  8
ADP2DETAIL
100
AcDbLine
 10
10.95952810801865
 20
9.659502377036524
 30
0.0
 11
10.91952810801865
 21
9.612835710369857
 31
0.0
  0
LINE
  5
D5
330
1E
100
AcDbEntity
  8
ADP2DETAIL
100
AcDbLine
 10
10.91952810801865
 20
9.612835710369857
 30
0.0
 11
10.88619477468531
 21
9.659502377036524
 31
0.0
  0
LINE
  5
D6
330
1E
100
AcDbEntity
  8
ADP2DETAIL
100
AcDbLine
 10
10.91952810801865
 20
9.612835710369857
 30
0.0
 11
10.88619477468531
 21
9.659502377036524
 31
0.0
  0
LINE
  5
D7
330
1E
100
AcDbEntity
  8
0
100
AcDbLine
 10
11.90919432790396
 20
9.659276296567689
 30
0.0
 11
11.87586099457062
 21
9.612609629901022
 31
0.0
  0
LINE
  5
DA
330
1E
100
AcDbEntity
  8
ADP2DETAIL
100
AcDbLine
 10
11.25286144135198
 20
9.659502377036524
 30
0.0
 11
11.21286144135198
 21
9.612835710369857
 31
0.0
  0
LINE
  5
DB
330
1E
100
AcDbEntity
  8
ADP2DETAIL
100
AcDbLine
 10
11.25286144135198
 20
9.659502377036524
 30
0.0
 11
11.21286144135198
 21
9.612835710369857
 31
0.0
  0
LINE
  5
DC
330
1E
100
AcDbEntity
  8
ADP2DETAIL
100
AcDbLine
 10
11.21286144135198
 20
9.612835710369857
 30
0.0
 11
11.17952810801865
 21
9.659502377036524
 31
0.0
  0
LINE
  5
DD
330
1E
100
AcDbEntity
  8
ADP2DETAIL
100
AcDbLine
 10
11.17952810801865
 20
9.659502377036524
 30
0.0
 11
11.13952810801865
 21
9.612835710369857
 31
0.0
  0
LINE
  5
DE
330
1E
100
AcDbEntity
  8
ADP2DETAIL
100
AcDbLine
 10
11.21286144135198
 20
9.612835710369857
 30
0.0
 11
11.17952810801865
 21
9.659502377036524
 31
0.0
  0
LINE
  5
DF
330
1E
100
AcDbEntity
  8
ADP2DETAIL
100
AcDbLine
 10
11.17952810801865
 20
9.659502377036524
 30
0.0
 11
11.13952810801865
 21
9.612835710369857
 31
0.0
  0
LINE
  5
E0
330
1E
100
AcDbEntity
  8
ADP2DETAIL
100
AcDbLine
 10
11.06619477468531
 20
9.612835710369857
 30
0.0
 11
11.03286144135198
 21
9.659502377036524
 31
0.0
  0
LINE
  5
E1
330
1E
100
AcDbEntity
  8
ADP2DETAIL
100
AcDbLine
 10
11.03286144135198
 20
9.659502377036524
 30
0.0
 11
10.99286144135198
 21
9.612835710369857
 31
0.0
  0
LINE
  5
E2
330
1E
100
AcDbEntity
  8
ADP2DETAIL
100
AcDbLine
 10
11.06619477468531
 20
9.612835710369857
 30
0.0
 11
11.03286144135198
 21
9.659502377036524
 31
0.0
  0
LINE
  5
E3
330
1E
100
AcDbEntity
  8
ADP2DETAIL
100
AcDbLine
 10
11.03286144135198
 20
9.659502377036524
 30
0.0
 11
10.99286144135198
 21
9.612835710369857
 31
0.0
  0
LINE
  5
E4
330
1E
100
AcDbEntity
  8
ADP2DETAIL
100
AcDbLine
 10
11.10619477468532
 20
9.659502377036524
 30
0.0
 11
11.06619477468531
 21
9.612835710369857
 31
0.0
  0
LINE
  5
E5
330
1E
100
AcDbEntity
  8
ADP2DETAIL
100
AcDbLine
 10
11.10619477468532
 20
9.659502377036524
 30
0.0
 11
11.06619477468531
 21
9.612835710369857
 31
0.0
  0
LINE
  5
E6
330
1E
100
AcDbEntity
  8
ADP2DETAIL
100
AcDbLine
 10
11.13952810801865
 20
9.612835710369857
 30
0.0
 11
11.10619477468532
 21
9.659502377036524
 31
0.0
  0
LINE
  5
E7
330
1E
100
AcDbEntity
  8
ADP2DETAIL
100
AcDbLine
 10
11.13952810801865
 20
9.612835710369857
 30
0.0
 11
11.10619477468532
 21
9.659502377036524
 31
0.0
  0
LINE
  5
E8
330
1E
100
AcDbEntity
  8
ADP2DETAIL
100
AcDbLine
 10
11.28619477468531
 20
9.612835710369857
 30
0.0
 11
11.25286144135198
 21
9.659502377036524
 31
0.0
  0
LINE
  5
E9
330
1E
100
AcDbEntity
  8
ADP2DETAIL
100
AcDbLine
 10
11.28619477468531
 20
9.612835710369857
 30
0.0
 11
11.25286144135198
 21
9.659502377036524
 31
0.0
  0
LINE
  5
EA
330
1E
100
AcDbEntity
  8
0
100
AcDbLine
 10
11.83586099457063
 20
9.659276296567689
 30
0.0
 11
11.80252766123729
 21
9.612609629901022
 31
0.0
  0
LINE
  5
EB
330
1E
100
AcDbEntity
  8
0
100
AcDbLine
 10
11.80252766123729
 20
9.612609629901022
 30
0.0
 11
11.76252766123729
 21
9.659276296567689
 31
0.0
  0
LINE
  5
EC
330
1E
100
AcDbEntity
  8
0
100
AcDbLine
 10
11.72919432790396
 20
9.612609629901022
 30
0.0
 11
11.68919432790396
 21
9.659276296567689
 31
0.0
  0
LINE
  5
F3
330
1E
100
AcDbEntity
  8
0
100
AcDbLine
 10
11.68919432790396
 20
9.659276296567689
 30
0.0
 11
11.65586099457062
 21
9.612609629901022
 31
0.0
  0
LINE
  5
F4
330
1E
100
AcDbEntity
  8
0
100
AcDbLine
 10
11.76252766123729
 20
9.659276296567689
 30
0.0
 11
11.72919432790396
 21
9.612609629901022
 31
0.0
  0
LINE
  5
F5
330
1E
100
AcDbEntity
  8
0
100
AcDbLine
 10
11.87586099457062
 20
9.612609629901022
 30
0.0
 11
11.83586099457063
 21
9.659276296567689
 31
0.0
  0
LINE
  5
F6
330
1E
100
AcDbEntity
  8
0
100
AcDbLine
 10
12.20252766123729
 20
9.659276296567689
 30
0.0
 11
12.16252766123729
 21
9.612609629901022
 31
0.0
  0
LINE
  5
F7
330
1E
100
AcDbEntity
  8
0
100
AcDbLine
 10
12.05586099457062
 20
9.659276296567689
 30
0.0
 11
12.02252766123729
 21
9.612609629901022
 31
0.0
  0
LINE
  5
F8
330
1E
100
AcDbEntity
  8
0
100
AcDbLine
 10
12.08919432790396
 20
9.612609629901022
 30
0.0
 11
12.05586099457062
 21
9.659276296567689
 31
0.0
  0
LINE
  5
F9
330
1E
100
AcDbEntity
  8
0
100
AcDbLine
 10
12.12919432790396
 20
9.659276296567689
 30
0.0
 11
12.08919432790396
 21
9.612609629901022
 31
0.0
  0
LINE
  5
FA
330
1E
100
AcDbEntity
  8
0
100
AcDbLine
 10
11.94252766123729
 20
9.612609629901022
 30
0.0
 11
11.90919432790396
 21
9.659276296567689
 31
0.0
  0
LINE
  5
FB
330
1E
100
AcDbEntity
  8
0
100
AcDbLine
 10
11.98252766123729
 20
9.659276296567689
 30
0.0
 11
11.94252766123729
 21
9.612609629901022
 31
0.0
  0
LINE
  5
FC
330
1E
100
AcDbEntity
  8
0
100
AcDbLine
 10
12.02252766123729
 20
9.612609629901022
 30
0.0
 11
11.98252766123729
 21
9.659276296567689
 31
0.0
  0
LINE
  5
FD
330
1E
100
AcDbEntity
  8
0
100
AcDbLine
 10
12.16252766123729
 20
9.612609629901022
 30
0.0
 11
12.12919432790396
 21
9.659276296567689
 31
0.0
  0
LINE
  5
FE
330
1E
100
AcDbEntity
  8
0
100
AcDbLine
 10
12.20252766123729
 20
9.325942963234355
 30
0.0
 11
12.20252766123729
 21
9.659276296567689
 31
0.0
  0
TEXT
  5
1B8
330
1E
100
AcDbEntity
  8
ADPDIM
100
AcDbText
 10
3.386485103776663
 20
6.491092057950623
 30
0.0
 40
0.125
  1
J U L I U S  B L U M  &  C O . ,  I N C .      ( 8 0 0 )  5 2 6 - 6 2 9 3        W W W . J U L I U S B L U M . C O M        P A R T  N O .  \U+FF18 4 0
 41
1.25
  7
ARIAL_WIDE
 72
     1
 11
9.866543511007222
 21
6.616092057950623
 31
0.0
100
AcDbText
 73
     3
  0
DIMENSION
  5
2F0
330
1E
100
AcDbEntity
  8
ADPDIM
 62
     3
100
AcDbDimension
  2
*D4
 10
11.63480314078042
 20
11.2677767340483
 30
0.0
 11
11.25980314078042
 21
11.2677767340483
 31
0.0
 70
    32
 71
     5
 42
0.75
  3
Standard
100
AcDbAlignedDimension
 13
10.88480314078043
 23
10.9172843110042
 33
0.0
 14
11.63480314078042
 24
10.9172843110042
 34
0.0
100
AcDbRotatedDimension
1001
ACAD
1000
DSTYLE
1002
{
1070
    41
1040
0.125
1070
    73
1070
     0
1070
    74
1070
     0
1070
    78
1070
     3
1070
   140
1040
0.125
1070
   141
1040
0.1875
1070
   142
1040
0.125
1070
   147
1040
0.125
1070
   171
1070
     1
1070
   273
1070
     5
1070
   274
1070
     1
1070
   277
1070
     5
1070
   279
1070
     2
1070
   284
1070
     3
1070
   285
1070
     3
1070
   286
1070
     3
1002
}
  0
LINE
  5
3AC
330
1E
100
AcDbEntity
  8
ADP2DETAIL
100
AcDbLine
 10
11.28675550512143
 20
9.60589821082214
 30
0.0
 11
11.32675550512143
 21
9.32589821082214
 31
0.0
  0
LINE
  5
3AD
330
1E
100
AcDbEntity
  8
ADP2DETAIL
100
AcDbLine
 10
11.36008883845476
 20
9.612564877488807
 30
0.0
 11
11.40008883845476
 21
9.32589821082214
 31
0.0
  0
LINE
  5
3AE
330
1E
100
AcDbEntity
  8
ADP2DETAIL
100
AcDbLine
 10
11.28675550512143
 20
9.612564877488807
 30
0.0
 11
11.32675550512143
 21
9.32589821082214
 31
0.0
  0
LINE
  5
3AF
330
1E
100
AcDbEntity
  8
ADP2DETAIL
100
AcDbLine
 10
11.36008883845476
 20
9.612564877488807
 30
0.0
 11
11.40008883845476
 21
9.332564877488808
 31
0.0
  0
LINE
  5
3B1
330
1E
100
AcDbEntity
  8
ADP2DETAIL
100
AcDbLine
 10
11.32675550512143
 20
9.659231544155474
 30
0.0
 11
11.36008883845476
 21
9.279231544155473
 31
0.0
  0
LINE
  5
3B2
330
1E
100
AcDbEntity
  8
ADP2DETAIL
100
AcDbLine
 10
11.40008883845476
 20
9.659231544155474
 30
0.0
 11
11.4334221717881
 21
9.279231544155473
 31
0.0
  0
LINE
  5
3B4
330
1E
100
AcDbEntity
  8
ADP2DETAIL
100
AcDbLine
 10
11.32675550512143
 20
9.659231544155474
 30
0.0
 11
11.36008883845476
 21
9.285898210822141
 31
0.0
  0
LINE
  5
3B5
330
1E
100
AcDbEntity
  8
ADP2DETAIL
100
AcDbLine
 10
11.40008883845476
 20
9.659231544155474
 30
0.0
 11
11.4334221717881
 21
9.285898210822141
 31
0.0
  0
LINE
  5
3B6
330
1E
100
AcDbEntity
  8
ADP2DETAIL
100
AcDbLine
 10
11.36008883845476
 20
9.285898210822141
 30
0.0
 11
11.40008883845476
 21
9.32589821082214
 31
0.0
  0
LINE
  5
3B7
330
1E
100
AcDbEntity
  8
ADP2DETAIL
100
AcDbLine
 10
11.36008883845476
 20
9.285898210822141
 30
0.0
 11
11.40008883845476
 21
9.32589821082214
 31
0.0
  0
LINE
  5
3BA
330
1E
100
AcDbEntity
  8
ADP2DETAIL
100
AcDbLine
 10
11.32675550512143
 20
9.32589821082214
 30
0.0
 11
11.36008883845476
 21
9.285898210822141
 31
0.0
  0
LINE
  5
3BD
330
1E
100
AcDbEntity
  8
ADP2DETAIL
100
AcDbLine
 10
11.32675550512143
 20
9.32589821082214
 30
0.0
 11
11.36008883845476
 21
9.285898210822141
 31
0.0
  0
LINE
  5
3BE
330
1E
100
AcDbEntity
  8
ADP2DETAIL
100
AcDbLine
 10
11.4334221717881
 20
9.285898210822141
 30
0.0
 11
11.46675550512143
 21
9.32589821082214
 31
0.0
  0
LINE
  5
3BF
330
1E
100
AcDbEntity
  8
ADP2DETAIL
100
AcDbLine
 10
11.4334221717881
 20
9.285898210822141
 30
0.0
 11
11.46675550512143
 21
9.32589821082214
 31
0.0
  0
LINE
  5
3C0
330
1E
100
AcDbEntity
  8
ADP2DETAIL
100
AcDbLine
 10
11.40008883845476
 20
9.32589821082214
 30
0.0
 11
11.4334221717881
 21
9.285898210822141
 31
0.0
  0
LINE
  5
3C1
330
1E
100
AcDbEntity
  8
ADP2DETAIL
100
AcDbLine
 10
11.40008883845476
 20
9.32589821082214
 30
0.0
 11
11.4334221717881
 21
9.285898210822141
 31
0.0
  0
LINE
  5
3C2
330
1E
100
AcDbEntity
  8
ADP2DETAIL
100
AcDbLine
 10
11.40008883845476
 20
9.659231544155474
 30
0.0
 11
11.36008883845476
 21
9.612564877488807
 31
0.0
  0
LINE
  5
3C3
330
1E
100
AcDbEntity
  8
ADP2DETAIL
100
AcDbLine
 10
11.40008883845476
 20
9.659231544155474
 30
0.0
 11
11.36008883845476
 21
9.612564877488807
 31
0.0
  0
LINE
  5
3C4
330
1E
100
AcDbEntity
  8
ADP2DETAIL
100
AcDbLine
 10
11.36008883845476
 20
9.612564877488807
 30
0.0
 11
11.32675550512143
 21
9.659231544155474
 31
0.0
  0
LINE
  5
3C5
330
1E
100
AcDbEntity
  8
ADP2DETAIL
100
AcDbLine
 10
11.32675550512143
 20
9.659231544155474
 30
0.0
 11
11.28675550512143
 21
9.612564877488807
 31
0.0
  0
LINE
  5
3C6
330
1E
100
AcDbEntity
  8
ADP2DETAIL
100
AcDbLine
 10
11.36008883845476
 20
9.612564877488807
 30
0.0
 11
11.32675550512143
 21
9.659231544155474
 31
0.0
  0
LINE
  5
3C7
330
1E
100
AcDbEntity
  8
ADP2DETAIL
100
AcDbLine
 10
11.32675550512143
 20
9.659231544155474
 30
0.0
 11
11.28675550512143
 21
9.612564877488807
 31
0.0
  0
LINE
  5
3CA
330
1E
100
AcDbEntity
  8
ADP2DETAIL
100
AcDbLine
 10
11.4334221717881
 20
9.612564877488807
 30
0.0
 11
11.40008883845476
 21
9.659231544155474
 31
0.0
  0
LINE
  5
3CB
330
1E
100
AcDbEntity
  8
ADP2DETAIL
100
AcDbLine
 10
11.4334221717881
 20
9.612564877488807
 30
0.0
 11
11.40008883845476
 21
9.659231544155474
 31
0.0
  0
LINE
  5
3E9
330
1E
100
AcDbEntity
  8
ADP2DETAIL
100
AcDbLine
 10
11.43542865686586
 20
9.605987877026645
 30
0.0
 11
11.47542865686586
 21
9.325987877026646
 31
0.0
  0
LINE
  5
3EA
330
1E
100
AcDbEntity
  8
ADP2DETAIL
100
AcDbLine
 10
11.50876199019919
 20
9.612654543693313
 30
0.0
 11
11.5487619901992
 21
9.325987877026646
 31
0.0
  0
LINE
  5
3EB
330
1E
100
AcDbEntity
  8
ADP2DETAIL
100
AcDbLine
 10
11.43542865686586
 20
9.612654543693313
 30
0.0
 11
11.47542865686586
 21
9.325987877026646
 31
0.0
  0
LINE
  5
3EC
330
1E
100
AcDbEntity
  8
ADP2DETAIL
100
AcDbLine
 10
11.50876199019919
 20
9.612654543693313
 30
0.0
 11
11.5487619901992
 21
9.332654543693314
 31
0.0
  0
LINE
  5
3ED
330
1E
100
AcDbEntity
  8
ADP2DETAIL
100
AcDbLine
 10
11.47542865686586
 20
9.65932121035998
 30
0.0
 11
11.50876199019919
 21
9.279321210359979
 31
0.0
  0
LINE
  5
3EF
330
1E
100
AcDbEntity
  8
ADP2DETAIL
100
AcDbLine
 10
11.47542865686586
 20
9.65932121035998
 30
0.0
 11
11.50876199019919
 21
9.285987877026647
 31
0.0
  0
LINE
  5
3F1
330
1E
100
AcDbEntity
  8
ADP2DETAIL
100
AcDbLine
 10
11.50876199019919
 20
9.285987877026647
 30
0.0
 11
11.5487619901992
 21
9.325987877026646
 31
0.0
  0
LINE
  5
3F2
330
1E
100
AcDbEntity
  8
ADP2DETAIL
100
AcDbLine
 10
11.50876199019919
 20
9.285987877026647
 30
0.0
 11
11.5487619901992
 21
9.325987877026646
 31
0.0
  0
LINE
  5
3F3
330
1E
100
AcDbEntity
  8
ADP2DETAIL
100
AcDbLine
 10
11.47542865686586
 20
9.325987877026646
 30
0.0
 11
11.50876199019919
 21
9.285987877026647
 31
0.0
  0
LINE
  5
3F4
330
1E
100
AcDbEntity
  8
ADP2DETAIL
100
AcDbLine
 10
11.47542865686586
 20
9.325987877026646
 30
0.0
 11
11.50876199019919
 21
9.285987877026647
 31
0.0
  0
LINE
  5
3F9
330
1E
100
AcDbEntity
  8
ADP2DETAIL
100
AcDbLine
 10
11.5487619901992
 20
9.65932121035998
 30
0.0
 11
11.50876199019919
 21
9.612654543693313
 31
0.0
  0
LINE
  5
3FB
330
1E
100
AcDbEntity
  8
ADP2DETAIL
100
AcDbLine
 10
11.50876199019919
 20
9.612654543693313
 30
0.0
 11
11.47542865686586
 21
9.65932121035998
 31
0.0
  0
LINE
  5
3FC
330
1E
100
AcDbEntity
  8
ADP2DETAIL
100
AcDbLine
 10
11.47542865686586
 20
9.65932121035998
 30
0.0
 11
11.43542865686586
 21
9.612654543693313
 31
0.0
  0
LINE
  5
3FD
330
1E
100
AcDbEntity
  8
ADP2DETAIL
100
AcDbLine
 10
11.50876199019919
 20
9.612654543693313
 30
0.0
 11
11.47542865686586
 21
9.65932121035998
 31
0.0
  0
LINE
  5
3FE
330
1E
100
AcDbEntity
  8
ADP2DETAIL
100
AcDbLine
 10
11.47542865686586
 20
9.65932121035998
 30
0.0
 11
11.43542865686586
 21
9.612654543693313
 31
0.0
  0
LINE
  5
41E
330
1E
100
AcDbEntity
  8
ADP2DETAIL
100
AcDbLine
 10
11.50876200577152
 20
9.605987868323008
 30
0.0
 11
11.54876200577152
 21
9.325987868323009
 31
0.0
  0
LINE
  5
41F
330
1E
100
AcDbEntity
  8
ADP2DETAIL
100
AcDbLine
 10
11.58209533910485
 20
9.612654534989676
 30
0.0
 11
11.62209533910485
 21
9.325987868323009
 31
0.0
  0
LINE
  5
420
330
1E
100
AcDbEntity
  8
ADP2DETAIL
100
AcDbLine
 10
11.50876200577152
 20
9.612654534989676
 30
0.0
 11
11.54876200577152
 21
9.325987868323009
 31
0.0
  0
LINE
  5
421
330
1E
100
AcDbEntity
  8
ADP2DETAIL
100
AcDbLine
 10
11.58209533910485
 20
9.612654534989676
 30
0.0
 11
11.62209533910485
 21
9.332654534989677
 31
0.0
  0
LINE
  5
422
330
1E
100
AcDbEntity
  8
ADP2DETAIL
100
AcDbLine
 10
11.54876200577152
 20
9.659321201656343
 30
0.0
 11
11.58209533910485
 21
9.279321201656342
 31
0.0
  0
LINE
  5
423
330
1E
100
AcDbEntity
  8
ADP2DETAIL
100
AcDbLine
 10
11.62209533910485
 20
9.659321201656343
 30
0.0
 11
11.65542867243818
 21
9.279321201656342
 31
0.0
  0
LINE
  5
424
330
1E
100
AcDbEntity
  8
ADP2DETAIL
100
AcDbLine
 10
11.54876200577152
 20
9.659321201656343
 30
0.0
 11
11.58209533910485
 21
9.28598786832301
 31
0.0
  0
LINE
  5
425
330
1E
100
AcDbEntity
  8
ADP2DETAIL
100
AcDbLine
 10
11.62209533910485
 20
9.659321201656343
 30
0.0
 11
11.65542867243818
 21
9.28598786832301
 31
0.0
  0
LINE
  5
426
330
1E
100
AcDbEntity
  8
ADP2DETAIL
100
AcDbLine
 10
11.58209533910485
 20
9.28598786832301
 30
0.0
 11
11.62209533910485
 21
9.325987868323009
 31
0.0
  0
LINE
  5
427
330
1E
100
AcDbEntity
  8
ADP2DETAIL
100
AcDbLine
 10
11.58209533910485
 20
9.28598786832301
 30
0.0
 11
11.62209533910485
 21
9.325987868323009
 31
0.0
  0
LINE
  5
428
330
1E
100
AcDbEntity
  8
ADP2DETAIL
100
AcDbLine
 10
11.54876200577152
 20
9.325987868323009
 30
0.0
 11
11.58209533910485
 21
9.28598786832301
 31
0.0
  0
LINE
  5
429
330
1E
100
AcDbEntity
  8
ADP2DETAIL
100
AcDbLine
 10
11.54876200577152
 20
9.325987868323009
 30
0.0
 11
11.58209533910485
 21
9.28598786832301
 31
0.0
  0
LINE
  5
42C
330
1E
100
AcDbEntity
  8
ADP2DETAIL
100
AcDbLine
 10
11.62209533910485
 20
9.325987868323009
 30
0.0
 11
11.65542867243818
 21
9.28598786832301
 31
0.0
  0
LINE
  5
42D
330
1E
100
AcDbEntity
  8
ADP2DETAIL
100
AcDbLine
 10
11.62209533910485
 20
9.325987868323009
 30
0.0
 11
11.65542867243818
 21
9.28598786832301
 31
0.0
  0
LINE
  5
42E
330
1E
100
AcDbEntity
  8
ADP2DETAIL
100
AcDbLine
 10
11.62209533910485
 20
9.659321201656343
 30
0.0
 11
11.58209533910485
 21
9.612654534989676
 31
0.0
  0
LINE
  5
42F
330
1E
100
AcDbEntity
  8
ADP2DETAIL
100
AcDbLine
 10
11.62209533910485
 20
9.659321201656343
 30
0.0
 11
11.58209533910485
 21
9.612654534989676
 31
0.0
  0
LINE
  5
430
330
1E
100
AcDbEntity
  8
ADP2DETAIL
100
AcDbLine
 10
11.58209533910485
 20
9.612654534989676
 30
0.0
 11
11.54876200577152
 21
9.659321201656343
 31
0.0
  0
LINE
  5
431
330
1E
100
AcDbEntity
  8
ADP2DETAIL
100
AcDbLine
 10
11.54876200577152
 20
9.659321201656343
 30
0.0
 11
11.50876200577152
 21
9.612654534989676
 31
0.0
  0
LINE
  5
432
330
1E
100
AcDbEntity
  8
ADP2DETAIL
100
AcDbLine
 10
11.58209533910485
 20
9.612654534989676
 30
0.0
 11
11.54876200577152
 21
9.659321201656343
 31
0.0
  0
LINE
  5
433
330
1E
100
AcDbEntity
  8
ADP2DETAIL
100
AcDbLine
 10
11.54876200577152
 20
9.659321201656343
 30
0.0
 11
11.50876200577152
 21
9.612654534989676
 31
0.0
  0
LINE
  5
434
330
1E
100
AcDbEntity
  8
ADP2DETAIL
100
AcDbLine
 10
11.65542867243818
 20
9.612654534989676
 30
0.0
 11
11.62209533910485
 21
9.659321201656343
 31
0.0
  0
LINE
  5
435
330
1E
100
AcDbEntity
  8
ADP2DETAIL
100
AcDbLine
 10
11.65542867243818
 20
9.612654534989676
 30
0.0
 11
11.62209533910485
 21
9.659321201656343
 31
0.0
  0
ENDSEC
  0
SECTION
  2
OBJECTS
  0
DICTIONARY
  5
C
330
0
100
AcDbDictionary
281
     1
  3
ACAD_COLOR
350
2E9
  3
ACAD_GROUP
350
D
  3
ACAD_LAYOUT
350
19
  3
ACAD_MATERIAL
350
2D4
  3
ACAD_MLINESTYLE
350
16
  3
ACAD_PLOTSETTINGS
350
18
  3
ACAD_PLOTSTYLENAME
350
E
  3
ACAD_TABLESTYLE
350
2EA
  3
ACAD_VISUALSTYLE
350
2D8
  3
AcDbVariableDictionary
350
177
  3
DWGPROPS
350
466
  0
DICTIONARY
  5
142
330
1E
100
AcDbDictionary
280
     1
281
     1
  3
ACAD_LAYOUTSELFREF
360
2D0
  0
DICTIONARY
  5
144
330
1A
100
AcDbDictionary
280
     1
281
     1
  3
ACAD_LAYOUTSELFREF
360
2CF
  0
DICTIONARY
  5
2E9
102
{ACAD_REACTORS
330
C
102
}
330
C
100
AcDbDictionary
281
     1
  0
DICTIONARY
  5
D
102
{ACAD_REACTORS
330
C
102
}
330
C
100
AcDbDictionary
281
     1
  0
DICTIONARY
  5
19
102
{ACAD_REACTORS
330
C
102
}
330
C
100
AcDbDictionary
281
     1
  3
Layout1
350
1D
  3
Model
350
21
  0
DICTIONARY
  5
2D4
102
{ACAD_REACTORS
330
C
102
}
330
C
100
AcDbDictionary
281
     1
  3
ByBlock
350
2D6
  3
ByLayer
350
2D5
  3
Global
350
2D7
  0
DICTIONARY
  5
16
102
{ACAD_REACTORS
330
C
102
}
330
C
100
AcDbDictionary
281
     1
  3
Standard
350
17
  0
DICTIONARY
  5
18
102
{ACAD_REACTORS
330
C
102
}
330
C
100
AcDbDictionary
281
     1
  0
ACDBDICTIONARYWDFLT
  5
E
102
{ACAD_REACTORS
330
C
102
}
330
C
100
AcDbDictionary
281
     1
  3
Normal
350
F
100
AcDbDictionaryWithDefault
340
F
  0
DICTIONARY
  5
2EA
102
{ACAD_REACTORS
330
C
102
}
330
C
100
AcDbDictionary
281
     1
  3
Standard
350
2EB
  0
DICTIONARY
  5
2D8
102
{ACAD_REACTORS
330
C
102
}
330
C
100
AcDbDictionary
281
     1
  3
2dWireframe
350
2DE
  3
3D Hidden
350
2E0
  3
3dWireframe
350
2DF
  3
Basic
350
2DD
  3
Brighten
350
2E4
  3
ColorChange
350
2E8
  3
Conceptual
350
2E1
  3
Dim
350
2E3
  3
Facepattern
350
2E7
  3
Flat
350
2D9
  3
FlatWithEdges
350
2DA
  3
Gouraud
350
2DB
  3
GouraudWithEdges
350
2DC
  3
Linepattern
350
2E6
  3
Realistic
350
2E2
  3
Thicken
350
2E5
  0
DICTIONARY
  5
177
102
{ACAD_REACTORS
330
C
102
}
330
C
100
AcDbDictionary
281
     1
  3
CTABLESTYLE
350
456
  3
DIMASSOC
350
179
  3
HIDETEXT
350
178
  3
INDEXCTL
350
458
  3
SORTENTS
350
457
  0
XRECORD
  5
466
102
{ACAD_REACTORS
330
C
102
}
330
C
100
AcDbXrecord
280
     1
  1
DWGPROPS COOKIE
  2

  3

  4

  6

  7

  8
Yu Hu
  9

300
=
301
=
302
=
303
=
304
=
305
=
306
=
307
=
308
=
309
=
 40
0.0319113657407408
 41
2450375.479341435
 42
2453950.878343959
  1

 90
        0
  0
XRECORD
  5
2D0
102
{ACAD_REACTORS
330
142
102
}
330
142
100
AcDbXrecord
280
     1
340
1E
  0
XRECORD
  5
2CF
102
{ACAD_REACTORS
330
144
102
}
330
144
100
AcDbXrecord
280
     1
340
1A
  0
LAYOUT
  5
1D
102
{ACAD_XDICTIONARY
360
467
102
}
102
{ACAD_REACTORS
330
19
102
}
330
19
100
AcDbPlotSettings
  1

  2
Fax
  4

  6

 40
0.0
 41
0.0
 42
0.0
 43
0.0
 44
0.0
 45
0.0
 46
0.0
 47
0.0
 48
0.0
 49
0.0
140
0.0
141
0.0
142
1.0
143
1.0
 70
   688
 72
     0
 73
     0
 74
     5
  7
Default R14 pen assignments.ctb
 75
    16
147
1.0
148
0.0
149
0.0
100
AcDbLayout
  1
Layout1
 70
     1
 71
     1
 10
0.0
 20
0.0
 11
12.0
 21
9.0
 12
6.111119585016845E+90
 22
8.346071047958366E+93
 32
0.0
 14
1.000000000000000E+20
 24
1.000000000000000E+20
 34
1.000000000000000E+20
 15
-1.000000000000000E+20
 25
-1.000000000000000E+20
 35
-1.000000000000000E+20
146
0.0
 13
0.0
 23
0.0
 33
0.0
 16
1.0
 26
0.0
 36
0.0
 17
0.0
 27
1.0
 37
0.0
 76
     0
330
1A
  0
LAYOUT
  5
21
102
{ACAD_XDICTIONARY
360
469
102
}
102
{ACAD_REACTORS
330
19
102
}
330
19
100
AcDbPlotSettings
  1

  2
Fax
  4

  6

 40
0.0
 41
0.0
 42
0.0
 43
0.0
 44
0.0
 45
0.0
 46
0.0
 47
0.0
 48
0.0
 49
0.0
140
0.0
141
0.0
142
1.0
143
1.0
 70
  1712
 72
     0
 73
     0
 74
     0
  7
Default R14 pen assignments.ctb
 75
     0
147
1.0
148
0.0
149
0.0
100
AcDbLayout
  1
Model
 70
     1
 71
     0
 10
0.0
 20
0.0
 11
12.0
 21
9.0
 12
0.0
 22
0.0
 32
0.0
 14
0.0
 24
0.0
 34
0.0
 15
0.0
 25
0.0
 35
0.0
146
0.0
 13
0.0
 23
0.0
 33
0.0
 16
1.0
 26
0.0
 36
0.0
 17
0.0
 27
1.0
 37
0.0
 76
     0
330
1E
331
29D
  0
MATERIAL
  5
2D6
102
{ACAD_XDICTIONARY
360
46D
102
}
102
{ACAD_REACTORS
330
2D4
102
}
330
2D4
100
AcDbMaterial
  1
ByBlock
  0
MATERIAL
  5
2D5
102
{ACAD_XDICTIONARY
360
46B
102
}
102
{ACAD_REACTORS
330
2D4
102
}
330
2D4
100
AcDbMaterial
  1
ByLayer
  0
MATERIAL
  5
2D7
102
{ACAD_XDICTIONARY
360
46F
102
}
102
{ACAD_REACTORS
330
2D4
102
}
330
2D4
100
AcDbMaterial
  1
Global
  0
MLINESTYLE
  5
17
102
{ACAD_REACTORS
330
16
102
}
330
16
100
AcDbMlineStyle
  2
STANDARD
 70
     0
  3

 62
   256
 51
90.0
 52
90.0
 71
     2
 49
0.5
 62
   256
  6
BYLAYER
 49
-0.5
 62
   256
  6
BYLAYER
  0
ACDBPLACEHOLDER
  5
F
102
{ACAD_REACTORS
330
E
102
}
330
E
  0
TABLESTYLE
  5
2EB
102
{ACAD_XDICTIONARY
360
471
102
}
102
{ACAD_REACTORS
330
2EA
102
}
330
2EA
100
AcDbTableStyle
  3
Standard
 70
     0
 71
     0
 40
0.06
 41
0.06
280
     0
281
     0
  7
STANDARD
140
0.18
170
     2
 62
     0
 63
     7
283
     0
274
    -2
284
     1
 64
     0
275
    -2
285
     1
 65
     0
276
    -2
286
     1
 66
     0
277
    -2
287
     1
 67
     0
278
    -2
288
     1
 68
     0
279
    -2
289
     1
 69
     0
  7
STANDARD
140
0.25
170
     5
 62
     0
 63
     7
283
     0
274
    -2
284
     1
 64
     0
275
    -2
285
     1
 65
     0
276
    -2
286
     1
 66
     0
277
    -2
287
     1
 67
     0
278
    -2
288
     1
 68
     0
279
    -2
289
     1
 69
     0
  7
STANDARD
140
0.18
170
     5
 62
     0
 63
     7
283
     0
274
    -2
284
     1
 64
     0
275
    -2
285
     1
 65
     0
276
    -2
286
     1
 66
     0
277
    -2
287
     1
 67
     0
278
    -2
288
     1
 68
     0
279
    -2
289
     1
 69
     0
  0
VISUALSTYLE
  5
2DE
102
{ACAD_REACTORS
330
2D8
102
}
330
2D8
100
AcDbVisualStyle
  2
2dWireframe
 70
     4
 71
     0
 72
     2
 73
     0
 90
        0
 40
-0.6
 41
-30.0
 62
     5
 63
     7
 74
     1
 91
        4
 64
     7
 65
   257
 75
     1
175
     1
 42
1.0
 92
        0
 66
   257
 43
1.0
 76
     1
 77
     6
 78
     2
 67
     7
 79
     5
170
     0
171
     0
290
     0
174
     0
 93
        1
 44
0.0
173
     0
291
     0
 45
0.0
1001
ACAD
1000
AcDbSavedByObjectVersion
1070
     0
  0
VISUALSTYLE
  5
2E0
102
{ACAD_REACTORS
330
2D8
102
}
330
2D8
100
AcDbVisualStyle
  2
3D Hidden
 70
     6
 71
     1
 72
     2
 73
     2
 90
        0
 40
-0.6
 41
-30.0
 62
     5
 63
     7
 74
     2
 91
        2
 64
     7
 65
   257
 75
     2
175
     1
 42
40.0
 92
        0
 66
   257
 43
1.0
 76
     1
 77
     6
 78
     2
 67
     7
 79
     3
170
     0
171
     0
290
     0
174
     0
 93
        1
 44
0.0
173
     0
291
     0
 45
0.0
1001
ACAD
1000
AcDbSavedByObjectVersion
1070
     0
  0
VISUALSTYLE
  5
2DF
102
{ACAD_REACTORS
330
2D8
102
}
330
2D8
100
AcDbVisualStyle
  2
3dWireframe
 70
     5
 71
     0
 72
     2
 73
     0
 90
        0
 40
-0.6
 41
-30.0
 62
     5
 63
     7
 74
     1
 91
        4
 64
     7
 65
   257
 75
     1
175
     1
 42
1.0
 92
        0
 66
   257
 43
1.0
 76
     1
 77
     6
 78
     2
 67
     7
 79
     5
170
     0
171
     0
290
     0
174
     0
 93
        1
 44
0.0
173
     0
291
     0
 45
0.0
1001
ACAD
1000
AcDbSavedByObjectVersion
1070
     0
  0
VISUALSTYLE
  5
2DD
102
{ACAD_REACTORS
330
2D8
102
}
330
2D8
100
AcDbVisualStyle
  2
Basic
 70
     7
 71
     1
 72
     0
 73
     1
 90
        0
 40
-0.6
 41
-30.0
 62
     5
 63
     7
 74
     0
 91
        4
 64
     7
 65
   257
 75
     1
175
     1
 42
1.0
 92
        8
 66
     7
 43
1.0
 76
     1
 77
     6
 78
     2
 67
     7
 79
     5
170
     0
171
     0
290
     0
174
     0
 93
        1
 44
0.0
173
     0
291
     1
 45
0.0
1001
ACAD
1000
AcDbSavedByObjectVersion
1070
     0
  0
VISUALSTYLE
  5
2E4
102
{ACAD_REACTORS
330
2D8
102
}
330
2D8
100
AcDbVisualStyle
  2
Brighten
 70
    12
 71
     2
 72
     2
 73
     0
 90
        0
 40
-0.6
 41
-30.0
 62
     5
 63
     7
 74
     1
 91
        4
 64
     7
 65
   257
 75
     1
175
     1
 42
1.0
 92
        8
 66
     7
 43
1.0
 76
     1
 77
     6
 78
     2
 67
     7
 79
     5
170
     0
171
     0
290
     0
174
     0
 93
        1
 44
50.0
173
     0
291
     1
 45
0.0
1001
ACAD
1000
AcDbSavedByObjectVersion
1070
     0
  0
VISUALSTYLE
  5
2E8
102
{ACAD_REACTORS
330
2D8
102
}
330
2D8
100
AcDbVisualStyle
  2
ColorChange
 70
    16
 71
     2
 72
     2
 73
     3
 90
        0
 40
-0.6
 41
-30.0
 62
     5
 63
     8
 74
     1
 91
        4
 64
     7
 65
   257
 75
     1
175
     1
 42
1.0
 92
        8
 66
     8
 43
1.0
 76
     1
 77
     6
 78
     2
 67
     7
 79
     5
170
     0
171
     0
290
     0
174
     0
 93
        1
 44
0.0
173
     0
291
     1
 45
0.0
1001
ACAD
1000
AcDbSavedByObjectVersion
1070
     0
  0
VISUALSTYLE
  5
2E1
102
{ACAD_REACTORS
330
2D8
102
}
330
2D8
100
AcDbVisualStyle
  2
Conceptual
 70
     9
 71
     3
 72
     2
 73
     0
 90
        0
 40
-0.6
 41
-30.0
 62
     5
 63
     7
 74
     2
 91
        2
 64
     7
 65
   257
 75
     1
175
     1
 42
40.0
 92
        8
 66
     7
 43
1.0
 76
     1
 77
     6
 78
     2
 67
     7
 79
     3
170
     0
171
     0
290
     0
174
     0
 93
        1
 44
0.0
173
     0
291
     0
 45
0.0
1001
ACAD
1000
AcDbSavedByObjectVersion
1070
     0
  0
VISUALSTYLE
  5
2E3
102
{ACAD_REACTORS
330
2D8
102
}
330
2D8
100
AcDbVisualStyle
  2
Dim
 70
    11
 71
     2
 72
     2
 73
     0
 90
        0
 40
-0.6
 41
-30.0
 62
     5
 63
     7
 74
     1
 91
        4
 64
     7
 65
   257
 75
     1
175
     1
 42
1.0
 92
        8
 66
     7
 43
1.0
 76
     1
 77
     6
 78
     2
 67
     7
 79
     5
170
     0
171
     0
290
     0
174
     0
 93
        1
 44
-50.0
173
     0
291
     1
 45
0.0
1001
ACAD
1000
AcDbSavedByObjectVersion
1070
     0
  0
VISUALSTYLE
  5
2E7
102
{ACAD_REACTORS
330
2D8
102
}
330
2D8
100
AcDbVisualStyle
  2
Facepattern
 70
    15
 71
     2
 72
     2
 73
     0
 90
        0
 40
-0.6
 41
-30.0
 62
     5
 63
     7
 74
     1
 91
        4
 64
     7
 65
   257
 75
     1
175
     1
 42
1.0
 92
        8
 66
     7
 43
1.0
 76
     1
 77
     6
 78
     2
 67
     7
 79
     5
170
     0
171
     0
290
     0
174
     0
 93
        1
 44
0.0
173
     0
291
     1
 45
0.0
1001
ACAD
1000
AcDbSavedByObjectVersion
1070
     0
  0
VISUALSTYLE
  5
2D9
102
{ACAD_REACTORS
330
2D8
102
}
330
2D8
100
AcDbVisualStyle
  2
Flat
 70
     0
 71
     2
 72
     1
 73
     1
 90
        2
 40
-0.6
 41
30.0
 62
     5
 63
     7
 74
     0
 91
        4
 64
     7
 65
   257
 75
     1
175
     1
 42
1.0
 92
        8
 66
     7
 43
1.0
 76
     1
 77
     6
 78
     2
 67
     7
 79
     5
170
     0
171
     0
290
     0
174
     0
 93
       13
 44
0.0
173
     0
291
     1
 45
0.0
1001
ACAD
1000
AcDbSavedByObjectVersion
1070
     0
  0
VISUALSTYLE
  5
2DA
102
{ACAD_REACTORS
330
2D8
102
}
330
2D8
100
AcDbVisualStyle
  2
FlatWithEdges
 70
     1
 71
     2
 72
     1
 73
     1
 90
        2
 40
-0.6
 41
30.0
 62
     5
 63
     7
 74
     1
 91
        4
 64
     7
 65
   257
 75
     1
175
     1
 42
1.0
 92
        0
 66
   257
 43
1.0
 76
     1
 77
     6
 78
     2
 67
     7
 79
     5
170
     0
171
     0
290
     0
174
     0
 93
       13
 44
0.0
173
     0
291
     1
 45
0.0
1001
ACAD
1000
AcDbSavedByObjectVersion
1070
     0
  0
VISUALSTYLE
  5
2DB
102
{ACAD_REACTORS
330
2D8
102
}
330
2D8
100
AcDbVisualStyle
  2
Gouraud
 70
     2
 71
     2
 72
     2
 73
     1
 90
        2
 40
-0.6
 41
30.0
 62
     5
 63
     7
 74
     0
 91
        4
 64
     7
 65
   257
 75
     1
175
     1
 42
1.0
 92
        0
 66
     7
 43
1.0
 76
     1
 77
     6
 78
     2
 67
     7
 79
     5
170
     0
171
     0
290
     0
174
     0
 93
       13
 44
0.0
173
     0
291
     1
 45
0.0
1001
ACAD
1000
AcDbSavedByObjectVersion
1070
     0
  0
VISUALSTYLE
  5
2DC
102
{ACAD_REACTORS
330
2D8
102
}
330
2D8
100
AcDbVisualStyle
  2
GouraudWithEdges
 70
     3
 71
     2
 72
     2
 73
     1
 90
        2
 40
-0.6
 41
30.0
 62
     5
 63
     7
 74
     1
 91
        4
 64
     7
 65
   257
 75
     1
175
     1
 42
1.0
 92
        0
 66
   257
 43
1.0
 76
     1
 77
     6
 78
     2
 67
     7
 79
     5
170
     0
171
     0
290
     0
174
     0
 93
       13
 44
0.0
173
     0
291
     1
 45
0.0
1001
ACAD
1000
AcDbSavedByObjectVersion
1070
     0
  0
VISUALSTYLE
  5
2E6
102
{ACAD_REACTORS
330
2D8
102
}
330
2D8
100
AcDbVisualStyle
  2
Linepattern
 70
    14
 71
     2
 72
     2
 73
     0
 90
        0
 40
-0.6
 41
-30.0
 62
     5
 63
     7
 74
     1
 91
        4
 64
     7
 65
   257
 75
     7
175
     7
 42
1.0
 92
        8
 66
     7
 43
1.0
 76
     1
 77
     6
 78
     2
 67
     7
 79
     5
170
     0
171
     0
290
     0
174
     0
 93
        1
 44
0.0
173
     0
291
     1
 45
0.0
1001
ACAD
1000
AcDbSavedByObjectVersion
1070
     0
  0
VISUALSTYLE
  5
2E2
102
{ACAD_REACTORS
330
2D8
102
}
330
2D8
100
AcDbVisualStyle
  2
Realistic
 70
     8
 71
     2
 72
     2
 73
     0
 90
        0
 40
-0.6
 41
-30.0
 62
     5
 63
     7
 74
     1
 91
        0
 64
     7
 65
   257
 75
     1
175
     1
 42
1.0
 92
        8
 66
     8
 43
1.0
 76
     1
 77
     6
 78
     2
 67
     7
 79
     5
170
     0
171
     0
290
     0
174
     0
 93
       13
 44
0.0
173
     0
291
     0
 45
0.0
1001
ACAD
1000
AcDbSavedByObjectVersion
1070
     0
  0
VISUALSTYLE
  5
2E5
102
{ACAD_REACTORS
330
2D8
102
}
330
2D8
100
AcDbVisualStyle
  2
Thicken
 70
    13
 71
     2
 72
     2
 73
     0
 90
        0
 40
-0.6
 41
-30.0
 62
     5
 63
     7
 74
     1
 91
        4
 64
     7
 65
   257
 75
     1
175
     1
 42
1.0
 92
       12
 66
     7
 43
1.0
 76
     1
 77
     6
 78
     2
 67
     7
 79
     5
170
     0
171
     0
290
     0
174
     0
 93
        1
 44
0.0
173
     0
291
     1
 45
0.0
1001
ACAD
1000
AcDbSavedByObjectVersion
1070
     0
  0
DICTIONARYVAR
  5
456
102
{ACAD_REACTORS
330
177
102
}
330
177
100
DictionaryVariables
280
     0
  1
STANDARD
  0
DICTIONARYVAR
  5
179
102
{ACAD_REACTORS
330
177
102
}
330
177
100
DictionaryVariables
280
     0
  1
2
  0
DICTIONARYVAR
  5
178
102
{ACAD_REACTORS
330
177
102
}
330
177
100
DictionaryVariables
280
     0
  1
1
  0
DICTIONARYVAR
  5
458
102
{ACAD_REACTORS
330
177
102
}
330
177
100
DictionaryVariables
280
     0
  1
0
  0
DICTIONARYVAR
  5
457
102
{ACAD_REACTORS
330
177
102
}
330
177
100
DictionaryVariables
280
     0
  1
127
  0
DICTIONARY
  5
467
330
1D
100
AcDbDictionary
280
     1
281
     1
  3
ACAD_XREC_ROUNDTRIP
360
468
  0
DICTIONARY
  5
469
330
21
100
AcDbDictionary
280
     1
281
     1
  3
ACAD_XREC_ROUNDTRIP
360
46A
  0
DICTIONARY
  5
46D
330
2D6
100
AcDbDictionary
280
     1
281
     1
  3
ACAD_XREC_ROUNDTRIP
360
46E
  0
DICTIONARY
  5
46B
330
2D5
100
AcDbDictionary
280
     1
281
     1
  3
ACAD_XREC_ROUNDTRIP
360
46C
  0
DICTIONARY
  5
46F
330
2D7
100
AcDbDictionary
280
     1
281
     1
  3
ACAD_XREC_ROUNDTRIP
360
470
  0
DICTIONARY
  5
471
330
2EB
100
AcDbDictionary
280
     1
281
     1
  3
ACAD_XREC_ROUNDTRIP
360
472
  0
XRECORD
  5
468
102
{ACAD_REACTORS
330
467
102
}
330
467
100
AcDbXrecord
280
     1
102
SHADEPLOT
 70
     0
102
SHADEPLOTRESLEVEL
 70
     2
102
SHADEPLOTCUSTOMDPI
 70
   300
  0
XRECORD
  5
46A
102
{ACAD_REACTORS
330
469
102
}
330
469
100
AcDbXrecord
280
     1
102
SHADEPLOT
 70
     0
102
SHADEPLOTRESLEVEL
 70
     2
102
SHADEPLOTCUSTOMDPI
 70
   300
  0
XRECORD
  5
46E
102
{ACAD_REACTORS
330
46D
102
}
330
46D
100
AcDbXrecord
280
     1
102
MATERIAL
148
0.0
149
0.0
149
0.0
 93
        0
 94
       63
282
     0
 72
     1
 77
     1
171
     1
175
     1
179
     1
273
     0
  0
XRECORD
  5
46C
102
{ACAD_REACTORS
330
46B
102
}
330
46B
100
AcDbXrecord
280
     1
102
MATERIAL
148
0.0
149
0.0
149
0.0
 93
        0
 94
       63
282
     0
 72
     1
 77
     1
171
     1
175
     1
179
     1
273
     0
  0
XRECORD
  5
470
102
{ACAD_REACTORS
330
46F
102
}
330
46F
100
AcDbXrecord
280
     1
102
MATERIAL
148
0.0
149
0.0
149
0.0
 93
        0
 94
       63
282
     0
 72
     1
 77
     1
171
     1
175
     1
179
     1
273
     0
  0
XRECORD
  5
472
102
{ACAD_REACTORS
330
471
102
}
330
471
100
AcDbXrecord
280
     1
102
ACAD_ROUNDTRIP_PRE2007_TABLESTYLE
 90
      512
 91
        0
  1

 92
      512
 93
        0
  2

 94
      512
 95
        0
  3

  0
ENDSEC
  0
EOF
