  0
SECTION
  2
HEADER
  9
$ACADVER
  1
AC1014
  9
$ACADMAINTVER
 70
     9
  9
$DWGCODEPAGE
  3
ANSI_1252
  9
$INSBASE
 10
0.5386473904653597
 20
-2.855498979421147
 30
0.0
  9
$EXTMIN
 10
-3.896826079620344
 20
-4.219700471598738
 30
0.0
  9
$EXTMAX
 10
8.972588995413762
 20
1.750222171849084
 30
0.0
  9
$LIMMIN
 10
0.0
 20
0.0
  9
$LIMMAX
 10
36.0
 20
36.0
  9
$ORTHOMODE
 70
     1
  9
$REGENMODE
 70
     1
  9
$FILLMODE
 70
     1
  9
$QTEXTMODE
 70
     0
  9
$MIRRTEXT
 70
     1
  9
$DRAGMODE
 70
     0
  9
$LTSCALE
 40
1.0
  9
$OSMODE
 70
    37
  9
$ATTMODE
 70
     1
  9
$TEXTSIZE
 40
0.2
  9
$TRACEWID
 40
0.05
  9
$TEXTSTYLE
  7
STANDARD
  9
$CLAYER
  8
ADPDIM
  9
$CELTYPE
  6
BYLAYER
  9
$CECOLOR
 62
   256
  9
$CELTSCALE
 40
1.0
  9
$DELOBJ
 70
     1
  9
$DISPSILH
 70
     0
  9
$DIMSCALE
 40
1.0
  9
$DIMASZ
 40
0.125
  9
$DIMEXO
 40
0.0625
  9
$DIMDLI
 40
0.38
  9
$DIMRND
 40
0.0
  9
$DIMDLE
 40
0.0
  9
$DIMEXE
 40
0.18
  9
$DIMTP
 40
0.0
  9
$DIMTM
 40
0.0
  9
$DIMTXT
 40
0.125
  9
$DIMCEN
 40
0.1875
  9
$DIMTSZ
 40
0.125
  9
$DIMTOL
 70
     0
  9
$DIMLIM
 70
     0
  9
$DIMTIH
 70
     0
  9
$DIMTOH
 70
     0
  9
$DIMSE1
 70
     0
  9
$DIMSE2
 70
     0
  9
$DIMTAD
 70
     0
  9
$DIMZIN
 70
     3
  9
$DIMBLK
  1

  9
$DIMASO
 70
     1
  9
$DIMSHO
 70
     1
  9
$DIMPOST
  1

  9
$DIMAPOST
  1

  9
$DIMALT
 70
     0
  9
$DIMALTD
 70
     1
  9
$DIMALTF
 40
25.4
  9
$DIMLFAC
 40
1.0
  9
$DIMTOFL
 70
     0
  9
$DIMTVP
 40
0.0
  9
$DIMTIX
 70
     0
  9
$DIMSOXD
 70
     0
  9
$DIMSAH
 70
     0
  9
$DIMBLK1
  1

  9
$DIMBLK2
  1

  9
$DIMSTYLE
  2
STANDARD
  9
$DIMCLRD
 70
     0
  9
$DIMCLRE
 70
     0
  9
$DIMCLRT
 70
     0
  9
$DIMTFAC
 40
1.0
  9
$DIMGAP
 40
0.125
  9
$DIMJUST
 70
     0
  9
$DIMSD1
 70
     0
  9
$DIMSD2
 70
     0
  9
$DIMTOLJ
 70
     1
  9
$DIMTZIN
 70
     0
  9
$DIMALTZ
 70
     0
  9
$DIMALTTZ
 70
     0
  9
$DIMFIT
 70
     3
  9
$DIMUPT
 70
     0
  9
$DIMUNIT
 70
     2
  9
$DIMDEC
 70
     4
  9
$DIMTDEC
 70
     4
  9
$DIMALTU
 70
     2
  9
$DIMALTTD
 70
     2
  9
$DIMTXSTY
  7
STANDARD
  9
$DIMAUNIT
 70
     0
  9
$LUNITS
 70
     5
  9
$LUPREC
 70
     5
  9
$SKETCHINC
 40
0.1
  9
$FILLETRAD
 40
0.05
  9
$AUNITS
 70
     0
  9
$AUPREC
 70
     0
  9
$MENU
  1
acad
  9
$ELEVATION
 40
0.0
  9
$PELEVATION
 40
0.0
  9
$THICKNESS
 40
0.0
  9
$LIMCHECK
 70
     0
  9
$BLIPMODE
 70
     0
  9
$CHAMFERA
 40
0.0
  9
$CHAMFERB
 40
0.0
  9
$CHAMFERC
 40
0.0
  9
$CHAMFERD
 40
0.0
  9
$SKPOLY
 70
     0
  9
$TDCREATE
 40
2450233.518373264
  9
$TDUPDATE
 40
2452297.076528854
  9
$TDINDWG
 40
0.0679871644
  9
$TDUSRTIMER
 40
0.0679871644
  9
$USRTIMER
 70
     1
  9
$ANGBASE
 50
0.0
  9
$ANGDIR
 70
     0
  9
$PDMODE
 70
     0
  9
$PDSIZE
 40
0.0
  9
$PLINEWID
 40
0.0
  9
$COORDS
 70
     2
  9
$SPLFRAME
 70
     0
  9
$SPLINETYPE
 70
     6
  9
$SPLINESEGS
 70
     8
  9
$ATTDIA
 70
     0
  9
$ATTREQ
 70
     1
  9
$HANDLING
 70
 22529
  9
$HANDSEED
  5
298
  9
$SURFTAB1
 70
     6
  9
$SURFTAB2
 70
     6
  9
$SURFTYPE
 70
     6
  9
$SURFU
 70
     6
  9
$SURFV
 70
     6
  9
$UCSNAME
  2

  9
$UCSORG
 10
0.0
 20
0.0
 30
0.0
  9
$UCSXDIR
 10
1.0
 20
0.0
 30
0.0
  9
$UCSYDIR
 10
0.0
 20
1.0
 30
0.0
  9
$PUCSNAME
  2

  9
$PUCSORG
 10
0.0
 20
0.0
 30
0.0
  9
$PUCSXDIR
 10
1.0
 20
0.0
 30
0.0
  9
$PUCSYDIR
 10
0.0
 20
1.0
 30
0.0
  9
$USERI1
 70
     0
  9
$USERI2
 70
     0
  9
$USERI3
 70
     0
  9
$USERI4
 70
     0
  9
$USERI5
 70
     0
  9
$USERR1
 40
0.0
  9
$USERR2
 40
0.0
  9
$USERR3
 40
0.0
  9
$USERR4
 40
0.0
  9
$USERR5
 40
0.0
  9
$WORLDVIEW
 70
     1
  9
$SHADEDGE
 70
     3
  9
$SHADEDIF
 70
    70
  9
$TILEMODE
 70
     1
  9
$MAXACTVP
 70
    15
  9
$PINSBASE
 10
0.0
 20
-3.941062727799726E+99
 30
0.0
  9
$PLIMCHECK
 70
     0
  9
$PEXTMIN
 10
1.000000000000000E+20
 20
1.000000000000000E+20
 30
1.000000000000000E+20
  9
$PEXTMAX
 10
-1.000000000000000E+20
 20
-1.000000000000000E+20
 30
-1.000000000000000E+20
  9
$PLIMMIN
 10
0.0
 20
0.0
  9
$PLIMMAX
 10
12.0
 20
9.0
  9
$UNITMODE
 70
     0
  9
$VISRETAIN
 70
     0
  9
$PLINEGEN
 70
     0
  9
$PSLTSCALE
 70
     1
  9
$TREEDEPTH
 70
  3020
  9
$PICKSTYLE
 70
     1
  9
$CMLSTYLE
  2
STANDARD
  9
$CMLJUST
 70
     0
  9
$CMLSCALE
 40
1.0
  9
$PROXYGRAPHICS
 70
     1
  9
$MEASUREMENT
 70
     0
  0
ENDSEC
  0
SECTION
  2
CLASSES
  0
CLASS
  1
ACDBDICTIONARYWDFLT
  2
AcDbDictionaryWithDefault
  3
AutoCAD 2000
 90
        0
280
     0
281
     0
  0
CLASS
  1
ACDBPLACEHOLDER
  2
AcDbPlaceHolder
  3
AutoCAD 2000
 90
        0
280
     0
281
     0
  0
CLASS
  1
LAYOUT
  2
AcDbLayout
  3
AutoCAD 2000
 90
        0
280
     0
281
     0
  0
CLASS
  1
DICTIONARYVAR
  2
AcDbDictionaryVar
  3
AutoCAD 2000
 90
        0
280
     0
281
     0
  0
CLASS
  1
LONG_TRANSACTION
  2
AcDbLongTransaction
  3
AutoCAD 2000
 90
        0
280
     0
281
     0
  0
CLASS
  1
LWPOLYLINE
  2
AcDbPolyline
  3
AutoCAD 2000
 90
        0
280
     0
281
     1
  0
CLASS
  1
HATCH
  2
AcDbHatch
  3
AutoCAD 2000
 90
        0
280
     0
281
     1
  0
CLASS
  1
XRECORD
  2
AcDbXrecord
  3
AutoCAD 2000
 90
        0
280
     0
281
     0
  0
CLASS
  1
LONG_TRANSACTION
  2
AcDbLongTransaction
  3
AutoCAD 2000
 90
        0
280
     0
281
     0
  0
CLASS
  1
LWPOLYLINE
  2
AcDbPolyline
  3
AutoCAD 2000
 90
        0
280
     0
281
     1
  0
CLASS
  1
HATCH
  2
AcDbHatch
  3
AutoCAD 2000
 90
        0
280
     0
281
     1
  0
CLASS
  1
XRECORD
  2
AcDbXrecord
  3
AutoCAD 2000
 90
        0
280
     0
281
     0
  0
CLASS
  1
LONG_TRANSACTION
  2
AcDbLongTransaction
  3
AutoCAD 2000
 90
        0
280
     0
281
     0
  0
CLASS
  1
LWPOLYLINE
  2
AcDbPolyline
  3
AutoCAD 2000
 90
        0
280
     0
281
     1
  0
CLASS
  1
HATCH
  2
AcDbHatch
  3
AutoCAD 2000
 90
        0
280
     0
281
     1
  0
CLASS
  1
XRECORD
  2
AcDbXrecord
  3
AutoCAD 2000
 90
        0
280
     0
281
     0
  0
CLASS
  1
LONG_TRANSACTION
  2
AcDbLongTransaction
  3
AutoCAD 2000
 90
        0
280
     0
281
     0
  0
CLASS
  1
LWPOLYLINE
  2
AcDbPolyline
  3
AutoCAD 2000
 90
        0
280
     0
281
     1
  0
CLASS
  1
HATCH
  2
AcDbHatch
  3
AutoCAD 2000
 90
        0
280
     0
281
     1
  0
CLASS
  1
XRECORD
  2
AcDbXrecord
  3
AutoCAD 2000
 90
        0
280
     0
281
     0
  0
CLASS
  1
LONG_TRANSACTION
  2
AcDbLongTransaction
  3
AutoCAD 2000
 90
        0
280
     0
281
     0
  0
CLASS
  1
LWPOLYLINE
  2
AcDbPolyline
  3
AutoCAD 2000
 90
        0
280
     0
281
     1
  0
CLASS
  1
HATCH
  2
AcDbHatch
  3
AutoCAD 2000
 90
        0
280
     0
281
     1
  0
CLASS
  1
XRECORD
  2
AcDbXrecord
  3
AutoCAD 2000
 90
        0
280
     0
281
     0
  0
ENDSEC
  0
SECTION
  2
TABLES
  0
TABLE
  2
VPORT
  5
8
330
0
100
AcDbSymbolTable
 70
     2
  0
VPORT
  5
275
330
8
100
AcDbSymbolTableRecord
100
AcDbViewportTableRecord
  2
*ACTIVE
 70
     0
 10
0.0
 20
0.0
 11
1.0
 21
1.0
 12
2.548571845089115
 22
-1.234258966738574
 13
0.0
 23
0.0
 14
0.5740882589684922
 24
0.5740882589684922
 15
0.5
 25
0.5
 16
0.0
 26
0.0
 36
1.0
 17
0.0
 27
0.0
 37
0.0
 40
8.249042104631499
 41
1.570528967254408
 42
50.0
 43
0.0
 44
0.0
 50
0.0
 51
0.0
 71
     0
 72
   100
 73
     1
 74
     0
 75
     0
 76
     0
 77
     0
 78
     0
  0
ENDTAB
  0
TABLE
  2
LTYPE
  5
5
330
0
100
AcDbSymbolTable
 70
     2
  0
LTYPE
  5
12
330
5
100
AcDbSymbolTableRecord
100
AcDbLinetypeTableRecord
  2
BYBLOCK
 70
     0
  3

 72
    65
 73
     0
 40
0.0
  0
LTYPE
  5
13
330
5
100
AcDbSymbolTableRecord
100
AcDbLinetypeTableRecord
  2
BYLAYER
 70
     0
  3

 72
    65
 73
     0
 40
0.0
  0
LTYPE
  5
14
330
5
100
AcDbSymbolTableRecord
100
AcDbLinetypeTableRecord
  2
CONTINUOUS
 70
     0
  3
Solid line
 72
    65
 73
     0
 40
0.0
  0
LTYPE
  5
B8
330
5
100
AcDbSymbolTableRecord
100
AcDbLinetypeTableRecord
  2
HIDDEN2
 70
     0
  3
_ _ _ _ _ _ _ _ _ _ _ _ _ _ _ _ _ _ _ _ _ _ _ _
 72
    65
 73
     2
 40
0.1875
 49
0.125
 74
     0
 49
-0.0625
 74
     0
  0
ENDTAB
  0
TABLE
  2
LAYER
  5
2
330
0
100
AcDbSymbolTable
 70
     5
  0
LAYER
  5
F
330
2
100
AcDbSymbolTableRecord
100
AcDbLayerTableRecord
  2
0
 70
     0
 62
     7
  6
CONTINUOUS
  0
LAYER
  5
B9
330
2
100
AcDbSymbolTableRecord
100
AcDbLayerTableRecord
  2
ADP2DETAIL
 70
     0
 62
     5
  6
CONTINUOUS
  0
LAYER
  5
BA
330
2
100
AcDbSymbolTableRecord
100
AcDbLayerTableRecord
  2
ADPDIM
 70
     0
 62
     3
  6
CONTINUOUS
  0
LAYER
  5
BC
330
2
100
AcDbSymbolTableRecord
100
AcDbLayerTableRecord
  2
ADP1DETAIL
 70
     0
 62
     7
  6
CONTINUOUS
  0
LAYER
  5
BE
330
2
100
AcDbSymbolTableRecord
100
AcDbLayerTableRecord
  2
DEFPOINTS
 70
     0
 62
     7
  6
CONTINUOUS
  0
ENDTAB
  0
TABLE
  2
STYLE
  5
3
330
0
100
AcDbSymbolTable
 70
     2
  0
STYLE
  5
10
330
3
100
AcDbSymbolTableRecord
100
AcDbTextStyleTableRecord
  2
STANDARD
 70
     0
 40
0.0
 41
1.0
 50
0.0
 71
     0
 42
0.2
  3
txt
  4

  0
STYLE
  5
131
330
3
100
AcDbSymbolTableRecord
100
AcDbTextStyleTableRecord
  2
ARIAL_WIDE
 70
     0
 40
0.0
 41
1.25
 50
0.0
 71
     0
 42
0.2
  3
ARIAL.TTF
  4

1001
ACAD
1000
Arial
1071
       34
  0
ENDTAB
  0
TABLE
  2
VIEW
  5
6
330
0
100
AcDbSymbolTable
 70
     0
  0
ENDTAB
  0
TABLE
  2
UCS
  5
7
330
0
100
AcDbSymbolTable
 70
     0
  0
ENDTAB
  0
TABLE
  2
APPID
  5
9
330
0
100
AcDbSymbolTable
 70
     1
  0
APPID
  5
11
330
9
100
AcDbSymbolTableRecord
100
AcDbRegAppTableRecord
  2
ACAD
 70
     0
  0
ENDTAB
  0
TABLE
  2
DIMSTYLE
  5
A
330
0
100
AcDbSymbolTable
 70
     1
  0
DIMSTYLE
105
125
330
A
100
AcDbSymbolTableRecord
100
AcDbDimStyleTableRecord
  2
STANDARD
 70
     0
  3

  4

  5

  6

  7

 40
1.0
 41
0.18
 42
0.0625
 43
0.38
 44
0.18
 45
0.0
 46
0.0
 47
0.0
 48
0.0
140
0.18
141
0.09
142
0.0
143
25.4
144
1.0
145
0.0
146
1.0
147
0.09
 71
     0
 72
     0
 73
     1
 74
     1
 75
     0
 76
     0
 77
     0
 78
     0
170
     0
171
     2
172
     0
173
     0
174
     0
175
     0
176
     0
177
     0
178
     0
270
     2
271
     4
272
     4
273
     2
274
     2
340
10
275
     0
280
     0
281
     0
282
     0
283
     1
284
     0
285
     0
286
     0
287
     3
288
     0
  0
ENDTAB
  0
TABLE
  2
BLOCK_RECORD
  5
1
330
0
100
AcDbSymbolTable
 70
     4
  0
BLOCK_RECORD
  5
18
102
{ACAD_XDICTIONARY
360
186
102
}
330
1
100
AcDbSymbolTableRecord
100
AcDbBlockTableRecord
  2
*MODEL_SPACE
  0
BLOCK_RECORD
  5
15
102
{ACAD_XDICTIONARY
360
184
102
}
330
1
100
AcDbSymbolTableRecord
100
AcDbBlockTableRecord
  2
*PAPER_SPACE
  0
BLOCK_RECORD
  5
94
330
1
100
AcDbSymbolTableRecord
100
AcDbBlockTableRecord
  2
*D0
  0
BLOCK_RECORD
  5
9A
330
1
100
AcDbSymbolTableRecord
100
AcDbBlockTableRecord
  2
*D1
  0
BLOCK_RECORD
  5
9D
330
1
100
AcDbSymbolTableRecord
100
AcDbBlockTableRecord
  2
*D2
  0
BLOCK_RECORD
  5
A4
330
1
100
AcDbSymbolTableRecord
100
AcDbBlockTableRecord
  2
*D3
  0
ENDTAB
  0
ENDSEC
  0
SECTION
  2
BLOCKS
  0
BLOCK
  5
C1
330
18
100
AcDbEntity
  8
0
100
AcDbBlockBegin
  2
*MODEL_SPACE
 70
     0
 10
0.0
 20
0.0
 30
0.0
  3
*MODEL_SPACE
  1

  0
ENDBLK
  5
C2
330
18
100
AcDbEntity
  8
0
100
AcDbBlockEnd
  0
BLOCK
  5
BF
330
15
100
AcDbEntity
 67
     1
  8
0
100
AcDbBlockBegin
  2
*PAPER_SPACE
 70
     0
 10
0.0
 20
0.0
 30
0.0
  3
*PAPER_SPACE
  1

  0
ENDBLK
  5
C0
330
15
100
AcDbEntity
 67
     1
  8
0
100
AcDbBlockEnd
  0
BLOCK
  5
C4
330
94
100
AcDbEntity
  8
0
100
AcDbBlockBegin
  2
*D0
 70
     1
 10
0.0
 20
0.0
 30
0.0
  3
*D0
  1

  0
LINE
  5
C5
330
94
100
AcDbEntity
  8
0
  6
BYBLOCK
 62
     0
100
AcDbLine
 10
0.5386473904653608
 20
1.897606761769263
 30
0.0
 11
0.5386473904653608
 21
2.250222171849084
 31
0.0
  0
LINE
  5
C6
330
94
100
AcDbEntity
  8
0
  6
BYBLOCK
 62
     0
100
AcDbLine
 10
4.538647390465359
 20
1.897606761769259
 30
0.0
 11
4.538647390465359
 21
2.250222171849084
 31
0.0
  0
LINE
  5
C7
330
94
100
AcDbEntity
  8
0
  6
BYBLOCK
 62
     0
100
AcDbLine
 10
0.5386473904653608
 20
2.070222171849084
 30
0.0
 11
2.371980723798693
 21
2.070222171849084
 31
0.0
  0
LINE
  5
C8
330
94
100
AcDbEntity
  8
0
  6
BYBLOCK
 62
     0
100
AcDbLine
 10
4.538647390465359
 20
2.070222171849084
 30
0.0
 11
2.705314057132026
 21
2.070222171849084
 31
0.0
  0
LINE
  5
C9
330
94
100
AcDbEntity
  8
0
  6
BYBLOCK
 62
     0
100
AcDbLine
 10
0.4136473904653608
 20
1.945222171849084
 30
0.0
 11
0.6636473904653608
 21
2.195222171849084
 31
0.0
  0
LINE
  5
CA
330
94
100
AcDbEntity
  8
0
  6
BYBLOCK
 62
     0
100
AcDbLine
 10
4.413647390465359
 20
1.945222171849084
 30
0.0
 11
4.663647390465359
 21
2.195222171849084
 31
0.0
  0
TEXT
  5
CB
330
94
100
AcDbEntity
  8
0
  6
BYBLOCK
 62
     0
100
AcDbText
 10
2.496980723798693
 20
2.007722171849084
 30
0.0
 40
0.125
  1
4
 72
     1
 11
2.53864739046536
 21
2.070222171849084
 31
0.0
100
AcDbText
 73
     2
  0
POINT
  5
CC
330
94
100
AcDbEntity
  8
DEFPOINTS
  6
BYBLOCK
 62
     0
100
AcDbPoint
 10
0.5386473904653608
 20
1.835106761769263
 30
0.0
  0
POINT
  5
CD
330
94
100
AcDbEntity
  8
DEFPOINTS
  6
BYBLOCK
 62
     0
100
AcDbPoint
 10
4.538647390465359
 20
1.835106761769259
 30
0.0
  0
POINT
  5
CE
330
94
100
AcDbEntity
  8
DEFPOINTS
  6
BYBLOCK
 62
     0
100
AcDbPoint
 10
4.538647390465359
 20
2.070222171849084
 30
0.0
  0
ENDBLK
  5
CF
330
94
100
AcDbEntity
  8
0
100
AcDbBlockEnd
  0
BLOCK
  5
D0
330
9A
100
AcDbEntity
  8
0
100
AcDbBlockBegin
  2
*D1
 70
     1
 10
0.0
 20
0.0
 30
0.0
  3
*D1
  1

  0
LINE
  5
D1
330
9A
100
AcDbEntity
  8
0
  6
BYBLOCK
 62
     0
100
AcDbLine
 10
4.551147390465359
 20
1.385106761769259
 30
0.0
 11
4.951042324840999
 21
1.385106761769259
 31
0.0
  0
LINE
  5
D2
330
9A
100
AcDbEntity
  8
0
  6
BYBLOCK
 62
     0
100
AcDbLine
 10
4.551147390465359
 20
-1.614893238230738
 30
0.0
 11
4.951042324840999
 21
-1.614893238230738
 31
0.0
  0
LINE
  5
D3
330
9A
100
AcDbEntity
  8
0
  6
BYBLOCK
 62
     0
100
AcDbLine
 10
4.771042324840999
 20
1.385106761769259
 30
0.0
 11
4.771042324840999
 21
0.051773428435927
 31
0.0
  0
LINE
  5
D4
330
9A
100
AcDbEntity
  8
0
  6
BYBLOCK
 62
     0
100
AcDbLine
 10
4.771042324840999
 20
-1.614893238230738
 30
0.0
 11
4.771042324840999
 21
-0.2815599048974063
 31
0.0
  0
LINE
  5
D5
330
9A
100
AcDbEntity
  8
0
  6
BYBLOCK
 62
     0
100
AcDbLine
 10
4.896042324840999
 20
1.260106761769259
 30
0.0
 11
4.646042324840999
 21
1.510106761769259
 31
0.0
  0
LINE
  5
D6
330
9A
100
AcDbEntity
  8
0
  6
BYBLOCK
 62
     0
100
AcDbLine
 10
4.896042324840999
 20
-1.739893238230738
 30
0.0
 11
4.646042324840999
 21
-1.489893238230738
 31
0.0
  0
TEXT
  5
D7
330
9A
100
AcDbEntity
  8
0
  6
BYBLOCK
 62
     0
100
AcDbText
 10
4.833542324840999
 20
-0.1565599048974063
 30
0.0
 40
0.125
  1
3
 50
90.0
 72
     1
 11
4.771042324840999
 21
-0.1148932382307397
 31
0.0
100
AcDbText
 73
     2
  0
POINT
  5
D8
330
9A
100
AcDbEntity
  8
DEFPOINTS
  6
BYBLOCK
 62
     0
100
AcDbPoint
 10
4.488647390465359
 20
1.385106761769259
 30
0.0
  0
POINT
  5
D9
330
9A
100
AcDbEntity
  8
DEFPOINTS
  6
BYBLOCK
 62
     0
100
AcDbPoint
 10
4.488647390465359
 20
-1.614893238230738
 30
0.0
  0
POINT
  5
DA
330
9A
100
AcDbEntity
  8
DEFPOINTS
  6
BYBLOCK
 62
     0
100
AcDbPoint
 10
4.771042324840999
 20
-1.614893238230738
 30
0.0
  0
ENDBLK
  5
DB
330
9A
100
AcDbEntity
  8
0
100
AcDbBlockEnd
  0
BLOCK
  5
DC
330
9D
100
AcDbEntity
  8
0
100
AcDbBlockBegin
  2
*D2
 70
     1
 10
0.0
 20
0.0
 30
0.0
  3
*D2
  1

  0
LINE
  5
DD
330
9D
100
AcDbEntity
  8
0
  6
BYBLOCK
 62
     0
100
AcDbLine
 10
-4.827943422320692
 20
-3.338900201332292
 30
0.0
 11
-5.112675362670276
 21
-3.338900201332292
 31
0.0
  0
LINE
  5
DE
330
9D
100
AcDbEntity
  8
0
  6
BYBLOCK
 62
     0
100
AcDbLine
 10
-4.765443422320692
 20
-3.088900201332292
 30
0.0
 11
-5.112675362670276
 21
-3.088900201332292
 31
0.0
  0
LINE
  5
DF
330
9D
100
AcDbEntity
  8
0
  6
BYBLOCK
 62
     0
100
AcDbLine
 10
-4.932675362670276
 20
-3.338900201332292
 30
0.0
 11
-4.932675362670276
 21
-3.588900201332292
 31
0.0
  0
LINE
  5
E0
330
9D
100
AcDbEntity
  8
0
  6
BYBLOCK
 62
     0
100
AcDbLine
 10
-4.932675362670276
 20
-3.088900201332292
 30
0.0
 11
-4.932675362670276
 21
-2.838900201332292
 31
0.0
  0
LINE
  5
E1
330
9D
100
AcDbEntity
  8
0
  6
BYBLOCK
 62
     0
100
AcDbLine
 10
-4.807675362670276
 20
-3.463900201332292
 30
0.0
 11
-5.057675362670276
 21
-3.213900201332292
 31
0.0
  0
LINE
  5
E2
330
9D
100
AcDbEntity
  8
0
  6
BYBLOCK
 62
     0
100
AcDbLine
 10
-4.807675362670276
 20
-3.213900201332292
 30
0.0
 11
-5.057675362670276
 21
-2.963900201332292
 31
0.0
  0
TEXT
  5
E3
330
9D
100
AcDbEntity
  8
0
  6
BYBLOCK
 62
     0
100
AcDbText
 10
-4.870175362670276
 20
-2.713900201332292
 30
0.0
 40
0.125
  1
1/4
 50
90.0
 72
     1
 11
-4.932675362670276
 21
-2.568066867998959
 31
0.0
100
AcDbText
 73
     2
  0
POINT
  5
E4
330
9D
100
AcDbEntity
  8
DEFPOINTS
  6
BYBLOCK
 62
     0
100
AcDbPoint
 10
-4.765443422320692
 20
-3.338900201332292
 30
0.0
  0
POINT
  5
E5
330
9D
100
AcDbEntity
  8
DEFPOINTS
  6
BYBLOCK
 62
     0
100
AcDbPoint
 10
-4.702943422320692
 20
-3.088900201332292
 30
0.0
  0
POINT
  5
E6
330
9D
100
AcDbEntity
  8
DEFPOINTS
  6
BYBLOCK
 62
     0
100
AcDbPoint
 10
-4.932675362670276
 20
-3.088900201332292
 30
0.0
  0
ENDBLK
  5
E7
330
9D
100
AcDbEntity
  8
0
100
AcDbBlockEnd
  0
BLOCK
  5
E8
330
A4
100
AcDbEntity
  8
0
100
AcDbBlockBegin
  2
*D3
 70
     1
 10
0.0
 20
0.0
 30
0.0
  3
*D3
  1

  0
LINE
  5
E9
330
A4
100
AcDbEntity
  8
0
  6
BYBLOCK
 62
     0
100
AcDbLine
 10
3.668532816735501
 20
-2.105498979421147
 30
0.0
 11
4.949886202476196
 21
-2.105498979421147
 31
0.0
  0
LINE
  5
EA
330
A4
100
AcDbEntity
  8
0
  6
BYBLOCK
 62
     0
100
AcDbLine
 10
4.599615525328057
 20
-2.855498979421147
 30
0.0
 11
4.949886202476196
 21
-2.855498979421147
 31
0.0
  0
LINE
  5
EB
330
A4
100
AcDbEntity
  8
0
  6
BYBLOCK
 62
     0
100
AcDbLine
 10
4.769886202476196
 20
-2.105498979421147
 30
0.0
 11
4.769886202476196
 21
-1.855498979421147
 31
0.0
  0
LINE
  5
EC
330
A4
100
AcDbEntity
  8
0
  6
BYBLOCK
 62
     0
100
AcDbLine
 10
4.769886202476196
 20
-2.855498979421147
 30
0.0
 11
4.769886202476196
 21
-3.105498979421147
 31
0.0
  0
LINE
  5
ED
330
A4
100
AcDbEntity
  8
0
  6
BYBLOCK
 62
     0
100
AcDbLine
 10
4.894886202476196
 20
-2.230498979421147
 30
0.0
 11
4.644886202476196
 21
-1.980498979421147
 31
0.0
  0
LINE
  5
EE
330
A4
100
AcDbEntity
  8
0
  6
BYBLOCK
 62
     0
100
AcDbLine
 10
4.894886202476196
 20
-2.980498979421147
 30
0.0
 11
4.644886202476196
 21
-2.730498979421147
 31
0.0
  0
TEXT
  5
EF
330
A4
100
AcDbEntity
  8
0
  6
BYBLOCK
 62
     0
100
AcDbText
 10
4.832386202476196
 20
-3.56383231275448
 30
0.0
 40
0.125
  1
3/4
 50
90.0
 72
     1
 11
4.769886202476196
 21
-3.397165646087813
 31
0.0
100
AcDbText
 73
     2
  0
POINT
  5
F0
330
A4
100
AcDbEntity
  8
DEFPOINTS
  6
BYBLOCK
 62
     0
100
AcDbPoint
 10
3.606032816735501
 20
-2.105498979421147
 30
0.0
  0
POINT
  5
F1
330
A4
100
AcDbEntity
  8
DEFPOINTS
  6
BYBLOCK
 62
     0
100
AcDbPoint
 10
4.537115525328057
 20
-2.855498979421147
 30
0.0
  0
POINT
  5
F2
330
A4
100
AcDbEntity
  8
DEFPOINTS
  6
BYBLOCK
 62
     0
100
AcDbPoint
 10
4.769886202476196
 20
-2.855498979421147
 30
0.0
  0
ENDBLK
  5
F3
330
A4
100
AcDbEntity
  8
0
100
AcDbBlockEnd
  0
ENDSEC
  0
SECTION
  2
ENTITIES
  0
LINE
  5
F4
330
18
100
AcDbEntity
  8
ADP1DETAIL
100
AcDbLine
 10
3.606032816735501
 20
-2.105498979421147
 30
0.0
 11
1.379530851971566
 21
-2.105498979421147
 31
0.0
  0
LINE
  5
F5
330
18
100
AcDbEntity
  8
ADP1DETAIL
100
AcDbLine
 10
4.474615525328057
 20
-2.605498979421147
 30
0.0
 11
0.6011473904653597
 21
-2.605498979421147
 31
0.0
  0
LINE
  5
F6
330
18
100
AcDbEntity
  8
ADP1DETAIL
100
AcDbLine
 10
4.537115525328057
 20
-2.855498979421147
 30
0.0
 11
0.5386473904653597
 21
-2.855498979421147
 31
0.0
  0
LINE
  5
F7
330
18
100
AcDbEntity
  8
ADP1DETAIL
100
AcDbLine
 10
4.426147390465359
 20
-1.552393238230738
 30
0.0
 11
0.6511473904653595
 21
-1.552393238230738
 31
0.0
  0
LINE
  5
F8
330
18
100
AcDbEntity
  8
ADP1DETAIL
100
AcDbLine
 10
0.6511473904653609
 20
1.322606761769263
 30
0.0
 11
4.426147390465359
 21
1.322606761769259
 31
0.0
  0
LINE
  5
F9
330
18
100
AcDbEntity
  8
ADP1DETAIL
100
AcDbLine
 10
0.588647390465361
 20
1.385106761769263
 30
0.0
 11
4.488647390465359
 21
1.385106761769259
 31
0.0
  0
DIMENSION
  5
FA
330
18
100
AcDbEntity
  8
ADPDIM
100
AcDbDimension
  2
*D0
 10
4.538647390465359
 20
1.570222171849084
 30
0.0
 11
2.53864739046536
 21
2.070222171849084
 31
0.0
 12
0.0
 22
-0.5
 32
0.0
100
AcDbAlignedDimension
 13
0.5386473904653608
 23
1.335106761769263
 33
0.0
 14
4.538647390465359
 24
1.335106761769259
 34
0.0
100
AcDbRotatedDimension
  0
LINE
  5
FB
330
18
100
AcDbEntity
  8
ADP1DETAIL
100
AcDbLine
 10
1.43239739046536
 20
0.7288567617692627
 30
0.0
 11
3.64489739046536
 21
0.7288567617692604
 31
0.0
  0
LINE
  5
FC
330
18
100
AcDbEntity
  8
ADP1DETAIL
100
AcDbLine
 10
1.52614739046536
 20
0.6351067617692627
 30
0.0
 11
3.55114739046536
 21
0.6351067617692605
 31
0.0
  0
LINE
  5
FD
330
18
100
AcDbEntity
  8
ADP1DETAIL
100
AcDbLine
 10
3.64489739046536
 20
-0.9586432382307386
 30
0.0
 11
1.432397390465359
 21
-0.9586432382307386
 31
0.0
  0
LINE
  5
FE
330
18
100
AcDbEntity
  8
ADP1DETAIL
100
AcDbLine
 10
3.551147390465359
 20
-0.8648932382307386
 30
0.0
 11
1.526147390465359
 21
-0.8648932382307386
 31
0.0
  0
LINE
  5
FF
330
18
100
AcDbEntity
  8
ADP1DETAIL
100
AcDbLine
 10
4.488647390465359
 20
-1.614893238230738
 30
0.0
 11
0.5886473904653595
 21
-1.614893238230738
 31
0.0
  0
LINE
  5
100
330
18
100
AcDbEntity
  8
ADP1DETAIL
100
AcDbLine
 10
1.72614739046536
 20
0.3851067617692623
 30
0.0
 11
3.351147390465359
 21
0.3851067617692605
 31
0.0
  0
LINE
  5
101
330
18
100
AcDbEntity
  8
ADP1DETAIL
100
AcDbLine
 10
3.351147390465359
 20
-0.6148932382307386
 30
0.0
 11
1.726147390465359
 21
-0.6148932382307386
 31
0.0
  0
LINE
  5
102
330
18
100
AcDbEntity
  8
ADP1DETAIL
100
AcDbLine
 10
0.6011473904653594
 20
-1.502393238230738
 30
0.0
 11
0.6011473904653608
 21
1.272606761769263
 31
0.0
  0
LINE
  5
103
330
18
100
AcDbEntity
  8
ADP1DETAIL
100
AcDbLine
 10
0.5386473904653594
 20
-1.564893238230738
 30
0.0
 11
0.538647390465361
 21
1.335106761769263
 31
0.0
  0
DIMENSION
  5
104
330
18
100
AcDbEntity
  8
ADPDIM
100
AcDbDimension
  2
*D2
 10
0.3714154501157756
 20
-2.605498979421147
 30
0.0
 11
0.3714154501157756
 21
-2.084665646087813
 31
0.0
 12
5.304090812786052
 22
0.4834012219111457
 32
0.0
100
AcDbAlignedDimension
 13
0.5386473904653597
 23
-2.855498979421147
 33
0.0
 14
0.6011473904653597
 24
-2.605498979421147
 34
0.0
 50
90.0
100
AcDbRotatedDimension
  0
LINE
  5
105
330
18
100
AcDbEntity
  8
ADP1DETAIL
100
AcDbLine
 10
0.5386473904653597
 20
-2.855498979421147
 30
0.0
 11
0.6011473904653597
 21
-2.605498979421147
 31
0.0
  0
ARC
  5
106
330
18
100
AcDbEntity
  8
ADP1DETAIL
100
AcDbCircle
 10
0.6511473904653595
 20
-1.502393238230738
 30
0.0
 40
0.05
100
AcDbArc
 50
179.9999999999999
 51
270.0
  0
ARC
  5
107
330
18
100
AcDbEntity
  8
ADP1DETAIL
100
AcDbCircle
 10
0.5886473904653595
 20
-1.564893238230738
 30
0.0
 40
0.05
100
AcDbArc
 50
179.9999999999999
 51
270.0
  0
LINE
  5
108
330
18
100
AcDbEntity
  8
ADP1DETAIL
100
AcDbLine
 10
1.261967807370219
 20
-2.605498979421147
 30
0.0
 11
1.379530851971566
 21
-2.105498979421147
 31
0.0
  0
LINE
  5
109
330
18
100
AcDbEntity
  8
ADP2DETAIL
  6
HIDDEN2
100
AcDbLine
 10
1.723626787408749
 20
-2.105498979421147
 30
0.0
 11
1.723626787408748
 21
-2.855498979421147
 31
0.0
  0
LINE
  5
10A
330
18
100
AcDbEntity
  8
ADP1DETAIL
100
AcDbLine
 10
1.476147390465359
 20
-0.8148932382307386
 30
0.0
 11
1.47614739046536
 21
0.5851067617692626
 31
0.0
  0
LINE
  5
10B
330
18
100
AcDbEntity
  8
ADP1DETAIL
100
AcDbLine
 10
1.382397390465359
 20
-0.9086432382307386
 30
0.0
 11
1.38239739046536
 21
0.6788567617692626
 31
0.0
  0
LINE
  5
10C
330
18
100
AcDbEntity
  8
ADP1DETAIL
100
AcDbLine
 10
1.726147390465359
 20
-0.6148932382307386
 30
0.0
 11
1.72614739046536
 21
0.3851067617692623
 31
0.0
  0
ARC
  5
10D
330
18
100
AcDbEntity
  8
ADP1DETAIL
100
AcDbCircle
 10
1.526147390465359
 20
-0.8148932382307386
 30
0.0
 40
0.05
100
AcDbArc
 50
179.9999999999999
 51
270.0
  0
ARC
  5
10E
330
18
100
AcDbEntity
  8
ADP1DETAIL
100
AcDbCircle
 10
1.432397390465359
 20
-0.9086432382307386
 30
0.0
 40
0.05
100
AcDbArc
 50
179.9999999999999
 51
270.0
  0
ARC
  5
10F
330
18
100
AcDbEntity
  8
ADP1DETAIL
100
AcDbCircle
 10
1.52614739046536
 20
0.5851067617692626
 30
0.0
 40
0.05
100
AcDbArc
 50
89.99999999999992
 51
179.9999999999999
  0
ARC
  5
110
330
18
100
AcDbEntity
  8
ADP1DETAIL
100
AcDbCircle
 10
1.43239739046536
 20
0.6788567617692626
 30
0.0
 40
0.05
100
AcDbArc
 50
89.99999999999992
 51
179.9999999999999
  0
ARC
  5
111
330
18
100
AcDbEntity
  8
ADP1DETAIL
100
AcDbCircle
 10
0.6511473904653609
 20
1.272606761769263
 30
0.0
 40
0.05
100
AcDbArc
 50
89.99999999999992
 51
179.9999999999999
  0
ARC
  5
112
330
18
100
AcDbEntity
  8
ADP1DETAIL
100
AcDbCircle
 10
0.588647390465361
 20
1.335106761769263
 30
0.0
 40
0.05
100
AcDbArc
 50
89.99999999999992
 51
179.9999999999999
  0
LINE
  5
113
330
18
100
AcDbEntity
  8
ADP1DETAIL
100
AcDbLine
 10
4.476147390465359
 20
1.272606761769259
 30
0.0
 11
4.476147390465359
 21
-1.502393238230738
 31
0.0
  0
DIMENSION
  5
114
330
18
100
AcDbEntity
  8
ADPDIM
100
AcDbDimension
  2
*D1
 10
4.771042324840999
 20
-1.614893238230738
 30
0.0
 11
4.771042324840999
 21
-0.1148932382307397
 31
0.0
100
AcDbAlignedDimension
 13
4.488647390465359
 23
1.385106761769259
 33
0.0
 14
4.488647390465359
 24
-1.614893238230738
 34
0.0
 50
90.0
100
AcDbRotatedDimension
  0
LINE
  5
115
330
18
100
AcDbEntity
  8
ADP1DETAIL
100
AcDbLine
 10
4.538647390465359
 20
1.335106761769259
 30
0.0
 11
4.538647390465359
 21
-1.564893238230738
 31
0.0
  0
DIMENSION
  5
116
330
18
100
AcDbEntity
  8
ADPDIM
100
AcDbDimension
  2
*D3
 10
4.769886202476196
 20
-2.855498979421147
 30
0.0
 11
4.769886202476196
 21
-3.397165646087813
 31
0.0
100
AcDbAlignedDimension
 13
3.606032816735501
 23
-2.105498979421147
 33
0.0
 14
4.537115525328057
 24
-2.855498979421147
 34
0.0
 50
90.0
100
AcDbRotatedDimension
  0
LINE
  5
117
330
18
100
AcDbEntity
  8
ADP1DETAIL
100
AcDbLine
 10
3.723595861336848
 20
-2.605498979421147
 30
0.0
 11
3.606032816735501
 21
-2.105498979421147
 31
0.0
  0
LINE
  5
118
330
18
100
AcDbEntity
  8
ADP2DETAIL
  6
HIDDEN2
100
AcDbLine
 10
3.35302123644418
 20
-2.105498979421147
 30
0.0
 11
3.35302123644418
 21
-2.855498979421147
 31
0.0
  0
LINE
  5
119
330
18
100
AcDbEntity
  8
ADP1DETAIL
100
AcDbLine
 10
4.537115525328057
 20
-2.855498979421147
 30
0.0
 11
4.474615525328057
 21
-2.605498979421147
 31
0.0
  0
ARC
  5
11A
330
18
100
AcDbEntity
  8
ADP1DETAIL
100
AcDbCircle
 10
4.426147390465359
 20
-1.502393238230738
 30
0.0
 40
0.05
100
AcDbArc
 50
270.0
 51
0.0
  0
ARC
  5
11B
330
18
100
AcDbEntity
  8
ADP1DETAIL
100
AcDbCircle
 10
4.488647390465359
 20
-1.564893238230738
 30
0.0
 40
0.05
100
AcDbArc
 50
270.0
 51
0.0
  0
LINE
  5
11C
330
18
100
AcDbEntity
  8
ADP1DETAIL
100
AcDbLine
 10
3.69489739046536
 20
0.6788567617692603
 30
0.0
 11
3.69489739046536
 21
-0.9086432382307386
 31
0.0
  0
LINE
  5
11D
330
18
100
AcDbEntity
  8
ADP1DETAIL
100
AcDbLine
 10
3.60114739046536
 20
0.5851067617692604
 30
0.0
 11
3.601147390465359
 21
-0.8148932382307386
 31
0.0
  0
LINE
  5
11E
330
18
100
AcDbEntity
  8
ADP1DETAIL
100
AcDbLine
 10
3.351147390465359
 20
0.3851067617692605
 30
0.0
 11
3.351147390465359
 21
-0.6148932382307386
 31
0.0
  0
ARC
  5
11F
330
18
100
AcDbEntity
  8
ADP1DETAIL
100
AcDbCircle
 10
3.64489739046536
 20
-0.9086432382307386
 30
0.0
 40
0.05
100
AcDbArc
 50
270.0
 51
0.0
  0
ARC
  5
120
330
18
100
AcDbEntity
  8
ADP1DETAIL
100
AcDbCircle
 10
3.551147390465359
 20
-0.8148932382307386
 30
0.0
 40
0.05
100
AcDbArc
 50
270.0
 51
0.0
  0
ARC
  5
121
330
18
100
AcDbEntity
  8
ADP1DETAIL
100
AcDbCircle
 10
3.64489739046536
 20
0.6788567617692603
 30
0.0
 40
0.05
100
AcDbArc
 50
0.0
 51
89.99999999999994
  0
ARC
  5
122
330
18
100
AcDbEntity
  8
ADP1DETAIL
100
AcDbCircle
 10
3.55114739046536
 20
0.5851067617692604
 30
0.0
 40
0.05
100
AcDbArc
 50
0.0
 51
89.99999999999992
  0
ARC
  5
123
330
18
100
AcDbEntity
  8
ADP1DETAIL
100
AcDbCircle
 10
4.426147390465359
 20
1.272606761769259
 30
0.0
 40
0.05
100
AcDbArc
 50
0.0
 51
89.99999999999994
  0
ARC
  5
124
330
18
100
AcDbEntity
  8
ADP1DETAIL
100
AcDbCircle
 10
4.488647390465359
 20
1.335106761769259
 30
0.0
 40
0.05
100
AcDbArc
 50
0.0
 51
89.99999999999994
  0
TEXT
  5
132
330
18
100
AcDbEntity
  8
ADPDIM
100
AcDbText
 10
-3.896826079620344
 20
-4.182695014572817
 30
0.0
 40
0.125
  1
J U L I U S  B L U M  &  C O . ,  I N C .      ( 8 0 0 )  5 2 6 - 6 2 9 3        W W W . J U L I U S B L U M . C O M        P A R T  N o .  8 3 5
 41
1.25
  7
ARIAL_WIDE
 72
     1
 11
2.537881457896708
 21
-4.057695014572817
 31
0.0
100
AcDbText
 73
     3
  0
ENDSEC
  0
SECTION
  2
OBJECTS
  0
DICTIONARY
  5
C
330
0
100
AcDbDictionary
  3
ACAD_GROUP
350
D
  3
ACAD_LAYOUT
350
12B
  3
ACAD_MLINESTYLE
350
E
  3
ACAD_PLOTSETTINGS
350
12C
  3
ACAD_PLOTSTYLENAME
350
129
  3
ACDBHEADERROUNDTRIPXREC
350
276
  3
ACDBVARIABLEDICTIONARY
350
18C
  0
DICTIONARY
  5
186
330
18
100
AcDbDictionary
280
     1
  3
ACAD_LAYOUTSELFREF
360
297
  0
DICTIONARY
  5
184
330
15
100
AcDbDictionary
280
     1
  3
ACAD_LAYOUTSELFREF
360
296
  0
DICTIONARY
  5
D
102
{ACAD_REACTORS
330
C
102
}
330
C
100
AcDbDictionary
  0
DICTIONARY
  5
12B
102
{ACAD_REACTORS
330
C
102
}
330
C
100
AcDbDictionary
  0
DICTIONARY
  5
E
102
{ACAD_REACTORS
330
C
102
}
330
C
100
AcDbDictionary
  3
STANDARD
350
1B
  0
DICTIONARY
  5
12C
102
{ACAD_REACTORS
330
C
102
}
330
C
100
AcDbDictionary
  0
ACDBDICTIONARYWDFLT
  5
129
102
{ACAD_REACTORS
330
C
102
}
330
C
100
AcDbDictionary
281
     1
  3
Normal
350
12A
100
AcDbDictionaryWithDefault
340
12A
  0
DICTIONARY
  5
276
102
{ACAD_REACTORS
330
C
102
}
330
C
100
AcDbDictionary
  3
CEPSNTYPE
350
280
  3
FINGERPRINTGUID
350
281
  3
HYPERLINKBASE
350
279
  3
INSUNITS
350
27F
  3
LAYOUTDICT
350
27B
  3
LWETCUNION
350
27E
  3
PLOTSETDICT
350
27C
  3
PLOTSTYLNAMDICT
350
27D
  3
PSVPSCALE
350
283
  3
PUCSBASE
350
286
  3
PUCSORGBACK
350
28C
  3
PUCSORGBOTTOM
350
288
  3
PUCSORGFRONT
350
28B
  3
PUCSORGLEFT
350
289
  3
PUCSORGRIGHT
350
28A
  3
PUCSORGTOP
350
287
  3
PUCSORTHOREF
350
284
  3
PUCSORTHOVIEW
350
285
  3
STYLESHEET
350
27A
  3
TSTACKALIGN
350
277
  3
TSTACKSIZE
350
278
  3
UCSBASE
350
28F
  3
UCSORGBACK
350
295
  3
UCSORGBOTTOM
350
291
  3
UCSORGFRONT
350
294
  3
UCSORGLEFT
350
292
  3
UCSORGRIGHT
350
293
  3
UCSORGTOP
350
290
  3
UCSORTHOREF
350
28D
  3
UCSORTHOVIEW
350
28E
  3
VERSIONGUID
350
282
  0
DICTIONARY
  5
18C
102
{ACAD_REACTORS
330
C
102
}
330
C
100
AcDbDictionary
  3
DIMASSOC
350
18D
  0
XRECORD
  5
297
102
{ACAD_REACTORS
330
186
102
}
330
186
100
AcDbXrecord
340
18
  0
XRECORD
  5
296
102
{ACAD_REACTORS
330
184
102
}
330
184
100
AcDbXrecord
340
15
  0
MLINESTYLE
  5
1B
102
{ACAD_REACTORS
330
E
102
}
330
E
100
AcDbMlineStyle
  2
STANDARD
 70
     0
  3

 62
     0
 51
90.0
 52
90.0
 71
     2
 49
0.5
 62
   256
  6
BYLAYER
 49
-0.5
 62
   256
  6
BYLAYER
  0
ACDBPLACEHOLDER
  5
12A
102
{ACAD_REACTORS
330
129
102
}
330
129
100
AcDbPlaceHolder
280
     0
  0
XRECORD
  5
280
102
{ACAD_REACTORS
330
276
102
}
330
276
100
AcDbXrecord
 90
        0
  0
XRECORD
  5
281
102
{ACAD_REACTORS
330
276
102
}
330
276
100
AcDbXrecord
  1
{9BECD050-F812-46D4-97CA-15330BE95E41}
  0
XRECORD
  5
279
102
{ACAD_REACTORS
330
276
102
}
330
276
100
AcDbXrecord
  1

  0
XRECORD
  5
27F
102
{ACAD_REACTORS
330
276
102
}
330
276
100
AcDbXrecord
 90
        0
  0
XRECORD
  5
27B
102
{ACAD_REACTORS
330
276
102
}
330
276
100
AcDbXrecord
340
12B
  0
XRECORD
  5
27E
102
{ACAD_REACTORS
330
276
102
}
330
276
100
AcDbXrecord
 90
    14877
  0
XRECORD
  5
27C
102
{ACAD_REACTORS
330
276
102
}
330
276
100
AcDbXrecord
340
12C
  0
XRECORD
  5
27D
102
{ACAD_REACTORS
330
276
102
}
330
276
100
AcDbXrecord
340
129
  0
XRECORD
  5
283
102
{ACAD_REACTORS
330
276
102
}
330
276
100
AcDbXrecord
 40
0.0
  0
XRECORD
  5
286
102
{ACAD_REACTORS
330
276
102
}
330
276
100
AcDbXrecord
340
0
  0
XRECORD
  5
28C
102
{ACAD_REACTORS
330
276
102
}
330
276
100
AcDbXrecord
 10
0.0
 20
0.0
 30
0.0
  0
XRECORD
  5
288
102
{ACAD_REACTORS
330
276
102
}
330
276
100
AcDbXrecord
 10
0.0
 20
0.0
 30
0.0
  0
XRECORD
  5
28B
102
{ACAD_REACTORS
330
276
102
}
330
276
100
AcDbXrecord
 10
0.0
 20
0.0
 30
0.0
  0
XRECORD
  5
289
102
{ACAD_REACTORS
330
276
102
}
330
276
100
AcDbXrecord
 10
0.0
 20
0.0
 30
0.0
  0
XRECORD
  5
28A
102
{ACAD_REACTORS
330
276
102
}
330
276
100
AcDbXrecord
 10
0.0
 20
0.0
 30
0.0
  0
XRECORD
  5
287
102
{ACAD_REACTORS
330
276
102
}
330
276
100
AcDbXrecord
 10
0.0
 20
0.0
 30
0.0
  0
XRECORD
  5
284
102
{ACAD_REACTORS
330
276
102
}
330
276
100
AcDbXrecord
340
0
  0
XRECORD
  5
285
102
{ACAD_REACTORS
330
276
102
}
330
276
100
AcDbXrecord
 70
     0
  0
XRECORD
  5
27A
102
{ACAD_REACTORS
330
276
102
}
330
276
100
AcDbXrecord
  1

  0
XRECORD
  5
277
102
{ACAD_REACTORS
330
276
102
}
330
276
100
AcDbXrecord
 90
        1
  0
XRECORD
  5
278
102
{ACAD_REACTORS
330
276
102
}
330
276
100
AcDbXrecord
 90
       70
  0
XRECORD
  5
28F
102
{ACAD_REACTORS
330
276
102
}
330
276
100
AcDbXrecord
340
0
  0
XRECORD
  5
295
102
{ACAD_REACTORS
330
276
102
}
330
276
100
AcDbXrecord
 10
0.0
 20
0.0
 30
0.0
  0
XRECORD
  5
291
102
{ACAD_REACTORS
330
276
102
}
330
276
100
AcDbXrecord
 10
0.0
 20
0.0
 30
0.0
  0
XRECORD
  5
294
102
{ACAD_REACTORS
330
276
102
}
330
276
100
AcDbXrecord
 10
0.0
 20
0.0
 30
0.0
  0
XRECORD
  5
292
102
{ACAD_REACTORS
330
276
102
}
330
276
100
AcDbXrecord
 10
0.0
 20
0.0
 30
0.0
  0
XRECORD
  5
293
102
{ACAD_REACTORS
330
276
102
}
330
276
100
AcDbXrecord
 10
0.0
 20
0.0
 30
0.0
  0
XRECORD
  5
290
102
{ACAD_REACTORS
330
276
102
}
330
276
100
AcDbXrecord
 10
0.0
 20
0.0
 30
0.0
  0
XRECORD
  5
28D
102
{ACAD_REACTORS
330
276
102
}
330
276
100
AcDbXrecord
340
0
  0
XRECORD
  5
28E
102
{ACAD_REACTORS
330
276
102
}
330
276
100
AcDbXrecord
 70
     0
  0
XRECORD
  5
282
102
{ACAD_REACTORS
330
276
102
}
330
276
100
AcDbXrecord
  1
{908DEA80-6B82-4729-AF15-139CA624D564}
  0
DICTIONARYVAR
  5
18D
102
{ACAD_REACTORS
330
18C
102
}
330
18C
100
DictionaryVariables
280
     0
  1
1
  0
ENDSEC
  0
EOF
