  0
SECTION
  2
HEADER
  9
$ACADVER
  1
AC1014
  9
$ACADMAINTVER
 70
     9
  9
$DWGCODEPAGE
  3
ANSI_1252
  9
$INSBASE
 10
6.098727579577285
 20
-0.5638310982468767
 30
0.0
  9
$EXTMIN
 10
2.070196926439495
 20
-2.985437557575997
 30
0.0
  9
$EXTMAX
 10
11.72225823271507
 20
1.11921116474678
 30
0.0
  9
$LIMMIN
 10
0.0
 20
0.0
  9
$LIMMAX
 10
36.0
 20
36.0
  9
$ORTHOMODE
 70
     1
  9
$REGENMODE
 70
     1
  9
$FILLMODE
 70
     1
  9
$QTEXTMODE
 70
     0
  9
$MIRRTEXT
 70
     1
  9
$DRAGMODE
 70
     0
  9
$LTSCALE
 40
1.0
  9
$OSMODE
 70
    37
  9
$ATTMODE
 70
     1
  9
$TEXTSIZE
 40
0.2
  9
$TRACEWID
 40
0.05
  9
$TEXTSTYLE
  7
STANDARD
  9
$CLAYER
  8
ADPDIM
  9
$CELTYPE
  6
BYLAYER
  9
$CECOLOR
 62
   256
  9
$CELTSCALE
 40
1.0
  9
$DELOBJ
 70
     1
  9
$DISPSILH
 70
     0
  9
$DIMSCALE
 40
1.0
  9
$DIMASZ
 40
0.125
  9
$DIMEXO
 40
0.0625
  9
$DIMDLI
 40
0.38
  9
$DIMRND
 40
0.0
  9
$DIMDLE
 40
0.0
  9
$DIMEXE
 40
0.18
  9
$DIMTP
 40
0.0
  9
$DIMTM
 40
0.0
  9
$DIMTXT
 40
0.125
  9
$DIMCEN
 40
0.1875
  9
$DIMTSZ
 40
0.125
  9
$DIMTOL
 70
     0
  9
$DIMLIM
 70
     0
  9
$DIMTIH
 70
     0
  9
$DIMTOH
 70
     0
  9
$DIMSE1
 70
     0
  9
$DIMSE2
 70
     0
  9
$DIMTAD
 70
     0
  9
$DIMZIN
 70
     3
  9
$DIMBLK
  1

  9
$DIMASO
 70
     1
  9
$DIMSHO
 70
     1
  9
$DIMPOST
  1

  9
$DIMAPOST
  1

  9
$DIMALT
 70
     0
  9
$DIMALTD
 70
     1
  9
$DIMALTF
 40
25.4
  9
$DIMLFAC
 40
1.0
  9
$DIMTOFL
 70
     0
  9
$DIMTVP
 40
0.0
  9
$DIMTIX
 70
     0
  9
$DIMSOXD
 70
     0
  9
$DIMSAH
 70
     0
  9
$DIMBLK1
  1

  9
$DIMBLK2
  1

  9
$DIMSTYLE
  2
STANDARD
  9
$DIMCLRD
 70
     0
  9
$DIMCLRE
 70
     0
  9
$DIMCLRT
 70
     0
  9
$DIMTFAC
 40
1.0
  9
$DIMGAP
 40
0.125
  9
$DIMJUST
 70
     0
  9
$DIMSD1
 70
     0
  9
$DIMSD2
 70
     0
  9
$DIMTOLJ
 70
     1
  9
$DIMTZIN
 70
     0
  9
$DIMALTZ
 70
     0
  9
$DIMALTTZ
 70
     0
  9
$DIMFIT
 70
     3
  9
$DIMUPT
 70
     0
  9
$DIMUNIT
 70
     2
  9
$DIMDEC
 70
     4
  9
$DIMTDEC
 70
     4
  9
$DIMALTU
 70
     2
  9
$DIMALTTD
 70
     2
  9
$DIMTXSTY
  7
STANDARD
  9
$DIMAUNIT
 70
     0
  9
$LUNITS
 70
     5
  9
$LUPREC
 70
     4
  9
$SKETCHINC
 40
0.1
  9
$FILLETRAD
 40
0.015
  9
$AUNITS
 70
     0
  9
$AUPREC
 70
     0
  9
$MENU
  1
acad
  9
$ELEVATION
 40
0.0
  9
$PELEVATION
 40
0.0
  9
$THICKNESS
 40
0.0
  9
$LIMCHECK
 70
     0
  9
$BLIPMODE
 70
     0
  9
$CHAMFERA
 40
0.0
  9
$CHAMFERB
 40
0.0
  9
$CHAMFERC
 40
0.0
  9
$CHAMFERD
 40
0.0
  9
$SKPOLY
 70
     0
  9
$TDCREATE
 40
2450218.442542048
  9
$TDUPDATE
 40
2452297.076472974
  9
$TDINDWG
 40
0.0675190162
  9
$TDUSRTIMER
 40
0.0675190162
  9
$USRTIMER
 70
     1
  9
$ANGBASE
 50
0.0
  9
$ANGDIR
 70
     0
  9
$PDMODE
 70
     0
  9
$PDSIZE
 40
0.0
  9
$PLINEWID
 40
0.0
  9
$COORDS
 70
     2
  9
$SPLFRAME
 70
     0
  9
$SPLINETYPE
 70
     6
  9
$SPLINESEGS
 70
     8
  9
$ATTDIA
 70
     0
  9
$ATTREQ
 70
     1
  9
$HANDLING
 70
 22529
  9
$HANDSEED
  5
1FF
  9
$SURFTAB1
 70
     6
  9
$SURFTAB2
 70
     6
  9
$SURFTYPE
 70
     6
  9
$SURFU
 70
     6
  9
$SURFV
 70
     6
  9
$UCSNAME
  2

  9
$UCSORG
 10
0.0
 20
0.0
 30
0.0
  9
$UCSXDIR
 10
1.0
 20
0.0
 30
0.0
  9
$UCSYDIR
 10
0.0
 20
1.0
 30
0.0
  9
$PUCSNAME
  2

  9
$PUCSORG
 10
0.0
 20
0.0
 30
0.0
  9
$PUCSXDIR
 10
1.0
 20
0.0
 30
0.0
  9
$PUCSYDIR
 10
0.0
 20
1.0
 30
0.0
  9
$USERI1
 70
     0
  9
$USERI2
 70
     0
  9
$USERI3
 70
     0
  9
$USERI4
 70
     0
  9
$USERI5
 70
     0
  9
$USERR1
 40
0.0
  9
$USERR2
 40
0.0
  9
$USERR3
 40
0.0
  9
$USERR4
 40
0.0
  9
$USERR5
 40
0.0
  9
$WORLDVIEW
 70
     1
  9
$SHADEDGE
 70
     3
  9
$SHADEDIF
 70
    70
  9
$TILEMODE
 70
     1
  9
$MAXACTVP
 70
    15
  9
$PINSBASE
 10
0.0008545056916773
 20
1.250276130627782
 30
0.0
  9
$PLIMCHECK
 70
     0
  9
$PEXTMIN
 10
1.000000000000000E+20
 20
1.000000000000000E+20
 30
1.000000000000000E+20
  9
$PEXTMAX
 10
-1.000000000000000E+20
 20
-1.000000000000000E+20
 30
-1.000000000000000E+20
  9
$PLIMMIN
 10
0.0
 20
0.0
  9
$PLIMMAX
 10
12.0
 20
9.0
  9
$UNITMODE
 70
     0
  9
$VISRETAIN
 70
     0
  9
$PLINEGEN
 70
     0
  9
$PSLTSCALE
 70
     1
  9
$TREEDEPTH
 70
  3020
  9
$PICKSTYLE
 70
     1
  9
$CMLSTYLE
  2
STANDARD
  9
$CMLJUST
 70
     0
  9
$CMLSCALE
 40
1.0
  9
$PROXYGRAPHICS
 70
     1
  9
$MEASUREMENT
 70
     0
  0
ENDSEC
  0
SECTION
  2
CLASSES
  0
CLASS
  1
ACDBDICTIONARYWDFLT
  2
AcDbDictionaryWithDefault
  3
AutoCAD 2000
 90
        0
280
     0
281
     0
  0
CLASS
  1
ACDBPLACEHOLDER
  2
AcDbPlaceHolder
  3
AutoCAD 2000
 90
        0
280
     0
281
     0
  0
CLASS
  1
LAYOUT
  2
AcDbLayout
  3
AutoCAD 2000
 90
        0
280
     0
281
     0
  0
CLASS
  1
DICTIONARYVAR
  2
AcDbDictionaryVar
  3
AutoCAD 2000
 90
        0
280
     0
281
     0
  0
CLASS
  1
LONG_TRANSACTION
  2
AcDbLongTransaction
  3
AutoCAD 2000
 90
        0
280
     0
281
     0
  0
CLASS
  1
LWPOLYLINE
  2
AcDbPolyline
  3
AutoCAD 2000
 90
        0
280
     0
281
     1
  0
CLASS
  1
HATCH
  2
AcDbHatch
  3
AutoCAD 2000
 90
        0
280
     0
281
     1
  0
CLASS
  1
XRECORD
  2
AcDbXrecord
  3
AutoCAD 2000
 90
        0
280
     0
281
     0
  0
CLASS
  1
LONG_TRANSACTION
  2
AcDbLongTransaction
  3
AutoCAD 2000
 90
        0
280
     0
281
     0
  0
CLASS
  1
LWPOLYLINE
  2
AcDbPolyline
  3
AutoCAD 2000
 90
        0
280
     0
281
     1
  0
CLASS
  1
HATCH
  2
AcDbHatch
  3
AutoCAD 2000
 90
        0
280
     0
281
     1
  0
CLASS
  1
XRECORD
  2
AcDbXrecord
  3
AutoCAD 2000
 90
        0
280
     0
281
     0
  0
CLASS
  1
LONG_TRANSACTION
  2
AcDbLongTransaction
  3
AutoCAD 2000
 90
        0
280
     0
281
     0
  0
CLASS
  1
LWPOLYLINE
  2
AcDbPolyline
  3
AutoCAD 2000
 90
        0
280
     0
281
     1
  0
CLASS
  1
HATCH
  2
AcDbHatch
  3
AutoCAD 2000
 90
        0
280
     0
281
     1
  0
CLASS
  1
XRECORD
  2
AcDbXrecord
  3
AutoCAD 2000
 90
        0
280
     0
281
     0
  0
CLASS
  1
LONG_TRANSACTION
  2
AcDbLongTransaction
  3
AutoCAD 2000
 90
        0
280
     0
281
     0
  0
CLASS
  1
LWPOLYLINE
  2
AcDbPolyline
  3
AutoCAD 2000
 90
        0
280
     0
281
     1
  0
CLASS
  1
HATCH
  2
AcDbHatch
  3
AutoCAD 2000
 90
        0
280
     0
281
     1
  0
CLASS
  1
XRECORD
  2
AcDbXrecord
  3
AutoCAD 2000
 90
        0
280
     0
281
     0
  0
CLASS
  1
LONG_TRANSACTION
  2
AcDbLongTransaction
  3
AutoCAD 2000
 90
        0
280
     0
281
     0
  0
CLASS
  1
LWPOLYLINE
  2
AcDbPolyline
  3
AutoCAD 2000
 90
        0
280
     0
281
     1
  0
CLASS
  1
HATCH
  2
AcDbHatch
  3
AutoCAD 2000
 90
        0
280
     0
281
     1
  0
CLASS
  1
XRECORD
  2
AcDbXrecord
  3
AutoCAD 2000
 90
        0
280
     0
281
     0
  0
ENDSEC
  0
SECTION
  2
TABLES
  0
TABLE
  2
VPORT
  5
8
330
0
100
AcDbSymbolTable
 70
     2
  0
VPORT
  5
1DC
330
8
100
AcDbSymbolTableRecord
100
AcDbViewportTableRecord
  2
*ACTIVE
 70
     0
 10
0.0
 20
0.0
 11
1.0
 21
1.0
 12
6.904733939463233
 22
-0.9333164312632199
 13
0.0
 23
0.0
 14
0.5740882589684922
 24
0.5740882589684922
 15
0.5
 25
0.5
 16
0.0
 26
0.0
 36
1.0
 17
0.0
 27
0.0
 37
0.0
 40
6.186633538997264
 41
1.570528967254408
 42
50.0
 43
0.0
 44
0.0
 50
0.0
 51
0.0
 71
     0
 72
   100
 73
     1
 74
     0
 75
     0
 76
     0
 77
     0
 78
     0
  0
ENDTAB
  0
TABLE
  2
LTYPE
  5
5
330
0
100
AcDbSymbolTable
 70
     2
  0
LTYPE
  5
12
330
5
100
AcDbSymbolTableRecord
100
AcDbLinetypeTableRecord
  2
BYBLOCK
 70
     0
  3

 72
    65
 73
     0
 40
0.0
  0
LTYPE
  5
13
330
5
100
AcDbSymbolTableRecord
100
AcDbLinetypeTableRecord
  2
BYLAYER
 70
     0
  3

 72
    65
 73
     0
 40
0.0
  0
LTYPE
  5
14
330
5
100
AcDbSymbolTableRecord
100
AcDbLinetypeTableRecord
  2
CONTINUOUS
 70
     0
  3
Solid line
 72
    65
 73
     0
 40
0.0
  0
LTYPE
  5
25
330
5
100
AcDbSymbolTableRecord
100
AcDbLinetypeTableRecord
  2
HIDDEN2
 70
     0
  3
_ _ _ _ _ _ _ _ _ _ _ _ _ _ _ _ _ _ _ _ _ _ _ _
 72
    65
 73
     2
 40
0.1875
 49
0.125
 74
     0
 49
-0.0625
 74
     0
  0
ENDTAB
  0
TABLE
  2
LAYER
  5
2
330
0
100
AcDbSymbolTable
 70
     5
  0
LAYER
  5
F
330
2
100
AcDbSymbolTableRecord
100
AcDbLayerTableRecord
  2
0
 70
     0
 62
     7
  6
CONTINUOUS
  0
LAYER
  5
26
330
2
100
AcDbSymbolTableRecord
100
AcDbLayerTableRecord
  2
ADPDIM
 70
     0
 62
     3
  6
CONTINUOUS
  0
LAYER
  5
27
330
2
100
AcDbSymbolTableRecord
100
AcDbLayerTableRecord
  2
ADP1DETAIL
 70
     0
 62
     7
  6
CONTINUOUS
  0
LAYER
  5
28
330
2
100
AcDbSymbolTableRecord
100
AcDbLayerTableRecord
  2
DEFPOINTS
 70
     0
 62
     7
  6
CONTINUOUS
  0
LAYER
  5
29
330
2
100
AcDbSymbolTableRecord
100
AcDbLayerTableRecord
  2
ADP2DETAIL
 70
     0
 62
     5
  6
CONTINUOUS
  0
ENDTAB
  0
TABLE
  2
STYLE
  5
3
330
0
100
AcDbSymbolTable
 70
     2
  0
STYLE
  5
10
330
3
100
AcDbSymbolTableRecord
100
AcDbTextStyleTableRecord
  2
STANDARD
 70
     0
 40
0.0
 41
1.0
 50
0.0
 71
     0
 42
0.2
  3
txt
  4

  0
STYLE
  5
98
330
3
100
AcDbSymbolTableRecord
100
AcDbTextStyleTableRecord
  2
ARIAL_WIDE
 70
     0
 40
0.0
 41
1.25
 50
0.0
 71
     0
 42
0.2
  3
ARIAL.TTF
  4

1001
ACAD
1000
Arial
1071
       34
  0
ENDTAB
  0
TABLE
  2
VIEW
  5
6
330
0
100
AcDbSymbolTable
 70
     0
  0
ENDTAB
  0
TABLE
  2
UCS
  5
7
330
0
100
AcDbSymbolTable
 70
     0
  0
ENDTAB
  0
TABLE
  2
APPID
  5
9
330
0
100
AcDbSymbolTable
 70
     1
  0
APPID
  5
11
330
9
100
AcDbSymbolTableRecord
100
AcDbRegAppTableRecord
  2
ACAD
 70
     0
  0
ENDTAB
  0
TABLE
  2
DIMSTYLE
  5
A
330
0
100
AcDbSymbolTable
 70
     1
  0
DIMSTYLE
105
8C
330
A
100
AcDbSymbolTableRecord
100
AcDbDimStyleTableRecord
  2
STANDARD
 70
     0
  3

  4

  5

  6

  7

 40
1.0
 41
0.18
 42
0.0625
 43
0.38
 44
0.18
 45
0.0
 46
0.0
 47
0.0
 48
0.0
140
0.18
141
0.09
142
0.0
143
25.4
144
1.0
145
0.0
146
1.0
147
0.09
 71
     0
 72
     0
 73
     1
 74
     1
 75
     0
 76
     0
 77
     0
 78
     0
170
     0
171
     2
172
     0
173
     0
174
     0
175
     0
176
     0
177
     0
178
     0
270
     2
271
     4
272
     4
273
     2
274
     2
340
10
275
     0
280
     0
281
     0
282
     0
283
     1
284
     0
285
     0
286
     0
287
     3
288
     0
  0
ENDTAB
  0
TABLE
  2
BLOCK_RECORD
  5
1
330
0
100
AcDbSymbolTable
 70
     4
  0
BLOCK_RECORD
  5
18
102
{ACAD_XDICTIONARY
360
ED
102
}
330
1
100
AcDbSymbolTableRecord
100
AcDbBlockTableRecord
  2
*MODEL_SPACE
  0
BLOCK_RECORD
  5
15
102
{ACAD_XDICTIONARY
360
EB
102
}
330
1
100
AcDbSymbolTableRecord
100
AcDbBlockTableRecord
  2
*PAPER_SPACE
  0
BLOCK_RECORD
  5
21
330
1
100
AcDbSymbolTableRecord
100
AcDbBlockTableRecord
  2
*D0
  0
BLOCK_RECORD
  5
22
330
1
100
AcDbSymbolTableRecord
100
AcDbBlockTableRecord
  2
*D1
  0
BLOCK_RECORD
  5
23
330
1
100
AcDbSymbolTableRecord
100
AcDbBlockTableRecord
  2
*D2
  0
BLOCK_RECORD
  5
24
330
1
100
AcDbSymbolTableRecord
100
AcDbBlockTableRecord
  2
*D3
  0
ENDTAB
  0
ENDSEC
  0
SECTION
  2
BLOCKS
  0
BLOCK
  5
2C
330
18
100
AcDbEntity
  8
0
100
AcDbBlockBegin
  2
*MODEL_SPACE
 70
     0
 10
0.0
 20
0.0
 30
0.0
  3
*MODEL_SPACE
  1

  0
ENDBLK
  5
2D
330
18
100
AcDbEntity
  8
0
100
AcDbBlockEnd
  0
BLOCK
  5
2A
330
15
100
AcDbEntity
 67
     1
  8
0
100
AcDbBlockBegin
  2
*PAPER_SPACE
 70
     0
 10
0.0
 20
0.0
 30
0.0
  3
*PAPER_SPACE
  1

  0
ENDBLK
  5
2B
330
15
100
AcDbEntity
 67
     1
  8
0
100
AcDbBlockEnd
  0
BLOCK
  5
2F
330
21
100
AcDbEntity
  8
0
100
AcDbBlockBegin
  2
*D0
 70
     1
 10
0.0
 20
0.0
 30
0.0
  3
*D0
  1

  0
LINE
  5
30
330
21
100
AcDbEntity
  8
0
  6
BYBLOCK
 62
     0
100
AcDbLine
 10
6.083727579577287
 20
-0.0682888352532178
 30
0.0
 11
6.083727579577287
 21
-0.3663178550734039
 31
0.0
  0
LINE
  5
31
330
21
100
AcDbEntity
  8
0
  6
BYBLOCK
 62
     0
100
AcDbLine
 10
7.708727579577287
 20
-0.0682888352532196
 30
0.0
 11
7.708727579577287
 21
-0.3663178550734039
 31
0.0
  0
LINE
  5
32
330
21
100
AcDbEntity
  8
0
  6
BYBLOCK
 62
     0
100
AcDbLine
 10
6.083727579577287
 20
-0.1863178550734039
 30
0.0
 11
6.500394246243954
 21
-0.1863178550734039
 31
0.0
  0
LINE
  5
33
330
21
100
AcDbEntity
  8
0
  6
BYBLOCK
 62
     0
100
AcDbLine
 10
7.708727579577287
 20
-0.1863178550734039
 30
0.0
 11
7.29206091291062
 21
-0.1863178550734039
 31
0.0
  0
LINE
  5
34
330
21
100
AcDbEntity
  8
0
  6
BYBLOCK
 62
     0
100
AcDbLine
 10
5.958727579577287
 20
-0.3113178550734039
 30
0.0
 11
6.208727579577287
 21
-0.0613178550734039
 31
0.0
  0
LINE
  5
35
330
21
100
AcDbEntity
  8
0
  6
BYBLOCK
 62
     0
100
AcDbLine
 10
7.583727579577287
 20
-0.3113178550734039
 30
0.0
 11
7.833727579577287
 21
-0.0613178550734039
 31
0.0
  0
TEXT
  5
36
330
21
100
AcDbEntity
  8
0
  6
BYBLOCK
 62
     0
100
AcDbText
 10
6.625394246243954
 20
-0.2488178550734039
 30
0.0
 40
0.125
  1
1 5/8
 72
     1
 11
6.896227579577287
 21
-0.1863178550734039
 31
0.0
100
AcDbText
 73
     2
  0
POINT
  5
37
330
21
100
AcDbEntity
  8
DEFPOINTS
  6
BYBLOCK
 62
     0
100
AcDbPoint
 10
6.083727579577287
 20
-0.0057888352532178
 30
0.0
  0
POINT
  5
38
330
21
100
AcDbEntity
  8
DEFPOINTS
  6
BYBLOCK
 62
     0
100
AcDbPoint
 10
7.708727579577287
 20
-0.0057888352532196
 30
0.0
  0
POINT
  5
39
330
21
100
AcDbEntity
  8
DEFPOINTS
  6
BYBLOCK
 62
     0
100
AcDbPoint
 10
7.708727579577287
 20
-0.1863178550734039
 30
0.0
  0
ENDBLK
  5
3A
330
21
100
AcDbEntity
  8
0
100
AcDbBlockEnd
  0
BLOCK
  5
3B
330
22
100
AcDbEntity
  8
0
100
AcDbBlockBegin
  2
*D1
 70
     1
 10
0.0
 20
0.0
 30
0.0
  3
*D1
  1

  0
LINE
  5
3C
330
22
100
AcDbEntity
  8
0
  6
BYBLOCK
 62
     0
100
AcDbLine
 10
7.756227579577285
 20
-0.4388310982468768
 30
0.0
 11
8.079993295682559
 21
-0.4388310982468768
 31
0.0
  0
LINE
  5
3D
330
22
100
AcDbEntity
  8
0
  6
BYBLOCK
 62
     0
100
AcDbLine
 10
7.756227579577286
 20
-0.5638310982468767
 30
0.0
 11
8.079993295682559
 21
-0.5638310982468767
 31
0.0
  0
LINE
  5
3E
330
22
100
AcDbEntity
  8
0
  6
BYBLOCK
 62
     0
100
AcDbLine
 10
7.899993295682559
 20
-0.4388310982468768
 30
0.0
 11
7.899993295682559
 21
-0.1888310982468767
 31
0.0
  0
LINE
  5
3F
330
22
100
AcDbEntity
  8
0
  6
BYBLOCK
 62
     0
100
AcDbLine
 10
7.899993295682559
 20
-0.5638310982468767
 30
0.0
 11
7.899993295682559
 21
-0.8138310982468766
 31
0.0
  0
LINE
  5
40
330
22
100
AcDbEntity
  8
0
  6
BYBLOCK
 62
     0
100
AcDbLine
 10
8.024993295682559
 20
-0.5638310982468767
 30
0.0
 11
7.774993295682559
 21
-0.3138310982468767
 31
0.0
  0
LINE
  5
41
330
22
100
AcDbEntity
  8
0
  6
BYBLOCK
 62
     0
100
AcDbLine
 10
8.024993295682559
 20
-0.6888310982468767
 30
0.0
 11
7.774993295682559
 21
-0.4388310982468767
 31
0.0
  0
TEXT
  5
42
330
22
100
AcDbEntity
  8
0
  6
BYBLOCK
 62
     0
100
AcDbText
 10
7.962493295682559
 20
-1.230497764913543
 30
0.0
 40
0.125
  1
1/8
 50
90.0
 72
     1
 11
7.899993295682559
 21
-1.084664431580209
 31
0.0
100
AcDbText
 73
     2
  0
POINT
  5
43
330
22
100
AcDbEntity
  8
DEFPOINTS
  6
BYBLOCK
 62
     0
100
AcDbPoint
 10
7.693727579577285
 20
-0.4388310982468767
 30
0.0
  0
POINT
  5
44
330
22
100
AcDbEntity
  8
DEFPOINTS
  6
BYBLOCK
 62
     0
100
AcDbPoint
 10
7.693727579577286
 20
-0.5638310982468767
 30
0.0
  0
POINT
  5
45
330
22
100
AcDbEntity
  8
DEFPOINTS
  6
BYBLOCK
 62
     0
100
AcDbPoint
 10
7.899993295682559
 20
-0.5638310982468767
 30
0.0
  0
ENDBLK
  5
46
330
22
100
AcDbEntity
  8
0
100
AcDbBlockEnd
  0
BLOCK
  5
47
330
23
100
AcDbEntity
  8
0
100
AcDbBlockBegin
  2
*D2
 70
     1
 10
0.0
 20
0.0
 30
0.0
  3
*D2
  1

  0
LINE
  5
48
330
23
100
AcDbEntity
  8
0
  6
BYBLOCK
 62
     0
100
AcDbLine
 10
6.036227579577286
 20
-0.4388310982468767
 30
0.0
 11
5.719381644630948
 21
-0.4388310982468767
 31
0.0
  0
LINE
  5
49
330
23
100
AcDbEntity
  8
0
  6
BYBLOCK
 62
     0
100
AcDbLine
 10
6.240227579577285
 20
-1.688831098246876
 30
0.0
 11
5.719381644630948
 21
-1.688831098246876
 31
0.0
  0
LINE
  5
4A
330
23
100
AcDbEntity
  8
0
  6
BYBLOCK
 62
     0
100
AcDbLine
 10
5.899381644630947
 20
-0.4388310982468767
 30
0.0
 11
5.899381644630947
 21
-0.1888310982468766
 31
0.0
  0
LINE
  5
4B
330
23
100
AcDbEntity
  8
0
  6
BYBLOCK
 62
     0
100
AcDbLine
 10
5.899381644630947
 20
-1.688831098246876
 30
0.0
 11
5.899381644630947
 21
-1.938831098246876
 31
0.0
  0
LINE
  5
4C
330
23
100
AcDbEntity
  8
0
  6
BYBLOCK
 62
     0
100
AcDbLine
 10
6.024381644630947
 20
-0.5638310982468767
 30
0.0
 11
5.774381644630947
 21
-0.3138310982468766
 31
0.0
  0
LINE
  5
4D
330
23
100
AcDbEntity
  8
0
  6
BYBLOCK
 62
     0
100
AcDbLine
 10
6.024381644630947
 20
-1.813831098246876
 30
0.0
 11
5.774381644630947
 21
-1.563831098246876
 31
0.0
  0
TEXT
  5
4E
330
23
100
AcDbEntity
  8
0
  6
BYBLOCK
 62
     0
100
AcDbText
 10
5.961881644630947
 20
-2.563831098246876
 30
0.0
 40
0.125
  1
1 1/4
 50
90.0
 72
     1
 11
5.899381644630947
 21
-2.313831098246876
 31
0.0
100
AcDbText
 73
     2
  0
POINT
  5
4F
330
23
100
AcDbEntity
  8
DEFPOINTS
  6
BYBLOCK
 62
     0
100
AcDbPoint
 10
6.098727579577286
 20
-0.4388310982468767
 30
0.0
  0
POINT
  5
50
330
23
100
AcDbEntity
  8
DEFPOINTS
  6
BYBLOCK
 62
     0
100
AcDbPoint
 10
6.302727579577285
 20
-1.688831098246876
 30
0.0
  0
POINT
  5
51
330
23
100
AcDbEntity
  8
DEFPOINTS
  6
BYBLOCK
 62
     0
100
AcDbPoint
 10
5.899381644630947
 20
-1.688831098246876
 30
0.0
  0
ENDBLK
  5
52
330
23
100
AcDbEntity
  8
0
100
AcDbBlockEnd
  0
BLOCK
  5
53
330
24
100
AcDbEntity
  8
0
100
AcDbBlockBegin
  2
*D3
 70
     1
 10
0.0
 20
0.0
 30
0.0
  3
*D3
  1

  0
LINE
  5
54
330
24
100
AcDbEntity
  8
0
  6
BYBLOCK
 62
     0
100
AcDbLine
 10
7.771227579577287
 20
0.9942111647467804
 30
0.0
 11
8.079993295682559
 21
0.9942111647467804
 31
0.0
  0
LINE
  5
55
330
24
100
AcDbEntity
  8
0
  6
BYBLOCK
 62
     0
100
AcDbLine
 10
7.771227579577287
 20
-0.0057888352532196
 30
0.0
 11
8.079993295682559
 21
-0.0057888352532196
 31
0.0
  0
LINE
  5
56
330
24
100
AcDbEntity
  8
0
  6
BYBLOCK
 62
     0
100
AcDbLine
 10
7.899993295682559
 20
0.9942111647467804
 30
0.0
 11
7.899993295682559
 21
0.6400444980801138
 31
0.0
  0
LINE
  5
57
330
24
100
AcDbEntity
  8
0
  6
BYBLOCK
 62
     0
100
AcDbLine
 10
7.899993295682559
 20
-0.0057888352532196
 30
0.0
 11
7.899993295682559
 21
0.348377831413447
 31
0.0
  0
LINE
  5
58
330
24
100
AcDbEntity
  8
0
  6
BYBLOCK
 62
     0
100
AcDbLine
 10
8.024993295682559
 20
0.8692111647467804
 30
0.0
 11
7.774993295682559
 21
1.11921116474678
 31
0.0
  0
LINE
  5
59
330
24
100
AcDbEntity
  8
0
  6
BYBLOCK
 62
     0
100
AcDbLine
 10
8.024993295682559
 20
-0.1307888352532196
 30
0.0
 11
7.774993295682559
 21
0.1192111647467804
 31
0.0
  0
TEXT
  5
5A
330
24
100
AcDbEntity
  8
0
  6
BYBLOCK
 62
     0
100
AcDbText
 10
7.962493295682559
 20
0.4733778314134471
 30
0.0
 40
0.125
  1
1
 50
90.0
 72
     1
 11
7.899993295682559
 21
0.4942111647467804
 31
0.0
100
AcDbText
 73
     2
  0
POINT
  5
5B
330
24
100
AcDbEntity
  8
DEFPOINTS
  6
BYBLOCK
 62
     0
100
AcDbPoint
 10
7.708727579577287
 20
0.9942111647467804
 30
0.0
  0
POINT
  5
5C
330
24
100
AcDbEntity
  8
DEFPOINTS
  6
BYBLOCK
 62
     0
100
AcDbPoint
 10
7.708727579577287
 20
-0.0057888352532196
 30
0.0
  0
POINT
  5
5D
330
24
100
AcDbEntity
  8
DEFPOINTS
  6
BYBLOCK
 62
     0
100
AcDbPoint
 10
7.899993295682559
 20
-0.0057888352532196
 30
0.0
  0
ENDBLK
  5
5E
330
24
100
AcDbEntity
  8
0
100
AcDbBlockEnd
  0
ENDSEC
  0
SECTION
  2
ENTITIES
  0
DIMENSION
  5
5F
330
18
100
AcDbEntity
  8
ADPDIM
100
AcDbDimension
  2
*D0
 10
7.708727579577287
 20
-0.1863178550734039
 30
0.0
 11
6.896227579577287
 21
-0.1863178550734039
 31
0.0
100
AcDbAlignedDimension
 13
6.083727579577287
 23
-0.0057888352532178
 33
0.0
 14
7.708727579577287
 24
-0.0057888352532196
 34
0.0
100
AcDbRotatedDimension
  0
LINE
  5
60
330
18
100
AcDbEntity
  8
ADP1DETAIL
100
AcDbLine
 10
7.693727579577286
 20
-0.5638310982468767
 30
0.0
 11
6.098727579577285
 21
-0.5638310982468767
 31
0.0
  0
LINE
  5
61
330
18
100
AcDbEntity
  8
ADP1DETAIL
100
AcDbLine
 10
7.535727579577284
 20
-0.5788310982468766
 30
0.0
 11
6.256727579577286
 21
-0.5788310982468767
 31
0.0
  0
LINE
  5
62
330
18
100
AcDbEntity
  8
ADP1DETAIL
100
AcDbLine
 10
6.098727579577286
 20
-0.4388310982468767
 30
0.0
 11
7.693727579577285
 21
-0.4388310982468767
 31
0.0
  0
LINE
  5
63
330
18
100
AcDbEntity
  8
ADP1DETAIL
100
AcDbLine
 10
6.083727579577287
 20
0.9942111647467813
 30
0.0
 11
7.708727579577287
 21
0.9942111647467804
 31
0.0
  0
LINE
  5
64
330
18
100
AcDbEntity
  8
ADP1DETAIL
100
AcDbLine
 10
7.708727579577287
 20
-0.0057888352532196
 30
0.0
 11
6.083727579577287
 21
-0.0057888352532178
 31
0.0
  0
LINE
  5
65
330
18
100
AcDbEntity
  8
ADP1DETAIL
100
AcDbLine
 10
6.083727579577287
 20
-0.0057888352532178
 30
0.0
 11
6.083727579577287
 21
0.9942111647467813
 31
0.0
  0
DIMENSION
  5
66
330
18
100
AcDbEntity
  8
ADPDIM
100
AcDbDimension
  2
*D2
 10
5.899381644630947
 20
-1.688831098246876
 30
0.0
 11
5.899381644630947
 21
-2.313831098246876
 31
0.0
100
AcDbAlignedDimension
 13
6.098727579577286
 23
-0.4388310982468767
 33
0.0
 14
6.302727579577285
 24
-1.688831098246876
 34
0.0
 50
90.0
100
AcDbRotatedDimension
  0
LINE
  5
67
330
18
100
AcDbEntity
  8
ADP1DETAIL
100
AcDbLine
 10
6.396727579577285
 20
-1.657831098246876
 30
0.0
 11
6.396727579577285
 21
-0.5938310982468767
 31
0.0
  0
LINE
  5
68
330
18
100
AcDbEntity
  8
ADP1DETAIL
100
AcDbLine
 10
6.271727579577285
 20
-0.5938310982468767
 30
0.0
 11
6.271727579577285
 21
-1.657831098246876
 31
0.0
  0
ARC
  5
69
330
18
100
AcDbEntity
  8
ADP1DETAIL
100
AcDbCircle
 10
6.365727579577286
 20
-1.657831098246876
 30
0.0
 40
0.031
100
AcDbArc
 50
270.0
 51
0.0
  0
ARC
  5
6A
330
18
100
AcDbEntity
  8
ADP1DETAIL
100
AcDbCircle
 10
6.302727579577285
 20
-1.657831098246876
 30
0.0
 40
0.031
100
AcDbArc
 50
180.0
 51
270.0
  0
LINE
  5
6B
330
18
100
AcDbEntity
  8
ADP1DETAIL
100
AcDbLine
 10
6.302727579577285
 20
-1.688831098246876
 30
0.0
 11
6.365727579577286
 21
-1.688831098246876
 31
0.0
  0
ARC
  5
6C
330
18
100
AcDbEntity
  8
ADP1DETAIL
100
AcDbCircle
 10
6.411727579577285
 20
-0.5938310982468767
 30
0.0
 40
0.015
100
AcDbArc
 50
90.0
 51
180.0
  0
ARC
  5
6D
330
18
100
AcDbEntity
  8
ADP1DETAIL
100
AcDbCircle
 10
6.256727579577286
 20
-0.5938310982468767
 30
0.0
 40
0.015
100
AcDbArc
 50
0.0
 51
89.99999999999998
  0
LINE
  5
6E
330
18
100
AcDbEntity
  8
ADP1DETAIL
100
AcDbLine
 10
6.256727579577286
 20
-0.5788310982468767
 30
0.0
 11
6.153227579577286
 21
-0.5788310982468767
 31
0.0
  0
ARC
  5
6F
330
18
100
AcDbEntity
  8
ADP1DETAIL
100
AcDbCircle
 10
6.098727579577286
 20
-0.4538310982468767
 30
0.0
 40
0.015
100
AcDbArc
 50
90.0
 51
180.0
  0
LINE
  5
70
330
18
100
AcDbEntity
  8
ADP1DETAIL
100
AcDbLine
 10
6.083727579577286
 20
-0.5488310982468767
 30
0.0
 11
6.083727579577287
 21
-0.4538310982468767
 31
0.0
  0
ARC
  5
71
330
18
100
AcDbEntity
  8
ADP1DETAIL
100
AcDbCircle
 10
6.098727579577285
 20
-0.5488310982468767
 30
0.0
 40
0.015
100
AcDbArc
 50
180.0
 51
270.0
  0
ARC
  5
72
330
18
100
AcDbEntity
  8
ADP1DETAIL
100
AcDbCircle
 10
6.153227579577286
 20
-0.5718310982468767
 30
0.0
 40
0.007
100
AcDbArc
 50
180.0
 51
270.0
  0
LINE
  5
73
330
18
100
AcDbEntity
  8
ADP1DETAIL
100
AcDbLine
 10
6.146227579577287
 20
-0.5718310982468767
 30
0.0
 11
6.146227579577286
 21
-0.5638310982468767
 31
0.0
  0
LINE
  5
74
330
18
100
AcDbEntity
  8
ADP2DETAIL
  6
HIDDEN2
100
AcDbLine
 10
6.263727579577286
 20
0.8692111647467813
 30
0.0
 11
6.400727579577287
 21
0.8692111647467813
 31
0.0
  0
LINE
  5
75
330
18
100
AcDbEntity
  8
ADP2DETAIL
  6
HIDDEN2
100
AcDbLine
 10
6.400727579577287
 20
0.1192111647467822
 30
0.0
 11
6.263727579577286
 21
0.1192111647467822
 31
0.0
  0
LINE
  5
76
330
18
100
AcDbEntity
  8
ADP2DETAIL
  6
HIDDEN2
100
AcDbLine
 10
6.263727579577286
 20
0.1192111647467822
 30
0.0
 11
6.263727579577286
 21
0.8692111647467813
 31
0.0
  0
LINE
  5
77
330
18
100
AcDbEntity
  8
ADP2DETAIL
  6
HIDDEN2
100
AcDbLine
 10
6.400727579577287
 20
0.1192111647467822
 30
0.0
 11
6.400727579577287
 21
0.8692111647467813
 31
0.0
  0
DIMENSION
  5
78
330
18
100
AcDbEntity
  8
ADPDIM
100
AcDbDimension
  2
*D3
 10
7.899993295682559
 20
-0.0057888352532196
 30
0.0
 11
7.899993295682559
 21
0.4942111647467804
 31
0.0
100
AcDbAlignedDimension
 13
7.708727579577287
 23
0.9942111647467804
 33
0.0
 14
7.708727579577287
 24
-0.0057888352532196
 34
0.0
 50
90.0
100
AcDbRotatedDimension
  0
LINE
  5
79
330
18
100
AcDbEntity
  8
ADP1DETAIL
100
AcDbLine
 10
7.708727579577287
 20
0.9942111647467804
 30
0.0
 11
7.708727579577287
 21
-0.0057888352532196
 31
0.0
  0
DIMENSION
  5
7A
330
18
100
AcDbEntity
  8
ADPDIM
100
AcDbDimension
  2
*D1
 10
7.899993295682559
 20
-0.5638310982468767
 30
0.0
 11
7.899993295682559
 21
-1.084664431580209
 31
0.0
100
AcDbAlignedDimension
 13
7.693727579577285
 23
-0.4388310982468767
 33
0.0
 14
7.693727579577286
 24
-0.5638310982468767
 34
0.0
 50
90.0
100
AcDbRotatedDimension
  0
LINE
  5
7B
330
18
100
AcDbEntity
  8
ADP1DETAIL
100
AcDbLine
 10
7.520727579577286
 20
-1.657831098246876
 30
0.0
 11
7.520727579577284
 21
-0.5938310982468767
 31
0.0
  0
LINE
  5
7C
330
18
100
AcDbEntity
  8
ADP1DETAIL
100
AcDbLine
 10
7.395727579577285
 20
-0.5938310982468767
 30
0.0
 11
7.395727579577287
 21
-1.657831098246876
 31
0.0
  0
LINE
  5
7D
330
18
100
AcDbEntity
  8
ADP1DETAIL
100
AcDbLine
 10
7.426727579577287
 20
-1.688831098246876
 30
0.0
 11
7.489727579577286
 21
-1.688831098246876
 31
0.0
  0
ARC
  5
7E
330
18
100
AcDbEntity
  8
ADP1DETAIL
100
AcDbCircle
 10
7.426727579577287
 20
-1.657831098246876
 30
0.0
 40
0.031
100
AcDbArc
 50
180.0
 51
270.0
  0
ARC
  5
7F
330
18
100
AcDbEntity
  8
ADP1DETAIL
100
AcDbCircle
 10
7.489727579577286
 20
-1.657831098246876
 30
0.0
 40
0.031
100
AcDbArc
 50
270.0
 51
0.0000000000000382
  0
LINE
  5
80
330
18
100
AcDbEntity
  8
ADP2DETAIL
  6
HIDDEN2
100
AcDbLine
 10
7.391727579577286
 20
0.8692111647467804
 30
0.0
 11
7.528727579577287
 21
0.8692111647467804
 31
0.0
  0
LINE
  5
81
330
18
100
AcDbEntity
  8
ADP2DETAIL
  6
HIDDEN2
100
AcDbLine
 10
7.528727579577287
 20
0.1192111647467804
 30
0.0
 11
7.391727579577286
 21
0.1192111647467804
 31
0.0
  0
ARC
  5
82
330
18
100
AcDbEntity
  8
ADP1DETAIL
100
AcDbCircle
 10
7.380727579577285
 20
-0.5938310982468767
 30
0.0
 40
0.015
100
AcDbArc
 50
0.0000000000001018
 51
90.0
  0
LINE
  5
83
330
18
100
AcDbEntity
  8
ADP2DETAIL
  6
HIDDEN2
100
AcDbLine
 10
7.391727579577286
 20
0.8692111647467804
 30
0.0
 11
7.391727579577286
 21
0.1192111647467804
 31
0.0
  0
ARC
  5
84
330
18
100
AcDbEntity
  8
ADP1DETAIL
100
AcDbCircle
 10
7.693727579577285
 20
-0.4538310982468767
 30
0.0
 40
0.015
100
AcDbArc
 50
0.0
 51
90.0
  0
LINE
  5
85
330
18
100
AcDbEntity
  8
ADP1DETAIL
100
AcDbLine
 10
7.708727579577285
 20
-0.4538310982468767
 30
0.0
 11
7.708727579577286
 21
-0.5488310982468767
 31
0.0
  0
ARC
  5
86
330
18
100
AcDbEntity
  8
ADP1DETAIL
100
AcDbCircle
 10
7.693727579577286
 20
-0.5488310982468767
 30
0.0
 40
0.015
100
AcDbArc
 50
270.0
 51
0.0
  0
ARC
  5
87
330
18
100
AcDbEntity
  8
ADP1DETAIL
100
AcDbCircle
 10
7.535727579577284
 20
-0.5938310982468767
 30
0.0
 40
0.015
100
AcDbArc
 50
90.0
 51
180.0
  0
LINE
  5
88
330
18
100
AcDbEntity
  8
ADP1DETAIL
100
AcDbLine
 10
7.639227579577286
 20
-0.5788310982468767
 30
0.0
 11
7.535727579577284
 21
-0.5788310982468766
 31
0.0
  0
ARC
  5
89
330
18
100
AcDbEntity
  8
ADP1DETAIL
100
AcDbCircle
 10
7.639227579577286
 20
-0.5718310982468769
 30
0.0
 40
0.0069999999999997
100
AcDbArc
 50
270.0
 51
0.0000000000013631
  0
LINE
  5
8A
330
18
100
AcDbEntity
  8
ADP1DETAIL
100
AcDbLine
 10
7.646227579577286
 20
-0.5638310982468767
 30
0.0
 11
7.646227579577286
 21
-0.5718310982468767
 31
0.0
  0
LINE
  5
8B
330
18
100
AcDbEntity
  8
ADP2DETAIL
  6
HIDDEN2
100
AcDbLine
 10
7.528727579577287
 20
0.8692111647467804
 30
0.0
 11
7.528727579577287
 21
0.1192111647467804
 31
0.0
  0
TEXT
  5
99
330
18
100
AcDbEntity
  8
ADPDIM
100
AcDbText
 10
2.070196926439495
 20
-2.957683464806557
 30
0.0
 40
0.09375
  1
J U L I U S  B L U M  &  C O . ,  I N C .      ( 8 0 0 )  5 2 6 - 6 2 9 3        W W W . J U L I U S B L U M . C O M        P A R T  N o .  8 3 1
 41
1.25
  7
ARIAL_WIDE
 72
     1
 11
6.896227579577286
 21
-2.863933464806557
 31
0.0
100
AcDbText
 73
     3
  0
ENDSEC
  0
SECTION
  2
OBJECTS
  0
DICTIONARY
  5
C
330
0
100
AcDbDictionary
  3
ACAD_GROUP
350
D
  3
ACAD_LAYOUT
350
92
  3
ACAD_MLINESTYLE
350
E
  3
ACAD_PLOTSETTINGS
350
93
  3
ACAD_PLOTSTYLENAME
350
90
  3
ACDBHEADERROUNDTRIPXREC
350
1DD
  3
ACDBVARIABLEDICTIONARY
350
F3
  0
DICTIONARY
  5
ED
330
18
100
AcDbDictionary
280
     1
  3
ACAD_LAYOUTSELFREF
360
1FE
  0
DICTIONARY
  5
EB
330
15
100
AcDbDictionary
280
     1
  3
ACAD_LAYOUTSELFREF
360
1FD
  0
DICTIONARY
  5
D
102
{ACAD_REACTORS
330
C
102
}
330
C
100
AcDbDictionary
  0
DICTIONARY
  5
92
102
{ACAD_REACTORS
330
C
102
}
330
C
100
AcDbDictionary
  0
DICTIONARY
  5
E
102
{ACAD_REACTORS
330
C
102
}
330
C
100
AcDbDictionary
  3
STANDARD
350
1B
  0
DICTIONARY
  5
93
102
{ACAD_REACTORS
330
C
102
}
330
C
100
AcDbDictionary
  0
ACDBDICTIONARYWDFLT
  5
90
102
{ACAD_REACTORS
330
C
102
}
330
C
100
AcDbDictionary
281
     1
  3
Normal
350
91
100
AcDbDictionaryWithDefault
340
91
  0
DICTIONARY
  5
1DD
102
{ACAD_REACTORS
330
C
102
}
330
C
100
AcDbDictionary
  3
CEPSNTYPE
350
1E7
  3
FINGERPRINTGUID
350
1E8
  3
HYPERLINKBASE
350
1E0
  3
INSUNITS
350
1E6
  3
LAYOUTDICT
350
1E2
  3
LWETCUNION
350
1E5
  3
PLOTSETDICT
350
1E3
  3
PLOTSTYLNAMDICT
350
1E4
  3
PSVPSCALE
350
1EA
  3
PUCSBASE
350
1ED
  3
PUCSORGBACK
350
1F3
  3
PUCSORGBOTTOM
350
1EF
  3
PUCSORGFRONT
350
1F2
  3
PUCSORGLEFT
350
1F0
  3
PUCSORGRIGHT
350
1F1
  3
PUCSORGTOP
350
1EE
  3
PUCSORTHOREF
350
1EB
  3
PUCSORTHOVIEW
350
1EC
  3
STYLESHEET
350
1E1
  3
TSTACKALIGN
350
1DE
  3
TSTACKSIZE
350
1DF
  3
UCSBASE
350
1F6
  3
UCSORGBACK
350
1FC
  3
UCSORGBOTTOM
350
1F8
  3
UCSORGFRONT
350
1FB
  3
UCSORGLEFT
350
1F9
  3
UCSORGRIGHT
350
1FA
  3
UCSORGTOP
350
1F7
  3
UCSORTHOREF
350
1F4
  3
UCSORTHOVIEW
350
1F5
  3
VERSIONGUID
350
1E9
  0
DICTIONARY
  5
F3
102
{ACAD_REACTORS
330
C
102
}
330
C
100
AcDbDictionary
  3
DIMASSOC
350
F4
  0
XRECORD
  5
1FE
102
{ACAD_REACTORS
330
ED
102
}
330
ED
100
AcDbXrecord
340
18
  0
XRECORD
  5
1FD
102
{ACAD_REACTORS
330
EB
102
}
330
EB
100
AcDbXrecord
340
15
  0
MLINESTYLE
  5
1B
102
{ACAD_REACTORS
330
E
102
}
330
E
100
AcDbMlineStyle
  2
STANDARD
 70
     0
  3

 62
     0
 51
90.0
 52
90.0
 71
     2
 49
0.5
 62
   256
  6
BYLAYER
 49
-0.5
 62
   256
  6
BYLAYER
  0
ACDBPLACEHOLDER
  5
91
102
{ACAD_REACTORS
330
90
102
}
330
90
100
AcDbPlaceHolder
280
     0
  0
XRECORD
  5
1E7
102
{ACAD_REACTORS
330
1DD
102
}
330
1DD
100
AcDbXrecord
 90
        0
  0
XRECORD
  5
1E8
102
{ACAD_REACTORS
330
1DD
102
}
330
1DD
100
AcDbXrecord
  1
{B59551C6-6541-4940-B210-4492C4632D72}
  0
XRECORD
  5
1E0
102
{ACAD_REACTORS
330
1DD
102
}
330
1DD
100
AcDbXrecord
  1

  0
XRECORD
  5
1E6
102
{ACAD_REACTORS
330
1DD
102
}
330
1DD
100
AcDbXrecord
 90
        0
  0
XRECORD
  5
1E2
102
{ACAD_REACTORS
330
1DD
102
}
330
1DD
100
AcDbXrecord
340
92
  0
XRECORD
  5
1E5
102
{ACAD_REACTORS
330
1DD
102
}
330
1DD
100
AcDbXrecord
 90
    14877
  0
XRECORD
  5
1E3
102
{ACAD_REACTORS
330
1DD
102
}
330
1DD
100
AcDbXrecord
340
93
  0
XRECORD
  5
1E4
102
{ACAD_REACTORS
330
1DD
102
}
330
1DD
100
AcDbXrecord
340
90
  0
XRECORD
  5
1EA
102
{ACAD_REACTORS
330
1DD
102
}
330
1DD
100
AcDbXrecord
 40
0.0
  0
XRECORD
  5
1ED
102
{ACAD_REACTORS
330
1DD
102
}
330
1DD
100
AcDbXrecord
340
0
  0
XRECORD
  5
1F3
102
{ACAD_REACTORS
330
1DD
102
}
330
1DD
100
AcDbXrecord
 10
0.0
 20
0.0
 30
0.0
  0
XRECORD
  5
1EF
102
{ACAD_REACTORS
330
1DD
102
}
330
1DD
100
AcDbXrecord
 10
0.0
 20
0.0
 30
0.0
  0
XRECORD
  5
1F2
102
{ACAD_REACTORS
330
1DD
102
}
330
1DD
100
AcDbXrecord
 10
0.0
 20
0.0
 30
0.0
  0
XRECORD
  5
1F0
102
{ACAD_REACTORS
330
1DD
102
}
330
1DD
100
AcDbXrecord
 10
0.0
 20
0.0
 30
0.0
  0
XRECORD
  5
1F1
102
{ACAD_REACTORS
330
1DD
102
}
330
1DD
100
AcDbXrecord
 10
0.0
 20
0.0
 30
0.0
  0
XRECORD
  5
1EE
102
{ACAD_REACTORS
330
1DD
102
}
330
1DD
100
AcDbXrecord
 10
0.0
 20
0.0
 30
0.0
  0
XRECORD
  5
1EB
102
{ACAD_REACTORS
330
1DD
102
}
330
1DD
100
AcDbXrecord
340
0
  0
XRECORD
  5
1EC
102
{ACAD_REACTORS
330
1DD
102
}
330
1DD
100
AcDbXrecord
 70
     0
  0
XRECORD
  5
1E1
102
{ACAD_REACTORS
330
1DD
102
}
330
1DD
100
AcDbXrecord
  1

  0
XRECORD
  5
1DE
102
{ACAD_REACTORS
330
1DD
102
}
330
1DD
100
AcDbXrecord
 90
        1
  0
XRECORD
  5
1DF
102
{ACAD_REACTORS
330
1DD
102
}
330
1DD
100
AcDbXrecord
 90
       70
  0
XRECORD
  5
1F6
102
{ACAD_REACTORS
330
1DD
102
}
330
1DD
100
AcDbXrecord
340
0
  0
XRECORD
  5
1FC
102
{ACAD_REACTORS
330
1DD
102
}
330
1DD
100
AcDbXrecord
 10
0.0
 20
0.0
 30
0.0
  0
XRECORD
  5
1F8
102
{ACAD_REACTORS
330
1DD
102
}
330
1DD
100
AcDbXrecord
 10
0.0
 20
0.0
 30
0.0
  0
XRECORD
  5
1FB
102
{ACAD_REACTORS
330
1DD
102
}
330
1DD
100
AcDbXrecord
 10
0.0
 20
0.0
 30
0.0
  0
XRECORD
  5
1F9
102
{ACAD_REACTORS
330
1DD
102
}
330
1DD
100
AcDbXrecord
 10
0.0
 20
0.0
 30
0.0
  0
XRECORD
  5
1FA
102
{ACAD_REACTORS
330
1DD
102
}
330
1DD
100
AcDbXrecord
 10
0.0
 20
0.0
 30
0.0
  0
XRECORD
  5
1F7
102
{ACAD_REACTORS
330
1DD
102
}
330
1DD
100
AcDbXrecord
 10
0.0
 20
0.0
 30
0.0
  0
XRECORD
  5
1F4
102
{ACAD_REACTORS
330
1DD
102
}
330
1DD
100
AcDbXrecord
340
0
  0
XRECORD
  5
1F5
102
{ACAD_REACTORS
330
1DD
102
}
330
1DD
100
AcDbXrecord
 70
     0
  0
XRECORD
  5
1E9
102
{ACAD_REACTORS
330
1DD
102
}
330
1DD
100
AcDbXrecord
  1
{607856AD-10A6-4891-A41F-F3800929168C}
  0
DICTIONARYVAR
  5
F4
102
{ACAD_REACTORS
330
F3
102
}
330
F3
100
DictionaryVariables
280
     0
  1
1
  0
ENDSEC
  0
EOF
