  0
SECTION
  2
HEADER
  9
$ACADVER
  1
AC1015
  9
$ACADMAINTVER
 70
    20
  9
$DWGCODEPAGE
  3
ANSI_936
  9
$INSBASE
 10
-0.7342613747288061
 20
1.350385388003015
 30
0.0
  9
$EXTMIN
 10
-4.235713844896608
 20
0.5619507680669785
 30
-0.0000000000112498
  9
$EXTMAX
 10
5.419064653738601
 20
3.37719731146609
 30
0.0000000000002956
  9
$LIMMIN
 10
0.0
 20
0.0
  9
$LIMMAX
 10
36.0
 20
36.0
  9
$ORTHOMODE
 70
     1
  9
$REGENMODE
 70
     1
  9
$FILLMODE
 70
     1
  9
$QTEXTMODE
 70
     0
  9
$MIRRTEXT
 70
     1
  9
$LTSCALE
 40
1.0
  9
$ATTMODE
 70
     1
  9
$TEXTSIZE
 40
0.2
  9
$TRACEWID
 40
0.05
  9
$TEXTSTYLE
  7
STANDARD
  9
$CLAYER
  8
ADPDIM
  9
$CELTYPE
  6
BYLAYER
  9
$CECOLOR
 62
   256
  9
$CELTSCALE
 40
1.0
  9
$DISPSILH
 70
     0
  9
$DIMSCALE
 40
1.0
  9
$DIMASZ
 40
0.125
  9
$DIMEXO
 40
0.0625
  9
$DIMDLI
 40
0.38
  9
$DIMRND
 40
0.0
  9
$DIMDLE
 40
0.0
  9
$DIMEXE
 40
0.18
  9
$DIMTP
 40
0.0
  9
$DIMTM
 40
0.0
  9
$DIMTXT
 40
0.125
  9
$DIMCEN
 40
0.1875
  9
$DIMTSZ
 40
0.125
  9
$DIMTOL
 70
     0
  9
$DIMLIM
 70
     0
  9
$DIMTIH
 70
     0
  9
$DIMTOH
 70
     0
  9
$DIMSE1
 70
     0
  9
$DIMSE2
 70
     0
  9
$DIMTAD
 70
     0
  9
$DIMZIN
 70
     3
  9
$DIMBLK
  1

  9
$DIMASO
 70
     1
  9
$DIMSHO
 70
     1
  9
$DIMPOST
  1

  9
$DIMAPOST
  1

  9
$DIMALT
 70
     0
  9
$DIMALTD
 70
     1
  9
$DIMALTF
 40
25.4
  9
$DIMLFAC
 40
1.0
  9
$DIMTOFL
 70
     0
  9
$DIMTVP
 40
0.0
  9
$DIMTIX
 70
     0
  9
$DIMSOXD
 70
     0
  9
$DIMSAH
 70
     0
  9
$DIMBLK1
  1

  9
$DIMBLK2
  1

  9
$DIMSTYLE
  2
STANDARD
  9
$DIMCLRD
 70
     0
  9
$DIMCLRE
 70
     0
  9
$DIMCLRT
 70
     0
  9
$DIMTFAC
 40
1.0
  9
$DIMGAP
 40
0.125
  9
$DIMJUST
 70
     0
  9
$DIMSD1
 70
     0
  9
$DIMSD2
 70
     0
  9
$DIMTOLJ
 70
     1
  9
$DIMTZIN
 70
     0
  9
$DIMALTZ
 70
     0
  9
$DIMALTTZ
 70
     0
  9
$DIMUPT
 70
     0
  9
$DIMDEC
 70
     4
  9
$DIMTDEC
 70
     4
  9
$DIMALTU
 70
     2
  9
$DIMALTTD
 70
     2
  9
$DIMTXSTY
  7
STANDARD
  9
$DIMAUNIT
 70
     0
  9
$DIMADEC
 70
     0
  9
$DIMALTRND
 40
0.0
  9
$DIMAZIN
 70
     0
  9
$DIMDSEP
 70
    46
  9
$DIMATFIT
 70
     3
  9
$DIMFRAC
 70
     0
  9
$DIMLDRBLK
  1

  9
$DIMLUNIT
 70
     2
  9
$DIMLWD
 70
    -2
  9
$DIMLWE
 70
    -2
  9
$DIMTMOVE
 70
     0
  9
$LUNITS
 70
     5
  9
$LUPREC
 70
     4
  9
$SKETCHINC
 40
0.1
  9
$FILLETRAD
 40
0.0
  9
$AUNITS
 70
     0
  9
$AUPREC
 70
     0
  9
$MENU
  1
acad
  9
$ELEVATION
 40
0.0
  9
$PELEVATION
 40
0.0
  9
$THICKNESS
 40
0.0
  9
$LIMCHECK
 70
     0
  9
$CHAMFERA
 40
0.0
  9
$CHAMFERB
 40
0.0
  9
$CHAMFERC
 40
0.0
  9
$CHAMFERD
 40
0.0
  9
$SKPOLY
 70
     0
  9
$TDCREATE
 40
2450233.613384444
  9
$TDUCREATE
 40
2450233.821717778
  9
$TDUPDATE
 40
2455238.879919155
  9
$TDUUPDATE
 40
2455239.088252489
  9
$TDINDWG
 40
0.0264019792
  9
$TDUSRTIMER
 40
0.0264019792
  9
$USRTIMER
 70
     1
  9
$ANGBASE
 50
0.0
  9
$ANGDIR
 70
     0
  9
$PDMODE
 70
     0
  9
$PDSIZE
 40
0.0
  9
$PLINEWID
 40
0.0
  9
$SPLFRAME
 70
     0
  9
$SPLINETYPE
 70
     6
  9
$SPLINESEGS
 70
     8
  9
$HANDSEED
  5
EAB
  9
$SURFTAB1
 70
     6
  9
$SURFTAB2
 70
     6
  9
$SURFTYPE
 70
     6
  9
$SURFU
 70
     6
  9
$SURFV
 70
     6
  9
$UCSBASE
  2

  9
$UCSNAME
  2

  9
$UCSORG
 10
0.0
 20
0.0
 30
0.0
  9
$UCSXDIR
 10
1.0
 20
0.0
 30
0.0
  9
$UCSYDIR
 10
0.0
 20
1.0
 30
0.0
  9
$UCSORTHOREF
  2

  9
$UCSORTHOVIEW
 70
     0
  9
$UCSORGTOP
 10
0.0
 20
0.0
 30
0.0
  9
$UCSORGBOTTOM
 10
0.0
 20
0.0
 30
0.0
  9
$UCSORGLEFT
 10
0.0
 20
0.0
 30
0.0
  9
$UCSORGRIGHT
 10
0.0
 20
0.0
 30
0.0
  9
$UCSORGFRONT
 10
0.0
 20
0.0
 30
0.0
  9
$UCSORGBACK
 10
0.0
 20
0.0
 30
0.0
  9
$PUCSBASE
  2

  9
$PUCSNAME
  2

  9
$PUCSORG
 10
0.0
 20
0.0
 30
0.0
  9
$PUCSXDIR
 10
1.0
 20
0.0
 30
0.0
  9
$PUCSYDIR
 10
0.0
 20
1.0
 30
0.0
  9
$PUCSORTHOREF
  2

  9
$PUCSORTHOVIEW
 70
     0
  9
$PUCSORGTOP
 10
0.0
 20
0.0
 30
0.0
  9
$PUCSORGBOTTOM
 10
0.0
 20
0.0
 30
0.0
  9
$PUCSORGLEFT
 10
0.0
 20
0.0
 30
0.0
  9
$PUCSORGRIGHT
 10
0.0
 20
0.0
 30
0.0
  9
$PUCSORGFRONT
 10
0.0
 20
0.0
 30
0.0
  9
$PUCSORGBACK
 10
0.0
 20
0.0
 30
0.0
  9
$USERI1
 70
     0
  9
$USERI2
 70
     0
  9
$USERI3
 70
     0
  9
$USERI4
 70
     0
  9
$USERI5
 70
     0
  9
$USERR1
 40
0.0
  9
$USERR2
 40
0.0
  9
$USERR3
 40
0.0
  9
$USERR4
 40
0.0
  9
$USERR5
 40
0.0
  9
$WORLDVIEW
 70
     1
  9
$SHADEDGE
 70
     3
  9
$SHADEDIF
 70
    70
  9
$TILEMODE
 70
     1
  9
$MAXACTVP
 70
    15
  9
$PINSBASE
 10
0.0
 20
-3.941062727799726E+99
 30
0.0
  9
$PLIMCHECK
 70
     0
  9
$PEXTMIN
 10
1.000000000000000E+20
 20
1.000000000000000E+20
 30
1.000000000000000E+20
  9
$PEXTMAX
 10
-1.000000000000000E+20
 20
-1.000000000000000E+20
 30
-1.000000000000000E+20
  9
$PLIMMIN
 10
0.0
 20
0.0
  9
$PLIMMAX
 10
12.0
 20
9.0
  9
$UNITMODE
 70
     0
  9
$VISRETAIN
 70
     0
  9
$PLINEGEN
 70
     0
  9
$PSLTSCALE
 70
     1
  9
$TREEDEPTH
 70
  3020
  9
$CMLSTYLE
  2
STANDARD
  9
$CMLJUST
 70
     0
  9
$CMLSCALE
 40
1.0
  9
$PROXYGRAPHICS
 70
     1
  9
$MEASUREMENT
 70
     0
  9
$CELWEIGHT
370
    -1
  9
$ENDCAPS
280
     0
  9
$JOINSTYLE
280
     0
  9
$LWDISPLAY
290
     0
  9
$INSUNITS
 70
     0
  9
$HYPERLINKBASE
  1

  9
$STYLESHEET
  1

  9
$XEDIT
290
     1
  9
$CEPSNTYPE
380
     0
  9
$PSTYLEMODE
290
     1
  9
$FINGERPRINTGUID
  2
{B2E7B952-35C3-485C-9BF8-A3734EEC567E}
  9
$VERSIONGUID
  2
{44491EBB-B12F-42A3-88C1-010C5675FE20}
  9
$EXTNAMES
290
     1
  9
$PSVPSCALE
 40
0.0
  9
$OLESTARTUP
290
     0
  0
ENDSEC
  0
SECTION
  2
CLASSES
  0
CLASS
  1
ACDBDICTIONARYWDFLT
  2
AcDbDictionaryWithDefault
  3
ObjectDBX Classes
 90
        0
280
     0
281
     0
  0
CLASS
  1
ACDBPLACEHOLDER
  2
AcDbPlaceHolder
  3
ObjectDBX Classes
 90
        0
280
     0
281
     0
  0
CLASS
  1
LAYOUT
  2
AcDbLayout
  3
ObjectDBX Classes
 90
        0
280
     0
281
     0
  0
CLASS
  1
DICTIONARYVAR
  2
AcDbDictionaryVar
  3
ObjectDBX Classes
 90
        0
280
     0
281
     0
  0
CLASS
  1
MATERIAL
  2
AcDbMaterial
  3
ObjectDBX Classes
 90
     1024
280
     0
281
     0
  0
CLASS
  1
VISUALSTYLE
  2
AcDbVisualStyle
  3
ObjectDBX Classes
 90
     4095
280
     0
281
     0
  0
CLASS
  1
TABLESTYLE
  2
AcDbTableStyle
  3
ObjectDBX Classes
 90
     4095
280
     0
281
     0
  0
CLASS
  1
SORTENTSTABLE
  2
AcDbSortentsTable
  3
ObjectDBX Classes
 90
        0
280
     0
281
     0
  0
CLASS
  1
ACAD_EVALUATION_GRAPH
  2
AcDbEvalGraph
  3
ObjectDBX Classes
 90
    33921
280
     0
281
     0
  0
CLASS
  1
ACAECUSTOBJ
  2
AcAeEditorObj
  3
AcAeEditorObj
 90
    33792
280
     0
281
     0
  0
CLASS
  1
ACDB_DYNAMICBLOCKPURGEPREVENTER_VERSION
  2
AcDbDynamicBlockPurgePreventer
  3
ObjectDBX Classes
 90
    33921
280
     0
281
     0
  0
ENDSEC
  0
SECTION
  2
TABLES
  0
TABLE
  2
VPORT
  5
8
102
{ACAD_XDICTIONARY
360
3FB
102
}
330
0
100
AcDbSymbolTable
 70
     1
  0
VPORT
  5
1B7
330
8
100
AcDbSymbolTableRecord
100
AcDbViewportTableRecord
  2
*Active
 70
     0
 10
0.0
 20
0.0
 11
1.0
 21
1.0
 12
0.5916754044209967
 22
1.969574039766534
 13
0.0
 23
0.0
 14
0.5740882589684922
 24
0.5740882589684922
 15
0.5
 25
0.5
 16
0.0
 26
0.0
 36
1.0
 17
0.0
 27
0.0
 37
0.0
 40
4.260019902724954
 41
2.277467411545623
 42
50.0
 43
0.0
 44
0.0
 50
0.0
 51
0.0
 71
     0
 72
   100
 73
     1
 74
     1
 75
     0
 76
     0
 77
     0
 78
     0
281
     0
 65
     1
110
0.0
120
0.0
130
0.0
111
1.0
121
0.0
131
0.0
112
0.0
122
1.0
132
0.0
 79
     0
146
0.0
  0
ENDTAB
  0
TABLE
  2
LTYPE
  5
5
330
0
100
AcDbSymbolTable
 70
    18
  0
LTYPE
  5
12
330
5
100
AcDbSymbolTableRecord
100
AcDbLinetypeTableRecord
  2
BYBLOCK
 70
     0
  3

 72
    65
 73
     0
 40
0.0
  0
LTYPE
  5
13
330
5
100
AcDbSymbolTableRecord
100
AcDbLinetypeTableRecord
  2
BYLAYER
 70
     0
  3

 72
    65
 73
     0
 40
0.0
  0
LTYPE
  5
14
330
5
100
AcDbSymbolTableRecord
100
AcDbLinetypeTableRecord
  2
CONTINUOUS
 70
     0
  3
Solid line
 72
    65
 73
     0
 40
0.0
  0
LTYPE
  5
35E
330
5
100
AcDbSymbolTableRecord
100
AcDbLinetypeTableRecord
  2
AI-Linetype-2
 70
     0
  3
Adobe Illustrator Linetype No. 2
 72
    65
 73
     2
 40
0.0555555921913822
 49
0.0277777960956911
 74
     0
 49
-0.0277777960956911
 74
     0
  0
LTYPE
  5
35F
330
5
100
AcDbSymbolTableRecord
100
AcDbLinetypeTableRecord
  2
AI-Linetype-3
 70
     0
  3
Adobe Illustrator Linetype No. 3
 72
    65
 73
     2
 40
0.0555555921913822
 49
0.0277777960956911
 74
     0
 49
-0.0277777960956911
 74
     0
  0
LTYPE
  5
360
330
5
100
AcDbSymbolTableRecord
100
AcDbLinetypeTableRecord
  2
AI-Linetype-4
 70
     0
  3
Adobe Illustrator Linetype No. 4
 72
    65
 73
     2
 40
0.0555555921913822
 49
0.0277777960956911
 74
     0
 49
-0.0277777960956911
 74
     0
  0
LTYPE
  5
AB9
330
5
100
AcDbSymbolTableRecord
100
AcDbLinetypeTableRecord
  2
AI-Linetype-1
 70
     0
  3
Adobe Illustrator Linetype No. 1
 72
    65
 73
     2
 40
3.959999918937683
 49
2.375999927520751
 74
     0
 49
-1.583999991416931
 74
     0
  0
LTYPE
  5
ABA
330
5
100
AcDbSymbolTableRecord
100
AcDbLinetypeTableRecord
  2
AI-Linetype-5
 70
     0
  3
Adobe Illustrator Linetype No. 5
 72
    65
 73
     2
 40
3.959999918937683
 49
2.375999927520751
 74
     0
 49
-1.583999991416931
 74
     0
  0
LTYPE
  5
ABB
330
5
100
AcDbSymbolTableRecord
100
AcDbLinetypeTableRecord
  2
AI-Linetype-6
 70
     0
  3
Adobe Illustrator Linetype No. 6
 72
    65
 73
     2
 40
3.959999918937683
 49
2.375999927520751
 74
     0
 49
-1.583999991416931
 74
     0
  0
LTYPE
  5
ABC
330
5
100
AcDbSymbolTableRecord
100
AcDbLinetypeTableRecord
  2
AI-Linetype-7
 70
     0
  3
Adobe Illustrator Linetype No. 7
 72
    65
 73
     2
 40
3.959999918937683
 49
2.375999927520751
 74
     0
 49
-1.583999991416931
 74
     0
  0
LTYPE
  5
ABD
330
5
100
AcDbSymbolTableRecord
100
AcDbLinetypeTableRecord
  2
AI-Linetype-8
 70
     0
  3
Adobe Illustrator Linetype No. 8
 72
    65
 73
     2
 40
3.959999918937683
 49
2.375999927520751
 74
     0
 49
-1.583999991416931
 74
     0
  0
LTYPE
  5
ABE
330
5
100
AcDbSymbolTableRecord
100
AcDbLinetypeTableRecord
  2
AI-Linetype-11
 70
     0
  3
Adobe Illustrator Linetype No. 11
 72
    65
 73
     2
 40
3.959999918937683
 49
2.375999927520751
 74
     0
 49
-1.583999991416931
 74
     0
  0
LTYPE
  5
ABF
330
5
100
AcDbSymbolTableRecord
100
AcDbLinetypeTableRecord
  2
AI-Linetype-12
 70
     0
  3
Adobe Illustrator Linetype No. 12
 72
    65
 73
     2
 40
3.959999918937683
 49
2.375999927520751
 74
     0
 49
-1.583999991416931
 74
     0
  0
LTYPE
  5
AC0
330
5
100
AcDbSymbolTableRecord
100
AcDbLinetypeTableRecord
  2
AI-Linetype-13
 70
     0
  3
Adobe Illustrator Linetype No. 13
 72
    65
 73
     2
 40
3.959999918937683
 49
2.375999927520751
 74
     0
 49
-1.583999991416931
 74
     0
  0
LTYPE
  5
AC1
330
5
100
AcDbSymbolTableRecord
100
AcDbLinetypeTableRecord
  2
AI-Linetype-16
 70
     0
  3
Adobe Illustrator Linetype No. 16
 72
    65
 73
     2
 40
3.959999918937683
 49
2.375999927520751
 74
     0
 49
-1.583999991416931
 74
     0
  0
LTYPE
  5
AC2
330
5
100
AcDbSymbolTableRecord
100
AcDbLinetypeTableRecord
  2
AI-Linetype-17
 70
     0
  3
Adobe Illustrator Linetype No. 17
 72
    65
 73
     2
 40
3.959999918937683
 49
2.375999927520751
 74
     0
 49
-1.583999991416931
 74
     0
  0
LTYPE
  5
AC3
330
5
100
AcDbSymbolTableRecord
100
AcDbLinetypeTableRecord
  2
AI-Linetype-18
 70
     0
  3
Adobe Illustrator Linetype No. 18
 72
    65
 73
     2
 40
3.959999918937683
 49
2.375999927520751
 74
     0
 49
-1.583999991416931
 74
     0
  0
LTYPE
  5
AC4
330
5
100
AcDbSymbolTableRecord
100
AcDbLinetypeTableRecord
  2
AI-Linetype-19
 70
     0
  3
Adobe Illustrator Linetype No. 19
 72
    65
 73
     2
 40
3.959999918937683
 49
2.375999927520751
 74
     0
 49
-1.583999991416931
 74
     0
  0
LTYPE
  5
AC5
330
5
100
AcDbSymbolTableRecord
100
AcDbLinetypeTableRecord
  2
AI-Linetype-20
 70
     0
  3
Adobe Illustrator Linetype No. 20
 72
    65
 73
     2
 40
3.959999918937683
 49
2.375999927520751
 74
     0
 49
-1.583999991416931
 74
     0
  0
LTYPE
  5
AC6
330
5
100
AcDbSymbolTableRecord
100
AcDbLinetypeTableRecord
  2
AI-Linetype-21
 70
     0
  3
Adobe Illustrator Linetype No. 21
 72
    65
 73
     2
 40
3.959999918937683
 49
2.375999927520751
 74
     0
 49
-1.583999991416931
 74
     0
  0
ENDTAB
  0
TABLE
  2
LAYER
  5
2
330
0
100
AcDbSymbolTable
 70
     5
  0
LAYER
  5
F
330
2
100
AcDbSymbolTableRecord
100
AcDbLayerTableRecord
  2
0
 70
     0
 62
     7
  6
CONTINUOUS
370
    -3
390
9B
  0
LAYER
  5
3A
330
2
100
AcDbSymbolTableRecord
100
AcDbLayerTableRecord
  2
ADPDIM
 70
     0
 62
     3
  6
CONTINUOUS
370
    -3
390
9B
  0
LAYER
  5
3C
330
2
100
AcDbSymbolTableRecord
100
AcDbLayerTableRecord
  2
ADP1DETAIL
 70
     0
 62
     7
  6
CONTINUOUS
370
    -3
390
9B
  0
LAYER
  5
3E
330
2
100
AcDbSymbolTableRecord
100
AcDbLayerTableRecord
  2
DEFPOINTS
 70
     0
 62
     7
  6
CONTINUOUS
290
     0
370
    -3
390
9B
  0
LAYER
  5
361
330
2
100
AcDbSymbolTableRecord
100
AcDbLayerTableRecord
  2
Layer 1
 70
     0
 62
     7
  6
CONTINUOUS
370
    -3
390
9B
  0
ENDTAB
  0
TABLE
  2
STYLE
  5
3
330
0
100
AcDbSymbolTable
 70
     2
  0
STYLE
  5
10
330
3
100
AcDbSymbolTableRecord
100
AcDbTextStyleTableRecord
  2
STANDARD
 70
     0
 40
0.0
 41
1.0
 50
0.0
 71
     0
 42
0.2
  3
txt
  4

  0
STYLE
  5
A2
330
3
100
AcDbSymbolTableRecord
100
AcDbTextStyleTableRecord
  2
ARIAL_WIDE
 70
     0
 40
0.0
 41
1.25
 50
0.0
 71
     0
 42
0.2
  3
arial.ttf
  4

1001
ACAD
1000
Arial
1071
       34
  0
ENDTAB
  0
TABLE
  2
VIEW
  5
6
330
0
100
AcDbSymbolTable
 70
     0
  0
ENDTAB
  0
TABLE
  2
UCS
  5
7
330
0
100
AcDbSymbolTable
 70
     0
  0
ENDTAB
  0
TABLE
  2
APPID
  5
9
330
0
100
AcDbSymbolTable
 70
     5
  0
APPID
  5
11
330
9
100
AcDbSymbolTableRecord
100
AcDbRegAppTableRecord
  2
ACAD
 70
     0
  0
APPID
  5
3AB
330
9
100
AcDbSymbolTableRecord
100
AcDbRegAppTableRecord
  2
ACAUTHENVIRON
 70
     0
  0
APPID
  5
3AE
330
9
100
AcDbSymbolTableRecord
100
AcDbRegAppTableRecord
  2
AcDbDynamicBlockTrueName
 70
     0
  0
APPID
  5
3AF
330
9
100
AcDbSymbolTableRecord
100
AcDbRegAppTableRecord
  2
AcDbDynamicBlockGUID
 70
     0
  0
APPID
  5
3B1
330
9
100
AcDbSymbolTableRecord
100
AcDbRegAppTableRecord
  2
AcDbBlockRepETag
 70
     0
  0
ENDTAB
  0
TABLE
  2
DIMSTYLE
  5
A
330
0
100
AcDbSymbolTable
 70
     1
100
AcDbDimStyleTable
 71
     1
340
96
  0
DIMSTYLE
105
96
102
{ACAD_REACTORS
330
3DE
102
}
330
A
100
AcDbSymbolTableRecord
100
AcDbDimStyleTableRecord
  2
STANDARD
 70
     0
340
10
  0
ENDTAB
  0
TABLE
  2
BLOCK_RECORD
  5
1
330
0
100
AcDbSymbolTable
 70
     4
  0
BLOCK_RECORD
  5
18
102
{ACAD_XDICTIONARY
360
F7
102
}
330
1
100
AcDbSymbolTableRecord
100
AcDbBlockTableRecord
  2
*MODEL_SPACE
340
9E
  0
BLOCK_RECORD
  5
15
102
{ACAD_XDICTIONARY
360
F5
102
}
330
1
100
AcDbSymbolTableRecord
100
AcDbBlockTableRecord
  2
*PAPER_SPACE
340
9F
  0
BLOCK_RECORD
  5
37
330
1
100
AcDbSymbolTableRecord
100
AcDbBlockTableRecord
  2
*D0
340
0
  0
BLOCK_RECORD
  5
1FE
102
{ACAD_XDICTIONARY
360
3A9
102
}
330
1
100
AcDbSymbolTableRecord
100
AcDbBlockTableRecord
  2
block 4
340
0
1001
AcDbDynamicBlockGUID
1000
{278EFE54-07FF-4AB5-B38A-7B3DFA76C3C7}
1001
AcDbBlockRepETag
1070
     1
1071
        7
  0
BLOCK_RECORD
  5
223
330
1
100
AcDbSymbolTableRecord
100
AcDbBlockTableRecord
  2
block 5
340
0
102
{BLKREFS
331
3A3
102
}
  0
BLOCK_RECORD
  5
3DF
330
1
100
AcDbSymbolTableRecord
100
AcDbBlockTableRecord
  2
*D3
340
0
  0
ENDTAB
  0
ENDSEC
  0
SECTION
  2
BLOCKS
  0
BLOCK
  5
41
330
18
100
AcDbEntity
  8
0
100
AcDbBlockBegin
  2
*MODEL_SPACE
 70
     0
 10
0.0
 20
0.0
 30
0.0
  3
*MODEL_SPACE
  1

  0
ENDBLK
  5
42
330
18
100
AcDbEntity
  8
0
100
AcDbBlockEnd
  0
BLOCK
  5
3F
330
15
100
AcDbEntity
 67
     1
  8
0
100
AcDbBlockBegin
  2
*PAPER_SPACE
 70
     0
 10
0.0
 20
0.0
 30
0.0
  3
*PAPER_SPACE
  1

  0
ENDBLK
  5
40
330
15
100
AcDbEntity
 67
     1
  8
0
100
AcDbBlockEnd
  0
BLOCK
  5
50
330
37
100
AcDbEntity
  8
0
100
AcDbBlockBegin
  2
*D0
 70
     1
 10
0.0
 20
0.0
 30
0.0
  3
*D0
  1

  0
LINE
  5
51
330
37
100
AcDbEntity
  8
0
  6
ByBlock
 62
     0
100
AcDbLine
 10
-1.171761374728806
 20
3.250385388003016
 30
0.0
 11
-2.089162361623463
 21
3.250385388003016
 31
0.0
  0
LINE
  5
52
330
37
100
AcDbEntity
  8
0
  6
ByBlock
 62
     0
100
AcDbLine
 10
-0.984261374728806
 20
1.350385388003015
 30
0.0
 11
-2.089162361623464
 21
1.350385388003016
 31
0.0
  0
LINE
  5
53
330
37
100
AcDbEntity
  8
0
  6
ByBlock
 62
     0
100
AcDbLine
 10
-1.909162361623463
 20
3.250385388003016
 30
0.0
 11
-1.909162361623463
 21
2.633718721336348
 31
0.0
  0
LINE
  5
54
330
37
100
AcDbEntity
  8
0
  6
ByBlock
 62
     0
100
AcDbLine
 10
-1.909162361623463
 20
1.350385388003016
 30
0.0
 11
-1.909162361623463
 21
1.967052054669682
 31
0.0
  0
LINE
  5
55
330
37
100
AcDbEntity
  8
0
  6
ByBlock
 62
     0
100
AcDbLine
 10
-1.784162361623463
 20
3.125385388003016
 30
0.0
 11
-2.034162361623463
 21
3.375385388003016
 31
0.0
  0
LINE
  5
56
330
37
100
AcDbEntity
  8
0
  6
ByBlock
 62
     0
100
AcDbLine
 10
-1.784162361623463
 20
1.225385388003015
 30
0.0
 11
-2.034162361623463
 21
1.475385388003016
 31
0.0
  0
TEXT
  5
57
330
37
100
AcDbEntity
  8
0
  6
ByBlock
 62
     0
100
AcDbText
 10
-1.846662361623463
 20
2.092052054669682
 30
0.0
 40
0.125
  1
1.900
 50
90.0
 72
     1
 11
-1.909162361623463
 21
2.300385388003015
 31
0.0
100
AcDbText
 73
     2
  0
POINT
  5
58
330
37
100
AcDbEntity
  8
DEFPOINTS
  6
ByBlock
 62
     0
100
AcDbPoint
 10
-1.109261374728806
 20
3.250385388003016
 30
0.0
  0
POINT
  5
59
330
37
100
AcDbEntity
  8
DEFPOINTS
  6
ByBlock
 62
     0
100
AcDbPoint
 10
-0.921761374728806
 20
1.350385388003015
 30
0.0
  0
POINT
  5
5A
330
37
100
AcDbEntity
  8
DEFPOINTS
  6
ByBlock
 62
     0
100
AcDbPoint
 10
-1.909162361623463
 20
1.350385388003016
 30
0.0
  0
ENDBLK
  5
5B
330
37
100
AcDbEntity
  8
0
100
AcDbBlockEnd
  0
BLOCK
  5
201
330
1FE
100
AcDbEntity
  8
0
100
AcDbBlockBegin
  2
block 4
 70
     0
 10
0.0
 20
0.0
 30
0.0
  3
block 4
  1

  0
SPLINE
  5
389
330
1FE
100
AcDbEntity
  8
Layer 1
 62
     7
370
    18
100
AcDbSpline
210
0.0
220
0.0
230
1.0
 70
     8
 71
     3
 72
    20
 73
    16
 74
     0
 42
0.0000000001
 43
0.0000000001
 40
0.0
 40
0.0
 40
0.0
 40
0.0
 40
1.0
 40
1.0
 40
1.0
 40
2.0
 40
2.0
 40
2.0
 40
3.0
 40
3.0
 40
3.0
 40
4.0
 40
4.0
 40
4.0
 40
5.0
 40
5.0
 40
5.0
 40
5.0
 10
2.486112750564352
 20
6.857982495548735
 30
0.0
 10
2.486112750564352
 20
6.288096865834572
 30
0.0
 10
2.649253049118538
 20
5.974348829074061
 30
0.0
 10
2.661276982828904
 20
5.974348829074061
 30
0.0
 10
2.761842641594286
 20
5.974348829074061
 30
0.0
 10
2.767485006426223
 20
5.907406781891306
 30
0.0
 10
2.767485006426223
 20
5.907406781891306
 30
0.0
 10
2.767485006426223
 20
5.907406781891306
 30
0.0
 10
2.767485006426223
 20
7.807412103849676
 30
0.0
 10
2.767485006426223
 20
7.807412103849676
 30
0.0
 10
2.767485006426223
 20
7.807412103849676
 30
0.0
 10
2.74617694115946
 20
7.743060661673892
 30
0.0
 10
2.661276982828904
 20
7.743060661673892
 30
0.0
 10
2.649042816775041
 20
7.722010300570127
 30
0.0
 10
2.486112750564352
 20
7.426755928348909
 30
0.0
 10
2.486112750564352
 20
6.856836390192247
 30
0.0
1001
AcDbBlockRepETag
1070
     1
1071
        0
1005
389
  0
POLYLINE
  5
38A
330
1FE
100
AcDbEntity
  8
Layer 1
 62
     7
370
    18
100
AcDb2dPolyline
 66
     1
 10
0.0
 20
0.0
 30
0.0
1001
AcDbBlockRepETag
1070
     1
1071
        1
1005
38A
  0
VERTEX
  5
38B
330
38A
100
AcDbEntity
  8
Layer 1
 62
     7
370
    18
100
AcDbVertex
100
AcDb2dVertex
 10
4.203412602646255
 20
7.662399258655789
 30
0.0
  0
VERTEX
  5
38C
330
38A
100
AcDbEntity
  8
Layer 1
 62
     7
370
    18
100
AcDbVertex
100
AcDb2dVertex
 10
3.236113245148012
 20
7.662399258655789
 30
0.0
  0
VERTEX
  5
38D
330
38A
100
AcDbEntity
  8
Layer 1
 62
     7
370
    18
100
AcDbVertex
100
AcDb2dVertex
 10
3.236113245148012
 20
6.052406063708193
 30
0.0
  0
VERTEX
  5
38E
330
38A
100
AcDbEntity
  8
Layer 1
 62
     7
370
    18
100
AcDbVertex
100
AcDb2dVertex
 10
4.203412602646255
 20
6.052406063708193
 30
0.0
  0
VERTEX
  5
38F
330
38A
100
AcDbEntity
  8
Layer 1
 62
     7
370
    18
100
AcDbVertex
100
AcDb2dVertex
 10
4.233821693879917
 20
6.068627862600012
 30
0.0
  0
VERTEX
  5
390
330
38A
100
AcDbEntity
  8
Layer 1
 62
     7
370
    18
100
AcDbVertex
100
AcDb2dVertex
 10
4.233821693879917
 20
6.789826526124493
 30
0.0
  0
VERTEX
  5
391
330
38A
100
AcDbEntity
  8
Layer 1
 62
     7
370
    18
100
AcDbVertex
100
AcDb2dVertex
 10
4.233821693879917
 20
6.92493810610849
 30
0.0
  0
VERTEX
  5
392
330
38A
100
AcDbEntity
  8
Layer 1
 62
     7
370
    18
100
AcDbVertex
100
AcDb2dVertex
 10
4.233821693879917
 20
7.646184241452469
 30
0.0
  0
VERTEX
  5
393
330
38A
100
AcDbEntity
  8
Layer 1
 62
     7
370
    18
100
AcDbVertex
100
AcDb2dVertex
 10
4.203412602646255
 20
7.662399258655789
 30
0.0
  0
SEQEND
  5
394
330
38A
100
AcDbEntity
  8
Layer 1
370
    18
  0
POLYLINE
  5
395
330
1FE
100
AcDbEntity
  8
Layer 1
 62
     7
370
    18
100
AcDb2dPolyline
 66
     1
 10
0.0
 20
0.0
 30
0.0
1001
AcDbBlockRepETag
1070
     1
1071
        2
1005
395
  0
VERTEX
  5
396
330
395
100
AcDbEntity
  8
Layer 1
 62
     7
370
    18
100
AcDbVertex
100
AcDb2dVertex
 10
2.767485006426223
 20
5.907406781891306
 30
0.0
  0
VERTEX
  5
397
330
395
100
AcDbEntity
  8
Layer 1
 62
     7
370
    18
100
AcDbVertex
100
AcDb2dVertex
 10
3.236113245148012
 20
5.907406781891306
 30
0.0
  0
VERTEX
  5
398
330
395
100
AcDbEntity
  8
Layer 1
 62
     7
370
    18
100
AcDbVertex
100
AcDb2dVertex
 10
3.236113245148012
 20
7.807412103849676
 30
0.0
  0
VERTEX
  5
399
330
395
100
AcDbEntity
  8
Layer 1
 62
     7
370
    18
100
AcDbVertex
100
AcDb2dVertex
 10
2.767485006426223
 20
7.807412103849676
 30
0.0
  0
VERTEX
  5
39A
330
395
100
AcDbEntity
  8
Layer 1
 62
     7
370
    18
100
AcDbVertex
100
AcDb2dVertex
 10
2.767485006426223
 20
5.907406781891306
 30
0.0
  0
SEQEND
  5
39B
330
395
100
AcDbEntity
  8
Layer 1
370
    18
  0
POLYLINE
  5
39C
330
1FE
100
AcDbEntity
  8
Layer 1
 62
     7
370
    18
100
AcDb2dPolyline
 66
     1
 10
0.0
 20
0.0
 30
0.0
1001
AcDbBlockRepETag
1070
     1
1071
        3
1005
39C
  0
VERTEX
  5
39D
330
39C
100
AcDbEntity
  8
Layer 1
 62
     7
370
    18
100
AcDbVertex
100
AcDb2dVertex
 10
2.767485006426223
 20
5.907406781891306
 30
0.0
  0
VERTEX
  5
39E
330
39C
100
AcDbEntity
  8
Layer 1
 62
     7
370
    18
100
AcDbVertex
100
AcDb2dVertex
 10
2.903322227079713
 20
5.907406781891306
 30
0.0
  0
VERTEX
  5
39F
330
39C
100
AcDbEntity
  8
Layer 1
 62
     7
370
    18
100
AcDbVertex
100
AcDb2dVertex
 10
2.903322227079713
 20
7.807412103849676
 30
0.0
  0
VERTEX
  5
3A0
330
39C
100
AcDbEntity
  8
Layer 1
 62
     7
370
    18
100
AcDbVertex
100
AcDb2dVertex
 10
2.767485006426223
 20
7.807412103849676
 30
0.0
  0
VERTEX
  5
3A1
330
39C
100
AcDbEntity
  8
Layer 1
 62
     7
370
    18
100
AcDbVertex
100
AcDb2dVertex
 10
2.767485006426223
 20
5.907406781891306
 30
0.0
  0
SEQEND
  5
3A2
330
39C
100
AcDbEntity
  8
Layer 1
370
    18
  0
INSERT
  5
3A3
330
1FE
100
AcDbEntity
  8
Layer 1
100
AcDbBlockReference
  2
block 5
 10
0.0
 20
0.0
 30
0.0
1001
AcDbBlockRepETag
1070
     1
1071
        4
1005
3A3
  0
POLYLINE
  5
3A4
330
1FE
100
AcDbEntity
  8
Layer 1
 62
     7
370
    18
100
AcDb2dPolyline
 66
     1
 10
0.0
 20
0.0
 30
0.0
1001
AcDbBlockRepETag
1070
     1
1071
        5
1005
3A4
  0
VERTEX
  5
3A5
330
3A4
100
AcDbEntity
  8
Layer 1
 62
     7
370
    18
100
AcDbVertex
100
AcDb2dVertex
 10
4.203412602646255
 20
7.662412822032789
 30
0.0
  0
VERTEX
  5
3A6
330
3A4
100
AcDbEntity
  8
Layer 1
 62
     7
370
    18
100
AcDbVertex
100
AcDb2dVertex
 10
4.203412602646255
 20
6.052412845396693
 30
0.0
  0
SEQEND
  5
3A7
330
3A4
100
AcDbEntity
  8
Layer 1
370
    18
  0
SPLINE
  5
3A8
330
1FE
100
AcDbEntity
  8
ADP1DETAIL
  6
AI-Linetype-2
 62
     5
370
    18
100
AcDbSpline
210
0.0
220
0.0
230
1.0
 70
     8
 71
     3
 72
    29
 73
    25
 74
     0
 42
0.0000000001
 43
0.0000000001
 40
0.0
 40
0.0
 40
0.0
 40
0.0
 40
1.0
 40
1.0
 40
1.0
 40
2.0
 40
2.0
 40
2.0
 40
3.0
 40
3.0
 40
3.0
 40
4.0
 40
4.0
 40
4.0
 40
5.0
 40
5.0
 40
5.0
 40
6.0
 40
6.0
 40
6.0
 40
7.0
 40
7.0
 40
7.0
 40
8.0
 40
8.0
 40
8.0
 40
8.0
 10
4.233821693879917
 20
6.182031257695752
 30
0.0
 10
4.233821693879917
 20
6.182031257695752
 30
0.0
 10
4.203412602646255
 20
6.198246274899071
 30
0.0
 10
4.203412602646255
 20
6.198246274899071
 30
0.0
 10
4.203412602646255
 20
6.198246274899071
 30
0.0
 10
3.236113245148012
 20
6.198246274899071
 30
0.0
 10
3.236113245148012
 20
6.198246274899071
 30
0.0
 10
3.236113245148012
 20
6.198239493210571
 30
0.0
 10
3.236113245148012
 20
6.346378696802924
 30
0.0
 10
3.236113245148012
 20
6.346378696802924
 30
0.0
 10
3.236113245148012
 20
6.346378696802924
 30
0.0
 10
3.159724305884862
 20
6.523631689125453
 30
0.0
 10
3.159724305884862
 20
6.857412833714741
 30
0.0
 10
3.159724305884862
 20
7.191207541681029
 30
0.0
 10
3.236113245148012
 20
7.368433407249558
 30
0.0
 10
3.236113245148012
 20
7.368433407249558
 30
0.0
 10
3.236113245148012
 20
7.368433407249558
 30
0.0
 10
3.236113245148012
 20
7.516565829153411
 30
0.0
 10
3.236113245148012
 20
7.51657939253041
 30
0.0
 10
3.236113245148012
 20
7.516565829153411
 30
0.0
 10
4.203412602646255
 20
7.516565829153411
 30
0.0
 10
4.203412602646255
 20
7.516565829153411
 30
0.0
 10
4.203412602646255
 20
7.516565829153411
 30
0.0
 10
4.233821693879917
 20
7.53279440973373
 30
0.0
 10
4.233821693879917
 20
7.532801191422231
 30
0.0
1001
AcDbBlockRepETag
1070
     1
1071
        6
1005
3A8
  0
ENDBLK
  5
222
330
1FE
100
AcDbEntity
  8
0
100
AcDbBlockEnd
  0
BLOCK
  5
224
330
223
100
AcDbEntity
  8
0
100
AcDbBlockBegin
  2
block 5
 70
     0
 10
0.0
 20
0.0
 30
0.0
  3
block 5
  1

  0
POLYLINE
  5
225
330
223
100
AcDbEntity
  8
Layer 1
 62
     7
370
    18
100
AcDb2dPolyline
 66
     1
 10
0.0
 20
0.0
 30
0.0
  0
VERTEX
  5
226
330
225
100
AcDbEntity
  8
Layer 1
 62
     7
370
    18
100
AcDbVertex
100
AcDb2dVertex
 10
3.893035065070207
 20
7.662412822032789
 30
0.0
  0
VERTEX
  5
227
330
225
100
AcDbEntity
  8
Layer 1
 62
     7
370
    18
100
AcDbVertex
100
AcDb2dVertex
 10
3.51771607841888
 20
7.662412822032789
 30
0.0
  0
SEQEND
  5
228
330
225
100
AcDbEntity
  8
Layer 1
370
    18
  0
POLYLINE
  5
229
330
223
100
AcDbEntity
  8
Layer 1
 62
     7
370
    18
100
AcDb2dPolyline
 66
     1
 10
0.0
 20
0.0
 30
0.0
  0
VERTEX
  5
22A
330
229
100
AcDbEntity
  8
Layer 1
 62
     7
370
    18
100
AcDbVertex
100
AcDb2dVertex
 10
3.893035065070207
 20
7.641504876387521
 30
0.0
  0
VERTEX
  5
22B
330
229
100
AcDbEntity
  8
Layer 1
 62
     7
370
    18
100
AcDbVertex
100
AcDb2dVertex
 10
3.51771607841888
 20
7.641504876387521
 30
0.0
  0
SEQEND
  5
22C
330
229
100
AcDbEntity
  8
Layer 1
370
    18
  0
POLYLINE
  5
22D
330
223
100
AcDbEntity
  8
Layer 1
 62
     7
370
    18
100
AcDb2dPolyline
 66
     1
 10
0.0
 20
0.0
 30
0.0
  0
VERTEX
  5
22E
330
22D
100
AcDbEntity
  8
Layer 1
 62
     7
370
    18
100
AcDbVertex
100
AcDb2dVertex
 10
3.893035065070207
 20
7.620596930742254
 30
0.0
  0
VERTEX
  5
22F
330
22D
100
AcDbEntity
  8
Layer 1
 62
     7
370
    18
100
AcDbVertex
100
AcDb2dVertex
 10
3.51771607841888
 20
7.620596930742254
 30
0.0
  0
SEQEND
  5
230
330
22D
100
AcDbEntity
  8
Layer 1
370
    18
  0
POLYLINE
  5
231
330
223
100
AcDbEntity
  8
Layer 1
 62
     7
370
    18
100
AcDb2dPolyline
 66
     1
 10
0.0
 20
0.0
 30
0.0
  0
VERTEX
  5
232
330
231
100
AcDbEntity
  8
Layer 1
 62
     7
370
    18
100
AcDbVertex
100
AcDb2dVertex
 10
3.893035065070207
 20
7.599688985096986
 30
0.0
  0
VERTEX
  5
233
330
231
100
AcDbEntity
  8
Layer 1
 62
     7
370
    18
100
AcDbVertex
100
AcDb2dVertex
 10
3.51771607841888
 20
7.599688985096986
 30
0.0
  0
SEQEND
  5
234
330
231
100
AcDbEntity
  8
Layer 1
370
    18
  0
POLYLINE
  5
235
330
223
100
AcDbEntity
  8
Layer 1
 62
     7
370
    18
100
AcDb2dPolyline
 66
     1
 10
0.0
 20
0.0
 30
0.0
  0
VERTEX
  5
236
330
235
100
AcDbEntity
  8
Layer 1
 62
     7
370
    18
100
AcDbVertex
100
AcDb2dVertex
 10
3.893035065070207
 20
7.578781039451719
 30
0.0
  0
VERTEX
  5
237
330
235
100
AcDbEntity
  8
Layer 1
 62
     7
370
    18
100
AcDbVertex
100
AcDb2dVertex
 10
3.51771607841888
 20
7.578781039451719
 30
0.0
  0
SEQEND
  5
238
330
235
100
AcDbEntity
  8
Layer 1
370
    18
  0
POLYLINE
  5
239
330
223
100
AcDbEntity
  8
Layer 1
 62
     7
370
    18
100
AcDb2dPolyline
 66
     1
 10
0.0
 20
0.0
 30
0.0
  0
VERTEX
  5
23A
330
239
100
AcDbEntity
  8
Layer 1
 62
     7
370
    18
100
AcDbVertex
100
AcDb2dVertex
 10
3.893028283381707
 20
7.557866312117951
 30
0.0
  0
VERTEX
  5
23B
330
239
100
AcDbEntity
  8
Layer 1
 62
     7
370
    18
100
AcDbVertex
100
AcDb2dVertex
 10
3.51771607841888
 20
7.557866312117951
 30
0.0
  0
SEQEND
  5
23C
330
239
100
AcDbEntity
  8
Layer 1
370
    18
  0
POLYLINE
  5
23D
330
223
100
AcDbEntity
  8
Layer 1
 62
     7
370
    18
100
AcDb2dPolyline
 66
     1
 10
0.0
 20
0.0
 30
0.0
  0
VERTEX
  5
23E
330
23D
100
AcDbEntity
  8
Layer 1
 62
     7
370
    18
100
AcDbVertex
100
AcDb2dVertex
 10
3.893035065070207
 20
7.536951584784184
 30
0.0
  0
VERTEX
  5
23F
330
23D
100
AcDbEntity
  8
Layer 1
 62
     7
370
    18
100
AcDbVertex
100
AcDb2dVertex
 10
3.51772286010738
 20
7.536951584784184
 30
0.0
  0
SEQEND
  5
240
330
23D
100
AcDbEntity
  8
Layer 1
370
    18
  0
POLYLINE
  5
241
330
223
100
AcDbEntity
  8
Layer 1
 62
     7
370
    18
100
AcDb2dPolyline
 66
     1
 10
0.0
 20
0.0
 30
0.0
  0
VERTEX
  5
242
330
241
100
AcDbEntity
  8
Layer 1
 62
     7
370
    18
100
AcDbVertex
100
AcDb2dVertex
 10
3.893035065070207
 20
7.516050420827417
 30
0.0
  0
VERTEX
  5
243
330
241
100
AcDbEntity
  8
Layer 1
 62
     7
370
    18
100
AcDbVertex
100
AcDb2dVertex
 10
3.51771607841888
 20
7.516050420827417
 30
0.0
  0
SEQEND
  5
244
330
241
100
AcDbEntity
  8
Layer 1
370
    18
  0
POLYLINE
  5
245
330
223
100
AcDbEntity
  8
Layer 1
 62
     7
370
    18
100
AcDb2dPolyline
 66
     1
 10
0.0
 20
0.0
 30
0.0
  0
VERTEX
  5
246
330
245
100
AcDbEntity
  8
Layer 1
 62
     7
370
    18
100
AcDbVertex
100
AcDb2dVertex
 10
3.893035065070207
 20
7.495135693493649
 30
0.0
  0
VERTEX
  5
247
330
245
100
AcDbEntity
  8
Layer 1
 62
     7
370
    18
100
AcDbVertex
100
AcDb2dVertex
 10
3.51771607841888
 20
7.495135693493649
 30
0.0
  0
SEQEND
  5
248
330
245
100
AcDbEntity
  8
Layer 1
370
    18
  0
POLYLINE
  5
249
330
223
100
AcDbEntity
  8
Layer 1
 62
     7
370
    18
100
AcDb2dPolyline
 66
     1
 10
0.0
 20
0.0
 30
0.0
  0
VERTEX
  5
24A
330
249
100
AcDbEntity
  8
Layer 1
 62
     7
370
    18
100
AcDbVertex
100
AcDb2dVertex
 10
3.893035065070207
 20
7.474227747848382
 30
0.0
  0
VERTEX
  5
24B
330
249
100
AcDbEntity
  8
Layer 1
 62
     7
370
    18
100
AcDbVertex
100
AcDb2dVertex
 10
3.51771607841888
 20
7.474227747848382
 30
0.0
  0
SEQEND
  5
24C
330
249
100
AcDbEntity
  8
Layer 1
370
    18
  0
POLYLINE
  5
24D
330
223
100
AcDbEntity
  8
Layer 1
 62
     7
370
    18
100
AcDb2dPolyline
 66
     1
 10
0.0
 20
0.0
 30
0.0
  0
VERTEX
  5
24E
330
24D
100
AcDbEntity
  8
Layer 1
 62
     7
370
    18
100
AcDbVertex
100
AcDb2dVertex
 10
3.893035065070207
 20
7.453326583891614
 30
0.0
  0
VERTEX
  5
24F
330
24D
100
AcDbEntity
  8
Layer 1
 62
     7
370
    18
100
AcDbVertex
100
AcDb2dVertex
 10
3.51771607841888
 20
7.453326583891614
 30
0.0
  0
SEQEND
  5
250
330
24D
100
AcDbEntity
  8
Layer 1
370
    18
  0
POLYLINE
  5
251
330
223
100
AcDbEntity
  8
Layer 1
 62
     7
370
    18
100
AcDb2dPolyline
 66
     1
 10
0.0
 20
0.0
 30
0.0
  0
VERTEX
  5
252
330
251
100
AcDbEntity
  8
Layer 1
 62
     7
370
    18
100
AcDbVertex
100
AcDb2dVertex
 10
3.893035065070207
 20
7.432411856557846
 30
0.0
  0
VERTEX
  5
253
330
251
100
AcDbEntity
  8
Layer 1
 62
     7
370
    18
100
AcDbVertex
100
AcDb2dVertex
 10
3.51771607841888
 20
7.432411856557846
 30
0.0
  0
SEQEND
  5
254
330
251
100
AcDbEntity
  8
Layer 1
370
    18
  0
POLYLINE
  5
255
330
223
100
AcDbEntity
  8
Layer 1
 62
     7
370
    18
100
AcDb2dPolyline
 66
     1
 10
0.0
 20
0.0
 30
0.0
  0
VERTEX
  5
256
330
255
100
AcDbEntity
  8
Layer 1
 62
     7
370
    18
100
AcDbVertex
100
AcDb2dVertex
 10
3.893035065070207
 20
7.411503910912579
 30
0.0
  0
VERTEX
  5
257
330
255
100
AcDbEntity
  8
Layer 1
 62
     7
370
    18
100
AcDbVertex
100
AcDb2dVertex
 10
3.51771607841888
 20
7.411503910912579
 30
0.0
  0
SEQEND
  5
258
330
255
100
AcDbEntity
  8
Layer 1
370
    18
  0
POLYLINE
  5
259
330
223
100
AcDbEntity
  8
Layer 1
 62
     7
370
    18
100
AcDb2dPolyline
 66
     1
 10
0.0
 20
0.0
 30
0.0
  0
VERTEX
  5
25A
330
259
100
AcDbEntity
  8
Layer 1
 62
     7
370
    18
100
AcDbVertex
100
AcDb2dVertex
 10
3.893035065070207
 20
7.390595965267312
 30
0.0
  0
VERTEX
  5
25B
330
259
100
AcDbEntity
  8
Layer 1
 62
     7
370
    18
100
AcDbVertex
100
AcDb2dVertex
 10
3.51771607841888
 20
7.390595965267312
 30
0.0
  0
SEQEND
  5
25C
330
259
100
AcDbEntity
  8
Layer 1
370
    18
  0
POLYLINE
  5
25D
330
223
100
AcDbEntity
  8
Layer 1
 62
     7
370
    18
100
AcDb2dPolyline
 66
     1
 10
0.0
 20
0.0
 30
0.0
  0
VERTEX
  5
25E
330
25D
100
AcDbEntity
  8
Layer 1
 62
     7
370
    18
100
AcDbVertex
100
AcDb2dVertex
 10
3.893041846758706
 20
7.369681237933544
 30
0.0
  0
VERTEX
  5
25F
330
25D
100
AcDbEntity
  8
Layer 1
 62
     7
370
    18
100
AcDbVertex
100
AcDb2dVertex
 10
3.51771607841888
 20
7.369681237933544
 30
0.0
  0
SEQEND
  5
260
330
25D
100
AcDbEntity
  8
Layer 1
370
    18
  0
POLYLINE
  5
261
330
223
100
AcDbEntity
  8
Layer 1
 62
     7
370
    18
100
AcDb2dPolyline
 66
     1
 10
0.0
 20
0.0
 30
0.0
  0
VERTEX
  5
262
330
261
100
AcDbEntity
  8
Layer 1
 62
     7
370
    18
100
AcDbVertex
100
AcDb2dVertex
 10
3.893028283381707
 20
7.348773292288277
 30
0.0
  0
VERTEX
  5
263
330
261
100
AcDbEntity
  8
Layer 1
 62
     7
370
    18
100
AcDbVertex
100
AcDb2dVertex
 10
3.51771607841888
 20
7.348773292288277
 30
0.0
  0
SEQEND
  5
264
330
261
100
AcDbEntity
  8
Layer 1
370
    18
  0
POLYLINE
  5
265
330
223
100
AcDbEntity
  8
Layer 1
 62
     7
370
    18
100
AcDb2dPolyline
 66
     1
 10
0.0
 20
0.0
 30
0.0
  0
VERTEX
  5
266
330
265
100
AcDbEntity
  8
Layer 1
 62
     7
370
    18
100
AcDbVertex
100
AcDb2dVertex
 10
3.893035065070207
 20
7.32787212833151
 30
0.0
  0
VERTEX
  5
267
330
265
100
AcDbEntity
  8
Layer 1
 62
     7
370
    18
100
AcDbVertex
100
AcDb2dVertex
 10
3.51771607841888
 20
7.32787212833151
 30
0.0
  0
SEQEND
  5
268
330
265
100
AcDbEntity
  8
Layer 1
370
    18
  0
POLYLINE
  5
269
330
223
100
AcDbEntity
  8
Layer 1
 62
     7
370
    18
100
AcDb2dPolyline
 66
     1
 10
0.0
 20
0.0
 30
0.0
  0
VERTEX
  5
26A
330
269
100
AcDbEntity
  8
Layer 1
 62
     7
370
    18
100
AcDbVertex
100
AcDb2dVertex
 10
3.893035065070207
 20
7.306957400997742
 30
0.0
  0
VERTEX
  5
26B
330
269
100
AcDbEntity
  8
Layer 1
 62
     7
370
    18
100
AcDbVertex
100
AcDb2dVertex
 10
3.51771607841888
 20
7.306957400997742
 30
0.0
  0
SEQEND
  5
26C
330
269
100
AcDbEntity
  8
Layer 1
370
    18
  0
POLYLINE
  5
26D
330
223
100
AcDbEntity
  8
Layer 1
 62
     7
370
    18
100
AcDb2dPolyline
 66
     1
 10
0.0
 20
0.0
 30
0.0
  0
VERTEX
  5
26E
330
26D
100
AcDbEntity
  8
Layer 1
 62
     7
370
    18
100
AcDbVertex
100
AcDb2dVertex
 10
3.893035065070207
 20
7.286049455352475
 30
0.0
  0
VERTEX
  5
26F
330
26D
100
AcDbEntity
  8
Layer 1
 62
     7
370
    18
100
AcDbVertex
100
AcDb2dVertex
 10
3.51771607841888
 20
7.286049455352475
 30
0.0
  0
SEQEND
  5
270
330
26D
100
AcDbEntity
  8
Layer 1
370
    18
  0
POLYLINE
  5
271
330
223
100
AcDbEntity
  8
Layer 1
 62
     7
370
    18
100
AcDb2dPolyline
 66
     1
 10
0.0
 20
0.0
 30
0.0
  0
VERTEX
  5
272
330
271
100
AcDbEntity
  8
Layer 1
 62
     7
370
    18
100
AcDbVertex
100
AcDb2dVertex
 10
3.893035065070207
 20
7.265141509707206
 30
0.0
  0
VERTEX
  5
273
330
271
100
AcDbEntity
  8
Layer 1
 62
     7
370
    18
100
AcDbVertex
100
AcDb2dVertex
 10
3.51771607841888
 20
7.265141509707206
 30
0.0
  0
SEQEND
  5
274
330
271
100
AcDbEntity
  8
Layer 1
370
    18
  0
POLYLINE
  5
275
330
223
100
AcDbEntity
  8
Layer 1
 62
     7
370
    18
100
AcDb2dPolyline
 66
     1
 10
0.0
 20
0.0
 30
0.0
  0
VERTEX
  5
276
330
275
100
AcDbEntity
  8
Layer 1
 62
     7
370
    18
100
AcDbVertex
100
AcDb2dVertex
 10
3.893035065070207
 20
7.24422678237344
 30
0.0
  0
VERTEX
  5
277
330
275
100
AcDbEntity
  8
Layer 1
 62
     7
370
    18
100
AcDbVertex
100
AcDb2dVertex
 10
3.51771607841888
 20
7.24422678237344
 30
0.0
  0
SEQEND
  5
278
330
275
100
AcDbEntity
  8
Layer 1
370
    18
  0
POLYLINE
  5
279
330
223
100
AcDbEntity
  8
Layer 1
 62
     7
370
    18
100
AcDb2dPolyline
 66
     1
 10
0.0
 20
0.0
 30
0.0
  0
VERTEX
  5
27A
330
279
100
AcDbEntity
  8
Layer 1
 62
     7
370
    18
100
AcDbVertex
100
AcDb2dVertex
 10
3.893035065070207
 20
7.223325618416672
 30
0.0
  0
VERTEX
  5
27B
330
279
100
AcDbEntity
  8
Layer 1
 62
     7
370
    18
100
AcDbVertex
100
AcDb2dVertex
 10
3.51771607841888
 20
7.223325618416672
 30
0.0
  0
SEQEND
  5
27C
330
279
100
AcDbEntity
  8
Layer 1
370
    18
  0
POLYLINE
  5
27D
330
223
100
AcDbEntity
  8
Layer 1
 62
     7
370
    18
100
AcDb2dPolyline
 66
     1
 10
0.0
 20
0.0
 30
0.0
  0
VERTEX
  5
27E
330
27D
100
AcDbEntity
  8
Layer 1
 62
     7
370
    18
100
AcDbVertex
100
AcDb2dVertex
 10
3.893041846758706
 20
7.202410891082904
 30
0.0
  0
VERTEX
  5
27F
330
27D
100
AcDbEntity
  8
Layer 1
 62
     7
370
    18
100
AcDbVertex
100
AcDb2dVertex
 10
3.51771607841888
 20
7.202410891082904
 30
0.0
  0
SEQEND
  5
280
330
27D
100
AcDbEntity
  8
Layer 1
370
    18
  0
POLYLINE
  5
281
330
223
100
AcDbEntity
  8
Layer 1
 62
     7
370
    18
100
AcDb2dPolyline
 66
     1
 10
0.0
 20
0.0
 30
0.0
  0
VERTEX
  5
282
330
281
100
AcDbEntity
  8
Layer 1
 62
     7
370
    18
100
AcDbVertex
100
AcDb2dVertex
 10
3.893041846758706
 20
7.181502945437637
 30
0.0
  0
VERTEX
  5
283
330
281
100
AcDbEntity
  8
Layer 1
 62
     7
370
    18
100
AcDbVertex
100
AcDb2dVertex
 10
3.51771607841888
 20
7.181502945437637
 30
0.0
  0
SEQEND
  5
284
330
281
100
AcDbEntity
  8
Layer 1
370
    18
  0
POLYLINE
  5
285
330
223
100
AcDbEntity
  8
Layer 1
 62
     7
370
    18
100
AcDb2dPolyline
 66
     1
 10
0.0
 20
0.0
 30
0.0
  0
VERTEX
  5
286
330
285
100
AcDbEntity
  8
Layer 1
 62
     7
370
    18
100
AcDbVertex
100
AcDb2dVertex
 10
3.893028283381707
 20
7.16059499979237
 30
0.0
  0
VERTEX
  5
287
330
285
100
AcDbEntity
  8
Layer 1
 62
     7
370
    18
100
AcDbVertex
100
AcDb2dVertex
 10
3.51771607841888
 20
7.16059499979237
 30
0.0
  0
SEQEND
  5
288
330
285
100
AcDbEntity
  8
Layer 1
370
    18
  0
POLYLINE
  5
289
330
223
100
AcDbEntity
  8
Layer 1
 62
     7
370
    18
100
AcDb2dPolyline
 66
     1
 10
0.0
 20
0.0
 30
0.0
  0
VERTEX
  5
28A
330
289
100
AcDbEntity
  8
Layer 1
 62
     7
370
    18
100
AcDbVertex
100
AcDb2dVertex
 10
3.893028283381707
 20
7.139687054147102
 30
0.0
  0
VERTEX
  5
28B
330
289
100
AcDbEntity
  8
Layer 1
 62
     7
370
    18
100
AcDbVertex
100
AcDb2dVertex
 10
3.51771607841888
 20
7.139687054147102
 30
0.0
  0
SEQEND
  5
28C
330
289
100
AcDbEntity
  8
Layer 1
370
    18
  0
POLYLINE
  5
28D
330
223
100
AcDbEntity
  8
Layer 1
 62
     7
370
    18
100
AcDb2dPolyline
 66
     1
 10
0.0
 20
0.0
 30
0.0
  0
VERTEX
  5
28E
330
28D
100
AcDbEntity
  8
Layer 1
 62
     7
370
    18
100
AcDbVertex
100
AcDb2dVertex
 10
3.893028283381707
 20
7.118779108501835
 30
0.0
  0
VERTEX
  5
28F
330
28D
100
AcDbEntity
  8
Layer 1
 62
     7
370
    18
100
AcDbVertex
100
AcDb2dVertex
 10
3.51771607841888
 20
7.118779108501835
 30
0.0
  0
SEQEND
  5
290
330
28D
100
AcDbEntity
  8
Layer 1
370
    18
  0
POLYLINE
  5
291
330
223
100
AcDbEntity
  8
Layer 1
 62
     7
370
    18
100
AcDb2dPolyline
 66
     1
 10
0.0
 20
0.0
 30
0.0
  0
VERTEX
  5
292
330
291
100
AcDbEntity
  8
Layer 1
 62
     7
370
    18
100
AcDbVertex
100
AcDb2dVertex
 10
3.893035065070207
 20
7.097864381168067
 30
0.0
  0
VERTEX
  5
293
330
291
100
AcDbEntity
  8
Layer 1
 62
     7
370
    18
100
AcDbVertex
100
AcDb2dVertex
 10
3.51771607841888
 20
7.097864381168067
 30
0.0
  0
SEQEND
  5
294
330
291
100
AcDbEntity
  8
Layer 1
370
    18
  0
POLYLINE
  5
295
330
223
100
AcDbEntity
  8
Layer 1
 62
     7
370
    18
100
AcDb2dPolyline
 66
     1
 10
0.0
 20
0.0
 30
0.0
  0
VERTEX
  5
296
330
295
100
AcDbEntity
  8
Layer 1
 62
     7
370
    18
100
AcDbVertex
100
AcDb2dVertex
 10
3.893035065070207
 20
7.076963217211299
 30
0.0
  0
VERTEX
  5
297
330
295
100
AcDbEntity
  8
Layer 1
 62
     7
370
    18
100
AcDbVertex
100
AcDb2dVertex
 10
3.51771607841888
 20
7.076963217211299
 30
0.0
  0
SEQEND
  5
298
330
295
100
AcDbEntity
  8
Layer 1
370
    18
  0
POLYLINE
  5
299
330
223
100
AcDbEntity
  8
Layer 1
 62
     7
370
    18
100
AcDb2dPolyline
 66
     1
 10
0.0
 20
0.0
 30
0.0
  0
VERTEX
  5
29A
330
299
100
AcDbEntity
  8
Layer 1
 62
     7
370
    18
100
AcDbVertex
100
AcDb2dVertex
 10
3.893035065070207
 20
7.056048489877532
 30
0.0
  0
VERTEX
  5
29B
330
299
100
AcDbEntity
  8
Layer 1
 62
     7
370
    18
100
AcDbVertex
100
AcDb2dVertex
 10
3.51771607841888
 20
7.056048489877532
 30
0.0
  0
SEQEND
  5
29C
330
299
100
AcDbEntity
  8
Layer 1
370
    18
  0
POLYLINE
  5
29D
330
223
100
AcDbEntity
  8
Layer 1
 62
     7
370
    18
100
AcDb2dPolyline
 66
     1
 10
0.0
 20
0.0
 30
0.0
  0
VERTEX
  5
29E
330
29D
100
AcDbEntity
  8
Layer 1
 62
     7
370
    18
100
AcDbVertex
100
AcDb2dVertex
 10
3.893035065070207
 20
7.035140544232264
 30
0.0
  0
VERTEX
  5
29F
330
29D
100
AcDbEntity
  8
Layer 1
 62
     7
370
    18
100
AcDbVertex
100
AcDb2dVertex
 10
3.51771607841888
 20
7.035140544232264
 30
0.0
  0
SEQEND
  5
2A0
330
29D
100
AcDbEntity
  8
Layer 1
370
    18
  0
POLYLINE
  5
2A1
330
223
100
AcDbEntity
  8
Layer 1
 62
     7
370
    18
100
AcDb2dPolyline
 66
     1
 10
0.0
 20
0.0
 30
0.0
  0
VERTEX
  5
2A2
330
2A1
100
AcDbEntity
  8
Layer 1
 62
     7
370
    18
100
AcDbVertex
100
AcDb2dVertex
 10
3.893035065070207
 20
7.014232598586997
 30
0.0
  0
VERTEX
  5
2A3
330
2A1
100
AcDbEntity
  8
Layer 1
 62
     7
370
    18
100
AcDbVertex
100
AcDb2dVertex
 10
3.51771607841888
 20
7.014232598586997
 30
0.0
  0
SEQEND
  5
2A4
330
2A1
100
AcDbEntity
  8
Layer 1
370
    18
  0
POLYLINE
  5
2A5
330
223
100
AcDbEntity
  8
Layer 1
 62
     7
370
    18
100
AcDb2dPolyline
 66
     1
 10
0.0
 20
0.0
 30
0.0
  0
VERTEX
  5
2A6
330
2A5
100
AcDbEntity
  8
Layer 1
 62
     7
370
    18
100
AcDbVertex
100
AcDb2dVertex
 10
3.893041846758706
 20
6.993317871253229
 30
0.0
  0
VERTEX
  5
2A7
330
2A5
100
AcDbEntity
  8
Layer 1
 62
     7
370
    18
100
AcDbVertex
100
AcDb2dVertex
 10
3.51771607841888
 20
6.993317871253229
 30
0.0
  0
SEQEND
  5
2A8
330
2A5
100
AcDbEntity
  8
Layer 1
370
    18
  0
POLYLINE
  5
2A9
330
223
100
AcDbEntity
  8
Layer 1
 62
     7
370
    18
100
AcDb2dPolyline
 66
     1
 10
0.0
 20
0.0
 30
0.0
  0
VERTEX
  5
2AA
330
2A9
100
AcDbEntity
  8
Layer 1
 62
     7
370
    18
100
AcDbVertex
100
AcDb2dVertex
 10
3.893041846758706
 20
6.972416707296462
 30
0.0
  0
VERTEX
  5
2AB
330
2A9
100
AcDbEntity
  8
Layer 1
 62
     7
370
    18
100
AcDbVertex
100
AcDb2dVertex
 10
3.51771607841888
 20
6.972416707296462
 30
0.0
  0
SEQEND
  5
2AC
330
2A9
100
AcDbEntity
  8
Layer 1
370
    18
  0
POLYLINE
  5
2AD
330
223
100
AcDbEntity
  8
Layer 1
 62
     7
370
    18
100
AcDb2dPolyline
 66
     1
 10
0.0
 20
0.0
 30
0.0
  0
VERTEX
  5
2AE
330
2AD
100
AcDbEntity
  8
Layer 1
 62
     7
370
    18
100
AcDbVertex
100
AcDb2dVertex
 10
3.893028283381707
 20
6.951501979962695
 30
0.0
  0
VERTEX
  5
2AF
330
2AD
100
AcDbEntity
  8
Layer 1
 62
     7
370
    18
100
AcDbVertex
100
AcDb2dVertex
 10
3.51771607841888
 20
6.951501979962695
 30
0.0
  0
SEQEND
  5
2B0
330
2AD
100
AcDbEntity
  8
Layer 1
370
    18
  0
POLYLINE
  5
2B1
330
223
100
AcDbEntity
  8
Layer 1
 62
     7
370
    18
100
AcDb2dPolyline
 66
     1
 10
0.0
 20
0.0
 30
0.0
  0
VERTEX
  5
2B2
330
2B1
100
AcDbEntity
  8
Layer 1
 62
     7
370
    18
100
AcDbVertex
100
AcDb2dVertex
 10
3.893028283381707
 20
6.930594034317427
 30
0.0
  0
VERTEX
  5
2B3
330
2B1
100
AcDbEntity
  8
Layer 1
 62
     7
370
    18
100
AcDbVertex
100
AcDb2dVertex
 10
3.51771607841888
 20
6.930594034317427
 30
0.0
  0
SEQEND
  5
2B4
330
2B1
100
AcDbEntity
  8
Layer 1
370
    18
  0
POLYLINE
  5
2B5
330
223
100
AcDbEntity
  8
Layer 1
 62
     7
370
    18
100
AcDb2dPolyline
 66
     1
 10
0.0
 20
0.0
 30
0.0
  0
VERTEX
  5
2B6
330
2B5
100
AcDbEntity
  8
Layer 1
 62
     7
370
    18
100
AcDbVertex
100
AcDb2dVertex
 10
3.893035065070207
 20
6.90968608867216
 30
0.0
  0
VERTEX
  5
2B7
330
2B5
100
AcDbEntity
  8
Layer 1
 62
     7
370
    18
100
AcDbVertex
100
AcDb2dVertex
 10
3.51771607841888
 20
6.90968608867216
 30
0.0
  0
SEQEND
  5
2B8
330
2B5
100
AcDbEntity
  8
Layer 1
370
    18
  0
POLYLINE
  5
2B9
330
223
100
AcDbEntity
  8
Layer 1
 62
     7
370
    18
100
AcDb2dPolyline
 66
     1
 10
0.0
 20
0.0
 30
0.0
  0
VERTEX
  5
2BA
330
2B9
100
AcDbEntity
  8
Layer 1
 62
     7
370
    18
100
AcDbVertex
100
AcDb2dVertex
 10
3.893035065070207
 20
6.888778143026892
 30
0.0
  0
VERTEX
  5
2BB
330
2B9
100
AcDbEntity
  8
Layer 1
 62
     7
370
    18
100
AcDbVertex
100
AcDb2dVertex
 10
3.51771607841888
 20
6.888778143026892
 30
0.0
  0
SEQEND
  5
2BC
330
2B9
100
AcDbEntity
  8
Layer 1
370
    18
  0
POLYLINE
  5
2BD
330
223
100
AcDbEntity
  8
Layer 1
 62
     7
370
    18
100
AcDb2dPolyline
 66
     1
 10
0.0
 20
0.0
 30
0.0
  0
VERTEX
  5
2BE
330
2BD
100
AcDbEntity
  8
Layer 1
 62
     7
370
    18
100
AcDbVertex
100
AcDb2dVertex
 10
3.893035065070207
 20
6.867870197381625
 30
0.0
  0
VERTEX
  5
2BF
330
2BD
100
AcDbEntity
  8
Layer 1
 62
     7
370
    18
100
AcDbVertex
100
AcDb2dVertex
 10
3.51771607841888
 20
6.867870197381625
 30
0.0
  0
SEQEND
  5
2C0
330
2BD
100
AcDbEntity
  8
Layer 1
370
    18
  0
POLYLINE
  5
2C1
330
223
100
AcDbEntity
  8
Layer 1
 62
     7
370
    18
100
AcDb2dPolyline
 66
     1
 10
0.0
 20
0.0
 30
0.0
  0
VERTEX
  5
2C2
330
2C1
100
AcDbEntity
  8
Layer 1
 62
     7
370
    18
100
AcDbVertex
100
AcDb2dVertex
 10
3.893035065070207
 20
6.846962251736357
 30
0.0
  0
VERTEX
  5
2C3
330
2C1
100
AcDbEntity
  8
Layer 1
 62
     7
370
    18
100
AcDbVertex
100
AcDb2dVertex
 10
3.51771607841888
 20
6.846962251736357
 30
0.0
  0
SEQEND
  5
2C4
330
2C1
100
AcDbEntity
  8
Layer 1
370
    18
  0
POLYLINE
  5
2C5
330
223
100
AcDbEntity
  8
Layer 1
 62
     7
370
    18
100
AcDb2dPolyline
 66
     1
 10
0.0
 20
0.0
 30
0.0
  0
VERTEX
  5
2C6
330
2C5
100
AcDbEntity
  8
Layer 1
 62
     7
370
    18
100
AcDbVertex
100
AcDb2dVertex
 10
3.893035065070207
 20
6.82605430609109
 30
0.0
  0
VERTEX
  5
2C7
330
2C5
100
AcDbEntity
  8
Layer 1
 62
     7
370
    18
100
AcDbVertex
100
AcDb2dVertex
 10
3.51771607841888
 20
6.82605430609109
 30
0.0
  0
SEQEND
  5
2C8
330
2C5
100
AcDbEntity
  8
Layer 1
370
    18
  0
POLYLINE
  5
2C9
330
223
100
AcDbEntity
  8
Layer 1
 62
     7
370
    18
100
AcDb2dPolyline
 66
     1
 10
0.0
 20
0.0
 30
0.0
  0
VERTEX
  5
2CA
330
2C9
100
AcDbEntity
  8
Layer 1
 62
     7
370
    18
100
AcDbVertex
100
AcDb2dVertex
 10
3.893028283381707
 20
6.805139578757322
 30
0.0
  0
VERTEX
  5
2CB
330
2C9
100
AcDbEntity
  8
Layer 1
 62
     7
370
    18
100
AcDbVertex
100
AcDb2dVertex
 10
3.51771607841888
 20
6.805139578757322
 30
0.0
  0
SEQEND
  5
2CC
330
2C9
100
AcDbEntity
  8
Layer 1
370
    18
  0
POLYLINE
  5
2CD
330
223
100
AcDbEntity
  8
Layer 1
 62
     7
370
    18
100
AcDb2dPolyline
 66
     1
 10
0.0
 20
0.0
 30
0.0
  0
VERTEX
  5
2CE
330
2CD
100
AcDbEntity
  8
Layer 1
 62
     7
370
    18
100
AcDbVertex
100
AcDb2dVertex
 10
3.893028283381707
 20
6.784231633112055
 30
0.0
  0
VERTEX
  5
2CF
330
2CD
100
AcDbEntity
  8
Layer 1
 62
     7
370
    18
100
AcDbVertex
100
AcDb2dVertex
 10
3.51771607841888
 20
6.784231633112055
 30
0.0
  0
SEQEND
  5
2D0
330
2CD
100
AcDbEntity
  8
Layer 1
370
    18
  0
POLYLINE
  5
2D1
330
223
100
AcDbEntity
  8
Layer 1
 62
     7
370
    18
100
AcDb2dPolyline
 66
     1
 10
0.0
 20
0.0
 30
0.0
  0
VERTEX
  5
2D2
330
2D1
100
AcDbEntity
  8
Layer 1
 62
     7
370
    18
100
AcDbVertex
100
AcDb2dVertex
 10
3.893028283381707
 20
6.763323687466788
 30
0.0
  0
VERTEX
  5
2D3
330
2D1
100
AcDbEntity
  8
Layer 1
 62
     7
370
    18
100
AcDbVertex
100
AcDb2dVertex
 10
3.51771607841888
 20
6.763323687466788
 30
0.0
  0
SEQEND
  5
2D4
330
2D1
100
AcDbEntity
  8
Layer 1
370
    18
  0
POLYLINE
  5
2D5
330
223
100
AcDbEntity
  8
Layer 1
 62
     7
370
    18
100
AcDb2dPolyline
 66
     1
 10
0.0
 20
0.0
 30
0.0
  0
VERTEX
  5
2D6
330
2D5
100
AcDbEntity
  8
Layer 1
 62
     7
370
    18
100
AcDbVertex
100
AcDb2dVertex
 10
3.893041846758706
 20
6.74240896013302
 30
0.0
  0
VERTEX
  5
2D7
330
2D5
100
AcDbEntity
  8
Layer 1
 62
     7
370
    18
100
AcDbVertex
100
AcDb2dVertex
 10
3.51771607841888
 20
6.74240896013302
 30
0.0
  0
SEQEND
  5
2D8
330
2D5
100
AcDbEntity
  8
Layer 1
370
    18
  0
POLYLINE
  5
2D9
330
223
100
AcDbEntity
  8
Layer 1
 62
     7
370
    18
100
AcDb2dPolyline
 66
     1
 10
0.0
 20
0.0
 30
0.0
  0
VERTEX
  5
2DA
330
2D9
100
AcDbEntity
  8
Layer 1
 62
     7
370
    18
100
AcDbVertex
100
AcDb2dVertex
 10
3.893041846758706
 20
6.721507796176252
 30
0.0
  0
VERTEX
  5
2DB
330
2D9
100
AcDbEntity
  8
Layer 1
 62
     7
370
    18
100
AcDbVertex
100
AcDb2dVertex
 10
3.51771607841888
 20
6.721507796176252
 30
0.0
  0
SEQEND
  5
2DC
330
2D9
100
AcDbEntity
  8
Layer 1
370
    18
  0
POLYLINE
  5
2DD
330
223
100
AcDbEntity
  8
Layer 1
 62
     7
370
    18
100
AcDb2dPolyline
 66
     1
 10
0.0
 20
0.0
 30
0.0
  0
VERTEX
  5
2DE
330
2DD
100
AcDbEntity
  8
Layer 1
 62
     7
370
    18
100
AcDbVertex
100
AcDb2dVertex
 10
3.893035065070207
 20
6.700593068842485
 30
0.0
  0
VERTEX
  5
2DF
330
2DD
100
AcDbEntity
  8
Layer 1
 62
     7
370
    18
100
AcDbVertex
100
AcDb2dVertex
 10
3.51771607841888
 20
6.700593068842485
 30
0.0
  0
SEQEND
  5
2E0
330
2DD
100
AcDbEntity
  8
Layer 1
370
    18
  0
POLYLINE
  5
2E1
330
223
100
AcDbEntity
  8
Layer 1
 62
     7
370
    18
100
AcDb2dPolyline
 66
     1
 10
0.0
 20
0.0
 30
0.0
  0
VERTEX
  5
2E2
330
2E1
100
AcDbEntity
  8
Layer 1
 62
     7
370
    18
100
AcDbVertex
100
AcDb2dVertex
 10
3.893035065070207
 20
6.679685123197217
 30
0.0
  0
VERTEX
  5
2E3
330
2E1
100
AcDbEntity
  8
Layer 1
 62
     7
370
    18
100
AcDbVertex
100
AcDb2dVertex
 10
3.51771607841888
 20
6.679685123197217
 30
0.0
  0
SEQEND
  5
2E4
330
2E1
100
AcDbEntity
  8
Layer 1
370
    18
  0
POLYLINE
  5
2E5
330
223
100
AcDbEntity
  8
Layer 1
 62
     7
370
    18
100
AcDb2dPolyline
 66
     1
 10
0.0
 20
0.0
 30
0.0
  0
VERTEX
  5
2E6
330
2E5
100
AcDbEntity
  8
Layer 1
 62
     7
370
    18
100
AcDbVertex
100
AcDb2dVertex
 10
3.893035065070207
 20
6.65877717755195
 30
0.0
  0
VERTEX
  5
2E7
330
2E5
100
AcDbEntity
  8
Layer 1
 62
     7
370
    18
100
AcDbVertex
100
AcDb2dVertex
 10
3.51771607841888
 20
6.65877717755195
 30
0.0
  0
SEQEND
  5
2E8
330
2E5
100
AcDbEntity
  8
Layer 1
370
    18
  0
POLYLINE
  5
2E9
330
223
100
AcDbEntity
  8
Layer 1
 62
     7
370
    18
100
AcDb2dPolyline
 66
     1
 10
0.0
 20
0.0
 30
0.0
  0
VERTEX
  5
2EA
330
2E9
100
AcDbEntity
  8
Layer 1
 62
     7
370
    18
100
AcDbVertex
100
AcDb2dVertex
 10
3.893035065070207
 20
6.637862450218182
 30
0.0
  0
VERTEX
  5
2EB
330
2E9
100
AcDbEntity
  8
Layer 1
 62
     7
370
    18
100
AcDbVertex
100
AcDb2dVertex
 10
3.51771607841888
 20
6.637862450218182
 30
0.0
  0
SEQEND
  5
2EC
330
2E9
100
AcDbEntity
  8
Layer 1
370
    18
  0
POLYLINE
  5
2ED
330
223
100
AcDbEntity
  8
Layer 1
 62
     7
370
    18
100
AcDb2dPolyline
 66
     1
 10
0.0
 20
0.0
 30
0.0
  0
VERTEX
  5
2EE
330
2ED
100
AcDbEntity
  8
Layer 1
 62
     7
370
    18
100
AcDbVertex
100
AcDb2dVertex
 10
3.893035065070207
 20
6.616954504572915
 30
0.0
  0
VERTEX
  5
2EF
330
2ED
100
AcDbEntity
  8
Layer 1
 62
     7
370
    18
100
AcDbVertex
100
AcDb2dVertex
 10
3.51771607841888
 20
6.616954504572915
 30
0.0
  0
SEQEND
  5
2F0
330
2ED
100
AcDbEntity
  8
Layer 1
370
    18
  0
POLYLINE
  5
2F1
330
223
100
AcDbEntity
  8
Layer 1
 62
     7
370
    18
100
AcDb2dPolyline
 66
     1
 10
0.0
 20
0.0
 30
0.0
  0
VERTEX
  5
2F2
330
2F1
100
AcDbEntity
  8
Layer 1
 62
     7
370
    18
100
AcDbVertex
100
AcDb2dVertex
 10
3.893028283381707
 20
6.596053340616148
 30
0.0
  0
VERTEX
  5
2F3
330
2F1
100
AcDbEntity
  8
Layer 1
 62
     7
370
    18
100
AcDbVertex
100
AcDb2dVertex
 10
3.51771607841888
 20
6.596053340616148
 30
0.0
  0
SEQEND
  5
2F4
330
2F1
100
AcDbEntity
  8
Layer 1
370
    18
  0
POLYLINE
  5
2F5
330
223
100
AcDbEntity
  8
Layer 1
 62
     7
370
    18
100
AcDb2dPolyline
 66
     1
 10
0.0
 20
0.0
 30
0.0
  0
VERTEX
  5
2F6
330
2F5
100
AcDbEntity
  8
Layer 1
 62
     7
370
    18
100
AcDbVertex
100
AcDb2dVertex
 10
3.893028283381707
 20
6.57514539497088
 30
0.0
  0
VERTEX
  5
2F7
330
2F5
100
AcDbEntity
  8
Layer 1
 62
     7
370
    18
100
AcDbVertex
100
AcDb2dVertex
 10
3.51771607841888
 20
6.57514539497088
 30
0.0
  0
SEQEND
  5
2F8
330
2F5
100
AcDbEntity
  8
Layer 1
370
    18
  0
POLYLINE
  5
2F9
330
223
100
AcDbEntity
  8
Layer 1
 62
     7
370
    18
100
AcDb2dPolyline
 66
     1
 10
0.0
 20
0.0
 30
0.0
  0
VERTEX
  5
2FA
330
2F9
100
AcDbEntity
  8
Layer 1
 62
     7
370
    18
100
AcDbVertex
100
AcDb2dVertex
 10
3.893041846758706
 20
6.554230667637113
 30
0.0
  0
VERTEX
  5
2FB
330
2F9
100
AcDbEntity
  8
Layer 1
 62
     7
370
    18
100
AcDbVertex
100
AcDb2dVertex
 10
3.51771607841888
 20
6.554230667637113
 30
0.0
  0
SEQEND
  5
2FC
330
2F9
100
AcDbEntity
  8
Layer 1
370
    18
  0
POLYLINE
  5
2FD
330
223
100
AcDbEntity
  8
Layer 1
 62
     7
370
    18
100
AcDb2dPolyline
 66
     1
 10
0.0
 20
0.0
 30
0.0
  0
VERTEX
  5
2FE
330
2FD
100
AcDbEntity
  8
Layer 1
 62
     7
370
    18
100
AcDbVertex
100
AcDb2dVertex
 10
3.893041846758706
 20
6.533322721991845
 30
0.0
  0
VERTEX
  5
2FF
330
2FD
100
AcDbEntity
  8
Layer 1
 62
     7
370
    18
100
AcDbVertex
100
AcDb2dVertex
 10
3.51771607841888
 20
6.533322721991845
 30
0.0
  0
SEQEND
  5
300
330
2FD
100
AcDbEntity
  8
Layer 1
370
    18
  0
POLYLINE
  5
301
330
223
100
AcDbEntity
  8
Layer 1
 62
     7
370
    18
100
AcDb2dPolyline
 66
     1
 10
0.0
 20
0.0
 30
0.0
  0
VERTEX
  5
302
330
301
100
AcDbEntity
  8
Layer 1
 62
     7
370
    18
100
AcDbVertex
100
AcDb2dVertex
 10
3.893041846758706
 20
6.512414776346577
 30
0.0
  0
VERTEX
  5
303
330
301
100
AcDbEntity
  8
Layer 1
 62
     7
370
    18
100
AcDbVertex
100
AcDb2dVertex
 10
3.51771607841888
 20
6.512414776346577
 30
0.0
  0
SEQEND
  5
304
330
301
100
AcDbEntity
  8
Layer 1
370
    18
  0
POLYLINE
  5
305
330
223
100
AcDbEntity
  8
Layer 1
 62
     7
370
    18
100
AcDb2dPolyline
 66
     1
 10
0.0
 20
0.0
 30
0.0
  0
VERTEX
  5
306
330
305
100
AcDbEntity
  8
Layer 1
 62
     7
370
    18
100
AcDbVertex
100
AcDb2dVertex
 10
3.893035065070207
 20
6.49150004901281
 30
0.0
  0
VERTEX
  5
307
330
305
100
AcDbEntity
  8
Layer 1
 62
     7
370
    18
100
AcDbVertex
100
AcDb2dVertex
 10
3.51771607841888
 20
6.49150004901281
 30
0.0
  0
SEQEND
  5
308
330
305
100
AcDbEntity
  8
Layer 1
370
    18
  0
POLYLINE
  5
309
330
223
100
AcDbEntity
  8
Layer 1
 62
     7
370
    18
100
AcDb2dPolyline
 66
     1
 10
0.0
 20
0.0
 30
0.0
  0
VERTEX
  5
30A
330
309
100
AcDbEntity
  8
Layer 1
 62
     7
370
    18
100
AcDbVertex
100
AcDb2dVertex
 10
3.893035065070207
 20
6.470598885056043
 30
0.0
  0
VERTEX
  5
30B
330
309
100
AcDbEntity
  8
Layer 1
 62
     7
370
    18
100
AcDbVertex
100
AcDb2dVertex
 10
3.51771607841888
 20
6.470598885056043
 30
0.0
  0
SEQEND
  5
30C
330
309
100
AcDbEntity
  8
Layer 1
370
    18
  0
POLYLINE
  5
30D
330
223
100
AcDbEntity
  8
Layer 1
 62
     7
370
    18
100
AcDb2dPolyline
 66
     1
 10
0.0
 20
0.0
 30
0.0
  0
VERTEX
  5
30E
330
30D
100
AcDbEntity
  8
Layer 1
 62
     7
370
    18
100
AcDbVertex
100
AcDb2dVertex
 10
3.893035065070207
 20
6.449684157722275
 30
0.0
  0
VERTEX
  5
30F
330
30D
100
AcDbEntity
  8
Layer 1
 62
     7
370
    18
100
AcDbVertex
100
AcDb2dVertex
 10
3.51771607841888
 20
6.449684157722275
 30
0.0
  0
SEQEND
  5
310
330
30D
100
AcDbEntity
  8
Layer 1
370
    18
  0
POLYLINE
  5
311
330
223
100
AcDbEntity
  8
Layer 1
 62
     7
370
    18
100
AcDb2dPolyline
 66
     1
 10
0.0
 20
0.0
 30
0.0
  0
VERTEX
  5
312
330
311
100
AcDbEntity
  8
Layer 1
 62
     7
370
    18
100
AcDbVertex
100
AcDb2dVertex
 10
3.893035065070207
 20
6.428776212077008
 30
0.0
  0
VERTEX
  5
313
330
311
100
AcDbEntity
  8
Layer 1
 62
     7
370
    18
100
AcDbVertex
100
AcDb2dVertex
 10
3.51771607841888
 20
6.428776212077008
 30
0.0
  0
SEQEND
  5
314
330
311
100
AcDbEntity
  8
Layer 1
370
    18
  0
POLYLINE
  5
315
330
223
100
AcDbEntity
  8
Layer 1
 62
     7
370
    18
100
AcDb2dPolyline
 66
     1
 10
0.0
 20
0.0
 30
0.0
  0
VERTEX
  5
316
330
315
100
AcDbEntity
  8
Layer 1
 62
     7
370
    18
100
AcDbVertex
100
AcDb2dVertex
 10
3.893035065070207
 20
6.40786826643174
 30
0.0
  0
VERTEX
  5
317
330
315
100
AcDbEntity
  8
Layer 1
 62
     7
370
    18
100
AcDbVertex
100
AcDb2dVertex
 10
3.51771607841888
 20
6.40786826643174
 30
0.0
  0
SEQEND
  5
318
330
315
100
AcDbEntity
  8
Layer 1
370
    18
  0
POLYLINE
  5
319
330
223
100
AcDbEntity
  8
Layer 1
 62
     7
370
    18
100
AcDb2dPolyline
 66
     1
 10
0.0
 20
0.0
 30
0.0
  0
VERTEX
  5
31A
330
319
100
AcDbEntity
  8
Layer 1
 62
     7
370
    18
100
AcDbVertex
100
AcDb2dVertex
 10
3.893035065070207
 20
6.386953539097973
 30
0.0
  0
VERTEX
  5
31B
330
319
100
AcDbEntity
  8
Layer 1
 62
     7
370
    18
100
AcDbVertex
100
AcDb2dVertex
 10
3.51771607841888
 20
6.386953539097973
 30
0.0
  0
SEQEND
  5
31C
330
319
100
AcDbEntity
  8
Layer 1
370
    18
  0
POLYLINE
  5
31D
330
223
100
AcDbEntity
  8
Layer 1
 62
     7
370
    18
100
AcDb2dPolyline
 66
     1
 10
0.0
 20
0.0
 30
0.0
  0
VERTEX
  5
31E
330
31D
100
AcDbEntity
  8
Layer 1
 62
     7
370
    18
100
AcDbVertex
100
AcDb2dVertex
 10
3.893028283381707
 20
6.366045593452705
 30
0.0
  0
VERTEX
  5
31F
330
31D
100
AcDbEntity
  8
Layer 1
 62
     7
370
    18
100
AcDbVertex
100
AcDb2dVertex
 10
3.51771607841888
 20
6.366045593452705
 30
0.0
  0
SEQEND
  5
320
330
31D
100
AcDbEntity
  8
Layer 1
370
    18
  0
POLYLINE
  5
321
330
223
100
AcDbEntity
  8
Layer 1
 62
     7
370
    18
100
AcDb2dPolyline
 66
     1
 10
0.0
 20
0.0
 30
0.0
  0
VERTEX
  5
322
330
321
100
AcDbEntity
  8
Layer 1
 62
     7
370
    18
100
AcDbVertex
100
AcDb2dVertex
 10
3.893041846758706
 20
6.345144429495937
 30
0.0
  0
VERTEX
  5
323
330
321
100
AcDbEntity
  8
Layer 1
 62
     7
370
    18
100
AcDbVertex
100
AcDb2dVertex
 10
3.51771607841888
 20
6.345144429495937
 30
0.0
  0
SEQEND
  5
324
330
321
100
AcDbEntity
  8
Layer 1
370
    18
  0
POLYLINE
  5
325
330
223
100
AcDbEntity
  8
Layer 1
 62
     7
370
    18
100
AcDb2dPolyline
 66
     1
 10
0.0
 20
0.0
 30
0.0
  0
VERTEX
  5
326
330
325
100
AcDbEntity
  8
Layer 1
 62
     7
370
    18
100
AcDbVertex
100
AcDb2dVertex
 10
3.893035065070207
 20
6.32423648385067
 30
0.0
  0
VERTEX
  5
327
330
325
100
AcDbEntity
  8
Layer 1
 62
     7
370
    18
100
AcDbVertex
100
AcDb2dVertex
 10
3.51771607841888
 20
6.32423648385067
 30
0.0
  0
SEQEND
  5
328
330
325
100
AcDbEntity
  8
Layer 1
370
    18
  0
POLYLINE
  5
329
330
223
100
AcDbEntity
  8
Layer 1
 62
     7
370
    18
100
AcDb2dPolyline
 66
     1
 10
0.0
 20
0.0
 30
0.0
  0
VERTEX
  5
32A
330
329
100
AcDbEntity
  8
Layer 1
 62
     7
370
    18
100
AcDbVertex
100
AcDb2dVertex
 10
3.893035065070207
 20
6.303321756516903
 30
0.0
  0
VERTEX
  5
32B
330
329
100
AcDbEntity
  8
Layer 1
 62
     7
370
    18
100
AcDbVertex
100
AcDb2dVertex
 10
3.51771607841888
 20
6.303321756516903
 30
0.0
  0
SEQEND
  5
32C
330
329
100
AcDbEntity
  8
Layer 1
370
    18
  0
POLYLINE
  5
32D
330
223
100
AcDbEntity
  8
Layer 1
 62
     7
370
    18
100
AcDb2dPolyline
 66
     1
 10
0.0
 20
0.0
 30
0.0
  0
VERTEX
  5
32E
330
32D
100
AcDbEntity
  8
Layer 1
 62
     7
370
    18
100
AcDbVertex
100
AcDb2dVertex
 10
3.893035065070207
 20
6.282413810871635
 30
0.0
  0
VERTEX
  5
32F
330
32D
100
AcDbEntity
  8
Layer 1
 62
     7
370
    18
100
AcDbVertex
100
AcDb2dVertex
 10
3.51771607841888
 20
6.282413810871635
 30
0.0
  0
SEQEND
  5
330
330
32D
100
AcDbEntity
  8
Layer 1
370
    18
  0
POLYLINE
  5
331
330
223
100
AcDbEntity
  8
Layer 1
 62
     7
370
    18
100
AcDb2dPolyline
 66
     1
 10
0.0
 20
0.0
 30
0.0
  0
VERTEX
  5
332
330
331
100
AcDbEntity
  8
Layer 1
 62
     7
370
    18
100
AcDbVertex
100
AcDb2dVertex
 10
3.893035065070207
 20
6.261505865226368
 30
0.0
  0
VERTEX
  5
333
330
331
100
AcDbEntity
  8
Layer 1
 62
     7
370
    18
100
AcDbVertex
100
AcDb2dVertex
 10
3.51771607841888
 20
6.261505865226368
 30
0.0
  0
SEQEND
  5
334
330
331
100
AcDbEntity
  8
Layer 1
370
    18
  0
POLYLINE
  5
335
330
223
100
AcDbEntity
  8
Layer 1
 62
     7
370
    18
100
AcDb2dPolyline
 66
     1
 10
0.0
 20
0.0
 30
0.0
  0
VERTEX
  5
336
330
335
100
AcDbEntity
  8
Layer 1
 62
     7
370
    18
100
AcDbVertex
100
AcDb2dVertex
 10
3.893035065070207
 20
6.2405911378926
 30
0.0
  0
VERTEX
  5
337
330
335
100
AcDbEntity
  8
Layer 1
 62
     7
370
    18
100
AcDbVertex
100
AcDb2dVertex
 10
3.51771607841888
 20
6.2405911378926
 30
0.0
  0
SEQEND
  5
338
330
335
100
AcDbEntity
  8
Layer 1
370
    18
  0
POLYLINE
  5
339
330
223
100
AcDbEntity
  8
Layer 1
 62
     7
370
    18
100
AcDb2dPolyline
 66
     1
 10
0.0
 20
0.0
 30
0.0
  0
VERTEX
  5
33A
330
339
100
AcDbEntity
  8
Layer 1
 62
     7
370
    18
100
AcDbVertex
100
AcDb2dVertex
 10
3.893035065070207
 20
6.219689973935833
 30
0.0
  0
VERTEX
  5
33B
330
339
100
AcDbEntity
  8
Layer 1
 62
     7
370
    18
100
AcDbVertex
100
AcDb2dVertex
 10
3.51771607841888
 20
6.219689973935833
 30
0.0
  0
SEQEND
  5
33C
330
339
100
AcDbEntity
  8
Layer 1
370
    18
  0
POLYLINE
  5
33D
330
223
100
AcDbEntity
  8
Layer 1
 62
     7
370
    18
100
AcDb2dPolyline
 66
     1
 10
0.0
 20
0.0
 30
0.0
  0
VERTEX
  5
33E
330
33D
100
AcDbEntity
  8
Layer 1
 62
     7
370
    18
100
AcDbVertex
100
AcDb2dVertex
 10
3.893035065070207
 20
6.198775246602066
 30
0.0
  0
VERTEX
  5
33F
330
33D
100
AcDbEntity
  8
Layer 1
 62
     7
370
    18
100
AcDbVertex
100
AcDb2dVertex
 10
3.51771607841888
 20
6.198775246602066
 30
0.0
  0
SEQEND
  5
340
330
33D
100
AcDbEntity
  8
Layer 1
370
    18
  0
POLYLINE
  5
341
330
223
100
AcDbEntity
  8
Layer 1
 62
     7
370
    18
100
AcDb2dPolyline
 66
     1
 10
0.0
 20
0.0
 30
0.0
  0
VERTEX
  5
342
330
341
100
AcDbEntity
  8
Layer 1
 62
     7
370
    18
100
AcDbVertex
100
AcDb2dVertex
 10
3.893035065070207
 20
6.177867300956798
 30
0.0
  0
VERTEX
  5
343
330
341
100
AcDbEntity
  8
Layer 1
 62
     7
370
    18
100
AcDbVertex
100
AcDb2dVertex
 10
3.51771607841888
 20
6.177867300956798
 30
0.0
  0
SEQEND
  5
344
330
341
100
AcDbEntity
  8
Layer 1
370
    18
  0
POLYLINE
  5
345
330
223
100
AcDbEntity
  8
Layer 1
 62
     7
370
    18
100
AcDb2dPolyline
 66
     1
 10
0.0
 20
0.0
 30
0.0
  0
VERTEX
  5
346
330
345
100
AcDbEntity
  8
Layer 1
 62
     7
370
    18
100
AcDbVertex
100
AcDb2dVertex
 10
3.893028283381707
 20
6.15695935531153
 30
0.0
  0
VERTEX
  5
347
330
345
100
AcDbEntity
  8
Layer 1
 62
     7
370
    18
100
AcDbVertex
100
AcDb2dVertex
 10
3.51771607841888
 20
6.15695935531153
 30
0.0
  0
SEQEND
  5
348
330
345
100
AcDbEntity
  8
Layer 1
370
    18
  0
POLYLINE
  5
349
330
223
100
AcDbEntity
  8
Layer 1
 62
     7
370
    18
100
AcDb2dPolyline
 66
     1
 10
0.0
 20
0.0
 30
0.0
  0
VERTEX
  5
34A
330
349
100
AcDbEntity
  8
Layer 1
 62
     7
370
    18
100
AcDbVertex
100
AcDb2dVertex
 10
3.893035065070207
 20
6.136044627977763
 30
0.0
  0
VERTEX
  5
34B
330
349
100
AcDbEntity
  8
Layer 1
 62
     7
370
    18
100
AcDbVertex
100
AcDb2dVertex
 10
3.51771607841888
 20
6.136044627977763
 30
0.0
  0
SEQEND
  5
34C
330
349
100
AcDbEntity
  8
Layer 1
370
    18
  0
POLYLINE
  5
34D
330
223
100
AcDbEntity
  8
Layer 1
 62
     7
370
    18
100
AcDb2dPolyline
 66
     1
 10
0.0
 20
0.0
 30
0.0
  0
VERTEX
  5
34E
330
34D
100
AcDbEntity
  8
Layer 1
 62
     7
370
    18
100
AcDbVertex
100
AcDb2dVertex
 10
3.893035065070207
 20
6.115136682332495
 30
0.0
  0
VERTEX
  5
34F
330
34D
100
AcDbEntity
  8
Layer 1
 62
     7
370
    18
100
AcDbVertex
100
AcDb2dVertex
 10
3.51771607841888
 20
6.115136682332495
 30
0.0
  0
SEQEND
  5
350
330
34D
100
AcDbEntity
  8
Layer 1
370
    18
  0
POLYLINE
  5
351
330
223
100
AcDbEntity
  8
Layer 1
 62
     7
370
    18
100
AcDb2dPolyline
 66
     1
 10
0.0
 20
0.0
 30
0.0
  0
VERTEX
  5
352
330
351
100
AcDbEntity
  8
Layer 1
 62
     7
370
    18
100
AcDbVertex
100
AcDb2dVertex
 10
3.893035065070207
 20
6.094235518375728
 30
0.0
  0
VERTEX
  5
353
330
351
100
AcDbEntity
  8
Layer 1
 62
     7
370
    18
100
AcDbVertex
100
AcDb2dVertex
 10
3.51771607841888
 20
6.094235518375728
 30
0.0
  0
SEQEND
  5
354
330
351
100
AcDbEntity
  8
Layer 1
370
    18
  0
POLYLINE
  5
355
330
223
100
AcDbEntity
  8
Layer 1
 62
     7
370
    18
100
AcDb2dPolyline
 66
     1
 10
0.0
 20
0.0
 30
0.0
  0
VERTEX
  5
356
330
355
100
AcDbEntity
  8
Layer 1
 62
     7
370
    18
100
AcDbVertex
100
AcDb2dVertex
 10
3.893035065070207
 20
6.07332079104196
 30
0.0
  0
VERTEX
  5
357
330
355
100
AcDbEntity
  8
Layer 1
 62
     7
370
    18
100
AcDbVertex
100
AcDb2dVertex
 10
3.51771607841888
 20
6.07332079104196
 30
0.0
  0
SEQEND
  5
358
330
355
100
AcDbEntity
  8
Layer 1
370
    18
  0
POLYLINE
  5
359
330
223
100
AcDbEntity
  8
Layer 1
 62
     7
370
    18
100
AcDb2dPolyline
 66
     1
 10
0.0
 20
0.0
 30
0.0
  0
VERTEX
  5
35A
330
359
100
AcDbEntity
  8
Layer 1
 62
     7
370
    18
100
AcDbVertex
100
AcDb2dVertex
 10
3.893035065070207
 20
6.052412845396693
 30
0.0
  0
VERTEX
  5
35B
330
359
100
AcDbEntity
  8
Layer 1
 62
     7
370
    18
100
AcDbVertex
100
AcDb2dVertex
 10
3.51771607841888
 20
6.052412845396693
 30
0.0
  0
SEQEND
  5
35C
330
359
100
AcDbEntity
  8
Layer 1
370
    18
  0
ENDBLK
  5
35D
330
223
100
AcDbEntity
  8
0
100
AcDbBlockEnd
  0
BLOCK
  5
3EA
330
3DF
100
AcDbEntity
  8
0
100
AcDbBlockBegin
  2
*D3
 70
     1
 10
0.0
 20
0.0
 30
0.0
  3
*D3
  1

  0
LINE
  5
3E0
330
3DF
100
AcDbEntity
  8
ADPDIM
 62
     0
370
    -2
100
AcDbLine
 10
0.3246864119910038
 20
3.089162849590768
 30
0.0
 11
0.7220045431686593
 21
3.089162849590768
 31
0.0
  0
LINE
  5
3E1
330
3DF
100
AcDbEntity
  8
ADPDIM
 62
     0
370
    -2
100
AcDbLine
 10
0.3246864119910038
 20
1.489162849590768
 30
0.0
 11
0.722004543168659
 21
1.489162849590768
 31
0.0
  0
LINE
  5
3E2
330
3DF
100
AcDbEntity
  8
ADPDIM
 62
     0
370
    -2
100
AcDbLine
 10
0.5420045431686593
 20
3.089162849590768
 30
0.0
 11
0.5420045431686591
 21
2.674579516257435
 31
0.0
  0
LINE
  5
3E3
330
3DF
100
AcDbEntity
  8
ADPDIM
 62
     0
370
    -2
100
AcDbLine
 10
0.5420045431686589
 20
1.489162849590768
 30
0.0
 11
0.542004543168659
 21
1.903746182924101
 31
0.0
  0
LINE
  5
3E4
330
3DF
100
AcDbEntity
  8
ADPDIM
 62
     0
370
    -2
100
AcDbLine
 10
0.6670045431686589
 20
1.364162849590768
 30
0.0
 11
0.4170045431686589
 21
1.614162849590768
 31
0.0
  0
LINE
  5
3E5
330
3DF
100
AcDbEntity
  8
ADPDIM
 62
     0
370
    -2
100
AcDbLine
 10
0.6670045431686593
 20
2.964162849590768
 30
0.0
 11
0.4170045431686593
 21
3.214162849590768
 31
0.0
  0
MTEXT
  5
3E6
330
3DF
100
AcDbEntity
  8
ADPDIM
 62
     0
100
AcDbMText
 10
0.5420045431686587
 20
2.289162849590768
 30
0.0
 40
0.125
 41
0.0
 71
     5
 72
     1
  1
\A1;1.6000
 11
0.0000000000000001
 21
1.0
 31
0.0
 73
     1
 44
1.0
1001
ACAD
1000
MTEXTBEGIN
1070
    73
1070
     1
1070
    44
1040
1.0
1070
    74
1070
     0
1000
MTEXTEND
  0
POINT
  5
3E7
330
3DF
100
AcDbEntity
  8
DEFPOINTS
 62
     0
100
AcDbPoint
 10
0.2621864119910038
 20
3.089162849590768
 30
0.0
  0
POINT
  5
3E8
330
3DF
100
AcDbEntity
  8
DEFPOINTS
 62
     0
100
AcDbPoint
 10
0.2621864119910038
 20
1.489162849590768
 30
0.0
  0
POINT
  5
3E9
330
3DF
100
AcDbEntity
  8
DEFPOINTS
 62
     0
100
AcDbPoint
 10
0.5420045431686589
 20
1.489162849590768
 30
0.0
  0
ENDBLK
  5
3EB
330
3DF
100
AcDbEntity
  8
0
100
AcDbBlockEnd
  0
ENDSEC
  0
SECTION
  2
ENTITIES
  0
DIMENSION
  5
6D
330
18
100
AcDbEntity
  8
ADPDIM
100
AcDbDimension
  2
*D0
 10
-1.909162361623463
 20
1.350385388003016
 30
0.0
 11
-1.909162361623463
 21
2.300385388003015
 31
0.0
  1
1.900
 71
     5
 42
-1.0
100
AcDbAlignedDimension
 13
-1.109261374728806
 23
3.250385388003016
 33
0.0
 14
-0.921761374728806
 24
1.350385388003015
 34
0.0
 50
90.0
100
AcDbRotatedDimension
  0
TEXT
  5
A3
330
18
100
AcDbEntity
  8
ADPDIM
100
AcDbText
 10
-4.23473204534249
 20
0.5913712667762312
 30
0.0
 40
0.09375
  1
J U L I U S  B L U M  &  C O . ,  I N C .      ( 8 0 0 )  5 2 6 - 6 2 9 3        W W W . J U L I U S B L U M . C O M        P A R T  N o .  8 0 8
 41
1.25
  7
ARIAL_WIDE
 72
     1
 11
0.5912986077952987
 21
0.6851212667762312
 31
0.0
100
AcDbText
 73
     3
  0
SPLINE
  5
36C
330
18
100
AcDbEntity
  8
Layer 1
 62
     7
370
    18
100
AcDbSpline
210
0.0
220
0.0
230
1.0
 70
    11
 71
     3
 72
    17
 73
    13
 74
     0
 42
0.0000000001
 43
0.0000000001
 40
0.0
 40
0.0
 40
0.0
 40
0.0
 40
1.0
 40
1.0
 40
1.0
 40
2.0
 40
2.0
 40
2.0
 40
3.0
 40
3.0
 40
3.0
 40
4.0
 40
4.0
 40
4.0
 40
4.0
 10
0.7796218959140833
 20
2.30039144185304
 30
0.0
 10
0.7796218959140833
 20
1.775719329367874
 30
0.0
 10
1.204949053563853
 20
1.350385390029605
 30
0.0
 10
1.729621166049019
 20
1.350385390029605
 30
0.0
 10
2.254293278534183
 20
1.350385390029605
 30
0.0
 10
2.679613654495454
 20
1.775719329367874
 30
0.0
 10
2.679613654495454
 20
2.30039144185304
 30
0.0
 10
2.679613654495454
 20
2.825063554338205
 30
0.0
 10
2.254293278534183
 20
3.250390711987975
 30
0.0
 10
1.729621166049019
 20
3.250390711987975
 30
0.0
 10
1.204949053563853
 20
3.250390711987975
 30
0.0
 10
0.7796218959140833
 20
2.825063554338205
 30
0.0
 10
0.7796218959140833
 20
2.30039144185304
 30
0.0
  0
SPLINE
  5
36D
330
18
100
AcDbEntity
  8
ADP1DETAIL
  6
AI-Linetype-3
 62
     5
370
    18
100
AcDbSpline
210
0.0
220
0.0
230
1.0
 70
    11
 71
     3
 72
    17
 73
    13
 74
     0
 42
0.0000000001
 43
0.0000000001
 40
0.0
 40
0.0
 40
0.0
 40
0.0
 40
1.0
 40
1.0
 40
1.0
 40
2.0
 40
2.0
 40
2.0
 40
3.0
 40
3.0
 40
3.0
 40
4.0
 40
4.0
 40
4.0
 40
4.0
 10
2.534621154367066
 20
2.30039144185304
 30
0.0
 10
2.534621154367066
 20
1.855797507174984
 30
0.0
 10
2.174215100727074
 20
1.495391453534992
 30
0.0
 10
1.729621166049019
 20
1.495391453534992
 30
0.0
 10
1.285027231370962
 20
1.495391453534992
 30
0.0
 10
0.9246211777309707
 20
1.855797507174984
 30
0.0
 10
0.9246211777309707
 20
2.30039144185304
 30
0.0
 10
0.9246211777309707
 20
2.744971813154096
 30
0.0
 10
1.285027231370962
 20
3.105391430171088
 30
0.0
 10
1.729621166049019
 20
3.105391430171088
 30
0.0
 10
2.174215100727074
 20
3.105391430171088
 30
0.0
 10
2.534621154367066
 20
2.744971813154096
 30
0.0
 10
2.534621154367066
 20
2.30039144185304
 30
0.0
  0
SPLINE
  5
36E
330
18
100
AcDbEntity
  8
ADP1DETAIL
  6
AI-Linetype-4
 62
     5
370
    18
100
AcDbSpline
210
0.0
220
0.0
230
1.0
 70
    11
 71
     3
 72
    17
 73
    13
 74
     0
 42
0.0000000001
 43
0.0000000001
 40
0.0
 40
0.0
 40
0.0
 40
0.0
 40
1.0
 40
1.0
 40
1.0
 40
2.0
 40
2.0
 40
2.0
 40
3.0
 40
3.0
 40
3.0
 40
4.0
 40
4.0
 40
4.0
 40
4.0
 10
2.388787724864688
 20
2.30039144185304
 30
0.0
 10
2.388787724864688
 20
1.936350403177089
 30
0.0
 10
2.093675768101969
 20
1.64122488303737
 30
0.0
 10
1.729634729426018
 20
1.64122488303737
 30
0.0
 10
1.365593690750066
 20
1.64122488303737
 30
0.0
 10
1.070468170610349
 20
1.936350403177089
 30
0.0
 10
1.070468170610349
 20
2.30039144185304
 30
0.0
 10
1.070468170610349
 20
2.664432480528992
 30
0.0
 10
1.365593690750066
 20
2.95954443729171
 30
0.0
 10
1.729634729426018
 20
2.95954443729171
 30
0.0
 10
2.093675768101969
 20
2.95954443729171
 30
0.0
 10
2.388787724864688
 20
2.664432480528992
 30
0.0
 10
2.388787724864688
 20
2.30039144185304
 30
0.0
  0
DIMENSION
  5
3DE
330
18
100
AcDbEntity
  8
ADPDIM
100
AcDbDimension
  2
*D3
 10
0.5420045431686589
 20
1.489162849590768
 30
0.0
 11
0.5420045431686587
 21
2.289162849590768
 31
0.0
 70
    32
 71
     5
 42
1.6
  3
STANDARD
100
AcDbAlignedDimension
 13
0.2621864119910038
 23
3.089162849590768
 33
0.0
 14
0.2621864119910038
 24
1.489162849590768
 34
0.0
 50
90.0
100
AcDbRotatedDimension
1001
ACAD
1000
DSTYLE
1002
{
1070
    41
1040
0.125
1070
    73
1070
     0
1070
    74
1070
     0
1070
    78
1070
     3
1070
   140
1040
0.125
1070
   141
1040
0.1875
1070
   142
1040
0.125
1070
   147
1040
0.125
1070
   171
1070
     1
1002
}
  0
POLYLINE
  5
C6B
330
18
100
AcDbEntity
  8
Layer 1
 62
     7
370
    25
100
AcDb2dPolyline
 66
     1
 10
0.0
 20
0.0
 30
0.0
  0
VERTEX
  5
C6C
330
C6B
100
AcDbEntity
  8
Layer 1
 62
     7
370
    25
100
AcDbVertex
100
AcDb2dVertex
 10
-0.750953298885523
 20
1.350385484304557
 30
0.0
  0
VERTEX
  5
C6D
330
C6B
100
AcDbEntity
  8
Layer 1
 62
     7
370
    25
100
AcDbVertex
100
AcDb2dVertex
 10
-1.065053752548003
 20
1.350385484304557
 30
0.0
  0
SEQEND
  5
C6E
330
C6B
100
AcDbEntity
  8
Layer 1
370
    25
  0
POLYLINE
  5
C6F
330
18
100
AcDbEntity
  8
Layer 1
  6
AI-Linetype-1
 62
   253
370
    25
100
AcDb2dPolyline
 66
     1
 10
0.0
 20
0.0
 30
0.0
  0
VERTEX
  5
C70
330
C6F
100
AcDbEntity
  8
Layer 1
  6
AI-Linetype-1
 62
   253
370
    25
100
AcDbVertex
100
AcDb2dVertex
 10
0.2544736210825556
 20
1.792768965258364
 30
0.0
  0
VERTEX
  5
C71
330
C6F
100
AcDbEntity
  8
Layer 1
  6
AI-Linetype-1
 62
   253
370
    25
100
AcDbVertex
100
AcDb2dVertex
 10
0.2544736210825556
 20
2.818303605407356
 30
0.0
  0
SEQEND
  5
C72
330
C6F
100
AcDbEntity
  8
Layer 1
  6
AI-Linetype-1
370
    25
  0
POLYLINE
  5
C73
330
18
100
AcDbEntity
  8
Layer 1
 62
     7
370
    25
100
AcDb2dPolyline
 66
     1
 10
0.0
 20
0.0
 30
0.0
  0
VERTEX
  5
C74
330
C73
100
AcDbEntity
  8
Layer 1
 62
     7
370
    25
100
AcDbVertex
100
AcDb2dVertex
 10
-0.4362528183069055
 20
1.486114300147109
 30
0.0
  0
VERTEX
  5
C75
330
C73
100
AcDbEntity
  8
Layer 1
 62
     7
370
    25
100
AcDbVertex
100
AcDb2dVertex
 10
-0.0592177233188065
 20
1.486114300147109
 30
0.0
  0
SEQEND
  5
C76
330
C73
100
AcDbEntity
  8
Layer 1
370
    25
  0
POLYLINE
  5
C77
330
18
100
AcDbEntity
  8
Layer 1
 62
     7
370
    25
100
AcDb2dPolyline
 66
     1
 10
0.0
 20
0.0
 30
0.0
  0
VERTEX
  5
C78
330
C77
100
AcDbEntity
  8
Layer 1
 62
     7
370
    25
100
AcDbVertex
100
AcDb2dVertex
 10
-0.4362528183069055
 20
1.487164347250508
 30
0.0
  0
VERTEX
  5
C79
330
C77
100
AcDbEntity
  8
Layer 1
 62
     7
370
    25
100
AcDbVertex
100
AcDb2dVertex
 10
-0.0592177233188065
 20
1.487164347250508
 30
0.0
  0
SEQEND
  5
C7A
330
C77
100
AcDbEntity
  8
Layer 1
370
    25
  0
POLYLINE
  5
C7B
330
18
100
AcDbEntity
  8
Layer 1
 62
     7
370
    25
100
AcDb2dPolyline
 66
     1
 10
0.0
 20
0.0
 30
0.0
  0
VERTEX
  5
C7C
330
C7B
100
AcDbEntity
  8
Layer 1
 62
     7
370
    25
100
AcDbVertex
100
AcDb2dVertex
 10
-0.4362528183069055
 20
1.488418948984387
 30
0.0
  0
VERTEX
  5
C7D
330
C7B
100
AcDbEntity
  8
Layer 1
 62
     7
370
    25
100
AcDbVertex
100
AcDb2dVertex
 10
-0.0592177233188065
 20
1.488418948984387
 30
0.0
  0
SEQEND
  5
C7E
330
C7B
100
AcDbEntity
  8
Layer 1
370
    25
  0
POLYLINE
  5
C7F
330
18
100
AcDbEntity
  8
Layer 1
 62
     7
370
    25
100
AcDb2dPolyline
 66
     1
 10
0.0
 20
0.0
 30
0.0
  0
VERTEX
  5
C80
330
C7F
100
AcDbEntity
  8
Layer 1
 62
     7
370
    25
100
AcDbVertex
100
AcDb2dVertex
 10
0.2444231770530945
 20
1.496171572049325
 30
0.0
  0
VERTEX
  5
C81
330
C7F
100
AcDbEntity
  8
Layer 1
 62
     7
370
    25
100
AcDbVertex
100
AcDb2dVertex
 10
-0.0592177233188065
 20
1.496171569481371
 30
0.0
  0
SEQEND
  5
C82
330
C7F
100
AcDbEntity
  8
Layer 1
370
    25
  0
POLYLINE
  5
C83
330
18
100
AcDbEntity
  8
Layer 1
 62
     7
370
    25
100
AcDb2dPolyline
 66
     1
 10
0.0
 20
0.0
 30
0.0
  0
VERTEX
  5
C84
330
C83
100
AcDbEntity
  8
Layer 1
 62
     7
370
    25
100
AcDbVertex
100
AcDb2dVertex
 10
-0.4362528183069055
 20
1.496171569481371
 30
0.0
  0
VERTEX
  5
C85
330
C83
100
AcDbEntity
  8
Layer 1
 62
     7
370
    25
100
AcDbVertex
100
AcDb2dVertex
 10
-0.750953298885523
 20
1.496171569481371
 30
0.0
  0
SEQEND
  5
C86
330
C83
100
AcDbEntity
  8
Layer 1
370
    25
  0
POLYLINE
  5
C87
330
18
100
AcDbEntity
  8
Layer 1
  6
AI-Linetype-3
 62
   253
370
    25
100
AcDb2dPolyline
 66
     1
 10
0.0
 20
0.0
 30
0.0
  0
VERTEX
  5
C88
330
C87
100
AcDbEntity
  8
Layer 1
  6
AI-Linetype-3
 62
   253
370
    25
100
AcDbVertex
100
AcDb2dVertex
 10
-0.0592177233188065
 20
1.497767095599542
 30
0.0
  0
VERTEX
  5
C89
330
C87
100
AcDbEntity
  8
Layer 1
  6
AI-Linetype-3
 62
   253
370
    25
100
AcDbVertex
100
AcDb2dVertex
 10
-0.4362528183069055
 20
1.497767095599542
 30
0.0
  0
SEQEND
  5
C8A
330
C87
100
AcDbEntity
  8
Layer 1
  6
AI-Linetype-3
370
    25
  0
POLYLINE
  5
C8B
330
18
100
AcDbEntity
  8
Layer 1
 62
     7
370
    25
100
AcDb2dPolyline
 66
     1
 10
0.0
 20
0.0
 30
0.0
  0
VERTEX
  5
C8C
330
C8B
100
AcDbEntity
  8
Layer 1
 62
     7
370
    25
100
AcDbVertex
100
AcDb2dVertex
 10
-0.4362528183069055
 20
1.498817142702861
 30
0.0
  0
VERTEX
  5
C8D
330
C8B
100
AcDbEntity
  8
Layer 1
 62
     7
370
    25
100
AcDbVertex
100
AcDb2dVertex
 10
-0.0592177233188065
 20
1.498817142702861
 30
0.0
  0
SEQEND
  5
C8E
330
C8B
100
AcDbEntity
  8
Layer 1
370
    25
  0
POLYLINE
  5
C8F
330
18
100
AcDbEntity
  8
Layer 1
 62
     7
370
    25
100
AcDb2dPolyline
 66
     1
 10
0.0
 20
0.0
 30
0.0
  0
VERTEX
  5
C90
330
C8F
100
AcDbEntity
  8
Layer 1
 62
     7
370
    25
100
AcDbVertex
100
AcDb2dVertex
 10
-0.4362528183069055
 20
1.502560492441506
 30
0.0
  0
VERTEX
  5
C91
330
C8F
100
AcDbEntity
  8
Layer 1
 62
     7
370
    25
100
AcDbVertex
100
AcDb2dVertex
 10
-0.0592177233188065
 20
1.502560492441506
 30
0.0
  0
SEQEND
  5
C92
330
C8F
100
AcDbEntity
  8
Layer 1
370
    25
  0
POLYLINE
  5
C93
330
18
100
AcDbEntity
  8
Layer 1
  6
AI-Linetype-4
 62
   253
370
    25
100
AcDb2dPolyline
 66
     1
 10
0.0
 20
0.0
 30
0.0
  0
VERTEX
  5
C94
330
C93
100
AcDbEntity
  8
Layer 1
  6
AI-Linetype-4
 62
   253
370
    25
100
AcDbVertex
100
AcDb2dVertex
 10
-0.0592177233188065
 20
1.510504030593668
 30
0.0
  0
VERTEX
  5
C95
330
C93
100
AcDbEntity
  8
Layer 1
  6
AI-Linetype-4
 62
   253
370
    25
100
AcDbVertex
100
AcDb2dVertex
 10
-0.4362528183069055
 20
1.510504030593668
 30
0.0
  0
SEQEND
  5
C96
330
C93
100
AcDbEntity
  8
Layer 1
  6
AI-Linetype-4
370
    25
  0
POLYLINE
  5
C97
330
18
100
AcDbEntity
  8
Layer 1
 62
     7
370
    25
100
AcDb2dPolyline
 66
     1
 10
0.0
 20
0.0
 30
0.0
  0
VERTEX
  5
C98
330
C97
100
AcDbEntity
  8
Layer 1
 62
     7
370
    25
100
AcDbVertex
100
AcDb2dVertex
 10
-0.4362528183069055
 20
1.52319323617404
 30
0.0
  0
VERTEX
  5
C99
330
C97
100
AcDbEntity
  8
Layer 1
 62
     7
370
    25
100
AcDbVertex
100
AcDb2dVertex
 10
-0.0592177233188065
 20
1.52319323617404
 30
0.0
  0
SEQEND
  5
C9A
330
C97
100
AcDbEntity
  8
Layer 1
370
    25
  0
POLYLINE
  5
C9B
330
18
100
AcDbEntity
  8
Layer 1
 62
     7
370
    25
100
AcDb2dPolyline
 66
     1
 10
0.0
 20
0.0
 30
0.0
  0
VERTEX
  5
C9C
330
C9B
100
AcDbEntity
  8
Layer 1
 62
     7
370
    25
100
AcDbVertex
100
AcDb2dVertex
 10
-0.4362528183069055
 20
1.529363967528314
 30
0.0
  0
VERTEX
  5
C9D
330
C9B
100
AcDbEntity
  8
Layer 1
 62
     7
370
    25
100
AcDbVertex
100
AcDb2dVertex
 10
-0.0592177233188065
 20
1.529363967528314
 30
0.0
  0
SEQEND
  5
C9E
330
C9B
100
AcDbEntity
  8
Layer 1
370
    25
  0
POLYLINE
  5
C9F
330
18
100
AcDbEntity
  8
Layer 1
  6
AI-Linetype-5
 62
   253
370
    25
100
AcDb2dPolyline
 66
     1
 10
0.0
 20
0.0
 30
0.0
  0
VERTEX
  5
CA0
330
C9F
100
AcDbEntity
  8
Layer 1
  6
AI-Linetype-5
 62
   253
370
    25
100
AcDbVertex
100
AcDb2dVertex
 10
-0.0592177233188065
 20
1.535780164439211
 30
0.0
  0
VERTEX
  5
CA1
330
C9F
100
AcDbEntity
  8
Layer 1
  6
AI-Linetype-5
 62
   253
370
    25
100
AcDbVertex
100
AcDb2dVertex
 10
-0.4362528183069055
 20
1.535780164439211
 30
0.0
  0
SEQEND
  5
CA2
330
C9F
100
AcDbEntity
  8
Layer 1
  6
AI-Linetype-5
370
    25
  0
POLYLINE
  5
CA3
330
18
100
AcDbEntity
  8
Layer 1
 62
     7
370
    25
100
AcDb2dPolyline
 66
     1
 10
0.0
 20
0.0
 30
0.0
  0
VERTEX
  5
CA4
330
CA3
100
AcDbEntity
  8
Layer 1
 62
     7
370
    25
100
AcDbVertex
100
AcDb2dVertex
 10
-0.4362528183069055
 20
1.559903973865996
 30
0.0
  0
VERTEX
  5
CA5
330
CA3
100
AcDbEntity
  8
Layer 1
 62
     7
370
    25
100
AcDbVertex
100
AcDb2dVertex
 10
-0.0592177233188065
 20
1.559903973865996
 30
0.0
  0
SEQEND
  5
CA6
330
CA3
100
AcDbEntity
  8
Layer 1
370
    25
  0
POLYLINE
  5
CA7
330
18
100
AcDbEntity
  8
Layer 1
 62
     7
370
    25
100
AcDb2dPolyline
 66
     1
 10
0.0
 20
0.0
 30
0.0
  0
VERTEX
  5
CA8
330
CA7
100
AcDbEntity
  8
Layer 1
 62
     7
370
    25
100
AcDbVertex
100
AcDb2dVertex
 10
-0.4362528183069055
 20
1.568413446496001
 30
0.0
  0
VERTEX
  5
CA9
330
CA7
100
AcDbEntity
  8
Layer 1
 62
     7
370
    25
100
AcDbVertex
100
AcDb2dVertex
 10
-0.0592177233188065
 20
1.568413446496001
 30
0.0
  0
SEQEND
  5
CAA
330
CA7
100
AcDbEntity
  8
Layer 1
370
    25
  0
POLYLINE
  5
CAB
330
18
100
AcDbEntity
  8
Layer 1
  6
AI-Linetype-6
 62
   253
370
    25
100
AcDb2dPolyline
 66
     1
 10
0.0
 20
0.0
 30
0.0
  0
VERTEX
  5
CAC
330
CAB
100
AcDbEntity
  8
Layer 1
  6
AI-Linetype-6
 62
   253
370
    25
100
AcDbVertex
100
AcDb2dVertex
 10
-0.0592177233188065
 20
1.573200024850274
 30
0.0
  0
VERTEX
  5
CAD
330
CAB
100
AcDbEntity
  8
Layer 1
  6
AI-Linetype-6
 62
   253
370
    25
100
AcDbVertex
100
AcDb2dVertex
 10
-0.4362528183069055
 20
1.573200024850274
 30
0.0
  0
SEQEND
  5
CAE
330
CAB
100
AcDbEntity
  8
Layer 1
  6
AI-Linetype-6
370
    25
  0
POLYLINE
  5
CAF
330
18
100
AcDbEntity
  8
Layer 1
 62
     7
370
    25
100
AcDb2dPolyline
 66
     1
 10
0.0
 20
0.0
 30
0.0
  0
VERTEX
  5
CB0
330
CAF
100
AcDbEntity
  8
Layer 1
 62
     7
370
    25
100
AcDbVertex
100
AcDb2dVertex
 10
-0.4362528183069055
 20
1.608369784325664
 30
0.0
  0
VERTEX
  5
CB1
330
CAF
100
AcDbEntity
  8
Layer 1
 62
     7
370
    25
100
AcDbVertex
100
AcDb2dVertex
 10
-0.0592177233188065
 20
1.608369784325664
 30
0.0
  0
SEQEND
  5
CB2
330
CAF
100
AcDbEntity
  8
Layer 1
370
    25
  0
POLYLINE
  5
CB3
330
18
100
AcDbEntity
  8
Layer 1
 62
     7
370
    25
100
AcDb2dPolyline
 66
     1
 10
0.0
 20
0.0
 30
0.0
  0
VERTEX
  5
CB4
330
CB3
100
AcDbEntity
  8
Layer 1
 62
     7
370
    25
100
AcDbVertex
100
AcDb2dVertex
 10
-0.4362528183069055
 20
1.619081628477588
 30
0.0
  0
VERTEX
  5
CB5
330
CB3
100
AcDbEntity
  8
Layer 1
 62
     7
370
    25
100
AcDbVertex
100
AcDb2dVertex
 10
-0.0592177233188065
 20
1.619081628477588
 30
0.0
  0
SEQEND
  5
CB6
330
CB3
100
AcDbEntity
  8
Layer 1
370
    25
  0
POLYLINE
  5
CB7
330
18
100
AcDbEntity
  8
Layer 1
  6
AI-Linetype-7
 62
   253
370
    25
100
AcDb2dPolyline
 66
     1
 10
0.0
 20
0.0
 30
0.0
  0
VERTEX
  5
CB8
330
CB7
100
AcDbEntity
  8
Layer 1
  6
AI-Linetype-7
 62
   253
370
    25
100
AcDbVertex
100
AcDb2dVertex
 10
-0.0592177233188065
 20
1.622163584910881
 30
0.0
  0
VERTEX
  5
CB9
330
CB7
100
AcDbEntity
  8
Layer 1
  6
AI-Linetype-7
 62
   253
370
    25
100
AcDbVertex
100
AcDb2dVertex
 10
-0.4362528183069055
 20
1.622163584910881
 30
0.0
  0
SEQEND
  5
CBA
330
CB7
100
AcDbEntity
  8
Layer 1
  6
AI-Linetype-7
370
    25
  0
POLYLINE
  5
CBB
330
18
100
AcDbEntity
  8
Layer 1
 62
     7
370
    25
100
AcDb2dPolyline
 66
     1
 10
0.0
 20
0.0
 30
0.0
  0
VERTEX
  5
CBC
330
CBB
100
AcDbEntity
  8
Layer 1
 62
     7
370
    25
100
AcDbVertex
100
AcDb2dVertex
 10
-0.4362528183069055
 20
1.667840633907635
 30
0.0
  0
VERTEX
  5
CBD
330
CBB
100
AcDbEntity
  8
Layer 1
 62
     7
370
    25
100
AcDbVertex
100
AcDb2dVertex
 10
-0.0592177233188065
 20
1.667840633907635
 30
0.0
  0
SEQEND
  5
CBE
330
CBB
100
AcDbEntity
  8
Layer 1
370
    25
  0
POLYLINE
  5
CBF
330
18
100
AcDbEntity
  8
Layer 1
 62
     7
370
    25
100
AcDb2dPolyline
 66
     1
 10
0.0
 20
0.0
 30
0.0
  0
VERTEX
  5
CC0
330
CBF
100
AcDbEntity
  8
Layer 1
 62
     7
370
    25
100
AcDbVertex
100
AcDb2dVertex
 10
-0.4362528183069055
 20
1.680577568901841
 30
0.0
  0
VERTEX
  5
CC1
330
CBF
100
AcDbEntity
  8
Layer 1
 62
     7
370
    25
100
AcDbVertex
100
AcDb2dVertex
 10
-0.0592177233188065
 20
1.680577568901841
 30
0.0
  0
SEQEND
  5
CC2
330
CBF
100
AcDbEntity
  8
Layer 1
370
    25
  0
POLYLINE
  5
CC3
330
18
100
AcDbEntity
  8
Layer 1
  6
AI-Linetype-8
 62
   253
370
    25
100
AcDb2dPolyline
 66
     1
 10
0.0
 20
0.0
 30
0.0
  0
VERTEX
  5
CC4
330
CC3
100
AcDbEntity
  8
Layer 1
  6
AI-Linetype-8
 62
   253
370
    25
100
AcDbVertex
100
AcDb2dVertex
 10
-0.0592177233188065
 20
1.681907174000237
 30
0.0
  0
VERTEX
  5
CC5
330
CC3
100
AcDbEntity
  8
Layer 1
  6
AI-Linetype-8
 62
   253
370
    25
100
AcDbVertex
100
AcDb2dVertex
 10
-0.4362528183069055
 20
1.681907174000237
 30
0.0
  0
SEQEND
  5
CC6
330
CC3
100
AcDbEntity
  8
Layer 1
  6
AI-Linetype-8
370
    25
  0
POLYLINE
  5
CC7
330
18
100
AcDbEntity
  8
Layer 1
 62
     7
370
    25
100
AcDb2dPolyline
 66
     1
 10
0.0
 20
0.0
 30
0.0
  0
VERTEX
  5
CC8
330
CC7
100
AcDbEntity
  8
Layer 1
 62
     7
370
    25
100
AcDbVertex
100
AcDb2dVertex
 10
-0.4362528183069055
 20
1.737361934336178
 30
0.0
  0
VERTEX
  5
CC9
330
CC7
100
AcDbEntity
  8
Layer 1
 62
     7
370
    25
100
AcDbVertex
100
AcDb2dVertex
 10
-0.0592177233188065
 20
1.737361934336178
 30
0.0
  0
SEQEND
  5
CCA
330
CC7
100
AcDbEntity
  8
Layer 1
370
    25
  0
POLYLINE
  5
CCB
330
18
100
AcDbEntity
  8
Layer 1
 62
     7
370
    25
100
AcDb2dPolyline
 66
     1
 10
0.0
 20
0.0
 30
0.0
  0
VERTEX
  5
CCC
330
CCB
100
AcDbEntity
  8
Layer 1
 62
     7
370
    25
100
AcDbVertex
100
AcDb2dVertex
 10
-0.0592177233188065
 20
1.751489840817996
 30
0.0
  0
VERTEX
  5
CCD
330
CCB
100
AcDbEntity
  8
Layer 1
 62
     7
370
    25
100
AcDbVertex
100
AcDb2dVertex
 10
-0.4362528183069055
 20
1.751489840817996
 30
0.0
  0
SEQEND
  5
CCE
330
CCB
100
AcDbEntity
  8
Layer 1
370
    25
  0
POLYLINE
  5
CCF
330
18
100
AcDbEntity
  8
Layer 1
 62
     7
370
    25
100
AcDb2dPolyline
 66
     1
 10
0.0
 20
0.0
 30
0.0
  0
VERTEX
  5
CD0
330
CCF
100
AcDbEntity
  8
Layer 1
 62
     7
370
    25
100
AcDbVertex
100
AcDb2dVertex
 10
-0.4362528183069055
 20
1.751933042517408
 30
0.0
  0
VERTEX
  5
CD1
330
CCF
100
AcDbEntity
  8
Layer 1
 62
     7
370
    25
100
AcDbVertex
100
AcDb2dVertex
 10
-0.0592177233188065
 20
1.751933042517408
 30
0.0
  0
SEQEND
  5
CD2
330
CCF
100
AcDbEntity
  8
Layer 1
370
    25
  0
POLYLINE
  5
CD3
330
18
100
AcDbEntity
  8
Layer 1
 62
     7
370
    25
100
AcDb2dPolyline
 66
     1
 10
0.0
 20
0.0
 30
0.0
  0
VERTEX
  5
CD4
330
CD3
100
AcDbEntity
  8
Layer 1
 62
     7
370
    25
100
AcDbVertex
100
AcDb2dVertex
 10
-0.0592177233188065
 20
1.486114300147109
 30
0.0
  0
VERTEX
  5
CD5
330
CD3
100
AcDbEntity
  8
Layer 1
 62
     7
370
    25
100
AcDbVertex
100
AcDb2dVertex
 10
-0.0592177233188065
 20
3.124958270518612
 30
0.0
  0
SEQEND
  5
CD6
330
CD3
100
AcDbEntity
  8
Layer 1
370
    25
  0
POLYLINE
  5
CD7
330
18
100
AcDbEntity
  8
ADP1DETAIL
  6
AI-Linetype-2
 62
     5
370
    25
100
AcDb2dPolyline
 66
     1
 10
0.0
 20
0.0
 30
0.0
  0
VERTEX
  5
CD8
330
CD7
100
AcDbEntity
  8
ADP1DETAIL
  6
AI-Linetype-2
 62
     5
370
    25
100
AcDbVertex
100
AcDb2dVertex
 10
-0.750953298885523
 20
1.802826234592626
 30
0.0
  0
VERTEX
  5
CD9
330
CD7
100
AcDbEntity
  8
ADP1DETAIL
  6
AI-Linetype-2
 62
     5
370
    25
100
AcDbVertex
100
AcDb2dVertex
 10
0.2444231702359838
 20
1.802826234592626
 30
0.0
  0
SEQEND
  5
CDA
330
CD7
100
AcDbEntity
  8
ADP1DETAIL
  6
AI-Linetype-2
 62
     5
370
    25
  0
POLYLINE
  5
CDB
330
18
100
AcDbEntity
  8
Layer 1
 62
     7
370
    25
100
AcDb2dPolyline
 66
     1
 10
0.0
 20
0.0
 30
0.0
  0
VERTEX
  5
CDC
330
CDB
100
AcDbEntity
  8
Layer 1
 62
     7
370
    25
100
AcDbVertex
100
AcDb2dVertex
 10
-0.4362528183069055
 20
1.815842727581909
 30
0.0
  0
VERTEX
  5
CDD
330
CDB
100
AcDbEntity
  8
Layer 1
 62
     7
370
    25
100
AcDbVertex
100
AcDb2dVertex
 10
-0.0592177233188065
 20
1.815842727581909
 30
0.0
  0
SEQEND
  5
CDE
330
CDB
100
AcDbEntity
  8
Layer 1
370
    25
  0
POLYLINE
  5
CDF
330
18
100
AcDbEntity
  8
Layer 1
 62
     7
370
    25
100
AcDb2dPolyline
 66
     1
 10
0.0
 20
0.0
 30
0.0
  0
VERTEX
  5
CE0
330
CDF
100
AcDbEntity
  8
Layer 1
 62
     7
370
    25
100
AcDbVertex
100
AcDb2dVertex
 10
-0.0592177233188065
 20
1.82980017187154
 30
0.0
  0
VERTEX
  5
CE1
330
CDF
100
AcDbEntity
  8
Layer 1
 62
     7
370
    25
100
AcDbVertex
100
AcDb2dVertex
 10
-0.4362528183069055
 20
1.82980017187154
 30
0.0
  0
SEQEND
  5
CE2
330
CDF
100
AcDbEntity
  8
Layer 1
370
    25
  0
POLYLINE
  5
CE3
330
18
100
AcDbEntity
  8
Layer 1
 62
     7
370
    25
100
AcDb2dPolyline
 66
     1
 10
0.0
 20
0.0
 30
0.0
  0
VERTEX
  5
CE4
330
CE3
100
AcDbEntity
  8
Layer 1
 62
     7
370
    25
100
AcDbVertex
100
AcDb2dVertex
 10
-0.4362528183069055
 20
1.83201618036892
 30
0.0
  0
VERTEX
  5
CE5
330
CE3
100
AcDbEntity
  8
Layer 1
 62
     7
370
    25
100
AcDbVertex
100
AcDb2dVertex
 10
-0.0592177233188065
 20
1.83201618036892
 30
0.0
  0
SEQEND
  5
CE6
330
CE3
100
AcDbEntity
  8
Layer 1
370
    25
  0
POLYLINE
  5
CE7
330
18
100
AcDbEntity
  8
Layer 1
 62
     7
370
    25
100
AcDb2dPolyline
 66
     1
 10
0.0
 20
0.0
 30
0.0
  0
VERTEX
  5
CE8
330
CE7
100
AcDbEntity
  8
Layer 1
 62
     7
370
    25
100
AcDbVertex
100
AcDb2dVertex
 10
-0.4362528183069055
 20
1.902048867373781
 30
0.0
  0
VERTEX
  5
CE9
330
CE7
100
AcDbEntity
  8
Layer 1
 62
     7
370
    25
100
AcDbVertex
100
AcDb2dVertex
 10
-0.0592177233188065
 20
1.902048867373781
 30
0.0
  0
SEQEND
  5
CEA
330
CE7
100
AcDbEntity
  8
Layer 1
370
    25
  0
POLYLINE
  5
CEB
330
18
100
AcDbEntity
  8
Layer 1
 62
     7
370
    25
100
AcDb2dPolyline
 66
     1
 10
0.0
 20
0.0
 30
0.0
  0
VERTEX
  5
CEC
330
CEB
100
AcDbEntity
  8
Layer 1
 62
     7
370
    25
100
AcDbVertex
100
AcDb2dVertex
 10
-0.0592177233188065
 20
1.915624476353136
 30
0.0
  0
VERTEX
  5
CED
330
CEB
100
AcDbEntity
  8
Layer 1
 62
     7
370
    25
100
AcDbVertex
100
AcDb2dVertex
 10
-0.4362528183069055
 20
1.915624476353136
 30
0.0
  0
SEQEND
  5
CEE
330
CEB
100
AcDbEntity
  8
Layer 1
370
    25
  0
POLYLINE
  5
CEF
330
18
100
AcDbEntity
  8
Layer 1
 62
     7
370
    25
100
AcDb2dPolyline
 66
     1
 10
0.0
 20
0.0
 30
0.0
  0
VERTEX
  5
CF0
330
CEF
100
AcDbEntity
  8
Layer 1
 62
     7
370
    25
100
AcDbVertex
100
AcDb2dVertex
 10
-0.4362528183069055
 20
1.919565562234649
 30
0.0
  0
VERTEX
  5
CF1
330
CEF
100
AcDbEntity
  8
Layer 1
 62
     7
370
    25
100
AcDbVertex
100
AcDb2dVertex
 10
-0.0592177233188065
 20
1.919565562234649
 30
0.0
  0
SEQEND
  5
CF2
330
CEF
100
AcDbEntity
  8
Layer 1
370
    25
  0
POLYLINE
  5
CF3
330
18
100
AcDbEntity
  8
ADP1DETAIL
  6
AI-Linetype-2
 62
     5
370
    25
100
AcDb2dPolyline
 66
     1
 10
0.0
 20
0.0
 30
0.0
  0
VERTEX
  5
CF4
330
CF3
100
AcDbEntity
  8
ADP1DETAIL
  6
AI-Linetype-2
 62
     5
370
    25
100
AcDbVertex
100
AcDb2dVertex
 10
-1.053012303297603
 20
2.305539694576705
 30
0.0
  0
VERTEX
  5
CF5
330
CF3
100
AcDbEntity
  8
ADP1DETAIL
  6
AI-Linetype-2
 62
     5
370
    25
100
AcDbVertex
100
AcDb2dVertex
 10
-0.750953298885523
 20
1.802826234592626
 30
0.0
  0
SEQEND
  5
CF6
330
CF3
100
AcDbEntity
  8
ADP1DETAIL
  6
AI-Linetype-2
 62
     5
370
    25
  0
POLYLINE
  5
CF7
330
18
100
AcDbEntity
  8
Layer 1
 62
     7
370
    25
100
AcDb2dPolyline
 66
     1
 10
0.0
 20
0.0
 30
0.0
  0
VERTEX
  5
CF8
330
CF7
100
AcDbEntity
  8
Layer 1
 62
     7
370
    25
100
AcDbVertex
100
AcDb2dVertex
 10
-0.4362528183069055
 20
1.994616656175106
 30
0.0
  0
VERTEX
  5
CF9
330
CF7
100
AcDbEntity
  8
Layer 1
 62
     7
370
    25
100
AcDbVertex
100
AcDb2dVertex
 10
-0.0592177233188065
 20
1.994616656175106
 30
0.0
  0
SEQEND
  5
CFA
330
CF7
100
AcDbEntity
  8
Layer 1
370
    25
  0
POLYLINE
  5
CFB
330
18
100
AcDbEntity
  8
Layer 1
 62
     7
370
    25
100
AcDb2dPolyline
 66
     1
 10
0.0
 20
0.0
 30
0.0
  0
VERTEX
  5
CFC
330
CFB
100
AcDbEntity
  8
Layer 1
 62
     7
370
    25
100
AcDbVertex
100
AcDb2dVertex
 10
-0.0592177233188065
 20
2.007592238238244
 30
0.0
  0
VERTEX
  5
CFD
330
CFB
100
AcDbEntity
  8
Layer 1
 62
     7
370
    25
100
AcDbVertex
100
AcDb2dVertex
 10
-0.4362528183069055
 20
2.007592238238244
 30
0.0
  0
SEQEND
  5
CFE
330
CFB
100
AcDbEntity
  8
Layer 1
370
    25
  0
POLYLINE
  5
CFF
330
18
100
AcDbEntity
  8
Layer 1
 62
     7
370
    25
100
AcDb2dPolyline
 66
     1
 10
0.0
 20
0.0
 30
0.0
  0
VERTEX
  5
D00
330
CFF
100
AcDbEntity
  8
Layer 1
 62
     7
370
    25
100
AcDbVertex
100
AcDb2dVertex
 10
-0.4362528183069055
 20
2.013203853602366
 30
0.0
  0
VERTEX
  5
D01
330
CFF
100
AcDbEntity
  8
Layer 1
 62
     7
370
    25
100
AcDbVertex
100
AcDb2dVertex
 10
-0.0592177233188065
 20
2.013203853602366
 30
0.0
  0
SEQEND
  5
D02
330
CFF
100
AcDbEntity
  8
Layer 1
370
    25
  0
POLYLINE
  5
D03
330
18
100
AcDbEntity
  8
Layer 1
  6
AI-Linetype-11
 62
   253
370
    25
100
AcDb2dPolyline
 66
     1
 10
0.0
 20
0.0
 30
0.0
  0
VERTEX
  5
D04
330
D03
100
AcDbEntity
  8
Layer 1
  6
AI-Linetype-11
 62
   253
370
    25
100
AcDbVertex
100
AcDb2dVertex
 10
0.2444231702359838
 20
2.808253154560785
 30
0.0
  0
VERTEX
  5
D05
330
D03
100
AcDbEntity
  8
Layer 1
  6
AI-Linetype-11
 62
   253
370
    25
100
AcDbVertex
100
AcDb2dVertex
 10
0.2544736210825556
 20
2.818303605407356
 30
0.0
  0
SEQEND
  5
D06
330
D03
100
AcDbEntity
  8
Layer 1
  6
AI-Linetype-11
370
    25
  0
POLYLINE
  5
D07
330
18
100
AcDbEntity
  8
Layer 1
 62
     7
370
    25
100
AcDb2dPolyline
 66
     1
 10
0.0
 20
0.0
 30
0.0
  0
VERTEX
  5
D08
330
D07
100
AcDbEntity
  8
Layer 1
 62
     7
370
    25
100
AcDbVertex
100
AcDb2dVertex
 10
-0.4362528183069055
 20
2.092093756109056
 30
0.0
  0
VERTEX
  5
D09
330
D07
100
AcDbEntity
  8
Layer 1
 62
     7
370
    25
100
AcDbVertex
100
AcDb2dVertex
 10
-0.0592177233188065
 20
2.092093756109056
 30
0.0
  0
SEQEND
  5
D0A
330
D07
100
AcDbEntity
  8
Layer 1
370
    25
  0
POLYLINE
  5
D0B
330
18
100
AcDbEntity
  8
Layer 1
 62
     7
370
    25
100
AcDb2dPolyline
 66
     1
 10
0.0
 20
0.0
 30
0.0
  0
VERTEX
  5
D0C
330
D0B
100
AcDbEntity
  8
Layer 1
 62
     7
370
    25
100
AcDbVertex
100
AcDb2dVertex
 10
-0.0592177233188065
 20
2.104257938137807
 30
0.0
  0
VERTEX
  5
D0D
330
D0B
100
AcDbEntity
  8
Layer 1
 62
     7
370
    25
100
AcDbVertex
100
AcDb2dVertex
 10
-0.4362528183069055
 20
2.104257938137807
 30
0.0
  0
SEQEND
  5
D0E
330
D0B
100
AcDbEntity
  8
Layer 1
370
    25
  0
POLYLINE
  5
D0F
330
18
100
AcDbEntity
  8
Layer 1
 62
     7
370
    25
100
AcDb2dPolyline
 66
     1
 10
0.0
 20
0.0
 30
0.0
  0
VERTEX
  5
D10
330
D0F
100
AcDbEntity
  8
Layer 1
 62
     7
370
    25
100
AcDbVertex
100
AcDb2dVertex
 10
-0.4362528183069055
 20
2.111451442644638
 30
0.0
  0
VERTEX
  5
D11
330
D0F
100
AcDbEntity
  8
Layer 1
 62
     7
370
    25
100
AcDbVertex
100
AcDb2dVertex
 10
-0.0592177233188065
 20
2.111451442644638
 30
0.0
  0
SEQEND
  5
D12
330
D0F
100
AcDbEntity
  8
Layer 1
370
    25
  0
POLYLINE
  5
D13
330
18
100
AcDbEntity
  8
Layer 1
 62
     7
370
    25
100
AcDb2dPolyline
 66
     1
 10
0.0
 20
0.0
 30
0.0
  0
VERTEX
  5
D14
330
D13
100
AcDbEntity
  8
Layer 1
 62
     7
370
    25
100
AcDbVertex
100
AcDb2dVertex
 10
-0.4362528183069055
 20
1.486114300147109
 30
0.0
  0
VERTEX
  5
D15
330
D13
100
AcDbEntity
  8
Layer 1
 62
     7
370
    25
100
AcDbVertex
100
AcDb2dVertex
 10
-0.4362528183069055
 20
3.124958270518612
 30
0.0
  0
SEQEND
  5
D16
330
D13
100
AcDbEntity
  8
Layer 1
370
    25
  0
POLYLINE
  5
D17
330
18
100
AcDbEntity
  8
Layer 1
 62
     7
370
    25
100
AcDb2dPolyline
 66
     1
 10
0.0
 20
0.0
 30
0.0
  0
VERTEX
  5
D18
330
D17
100
AcDbEntity
  8
Layer 1
 62
     7
370
    25
100
AcDbVertex
100
AcDb2dVertex
 10
-0.4362528183069055
 20
2.192925551983683
 30
0.0
  0
VERTEX
  5
D19
330
D17
100
AcDbEntity
  8
Layer 1
 62
     7
370
    25
100
AcDbVertex
100
AcDb2dVertex
 10
-0.0592177233188065
 20
2.192925551983683
 30
0.0
  0
SEQEND
  5
D1A
330
D17
100
AcDbEntity
  8
Layer 1
370
    25
  0
POLYLINE
  5
D1B
330
18
100
AcDbEntity
  8
Layer 1
 62
     7
370
    25
100
AcDb2dPolyline
 66
     1
 10
0.0
 20
0.0
 30
0.0
  0
VERTEX
  5
D1C
330
D1B
100
AcDbEntity
  8
Layer 1
 62
     7
370
    25
100
AcDbVertex
100
AcDb2dVertex
 10
-0.0592177233188065
 20
2.20409423481048
 30
0.0
  0
VERTEX
  5
D1D
330
D1B
100
AcDbEntity
  8
Layer 1
 62
     7
370
    25
100
AcDbVertex
100
AcDb2dVertex
 10
-0.4362528183069055
 20
2.20409423481048
 30
0.0
  0
SEQEND
  5
D1E
330
D1B
100
AcDbEntity
  8
Layer 1
370
    25
  0
POLYLINE
  5
D1F
330
18
100
AcDbEntity
  8
Layer 1
 62
     7
370
    25
100
AcDb2dPolyline
 66
     1
 10
0.0
 20
0.0
 30
0.0
  0
VERTEX
  5
D20
330
D1F
100
AcDbEntity
  8
Layer 1
 62
     7
370
    25
100
AcDbVertex
100
AcDb2dVertex
 10
-0.4362528183069055
 20
2.21275371416952
 30
0.0
  0
VERTEX
  5
D21
330
D1F
100
AcDbEntity
  8
Layer 1
 62
     7
370
    25
100
AcDbVertex
100
AcDb2dVertex
 10
-0.0592177233188065
 20
2.21275371416952
 30
0.0
  0
SEQEND
  5
D22
330
D1F
100
AcDbEntity
  8
Layer 1
370
    25
  0
POLYLINE
  5
D23
330
18
100
AcDbEntity
  8
Layer 1
 62
     7
370
    25
100
AcDb2dPolyline
 66
     1
 10
0.0
 20
0.0
 30
0.0
  0
VERTEX
  5
D24
330
D23
100
AcDbEntity
  8
Layer 1
 62
     7
370
    25
100
AcDbVertex
100
AcDb2dVertex
 10
-0.4362528183069055
 20
2.295543791631579
 30
0.0
  0
VERTEX
  5
D25
330
D23
100
AcDbEntity
  8
Layer 1
 62
     7
370
    25
100
AcDbVertex
100
AcDb2dVertex
 10
-0.0592177233188065
 20
2.295543791631579
 30
0.0
  0
SEQEND
  5
D26
330
D23
100
AcDbEntity
  8
Layer 1
370
    25
  0
POLYLINE
  5
D27
330
18
100
AcDbEntity
  8
Layer 1
 62
     7
370
    25
100
AcDb2dPolyline
 66
     1
 10
0.0
 20
0.0
 30
0.0
  0
VERTEX
  5
D28
330
D27
100
AcDbEntity
  8
Layer 1
 62
     7
370
    25
100
AcDbVertex
100
AcDb2dVertex
 10
-0.0592177233188065
 20
2.305539694576705
 30
0.0
  0
VERTEX
  5
D29
330
D27
100
AcDbEntity
  8
Layer 1
 62
     7
370
    25
100
AcDbVertex
100
AcDb2dVertex
 10
-0.4362528183069055
 20
2.305539694576705
 30
0.0
  0
SEQEND
  5
D2A
330
D27
100
AcDbEntity
  8
Layer 1
370
    25
  0
POLYLINE
  5
D2B
330
18
100
AcDbEntity
  8
Layer 1
 62
     7
370
    25
100
AcDb2dPolyline
 66
     1
 10
0.0
 20
0.0
 30
0.0
  0
VERTEX
  5
D2C
330
D2B
100
AcDbEntity
  8
Layer 1
 62
     7
370
    25
100
AcDbVertex
100
AcDb2dVertex
 10
-0.4362528183069055
 20
2.315535597521831
 30
0.0
  0
VERTEX
  5
D2D
330
D2B
100
AcDbEntity
  8
Layer 1
 62
     7
370
    25
100
AcDbVertex
100
AcDb2dVertex
 10
-0.0592177233188065
 20
2.315535597521831
 30
0.0
  0
SEQEND
  5
D2E
330
D2B
100
AcDbEntity
  8
Layer 1
370
    25
  0
POLYLINE
  5
D2F
330
18
100
AcDbEntity
  8
Layer 1
 62
     7
370
    25
100
AcDb2dPolyline
 66
     1
 10
0.0
 20
0.0
 30
0.0
  0
VERTEX
  5
D30
330
D2F
100
AcDbEntity
  8
Layer 1
 62
     7
370
    25
100
AcDbVertex
100
AcDb2dVertex
 10
-0.4362528183069055
 20
2.398312038008589
 30
0.0
  0
VERTEX
  5
D31
330
D2F
100
AcDbEntity
  8
Layer 1
 62
     7
370
    25
100
AcDbVertex
100
AcDb2dVertex
 10
-0.0592177233188065
 20
2.398312038008589
 30
0.0
  0
SEQEND
  5
D32
330
D2F
100
AcDbEntity
  8
Layer 1
370
    25
  0
POLYLINE
  5
D33
330
18
100
AcDbEntity
  8
Layer 1
 62
     7
370
    25
100
AcDb2dPolyline
 66
     1
 10
0.0
 20
0.0
 30
0.0
  0
VERTEX
  5
D34
330
D33
100
AcDbEntity
  8
Layer 1
 62
     7
370
    25
100
AcDbVertex
100
AcDb2dVertex
 10
-0.0592177233188065
 20
2.406985154342931
 30
0.0
  0
VERTEX
  5
D35
330
D33
100
AcDbEntity
  8
Layer 1
 62
     7
370
    25
100
AcDbVertex
100
AcDb2dVertex
 10
-0.4362528183069055
 20
2.406985154342931
 30
0.0
  0
SEQEND
  5
D36
330
D33
100
AcDbEntity
  8
Layer 1
370
    25
  0
POLYLINE
  5
D37
330
18
100
AcDbEntity
  8
Layer 1
 62
     7
370
    25
100
AcDb2dPolyline
 66
     1
 10
0.0
 20
0.0
 30
0.0
  0
VERTEX
  5
D38
330
D37
100
AcDbEntity
  8
Layer 1
 62
     7
370
    25
100
AcDbVertex
100
AcDb2dVertex
 10
-0.4362528183069055
 20
2.418140200194347
 30
0.0
  0
VERTEX
  5
D39
330
D37
100
AcDbEntity
  8
Layer 1
 62
     7
370
    25
100
AcDbVertex
100
AcDb2dVertex
 10
-0.0592177233188065
 20
2.418140200194347
 30
0.0
  0
SEQEND
  5
D3A
330
D37
100
AcDbEntity
  8
Layer 1
370
    25
  0
POLYLINE
  5
D3B
330
18
100
AcDbEntity
  8
Layer 1
  6
AI-Linetype-12
 62
   253
370
    25
100
AcDb2dPolyline
 66
     1
 10
0.0
 20
0.0
 30
0.0
  0
VERTEX
  5
D3C
330
D3B
100
AcDbEntity
  8
Layer 1
  6
AI-Linetype-12
 62
   253
370
    25
100
AcDbVertex
100
AcDb2dVertex
 10
-0.750953298885523
 20
2.808253154560785
 30
0.0
  0
VERTEX
  5
D3D
330
D3B
100
AcDbEntity
  8
Layer 1
  6
AI-Linetype-12
 62
   253
370
    25
100
AcDbVertex
100
AcDb2dVertex
 10
-0.750953298885523
 20
1.802826234592626
 30
0.0
  0
SEQEND
  5
D3E
330
D3B
100
AcDbEntity
  8
Layer 1
  6
AI-Linetype-12
370
    25
  0
POLYLINE
  5
D3F
330
18
100
AcDbEntity
  8
Layer 1
 62
     7
370
    25
100
AcDb2dPolyline
 66
     1
 10
0.0
 20
0.0
 30
0.0
  0
VERTEX
  5
D40
330
D3F
100
AcDbEntity
  8
Layer 1
 62
     7
370
    25
100
AcDbVertex
100
AcDb2dVertex
 10
-0.4362528183069055
 20
2.499621128021082
 30
0.0
  0
VERTEX
  5
D41
330
D3F
100
AcDbEntity
  8
Layer 1
 62
     7
370
    25
100
AcDbVertex
100
AcDb2dVertex
 10
-0.0592177233188065
 20
2.499621128021082
 30
0.0
  0
SEQEND
  5
D42
330
D3F
100
AcDbEntity
  8
Layer 1
370
    25
  0
POLYLINE
  5
D43
330
18
100
AcDbEntity
  8
Layer 1
 62
     7
370
    25
100
AcDb2dPolyline
 66
     1
 10
0.0
 20
0.0
 30
0.0
  0
VERTEX
  5
D44
330
D43
100
AcDbEntity
  8
Layer 1
 62
     7
370
    25
100
AcDbVertex
100
AcDb2dVertex
 10
-0.0592177233188065
 20
2.506821451015603
 30
0.0
  0
VERTEX
  5
D45
330
D43
100
AcDbEntity
  8
Layer 1
 62
     7
370
    25
100
AcDbVertex
100
AcDb2dVertex
 10
-0.4362528183069055
 20
2.506821451015603
 30
0.0
  0
SEQEND
  5
D46
330
D43
100
AcDbEntity
  8
Layer 1
370
    25
  0
POLYLINE
  5
D47
330
18
100
AcDbEntity
  8
Layer 1
 62
     7
370
    25
100
AcDb2dPolyline
 66
     1
 10
0.0
 20
0.0
 30
0.0
  0
VERTEX
  5
D48
330
D47
100
AcDbEntity
  8
Layer 1
 62
     7
370
    25
100
AcDbVertex
100
AcDb2dVertex
 10
-0.4362528183069055
 20
2.518985633044355
 30
0.0
  0
VERTEX
  5
D49
330
D47
100
AcDbEntity
  8
Layer 1
 62
     7
370
    25
100
AcDbVertex
100
AcDb2dVertex
 10
-0.0592177233188065
 20
2.518985633044355
 30
0.0
  0
SEQEND
  5
D4A
330
D47
100
AcDbEntity
  8
Layer 1
370
    25
  0
POLYLINE
  5
D4B
330
18
100
AcDbEntity
  8
Layer 1
  6
AI-Linetype-13
 62
   253
370
    25
100
AcDb2dPolyline
 66
     1
 10
0.0
 20
0.0
 30
0.0
  0
VERTEX
  5
D4C
330
D4B
100
AcDbEntity
  8
Layer 1
  6
AI-Linetype-13
 62
   253
370
    25
100
AcDbVertex
100
AcDb2dVertex
 10
0.2444231702359838
 20
1.802826234592626
 30
0.0
  0
VERTEX
  5
D4D
330
D4B
100
AcDbEntity
  8
Layer 1
  6
AI-Linetype-13
 62
   253
370
    25
100
AcDbVertex
100
AcDb2dVertex
 10
0.2544736210825556
 20
1.792768965258364
 30
0.0
  0
SEQEND
  5
D4E
330
D4B
100
AcDbEntity
  8
Layer 1
  6
AI-Linetype-13
370
    25
  0
POLYLINE
  5
D4F
330
18
100
AcDbEntity
  8
Layer 1
 62
     7
370
    25
100
AcDb2dPolyline
 66
     1
 10
0.0
 20
0.0
 30
0.0
  0
VERTEX
  5
D50
330
D4F
100
AcDbEntity
  8
Layer 1
 62
     7
370
    25
100
AcDbVertex
100
AcDb2dVertex
 10
-0.4362528183069055
 20
2.597875535551045
 30
0.0
  0
VERTEX
  5
D51
330
D4F
100
AcDbEntity
  8
Layer 1
 62
     7
370
    25
100
AcDbVertex
100
AcDb2dVertex
 10
-0.0592177233188065
 20
2.597875535551045
 30
0.0
  0
SEQEND
  5
D52
330
D4F
100
AcDbEntity
  8
Layer 1
370
    25
  0
POLYLINE
  5
D53
330
18
100
AcDbEntity
  8
Layer 1
 62
     7
370
    25
100
AcDb2dPolyline
 66
     1
 10
0.0
 20
0.0
 30
0.0
  0
VERTEX
  5
D54
330
D53
100
AcDbEntity
  8
Layer 1
 62
     7
370
    25
100
AcDbVertex
100
AcDb2dVertex
 10
-0.0592177233188065
 20
2.603493969402857
 30
0.0
  0
VERTEX
  5
D55
330
D53
100
AcDbEntity
  8
Layer 1
 62
     7
370
    25
100
AcDbVertex
100
AcDb2dVertex
 10
-0.4362528183069055
 20
2.603493969402857
 30
0.0
  0
SEQEND
  5
D56
330
D53
100
AcDbEntity
  8
Layer 1
370
    25
  0
POLYLINE
  5
D57
330
18
100
AcDbEntity
  8
Layer 1
 62
     7
370
    25
100
AcDb2dPolyline
 66
     1
 10
0.0
 20
0.0
 30
0.0
  0
VERTEX
  5
D58
330
D57
100
AcDbEntity
  8
Layer 1
 62
     7
370
    25
100
AcDbVertex
100
AcDb2dVertex
 10
-0.4362528183069055
 20
2.616462732978305
 30
0.0
  0
VERTEX
  5
D59
330
D57
100
AcDbEntity
  8
Layer 1
 62
     7
370
    25
100
AcDbVertex
100
AcDb2dVertex
 10
-0.0592177233188065
 20
2.616462732978305
 30
0.0
  0
SEQEND
  5
D5A
330
D57
100
AcDbEntity
  8
Layer 1
370
    25
  0
POLYLINE
  5
D5B
330
18
100
AcDbEntity
  8
Layer 1
 62
     7
370
    25
100
AcDb2dPolyline
 66
     1
 10
0.0
 20
0.0
 30
0.0
  0
VERTEX
  5
D5C
330
D5B
100
AcDbEntity
  8
Layer 1
 62
     7
370
    25
100
AcDbVertex
100
AcDb2dVertex
 10
-0.4362528183069055
 20
2.69150700843115
 30
0.0
  0
VERTEX
  5
D5D
330
D5B
100
AcDbEntity
  8
Layer 1
 62
     7
370
    25
100
AcDbVertex
100
AcDb2dVertex
 10
-0.0592177233188065
 20
2.69150700843115
 30
0.0
  0
SEQEND
  5
D5E
330
D5B
100
AcDbEntity
  8
Layer 1
370
    25
  0
POLYLINE
  5
D5F
330
18
100
AcDbEntity
  8
Layer 1
 62
     7
370
    25
100
AcDb2dPolyline
 66
     1
 10
0.0
 20
0.0
 30
0.0
  0
VERTEX
  5
D60
330
D5F
100
AcDbEntity
  8
Layer 1
 62
     7
370
    25
100
AcDbVertex
100
AcDb2dVertex
 10
-0.0592177233188065
 20
2.695448094312584
 30
0.0
  0
VERTEX
  5
D61
330
D5F
100
AcDbEntity
  8
Layer 1
 62
     7
370
    25
100
AcDbVertex
100
AcDb2dVertex
 10
-0.4362528183069055
 20
2.695448094312584
 30
0.0
  0
SEQEND
  5
D62
330
D5F
100
AcDbEntity
  8
Layer 1
370
    25
  0
POLYLINE
  5
D63
330
18
100
AcDbEntity
  8
Layer 1
 62
     7
370
    25
100
AcDb2dPolyline
 66
     1
 10
0.0
 20
0.0
 30
0.0
  0
VERTEX
  5
D64
330
D63
100
AcDbEntity
  8
Layer 1
 62
     7
370
    25
100
AcDbVertex
100
AcDb2dVertex
 10
-0.4362528183069055
 20
2.70903052177963
 30
0.0
  0
VERTEX
  5
D65
330
D63
100
AcDbEntity
  8
Layer 1
 62
     7
370
    25
100
AcDbVertex
100
AcDb2dVertex
 10
-0.0592177233188065
 20
2.70903052177963
 30
0.0
  0
SEQEND
  5
D66
330
D63
100
AcDbEntity
  8
Layer 1
370
    25
  0
POLYLINE
  5
D67
330
18
100
AcDbEntity
  8
Layer 1
 62
     7
370
    25
100
AcDb2dPolyline
 66
     1
 10
0.0
 20
0.0
 30
0.0
  0
VERTEX
  5
D68
330
D67
100
AcDbEntity
  8
Layer 1
 62
     7
370
    25
100
AcDbVertex
100
AcDb2dVertex
 10
-1.065053752548003
 20
3.260700723336544
 30
0.0
  0
VERTEX
  5
D69
330
D67
100
AcDbEntity
  8
Layer 1
 62
     7
370
    25
100
AcDbVertex
100
AcDb2dVertex
 10
-1.065053752548003
 20
1.350385484304557
 30
0.0
  0
SEQEND
  5
D6A
330
D67
100
AcDbEntity
  8
Layer 1
370
    25
  0
POLYLINE
  5
D6B
330
18
100
AcDbEntity
  8
ADP1DETAIL
  6
AI-Linetype-2
 62
     5
370
    25
100
AcDb2dPolyline
 66
     1
 10
0.0
 20
0.0
 30
0.0
  0
VERTEX
  5
D6C
330
D6B
100
AcDbEntity
  8
ADP1DETAIL
  6
AI-Linetype-2
 62
     5
370
    25
100
AcDbVertex
100
AcDb2dVertex
 10
-1.053012303297603
 20
2.305539694576705
 30
0.0
  0
VERTEX
  5
D6D
330
D6B
100
AcDbEntity
  8
ADP1DETAIL
  6
AI-Linetype-2
 62
     5
370
    25
100
AcDbVertex
100
AcDb2dVertex
 10
-0.750953298885523
 20
2.808253154560785
 30
0.0
  0
SEQEND
  5
D6E
330
D6B
100
AcDbEntity
  8
ADP1DETAIL
  6
AI-Linetype-2
 62
     5
370
    25
  0
POLYLINE
  5
D6F
330
18
100
AcDbEntity
  8
Layer 1
 62
     7
370
    25
100
AcDb2dPolyline
 66
     1
 10
0.0
 20
0.0
 30
0.0
  0
VERTEX
  5
D70
330
D6F
100
AcDbEntity
  8
Layer 1
 62
     7
370
    25
100
AcDbVertex
100
AcDb2dVertex
 10
-0.4362528183069055
 20
2.7790563902968
 30
0.0
  0
VERTEX
  5
D71
330
D6F
100
AcDbEntity
  8
Layer 1
 62
     7
370
    25
100
AcDbVertex
100
AcDb2dVertex
 10
-0.0592177233188065
 20
2.7790563902968
 30
0.0
  0
SEQEND
  5
D72
330
D6F
100
AcDbEntity
  8
Layer 1
370
    25
  0
POLYLINE
  5
D73
330
18
100
AcDbEntity
  8
Layer 1
 62
     7
370
    25
100
AcDb2dPolyline
 66
     1
 10
0.0
 20
0.0
 30
0.0
  0
VERTEX
  5
D74
330
D73
100
AcDbEntity
  8
Layer 1
 62
     7
370
    25
100
AcDbVertex
100
AcDb2dVertex
 10
-0.0592177233188065
 20
2.781279217281871
 30
0.0
  0
VERTEX
  5
D75
330
D73
100
AcDbEntity
  8
Layer 1
 62
     7
370
    25
100
AcDbVertex
100
AcDb2dVertex
 10
-0.4362528183069055
 20
2.781279217281871
 30
0.0
  0
SEQEND
  5
D76
330
D73
100
AcDbEntity
  8
Layer 1
370
    25
  0
POLYLINE
  5
D77
330
18
100
AcDbEntity
  8
Layer 1
 62
     7
370
    25
100
AcDb2dPolyline
 66
     1
 10
0.0
 20
0.0
 30
0.0
  0
VERTEX
  5
D78
330
D77
100
AcDbEntity
  8
Layer 1
 62
     7
370
    25
100
AcDbVertex
100
AcDb2dVertex
 10
-0.4362528183069055
 20
2.795229843083891
 30
0.0
  0
VERTEX
  5
D79
330
D77
100
AcDbEntity
  8
Layer 1
 62
     7
370
    25
100
AcDbVertex
100
AcDb2dVertex
 10
-0.0592177233188065
 20
2.795229843083891
 30
0.0
  0
SEQEND
  5
D7A
330
D77
100
AcDbEntity
  8
Layer 1
370
    25
  0
POLYLINE
  5
D7B
330
18
100
AcDbEntity
  8
ADP1DETAIL
  6
AI-Linetype-2
 62
     5
370
    25
100
AcDb2dPolyline
 66
     1
 10
0.0
 20
0.0
 30
0.0
  0
VERTEX
  5
D7C
330
D7B
100
AcDbEntity
  8
ADP1DETAIL
  6
AI-Linetype-2
 62
     5
370
    25
100
AcDbVertex
100
AcDb2dVertex
 10
-0.750953298885523
 20
2.808253154560785
 30
0.0
  0
VERTEX
  5
D7D
330
D7B
100
AcDbEntity
  8
ADP1DETAIL
  6
AI-Linetype-2
 62
     5
370
    25
100
AcDbVertex
100
AcDb2dVertex
 10
0.2444231702359838
 20
2.808253154560785
 30
0.0
  0
SEQEND
  5
D7E
330
D7B
100
AcDbEntity
  8
ADP1DETAIL
  6
AI-Linetype-2
 62
     5
370
    25
  0
POLYLINE
  5
D7F
330
18
100
AcDbEntity
  8
Layer 1
 62
     7
370
    25
100
AcDb2dPolyline
 66
     1
 10
0.0
 20
0.0
 30
0.0
  0
VERTEX
  5
D80
330
D7F
100
AcDbEntity
  8
Layer 1
 62
     7
370
    25
100
AcDbVertex
100
AcDb2dVertex
 10
-0.4362528183069055
 20
2.859146346636003
 30
0.0
  0
VERTEX
  5
D81
330
D7F
100
AcDbEntity
  8
Layer 1
 62
     7
370
    25
100
AcDbVertex
100
AcDb2dVertex
 10
-0.0592177233188065
 20
2.859146346636003
 30
0.0
  0
SEQEND
  5
D82
330
D7F
100
AcDbEntity
  8
Layer 1
370
    25
  0
POLYLINE
  5
D83
330
18
100
AcDbEntity
  8
Layer 1
 62
     7
370
    25
100
AcDb2dPolyline
 66
     1
 10
0.0
 20
0.0
 30
0.0
  0
VERTEX
  5
D84
330
D83
100
AcDbEntity
  8
Layer 1
 62
     7
370
    25
100
AcDbVertex
100
AcDb2dVertex
 10
-0.0592177233188065
 20
2.859582729847804
 30
0.0
  0
VERTEX
  5
D85
330
D83
100
AcDbEntity
  8
Layer 1
 62
     7
370
    25
100
AcDbVertex
100
AcDb2dVertex
 10
-0.4362528183069055
 20
2.859582729847804
 30
0.0
  0
SEQEND
  5
D86
330
D83
100
AcDbEntity
  8
Layer 1
370
    25
  0
POLYLINE
  5
D87
330
18
100
AcDbEntity
  8
Layer 1
 62
     7
370
    25
100
AcDb2dPolyline
 66
     1
 10
0.0
 20
0.0
 30
0.0
  0
VERTEX
  5
D88
330
D87
100
AcDbEntity
  8
Layer 1
 62
     7
370
    25
100
AcDbVertex
100
AcDb2dVertex
 10
-0.4362528183069055
 20
2.873710636329542
 30
0.0
  0
VERTEX
  5
D89
330
D87
100
AcDbEntity
  8
Layer 1
 62
     7
370
    25
100
AcDbVertex
100
AcDb2dVertex
 10
-0.0592177233188065
 20
2.873710636329542
 30
0.0
  0
SEQEND
  5
D8A
330
D87
100
AcDbEntity
  8
Layer 1
370
    25
  0
POLYLINE
  5
D8B
330
18
100
AcDbEntity
  8
Layer 1
 62
     7
370
    25
100
AcDb2dPolyline
 66
     1
 10
0.0
 20
0.0
 30
0.0
  0
VERTEX
  5
D8C
330
D8B
100
AcDbEntity
  8
Layer 1
 62
     7
370
    25
100
AcDbVertex
100
AcDb2dVertex
 10
-1.218892471679949
 20
3.103875506598895
 30
0.0
  0
VERTEX
  5
D8D
330
D8B
100
AcDbEntity
  8
Layer 1
 62
     7
370
    25
100
AcDbVertex
100
AcDb2dVertex
 10
-1.218892471679949
 20
1.507203882554516
 30
0.0
  0
SEQEND
  5
D8E
330
D8B
100
AcDbEntity
  8
Layer 1
370
    25
  0
POLYLINE
  5
D8F
330
18
100
AcDbEntity
  8
Layer 1
  6
AI-Linetype-16
 62
   253
370
    25
100
AcDb2dPolyline
 66
     1
 10
0.0
 20
0.0
 30
0.0
  0
VERTEX
  5
D90
330
D8F
100
AcDbEntity
  8
Layer 1
  6
AI-Linetype-16
 62
   253
370
    25
100
AcDbVertex
100
AcDb2dVertex
 10
-0.0592177233188065
 20
2.929172215153173
 30
0.0
  0
VERTEX
  5
D91
330
D8F
100
AcDbEntity
  8
Layer 1
  6
AI-Linetype-16
 62
   253
370
    25
100
AcDbVertex
100
AcDb2dVertex
 10
-0.4362528183069055
 20
2.929172215153173
 30
0.0
  0
SEQEND
  5
D92
330
D8F
100
AcDbEntity
  8
Layer 1
  6
AI-Linetype-16
370
    25
  0
POLYLINE
  5
D93
330
18
100
AcDbEntity
  8
Layer 1
 62
     7
370
    25
100
AcDb2dPolyline
 66
     1
 10
0.0
 20
0.0
 30
0.0
  0
VERTEX
  5
D94
330
D93
100
AcDbEntity
  8
Layer 1
 62
     7
370
    25
100
AcDbVertex
100
AcDb2dVertex
 10
-0.4362528183069055
 20
2.930495001763959
 30
0.0
  0
VERTEX
  5
D95
330
D93
100
AcDbEntity
  8
Layer 1
 62
     7
370
    25
100
AcDbVertex
100
AcDb2dVertex
 10
-0.0592177233188065
 20
2.930495001763959
 30
0.0
  0
SEQEND
  5
D96
330
D93
100
AcDbEntity
  8
Layer 1
370
    25
  0
POLYLINE
  5
D97
330
18
100
AcDbEntity
  8
Layer 1
 62
     7
370
    25
100
AcDb2dPolyline
 66
     1
 10
0.0
 20
0.0
 30
0.0
  0
VERTEX
  5
D98
330
D97
100
AcDbEntity
  8
Layer 1
 62
     7
370
    25
100
AcDbVertex
100
AcDb2dVertex
 10
-0.4362528183069055
 20
2.943231936758085
 30
0.0
  0
VERTEX
  5
D99
330
D97
100
AcDbEntity
  8
Layer 1
 62
     7
370
    25
100
AcDbVertex
100
AcDb2dVertex
 10
-0.0592177233188065
 20
2.943231936758085
 30
0.0
  0
SEQEND
  5
D9A
330
D97
100
AcDbEntity
  8
Layer 1
370
    25
  0
POLYLINE
  5
D9B
330
18
100
AcDbEntity
  8
Layer 1
  6
AI-Linetype-17
 62
   253
370
    25
100
AcDb2dPolyline
 66
     1
 10
0.0
 20
0.0
 30
0.0
  0
VERTEX
  5
D9C
330
D9B
100
AcDbEntity
  8
Layer 1
  6
AI-Linetype-17
 62
   253
370
    25
100
AcDbVertex
100
AcDb2dVertex
 10
-0.0592177233188065
 20
2.98891580424253
 30
0.0
  0
VERTEX
  5
D9D
330
D9B
100
AcDbEntity
  8
Layer 1
  6
AI-Linetype-17
 62
   253
370
    25
100
AcDbVertex
100
AcDb2dVertex
 10
-0.4362528183069055
 20
2.98891580424253
 30
0.0
  0
SEQEND
  5
D9E
330
D9B
100
AcDbEntity
  8
Layer 1
  6
AI-Linetype-17
370
    25
  0
POLYLINE
  5
D9F
330
18
100
AcDbEntity
  8
Layer 1
 62
     7
370
    25
100
AcDb2dPolyline
 66
     1
 10
0.0
 20
0.0
 30
0.0
  0
VERTEX
  5
DA0
330
D9F
100
AcDbEntity
  8
Layer 1
 62
     7
370
    25
100
AcDbVertex
100
AcDb2dVertex
 10
-0.4362528183069055
 20
2.991997760675822
 30
0.0
  0
VERTEX
  5
DA1
330
D9F
100
AcDbEntity
  8
Layer 1
 62
     7
370
    25
100
AcDbVertex
100
AcDb2dVertex
 10
-0.0592177233188065
 20
2.991997760675822
 30
0.0
  0
SEQEND
  5
DA2
330
D9F
100
AcDbEntity
  8
Layer 1
370
    25
  0
POLYLINE
  5
DA3
330
18
100
AcDbEntity
  8
Layer 1
 62
     7
370
    25
100
AcDb2dPolyline
 66
     1
 10
0.0
 20
0.0
 30
0.0
  0
VERTEX
  5
DA4
330
DA3
100
AcDbEntity
  8
Layer 1
 62
     7
370
    25
100
AcDbVertex
100
AcDb2dVertex
 10
-0.4362528183069055
 20
3.002702786340056
 30
0.0
  0
VERTEX
  5
DA5
330
DA3
100
AcDbEntity
  8
Layer 1
 62
     7
370
    25
100
AcDbVertex
100
AcDb2dVertex
 10
-0.0592177233188065
 20
3.002702786340056
 30
0.0
  0
SEQEND
  5
DA6
330
DA3
100
AcDbEntity
  8
Layer 1
370
    25
  0
POLYLINE
  5
DA7
330
18
100
AcDbEntity
  8
Layer 1
  6
AI-Linetype-18
 62
   253
370
    25
100
AcDb2dPolyline
 66
     1
 10
0.0
 20
0.0
 30
0.0
  0
VERTEX
  5
DA8
330
DA7
100
AcDbEntity
  8
Layer 1
  6
AI-Linetype-18
 62
   253
370
    25
100
AcDbVertex
100
AcDb2dVertex
 10
-0.0592177233188065
 20
3.037872545815446
 30
0.0
  0
VERTEX
  5
DA9
330
DA7
100
AcDbEntity
  8
Layer 1
  6
AI-Linetype-18
 62
   253
370
    25
100
AcDbVertex
100
AcDb2dVertex
 10
-0.4362528183069055
 20
3.037872545815446
 30
0.0
  0
SEQEND
  5
DAA
330
DA7
100
AcDbEntity
  8
Layer 1
  6
AI-Linetype-18
370
    25
  0
POLYLINE
  5
DAB
330
18
100
AcDbEntity
  8
Layer 1
 62
     7
370
    25
100
AcDb2dPolyline
 66
     1
 10
0.0
 20
0.0
 30
0.0
  0
VERTEX
  5
DAC
330
DAB
100
AcDbEntity
  8
Layer 1
 62
     7
370
    25
100
AcDbVertex
100
AcDb2dVertex
 10
-0.4362528183069055
 20
3.042659124169799
 30
0.0
  0
VERTEX
  5
DAD
330
DAB
100
AcDbEntity
  8
Layer 1
 62
     7
370
    25
100
AcDbVertex
100
AcDb2dVertex
 10
-0.0592177233188065
 20
3.042659124169799
 30
0.0
  0
SEQEND
  5
DAE
330
DAB
100
AcDbEntity
  8
Layer 1
370
    25
  0
POLYLINE
  5
DAF
330
18
100
AcDbEntity
  8
Layer 1
 62
     7
370
    25
100
AcDb2dPolyline
 66
     1
 10
0.0
 20
0.0
 30
0.0
  0
VERTEX
  5
DB0
330
DAF
100
AcDbEntity
  8
Layer 1
 62
     7
370
    25
100
AcDbVertex
100
AcDb2dVertex
 10
-0.4362528183069055
 20
3.051168596799724
 30
0.0
  0
VERTEX
  5
DB1
330
DAF
100
AcDbEntity
  8
Layer 1
 62
     7
370
    25
100
AcDbVertex
100
AcDb2dVertex
 10
-0.0592177233188065
 20
3.051168596799724
 30
0.0
  0
SEQEND
  5
DB2
330
DAF
100
AcDbEntity
  8
Layer 1
370
    25
  0
POLYLINE
  5
DB3
330
18
100
AcDbEntity
  8
Layer 1
  6
AI-Linetype-19
 62
   253
370
    25
100
AcDb2dPolyline
 66
     1
 10
0.0
 20
0.0
 30
0.0
  0
VERTEX
  5
DB4
330
DB3
100
AcDbEntity
  8
Layer 1
  6
AI-Linetype-19
 62
   253
370
    25
100
AcDbVertex
100
AcDb2dVertex
 10
-0.0592177233188065
 20
3.075292406226589
 30
0.0
  0
VERTEX
  5
DB5
330
DB3
100
AcDbEntity
  8
Layer 1
  6
AI-Linetype-19
 62
   253
370
    25
100
AcDbVertex
100
AcDb2dVertex
 10
-0.4362528183069055
 20
3.075292406226589
 30
0.0
  0
SEQEND
  5
DB6
330
DB3
100
AcDbEntity
  8
Layer 1
  6
AI-Linetype-19
370
    25
  0
POLYLINE
  5
DB7
330
18
100
AcDbEntity
  8
Layer 1
 62
     7
370
    25
100
AcDb2dPolyline
 66
     1
 10
0.0
 20
0.0
 30
0.0
  0
VERTEX
  5
DB8
330
DB7
100
AcDbEntity
  8
Layer 1
 62
     7
370
    25
100
AcDbVertex
100
AcDb2dVertex
 10
-0.4362528183069055
 20
3.081715421625097
 30
0.0
  0
VERTEX
  5
DB9
330
DB7
100
AcDbEntity
  8
Layer 1
 62
     7
370
    25
100
AcDbVertex
100
AcDb2dVertex
 10
-0.0592177233188065
 20
3.081715421625097
 30
0.0
  0
SEQEND
  5
DBA
330
DB7
100
AcDbEntity
  8
Layer 1
370
    25
  0
POLYLINE
  5
DBB
330
18
100
AcDbEntity
  8
Layer 1
 62
     7
370
    25
100
AcDb2dPolyline
 66
     1
 10
0.0
 20
0.0
 30
0.0
  0
VERTEX
  5
DBC
330
DBB
100
AcDbEntity
  8
Layer 1
 62
     7
370
    25
100
AcDbVertex
100
AcDb2dVertex
 10
-0.4362528183069055
 20
3.087892971467062
 30
0.0
  0
VERTEX
  5
DBD
330
DBB
100
AcDbEntity
  8
Layer 1
 62
     7
370
    25
100
AcDbVertex
100
AcDb2dVertex
 10
-0.0592177233188065
 20
3.087892971467062
 30
0.0
  0
SEQEND
  5
DBE
330
DBB
100
AcDbEntity
  8
Layer 1
370
    25
  0
POLYLINE
  5
DBF
330
18
100
AcDbEntity
  8
Layer 1
  6
AI-Linetype-20
 62
   253
370
    25
100
AcDb2dPolyline
 66
     1
 10
0.0
 20
0.0
 30
0.0
  0
VERTEX
  5
DC0
330
DBF
100
AcDbEntity
  8
Layer 1
  6
AI-Linetype-20
 62
   253
370
    25
100
AcDbVertex
100
AcDb2dVertex
 10
-0.0592177233188065
 20
3.100575358559742
 30
0.0
  0
VERTEX
  5
DC1
330
DBF
100
AcDbEntity
  8
Layer 1
  6
AI-Linetype-20
 62
   253
370
    25
100
AcDbVertex
100
AcDb2dVertex
 10
-0.4362528183069055
 20
3.100575358559742
 30
0.0
  0
SEQEND
  5
DC2
330
DBF
100
AcDbEntity
  8
Layer 1
  6
AI-Linetype-20
370
    25
  0
POLYLINE
  5
DC3
330
18
100
AcDbEntity
  8
Layer 1
 62
     7
370
    25
100
AcDb2dPolyline
 66
     1
 10
0.0
 20
0.0
 30
0.0
  0
VERTEX
  5
DC4
330
DC3
100
AcDbEntity
  8
Layer 1
 62
     7
370
    25
100
AcDbVertex
100
AcDb2dVertex
 10
-0.4362528183069055
 20
3.108512078224214
 30
0.0
  0
VERTEX
  5
DC5
330
DC3
100
AcDbEntity
  8
Layer 1
 62
     7
370
    25
100
AcDbVertex
100
AcDb2dVertex
 10
-0.0592177233188065
 20
3.108512078224214
 30
0.0
  0
SEQEND
  5
DC6
330
DC3
100
AcDbEntity
  8
Layer 1
370
    25
  0
POLYLINE
  5
DC7
330
18
100
AcDbEntity
  8
Layer 1
 62
     7
370
    25
100
AcDb2dPolyline
 66
     1
 10
0.0
 20
0.0
 30
0.0
  0
VERTEX
  5
DC8
330
DC7
100
AcDbEntity
  8
Layer 1
 62
     7
370
    25
100
AcDbVertex
100
AcDb2dVertex
 10
-0.4362528183069055
 20
3.11226224645055
 30
0.0
  0
VERTEX
  5
DC9
330
DC7
100
AcDbEntity
  8
Layer 1
 62
     7
370
    25
100
AcDbVertex
100
AcDb2dVertex
 10
-0.0592177233188065
 20
3.11226224645055
 30
0.0
  0
SEQEND
  5
DCA
330
DC7
100
AcDbEntity
  8
Layer 1
370
    25
  0
POLYLINE
  5
DCB
330
18
100
AcDbEntity
  8
Layer 1
  6
AI-Linetype-21
 62
   253
370
    25
100
AcDb2dPolyline
 66
     1
 10
0.0
 20
0.0
 30
0.0
  0
VERTEX
  5
DCC
330
DCB
100
AcDbEntity
  8
Layer 1
  6
AI-Linetype-21
 62
   253
370
    25
100
AcDbVertex
100
AcDb2dVertex
 10
-0.0592177233188065
 20
3.113312293553948
 30
0.0
  0
VERTEX
  5
DCD
330
DCB
100
AcDbEntity
  8
Layer 1
  6
AI-Linetype-21
 62
   253
370
    25
100
AcDbVertex
100
AcDb2dVertex
 10
-0.4362528183069055
 20
3.113312293553948
 30
0.0
  0
SEQEND
  5
DCE
330
DCB
100
AcDbEntity
  8
Layer 1
  6
AI-Linetype-21
370
    25
  0
POLYLINE
  5
DCF
330
18
100
AcDbEntity
  8
Layer 1
 62
     7
370
    25
100
AcDb2dPolyline
 66
     1
 10
0.0
 20
0.0
 30
0.0
  0
VERTEX
  5
DD0
330
DCF
100
AcDbEntity
  8
Layer 1
 62
     7
370
    25
100
AcDbVertex
100
AcDb2dVertex
 10
0.2444231670809351
 20
3.11490781967204
 30
0.0
  0
VERTEX
  5
DD1
330
DCF
100
AcDbEntity
  8
Layer 1
 62
     7
370
    25
100
AcDbVertex
100
AcDb2dVertex
 10
-0.0592177233188065
 20
3.11490781967204
 30
0.0
  0
SEQEND
  5
DD2
330
DCF
100
AcDbEntity
  8
Layer 1
370
    25
  0
POLYLINE
  5
DD3
330
18
100
AcDbEntity
  8
Layer 1
 62
     7
370
    25
100
AcDb2dPolyline
 66
     1
 10
0.0
 20
0.0
 30
0.0
  0
VERTEX
  5
DD4
330
DD3
100
AcDbEntity
  8
Layer 1
 62
     7
370
    25
100
AcDbVertex
100
AcDb2dVertex
 10
-0.4362528183069055
 20
3.11490781967204
 30
0.0
  0
VERTEX
  5
DD5
330
DD3
100
AcDbEntity
  8
Layer 1
 62
     7
370
    25
100
AcDbVertex
100
AcDb2dVertex
 10
-0.750953298885523
 20
3.11490781967204
 30
0.0
  0
SEQEND
  5
DD6
330
DD3
100
AcDbEntity
  8
Layer 1
370
    25
  0
POLYLINE
  5
DD7
330
18
100
AcDbEntity
  8
Layer 1
 62
     7
370
    25
100
AcDb2dPolyline
 66
     1
 10
0.0
 20
0.0
 30
0.0
  0
VERTEX
  5
DD8
330
DD7
100
AcDbEntity
  8
Layer 1
 62
     7
370
    25
100
AcDbVertex
100
AcDb2dVertex
 10
-0.4362528183069055
 20
3.122653621681333
 30
0.0
  0
VERTEX
  5
DD9
330
DD7
100
AcDbEntity
  8
Layer 1
 62
     7
370
    25
100
AcDbVertex
100
AcDb2dVertex
 10
-0.0592177233188065
 20
3.122653621681333
 30
0.0
  0
SEQEND
  5
DDA
330
DD7
100
AcDbEntity
  8
Layer 1
370
    25
  0
POLYLINE
  5
DDB
330
18
100
AcDbEntity
  8
Layer 1
 62
     7
370
    25
100
AcDb2dPolyline
 66
     1
 10
0.0
 20
0.0
 30
0.0
  0
VERTEX
  5
DDC
330
DDB
100
AcDbEntity
  8
Layer 1
 62
     7
370
    25
100
AcDbVertex
100
AcDb2dVertex
 10
-0.4362528183069055
 20
3.123908223415212
 30
0.0
  0
VERTEX
  5
DDD
330
DDB
100
AcDbEntity
  8
Layer 1
 62
     7
370
    25
100
AcDbVertex
100
AcDb2dVertex
 10
-0.0592177233188065
 20
3.123908223415212
 30
0.0
  0
SEQEND
  5
DDE
330
DDB
100
AcDbEntity
  8
Layer 1
370
    25
  0
POLYLINE
  5
DDF
330
18
100
AcDbEntity
  8
Layer 1
 62
     7
370
    25
100
AcDb2dPolyline
 66
     1
 10
0.0
 20
0.0
 30
0.0
  0
VERTEX
  5
DE0
330
DDF
100
AcDbEntity
  8
Layer 1
 62
     7
370
    25
100
AcDbVertex
100
AcDb2dVertex
 10
-0.4362528183069055
 20
3.124958270518612
 30
0.0
  0
VERTEX
  5
DE1
330
DDF
100
AcDbEntity
  8
Layer 1
 62
     7
370
    25
100
AcDbVertex
100
AcDb2dVertex
 10
-0.0592177233188065
 20
3.124958270518612
 30
0.0
  0
SEQEND
  5
DE2
330
DDF
100
AcDbEntity
  8
Layer 1
370
    25
  0
POLYLINE
  5
DE3
330
18
100
AcDbEntity
  8
Layer 1
 62
     7
370
    25
100
AcDb2dPolyline
 66
     1
 10
0.0
 20
0.0
 30
0.0
  0
VERTEX
  5
DE4
330
DE3
100
AcDbEntity
  8
Layer 1
 62
     7
370
    25
100
AcDbVertex
100
AcDb2dVertex
 10
-0.750953298885523
 20
3.260700723336544
 30
0.0
  0
VERTEX
  5
DE5
330
DE3
100
AcDbEntity
  8
Layer 1
 62
     7
370
    25
100
AcDbVertex
100
AcDb2dVertex
 10
-1.065053752548003
 20
3.260700723336544
 30
0.0
  0
SEQEND
  5
DE6
330
DE3
100
AcDbEntity
  8
Layer 1
370
    25
  0
SPLINE
  5
DE7
330
18
100
AcDbEntity
  8
Layer 1
 62
     7
370
    25
100
AcDbSpline
210
0.0
220
0.0
230
1.0
 70
     8
 71
     3
 72
     8
 73
     4
 74
     0
 42
0.0000000001
 43
0.0000000001
 40
0.0
 40
0.0
 40
0.0
 40
0.0
 40
1.0
 40
1.0
 40
1.0
 40
1.0
 10
-1.218892471679949
 20
3.103875506598895
 30
0.0
 10
-1.600407313076562
 20
2.640027426415096
 30
0.0
 10
-1.600407313076562
 20
1.971051962738395
 30
0.0
 10
-1.218892471679949
 20
1.507203882554516
 30
0.0
  0
SPLINE
  5
DE8
330
18
100
AcDbEntity
  8
Layer 1
 62
     7
370
    25
100
AcDbSpline
210
0.0
220
0.0
230
1.0
 70
     8
 71
     3
 72
     8
 73
     4
 74
     0
 42
0.0000000001
 43
0.0000000001
 40
0.0
 40
0.0
 40
0.0
 40
0.0
 40
1.0
 40
1.0
 40
1.0
 40
1.0
 10
-1.065053752548003
 20
1.350385484304557
 30
0.0
 10
-1.065053752548003
 20
1.435827953475797
 30
0.0
 10
-1.133450002508709
 20
1.505567445510281
 30
0.0
 10
-1.21889929016764
 20
1.507203882554516
 30
0.0
  0
SPLINE
  5
DE9
330
18
100
AcDbEntity
  8
Layer 1
 62
     7
370
    25
100
AcDbSpline
210
0.0
220
0.0
230
1.0
 70
     8
 71
     3
 72
     8
 73
     4
 74
     0
 42
0.0000000001
 43
0.0000000001
 40
0.0
 40
0.0
 40
0.0
 40
0.0
 40
1.0
 40
1.0
 40
1.0
 40
1.0
 10
-1.218892471679949
 20
3.103875506598895
 30
0.0
 10
-1.133456820996399
 20
3.10551194364313
 30
0.0
 10
-1.065046934060312
 20
3.175251435677614
 30
0.0
 10
-1.065046934060312
 20
3.260700723336544
 30
0.0
  0
POLYLINE
  5
DEA
330
18
100
AcDbEntity
  8
Layer 1
 62
     7
370
    25
100
AcDb2dPolyline
 66
     1
 10
0.0
 20
0.0
 30
0.0
  0
VERTEX
  5
DEB
330
DEA
100
AcDbEntity
  8
Layer 1
 62
     7
370
    25
100
AcDbVertex
100
AcDb2dVertex
 10
-1.065053752548003
 20
1.350385484304557
 30
0.0
  0
VERTEX
  5
DEC
330
DEA
100
AcDbEntity
  8
Layer 1
 62
     7
370
    25
100
AcDbVertex
100
AcDb2dVertex
 10
-0.750953298885523
 20
1.350385484304557
 30
0.0
  0
SEQEND
  5
DED
330
DEA
100
AcDbEntity
  8
Layer 1
370
    25
  0
POLYLINE
  5
DEE
330
18
100
AcDbEntity
  8
Layer 1
 62
     7
370
    25
100
AcDb2dPolyline
 66
     1
 10
0.0
 20
0.0
 30
0.0
  0
VERTEX
  5
DEF
330
DEE
100
AcDbEntity
  8
Layer 1
 62
     7
370
    25
100
AcDbVertex
100
AcDb2dVertex
 10
0.2544736210825556
 20
3.104811656765341
 30
0.0
  0
VERTEX
  5
DF0
330
DEE
100
AcDbEntity
  8
Layer 1
 62
     7
370
    25
100
AcDbVertex
100
AcDb2dVertex
 10
0.2544736278996662
 20
1.506222022895896
 30
0.0
  0
SEQEND
  5
DF1
330
DEE
100
AcDbEntity
  8
Layer 1
370
    25
  0
POLYLINE
  5
DF2
330
18
100
AcDbEntity
  8
Layer 1
 62
     7
370
    25
100
AcDb2dPolyline
 66
     1
 10
0.0
 20
0.0
 30
0.0
  0
VERTEX
  5
DF3
330
DF2
100
AcDbEntity
  8
Layer 1
 62
     7
370
    25
100
AcDbVertex
100
AcDb2dVertex
 10
-0.750953298885523
 20
1.496171569481371
 30
0.0
  0
VERTEX
  5
DF4
330
DF2
100
AcDbEntity
  8
Layer 1
 62
     7
370
    25
100
AcDbVertex
100
AcDb2dVertex
 10
-0.4362528183069055
 20
1.496171569481371
 30
0.0
  0
SEQEND
  5
DF5
330
DF2
100
AcDbEntity
  8
Layer 1
370
    25
  0
POLYLINE
  5
DF6
330
18
100
AcDbEntity
  8
Layer 1
 62
     7
370
    25
100
AcDb2dPolyline
 66
     1
 10
0.0
 20
0.0
 30
0.0
  0
VERTEX
  5
DF7
330
DF6
100
AcDbEntity
  8
Layer 1
 62
     7
370
    25
100
AcDbVertex
100
AcDb2dVertex
 10
-0.0592177233188065
 20
1.496171569481371
 30
0.0
  0
VERTEX
  5
DF8
330
DF6
100
AcDbEntity
  8
Layer 1
 62
     7
370
    25
100
AcDbVertex
100
AcDb2dVertex
 10
0.2444231770530945
 20
1.496171572049325
 30
0.0
  0
SEQEND
  5
DF9
330
DF6
100
AcDbEntity
  8
Layer 1
370
    25
  0
POLYLINE
  5
DFA
330
18
100
AcDbEntity
  8
Layer 1
 62
     7
370
    25
100
AcDb2dPolyline
 66
     1
 10
0.0
 20
0.0
 30
0.0
  0
VERTEX
  5
DFB
330
DFA
100
AcDbEntity
  8
Layer 1
 62
     7
370
    25
100
AcDbVertex
100
AcDb2dVertex
 10
-0.750953298885523
 20
3.260700723336544
 30
0.0
  0
VERTEX
  5
DFC
330
DFA
100
AcDbEntity
  8
Layer 1
 62
     7
370
    25
100
AcDbVertex
100
AcDb2dVertex
 10
-0.750953298885523
 20
1.350385484304557
 30
0.0
  0
SEQEND
  5
DFD
330
DFA
100
AcDbEntity
  8
Layer 1
370
    25
  0
POLYLINE
  5
DFE
330
18
100
AcDbEntity
  8
Layer 1
 62
     7
370
    25
100
AcDb2dPolyline
 66
     1
 10
0.0
 20
0.0
 30
0.0
  0
VERTEX
  5
DFF
330
DFE
100
AcDbEntity
  8
Layer 1
 62
     7
370
    25
100
AcDbVertex
100
AcDb2dVertex
 10
-0.750953298885523
 20
3.11490781967204
 30
0.0
  0
VERTEX
  5
E00
330
DFE
100
AcDbEntity
  8
Layer 1
 62
     7
370
    25
100
AcDbVertex
100
AcDb2dVertex
 10
-0.4362528183069055
 20
3.11490781967204
 30
0.0
  0
SEQEND
  5
E01
330
DFE
100
AcDbEntity
  8
Layer 1
370
    25
  0
POLYLINE
  5
E02
330
18
100
AcDbEntity
  8
Layer 1
 62
     7
370
    25
100
AcDb2dPolyline
 66
     1
 10
0.0
 20
0.0
 30
0.0
  0
VERTEX
  5
E03
330
E02
100
AcDbEntity
  8
Layer 1
 62
     7
370
    25
100
AcDbVertex
100
AcDb2dVertex
 10
-0.0592177233188065
 20
3.11490781967204
 30
0.0
  0
VERTEX
  5
E04
330
E02
100
AcDbEntity
  8
Layer 1
 62
     7
370
    25
100
AcDbVertex
100
AcDb2dVertex
 10
0.2444231670809351
 20
3.11490781967204
 30
0.0
  0
SEQEND
  5
E05
330
E02
100
AcDbEntity
  8
Layer 1
370
    25
  0
POLYLINE
  5
E06
330
18
100
AcDbEntity
  8
Layer 1
 62
     7
370
    25
100
AcDb2dPolyline
 66
     1
 10
0.0
 20
0.0
 30
0.0
  0
VERTEX
  5
E07
330
E06
100
AcDbEntity
  8
Layer 1
 62
     7
370
    25
100
AcDbVertex
100
AcDb2dVertex
 10
-1.065053752548003
 20
3.260700723336544
 30
0.0
  0
VERTEX
  5
E08
330
E06
100
AcDbEntity
  8
Layer 1
 62
     7
370
    25
100
AcDbVertex
100
AcDb2dVertex
 10
-0.750953298885523
 20
3.260700723336544
 30
0.0
  0
SEQEND
  5
E09
330
E06
100
AcDbEntity
  8
Layer 1
370
    25
  0
POLYLINE
  5
E15
330
18
100
AcDbEntity
  8
Layer 1
 62
     7
370
    18
100
AcDb2dPolyline
 66
     1
 10
0.0
 20
0.0
 30
0.0
1001
AcDbBlockRepETag
1070
     1
1071
        5
1005
E15
  0
VERTEX
  5
E16
330
E15
100
AcDbEntity
  8
Layer 1
 62
     7
370
    18
100
AcDbVertex
100
AcDb2dVertex
 10
0.2444231670809351
 20
3.11490781967204
 30
0.0
  0
VERTEX
  5
E17
330
E15
100
AcDbEntity
  8
Layer 1
 62
     7
370
    18
100
AcDbVertex
100
AcDb2dVertex
 10
0.2444231670809354
 20
1.496171569481372
 30
0.0
  0
SEQEND
  5
E18
330
E15
100
AcDbEntity
  8
Layer 1
370
    18
  0
POLYLINE
  5
E2F
330
18
100
AcDbEntity
  8
Layer 1
  6
AI-Linetype-13
 62
   253
370
    25
100
AcDb2dPolyline
 66
     1
 10
0.0
 20
0.0
 30
0.0
  0
VERTEX
  5
E30
330
E2F
100
AcDbEntity
  8
Layer 1
  6
AI-Linetype-13
 62
   253
370
    25
100
AcDbVertex
100
AcDb2dVertex
 10
0.2444231670809351
 20
3.11490781967204
 30
0.0
  0
VERTEX
  5
E31
330
E2F
100
AcDbEntity
  8
Layer 1
  6
AI-Linetype-13
 62
   253
370
    25
100
AcDbVertex
100
AcDb2dVertex
 10
0.2544736210825556
 20
3.104811656765341
 30
0.0
  0
SEQEND
  5
E32
330
E2F
100
AcDbEntity
  8
Layer 1
  6
AI-Linetype-13
370
    25
  0
POLYLINE
  5
E66
330
18
100
AcDbEntity
  8
Layer 1
  6
AI-Linetype-11
 62
   253
370
    25
100
AcDb2dPolyline
 66
     1
 10
0.0
 20
0.0
 30
0.0
  0
VERTEX
  5
E67
330
E66
100
AcDbEntity
  8
Layer 1
  6
AI-Linetype-11
 62
   253
370
    25
100
AcDbVertex
100
AcDb2dVertex
 10
0.2444231770530945
 20
1.496171572049325
 30
0.0
  0
VERTEX
  5
E68
330
E66
100
AcDbEntity
  8
Layer 1
  6
AI-Linetype-11
 62
   253
370
    25
100
AcDbVertex
100
AcDb2dVertex
 10
0.2544736278996662
 20
1.506222022895896
 30
0.0
  0
SEQEND
  5
E69
330
E66
100
AcDbEntity
  8
Layer 1
  6
AI-Linetype-11
370
    25
  0
ENDSEC
  0
SECTION
  2
OBJECTS
  0
DICTIONARY
  5
C
330
0
100
AcDbDictionary
281
     1
  3
ACAD_COLOR
350
1F8
  3
ACAD_GROUP
350
D
  3
ACAD_LAYOUT
350
9C
  3
ACAD_MATERIAL
350
1E3
  3
ACAD_MLINESTYLE
350
E
  3
ACAD_PLOTSETTINGS
350
9D
  3
ACAD_PLOTSTYLENAME
350
9A
  3
ACAD_TABLESTYLE
350
1F9
  3
ACAD_VISUALSTYLE
350
1E7
  3
AcDbVariableDictionary
350
FD
  3
DWGPROPS
350
E9E
  0
DICTIONARY
  5
3FB
330
8
100
AcDbDictionary
280
     1
281
     1
  0
DICTIONARY
  5
F7
330
18
100
AcDbDictionary
280
     1
281
     1
  3
ACAD_LAYOUTSELFREF
360
1DD
  0
DICTIONARY
  5
F5
330
15
100
AcDbDictionary
280
     1
281
     1
  3
ACAD_LAYOUTSELFREF
360
1DC
  0
DICTIONARY
  5
3A9
330
1FE
100
AcDbDictionary
280
     1
281
     1
  3
ACAD_SORTENTS
360
3AA
  0
DICTIONARY
  5
1F8
102
{ACAD_REACTORS
330
C
102
}
330
C
100
AcDbDictionary
281
     1
  0
DICTIONARY
  5
D
102
{ACAD_REACTORS
330
C
102
}
330
C
100
AcDbDictionary
281
     1
  0
DICTIONARY
  5
9C
102
{ACAD_REACTORS
330
C
102
}
330
C
100
AcDbDictionary
281
     1
  3
Layout1
350
9F
  3
Model
350
9E
  0
DICTIONARY
  5
1E3
102
{ACAD_REACTORS
330
C
102
}
330
C
100
AcDbDictionary
281
     1
  3
ByBlock
350
1E5
  3
ByLayer
350
1E4
  3
Global
350
1E6
  0
DICTIONARY
  5
E
102
{ACAD_REACTORS
330
C
102
}
330
C
100
AcDbDictionary
281
     1
  3
STANDARD
350
1B
  0
DICTIONARY
  5
9D
102
{ACAD_REACTORS
330
C
102
}
330
C
100
AcDbDictionary
281
     1
  0
ACDBDICTIONARYWDFLT
  5
9A
102
{ACAD_REACTORS
330
C
102
}
330
C
100
AcDbDictionary
281
     1
  3
Normal
350
9B
100
AcDbDictionaryWithDefault
340
9B
  0
DICTIONARY
  5
1F9
102
{ACAD_REACTORS
330
C
102
}
330
C
100
AcDbDictionary
281
     1
  3
Standard
350
1FA
  0
DICTIONARY
  5
1E7
102
{ACAD_REACTORS
330
C
102
}
330
C
100
AcDbDictionary
281
     1
  3
2dWireframe
350
1ED
  3
3D Hidden
350
1EF
  3
3dWireframe
350
1EE
  3
Basic
350
1EC
  3
Brighten
350
1F3
  3
ColorChange
350
1F7
  3
Conceptual
350
1F0
  3
Dim
350
1F2
  3
Facepattern
350
1F6
  3
Flat
350
1E8
  3
FlatWithEdges
350
1E9
  3
Gouraud
350
1EA
  3
GouraudWithEdges
350
1EB
  3
Linepattern
350
1F5
  3
Realistic
350
1F1
  3
Thicken
350
1F4
  0
DICTIONARY
  5
FD
102
{ACAD_REACTORS
330
C
102
}
330
C
100
AcDbDictionary
281
     1
  3
CTABLESTYLE
350
3CE
  3
DIMASSOC
350
FE
  3
INDEXCTL
350
3D0
  3
SORTENTS
350
3CF
  0
XRECORD
  5
E9E
102
{ACAD_REACTORS
330
C
102
}
330
C
100
AcDbXrecord
280
     1
  1
DWGPROPS COOKIE
  2

  3

  4

  6

  7

  8
John
  9

300
=
301
=
302
=
303
=
304
=
305
=
306
=
307
=
308
=
309
=
 40
0.0264019444444445
 41
2450233.613384444
 42
2455238.879919155
  1

 90
        0
  0
XRECORD
  5
1DD
102
{ACAD_REACTORS
330
F7
102
}
330
F7
100
AcDbXrecord
280
     1
340
18
  0
XRECORD
  5
1DC
102
{ACAD_REACTORS
330
F5
102
}
330
F5
100
AcDbXrecord
280
     1
340
15
  0
SORTENTSTABLE
  5
3AA
102
{ACAD_REACTORS
330
3A9
102
}
330
3A9
100
AcDbSortentsTable
330
1FE
  0
LAYOUT
  5
9F
102
{ACAD_XDICTIONARY
360
EA1
102
}
102
{ACAD_REACTORS
330
9C
102
}
330
9C
100
AcDbPlotSettings
  1

  2
Fax
  4

  6

 40
0.0
 41
0.0
 42
0.0
 43
0.0
 44
0.0
 45
0.0
 46
0.0
 47
0.0
 48
0.0
 49
0.0
140
0.0
141
0.0
142
1.0
143
1.0
 70
   688
 72
     0
 73
     0
 74
     5
  7
Default R14 pen assignments.ctb
 75
    16
147
1.0
148
0.0
149
0.0
100
AcDbLayout
  1
Layout1
 70
     1
 71
     1
 10
0.0
 20
0.0
 11
12.0
 21
9.0
 12
0.0
 22
-3.941062727799726E+99
 32
0.0
 14
1.000000000000000E+20
 24
1.000000000000000E+20
 34
1.000000000000000E+20
 15
-1.000000000000000E+20
 25
-1.000000000000000E+20
 35
-1.000000000000000E+20
146
0.0
 13
0.0
 23
0.0
 33
0.0
 16
1.0
 26
0.0
 36
0.0
 17
0.0
 27
1.0
 37
0.0
 76
     0
330
15
  0
LAYOUT
  5
9E
102
{ACAD_XDICTIONARY
360
E9F
102
}
102
{ACAD_REACTORS
330
9C
102
}
330
9C
100
AcDbPlotSettings
  1

  2
Fax
  4

  6

 40
0.0
 41
0.0
 42
0.0
 43
0.0
 44
0.0
 45
0.0
 46
0.0
 47
0.0
 48
0.0
 49
0.0
140
0.0
141
0.0
142
1.0
143
1.0
 70
  1712
 72
     0
 73
     0
 74
     0
  7
Default R14 pen assignments.ctb
 75
     0
147
1.0
148
0.0
149
0.0
100
AcDbLayout
  1
Model
 70
     1
 71
     0
 10
0.0
 20
0.0
 11
12.0
 21
9.0
 12
0.0
 22
0.0
 32
0.0
 14
0.0
 24
0.0
 34
0.0
 15
0.0
 25
0.0
 35
0.0
146
0.0
 13
0.0
 23
0.0
 33
0.0
 16
1.0
 26
0.0
 36
0.0
 17
0.0
 27
1.0
 37
0.0
 76
     0
330
18
331
1B7
  0
MATERIAL
  5
1E5
102
{ACAD_XDICTIONARY
360
EA5
102
}
102
{ACAD_REACTORS
330
1E3
102
}
330
1E3
100
AcDbMaterial
  1
ByBlock
  0
MATERIAL
  5
1E4
102
{ACAD_XDICTIONARY
360
EA3
102
}
102
{ACAD_REACTORS
330
1E3
102
}
330
1E3
100
AcDbMaterial
  1
ByLayer
  0
MATERIAL
  5
1E6
102
{ACAD_XDICTIONARY
360
EA7
102
}
102
{ACAD_REACTORS
330
1E3
102
}
330
1E3
100
AcDbMaterial
  1
Global
  0
MLINESTYLE
  5
1B
102
{ACAD_REACTORS
330
E
102
}
330
E
100
AcDbMlineStyle
  2
STANDARD
 70
     0
  3

 62
     0
 51
90.0
 52
90.0
 71
     2
 49
0.5
 62
   256
  6
BYLAYER
 49
-0.5
 62
   256
  6
BYLAYER
  0
ACDBPLACEHOLDER
  5
9B
102
{ACAD_REACTORS
330
9A
102
}
330
9A
  0
TABLESTYLE
  5
1FA
102
{ACAD_XDICTIONARY
360
EA9
102
}
102
{ACAD_REACTORS
330
1F9
102
}
330
1F9
100
AcDbTableStyle
  3
Standard
 70
     0
 71
     0
 40
0.06
 41
0.06
280
     0
281
     0
  7
STANDARD
140
0.18
170
     2
 62
     0
 63
     7
283
     0
274
    -2
284
     1
 64
     0
275
    -2
285
     1
 65
     0
276
    -2
286
     1
 66
     0
277
    -2
287
     1
 67
     0
278
    -2
288
     1
 68
     0
279
    -2
289
     1
 69
     0
  7
STANDARD
140
0.25
170
     5
 62
     0
 63
     7
283
     0
274
    -2
284
     1
 64
     0
275
    -2
285
     1
 65
     0
276
    -2
286
     1
 66
     0
277
    -2
287
     1
 67
     0
278
    -2
288
     1
 68
     0
279
    -2
289
     1
 69
     0
  7
STANDARD
140
0.18
170
     5
 62
     0
 63
     7
283
     0
274
    -2
284
     1
 64
     0
275
    -2
285
     1
 65
     0
276
    -2
286
     1
 66
     0
277
    -2
287
     1
 67
     0
278
    -2
288
     1
 68
     0
279
    -2
289
     1
 69
     0
  0
VISUALSTYLE
  5
1ED
102
{ACAD_REACTORS
330
1E7
102
}
330
1E7
100
AcDbVisualStyle
  2
2dWireframe
 70
     4
 71
     0
 72
     2
 73
     0
 90
        0
 40
-0.6
 41
-30.0
 62
     5
 63
     7
 74
     1
 91
        4
 64
     7
 65
   257
 75
     1
175
     1
 42
1.0
 92
        0
 66
   257
 43
1.0
 76
     1
 77
     6
 78
     2
 67
     7
 79
     5
170
     0
171
     0
290
     0
174
     0
 93
        1
 44
0.0
173
     0
291
     0
 45
0.0
1001
ACAD
1000
AcDbSavedByObjectVersion
1070
     0
  0
VISUALSTYLE
  5
1EF
102
{ACAD_REACTORS
330
1E7
102
}
330
1E7
100
AcDbVisualStyle
  2
3D Hidden
 70
     6
 71
     1
 72
     2
 73
     2
 90
        0
 40
-0.6
 41
-30.0
 62
     5
 63
     7
 74
     2
 91
        2
 64
     7
 65
   257
 75
     2
175
     1
 42
40.0
 92
        0
 66
   257
 43
1.0
 76
     1
 77
     6
 78
     2
 67
     7
 79
     3
170
     0
171
     0
290
     0
174
     0
 93
        1
 44
0.0
173
     0
291
     0
 45
0.0
1001
ACAD
1000
AcDbSavedByObjectVersion
1070
     0
  0
VISUALSTYLE
  5
1EE
102
{ACAD_REACTORS
330
1E7
102
}
330
1E7
100
AcDbVisualStyle
  2
3dWireframe
 70
     5
 71
     0
 72
     2
 73
     0
 90
        0
 40
-0.6
 41
-30.0
 62
     5
 63
     7
 74
     1
 91
        4
 64
     7
 65
   257
 75
     1
175
     1
 42
1.0
 92
        0
 66
   257
 43
1.0
 76
     1
 77
     6
 78
     2
 67
     7
 79
     5
170
     0
171
     0
290
     0
174
     0
 93
        1
 44
0.0
173
     0
291
     0
 45
0.0
1001
ACAD
1000
AcDbSavedByObjectVersion
1070
     0
  0
VISUALSTYLE
  5
1EC
102
{ACAD_REACTORS
330
1E7
102
}
330
1E7
100
AcDbVisualStyle
  2
Basic
 70
     7
 71
     1
 72
     0
 73
     1
 90
        0
 40
-0.6
 41
-30.0
 62
     5
 63
     7
 74
     0
 91
        4
 64
     7
 65
   257
 75
     1
175
     1
 42
1.0
 92
        8
 66
     7
 43
1.0
 76
     1
 77
     6
 78
     2
 67
     7
 79
     5
170
     0
171
     0
290
     0
174
     0
 93
        1
 44
0.0
173
     0
291
     1
 45
0.0
1001
ACAD
1000
AcDbSavedByObjectVersion
1070
     0
  0
VISUALSTYLE
  5
1F3
102
{ACAD_REACTORS
330
1E7
102
}
330
1E7
100
AcDbVisualStyle
  2
Brighten
 70
    12
 71
     2
 72
     2
 73
     0
 90
        0
 40
-0.6
 41
-30.0
 62
     5
 63
     7
 74
     1
 91
        4
 64
     7
 65
   257
 75
     1
175
     1
 42
1.0
 92
        8
 66
     7
 43
1.0
 76
     1
 77
     6
 78
     2
 67
     7
 79
     5
170
     0
171
     0
290
     0
174
     0
 93
        1
 44
50.0
173
     0
291
     1
 45
0.0
1001
ACAD
1000
AcDbSavedByObjectVersion
1070
     0
  0
VISUALSTYLE
  5
1F7
102
{ACAD_REACTORS
330
1E7
102
}
330
1E7
100
AcDbVisualStyle
  2
ColorChange
 70
    16
 71
     2
 72
     2
 73
     3
 90
        0
 40
-0.6
 41
-30.0
 62
     5
 63
     8
 74
     1
 91
        4
 64
     7
 65
   257
 75
     1
175
     1
 42
1.0
 92
        8
 66
     8
 43
1.0
 76
     1
 77
     6
 78
     2
 67
     7
 79
     5
170
     0
171
     0
290
     0
174
     0
 93
        1
 44
0.0
173
     0
291
     1
 45
0.0
1001
ACAD
1000
AcDbSavedByObjectVersion
1070
     0
  0
VISUALSTYLE
  5
1F0
102
{ACAD_REACTORS
330
1E7
102
}
330
1E7
100
AcDbVisualStyle
  2
Conceptual
 70
     9
 71
     3
 72
     2
 73
     0
 90
        0
 40
-0.6
 41
-30.0
 62
     5
 63
     7
 74
     2
 91
        2
 64
     7
 65
   257
 75
     1
175
     1
 42
40.0
 92
        8
 66
     7
 43
1.0
 76
     1
 77
     6
 78
     2
 67
     7
 79
     3
170
     0
171
     0
290
     0
174
     0
 93
        1
 44
0.0
173
     0
291
     0
 45
0.0
1001
ACAD
1000
AcDbSavedByObjectVersion
1070
     0
  0
VISUALSTYLE
  5
1F2
102
{ACAD_REACTORS
330
1E7
102
}
330
1E7
100
AcDbVisualStyle
  2
Dim
 70
    11
 71
     2
 72
     2
 73
     0
 90
        0
 40
-0.6
 41
-30.0
 62
     5
 63
     7
 74
     1
 91
        4
 64
     7
 65
   257
 75
     1
175
     1
 42
1.0
 92
        8
 66
     7
 43
1.0
 76
     1
 77
     6
 78
     2
 67
     7
 79
     5
170
     0
171
     0
290
     0
174
     0
 93
        1
 44
-50.0
173
     0
291
     1
 45
0.0
1001
ACAD
1000
AcDbSavedByObjectVersion
1070
     0
  0
VISUALSTYLE
  5
1F6
102
{ACAD_REACTORS
330
1E7
102
}
330
1E7
100
AcDbVisualStyle
  2
Facepattern
 70
    15
 71
     2
 72
     2
 73
     0
 90
        0
 40
-0.6
 41
-30.0
 62
     5
 63
     7
 74
     1
 91
        4
 64
     7
 65
   257
 75
     1
175
     1
 42
1.0
 92
        8
 66
     7
 43
1.0
 76
     1
 77
     6
 78
     2
 67
     7
 79
     5
170
     0
171
     0
290
     0
174
     0
 93
        1
 44
0.0
173
     0
291
     1
 45
0.0
1001
ACAD
1000
AcDbSavedByObjectVersion
1070
     0
  0
VISUALSTYLE
  5
1E8
102
{ACAD_REACTORS
330
1E7
102
}
330
1E7
100
AcDbVisualStyle
  2
Flat
 70
     0
 71
     2
 72
     1
 73
     1
 90
        2
 40
-0.6
 41
30.0
 62
     5
 63
     7
 74
     0
 91
        4
 64
     7
 65
   257
 75
     1
175
     1
 42
1.0
 92
        8
 66
     7
 43
1.0
 76
     1
 77
     6
 78
     2
 67
     7
 79
     5
170
     0
171
     0
290
     0
174
     0
 93
       13
 44
0.0
173
     0
291
     1
 45
0.0
1001
ACAD
1000
AcDbSavedByObjectVersion
1070
     0
  0
VISUALSTYLE
  5
1E9
102
{ACAD_REACTORS
330
1E7
102
}
330
1E7
100
AcDbVisualStyle
  2
FlatWithEdges
 70
     1
 71
     2
 72
     1
 73
     1
 90
        2
 40
-0.6
 41
30.0
 62
     5
 63
     7
 74
     1
 91
        4
 64
     7
 65
   257
 75
     1
175
     1
 42
1.0
 92
        0
 66
   257
 43
1.0
 76
     1
 77
     6
 78
     2
 67
     7
 79
     5
170
     0
171
     0
290
     0
174
     0
 93
       13
 44
0.0
173
     0
291
     1
 45
0.0
1001
ACAD
1000
AcDbSavedByObjectVersion
1070
     0
  0
VISUALSTYLE
  5
1EA
102
{ACAD_REACTORS
330
1E7
102
}
330
1E7
100
AcDbVisualStyle
  2
Gouraud
 70
     2
 71
     2
 72
     2
 73
     1
 90
        2
 40
-0.6
 41
30.0
 62
     5
 63
     7
 74
     0
 91
        4
 64
     7
 65
   257
 75
     1
175
     1
 42
1.0
 92
        0
 66
     7
 43
1.0
 76
     1
 77
     6
 78
     2
 67
     7
 79
     5
170
     0
171
     0
290
     0
174
     0
 93
       13
 44
0.0
173
     0
291
     1
 45
0.0
1001
ACAD
1000
AcDbSavedByObjectVersion
1070
     0
  0
VISUALSTYLE
  5
1EB
102
{ACAD_REACTORS
330
1E7
102
}
330
1E7
100
AcDbVisualStyle
  2
GouraudWithEdges
 70
     3
 71
     2
 72
     2
 73
     1
 90
        2
 40
-0.6
 41
30.0
 62
     5
 63
     7
 74
     1
 91
        4
 64
     7
 65
   257
 75
     1
175
     1
 42
1.0
 92
        0
 66
   257
 43
1.0
 76
     1
 77
     6
 78
     2
 67
     7
 79
     5
170
     0
171
     0
290
     0
174
     0
 93
       13
 44
0.0
173
     0
291
     1
 45
0.0
1001
ACAD
1000
AcDbSavedByObjectVersion
1070
     0
  0
VISUALSTYLE
  5
1F5
102
{ACAD_REACTORS
330
1E7
102
}
330
1E7
100
AcDbVisualStyle
  2
Linepattern
 70
    14
 71
     2
 72
     2
 73
     0
 90
        0
 40
-0.6
 41
-30.0
 62
     5
 63
     7
 74
     1
 91
        4
 64
     7
 65
   257
 75
     7
175
     7
 42
1.0
 92
        8
 66
     7
 43
1.0
 76
     1
 77
     6
 78
     2
 67
     7
 79
     5
170
     0
171
     0
290
     0
174
     0
 93
        1
 44
0.0
173
     0
291
     1
 45
0.0
1001
ACAD
1000
AcDbSavedByObjectVersion
1070
     0
  0
VISUALSTYLE
  5
1F1
102
{ACAD_REACTORS
330
1E7
102
}
330
1E7
100
AcDbVisualStyle
  2
Realistic
 70
     8
 71
     2
 72
     2
 73
     0
 90
        0
 40
-0.6
 41
-30.0
 62
     5
 63
     7
 74
     1
 91
        0
 64
     7
 65
   257
 75
     1
175
     1
 42
1.0
 92
        8
 66
     8
 43
1.0
 76
     1
 77
     6
 78
     2
 67
     7
 79
     5
170
     0
171
     0
290
     0
174
     0
 93
       13
 44
0.0
173
     0
291
     0
 45
0.0
1001
ACAD
1000
AcDbSavedByObjectVersion
1070
     0
  0
VISUALSTYLE
  5
1F4
102
{ACAD_REACTORS
330
1E7
102
}
330
1E7
100
AcDbVisualStyle
  2
Thicken
 70
    13
 71
     2
 72
     2
 73
     0
 90
        0
 40
-0.6
 41
-30.0
 62
     5
 63
     7
 74
     1
 91
        4
 64
     7
 65
   257
 75
     1
175
     1
 42
1.0
 92
       12
 66
     7
 43
1.0
 76
     1
 77
     6
 78
     2
 67
     7
 79
     5
170
     0
171
     0
290
     0
174
     0
 93
        1
 44
0.0
173
     0
291
     1
 45
0.0
1001
ACAD
1000
AcDbSavedByObjectVersion
1070
     0
  0
DICTIONARYVAR
  5
3CE
102
{ACAD_REACTORS
330
FD
102
}
330
FD
100
DictionaryVariables
280
     0
  1
STANDARD
  0
DICTIONARYVAR
  5
FE
102
{ACAD_REACTORS
330
FD
102
}
330
FD
100
DictionaryVariables
280
     0
  1
1
  0
DICTIONARYVAR
  5
3D0
102
{ACAD_REACTORS
330
FD
102
}
330
FD
100
DictionaryVariables
280
     0
  1
0
  0
DICTIONARYVAR
  5
3CF
102
{ACAD_REACTORS
330
FD
102
}
330
FD
100
DictionaryVariables
280
     0
  1
127
  0
DICTIONARY
  5
EA1
330
9F
100
AcDbDictionary
280
     1
281
     1
  3
ACAD_XREC_ROUNDTRIP
360
EA2
  0
DICTIONARY
  5
E9F
330
9E
100
AcDbDictionary
280
     1
281
     1
  3
ACAD_XREC_ROUNDTRIP
360
EA0
  0
DICTIONARY
  5
EA5
330
1E5
100
AcDbDictionary
280
     1
281
     1
  3
ACAD_XREC_ROUNDTRIP
360
EA6
  0
DICTIONARY
  5
EA3
330
1E4
100
AcDbDictionary
280
     1
281
     1
  3
ACAD_XREC_ROUNDTRIP
360
EA4
  0
DICTIONARY
  5
EA7
330
1E6
100
AcDbDictionary
280
     1
281
     1
  3
ACAD_XREC_ROUNDTRIP
360
EA8
  0
DICTIONARY
  5
EA9
330
1FA
100
AcDbDictionary
280
     1
281
     1
  3
ACAD_XREC_ROUNDTRIP
360
EAA
  0
XRECORD
  5
EA2
102
{ACAD_REACTORS
330
EA1
102
}
330
EA1
100
AcDbXrecord
280
     1
102
SHADEPLOT
 70
     0
102
SHADEPLOTRESLEVEL
 70
     2
102
SHADEPLOTCUSTOMDPI
 70
   300
  0
XRECORD
  5
EA0
102
{ACAD_REACTORS
330
E9F
102
}
330
E9F
100
AcDbXrecord
280
     1
102
SHADEPLOT
 70
     0
102
SHADEPLOTRESLEVEL
 70
     2
102
SHADEPLOTCUSTOMDPI
 70
   300
  0
XRECORD
  5
EA6
102
{ACAD_REACTORS
330
EA5
102
}
330
EA5
100
AcDbXrecord
280
     1
102
MATERIAL
148
0.0
149
0.0
149
0.0
 93
        0
 94
       63
282
     0
 72
     1
 77
     1
171
     1
175
     1
179
     1
273
     0
  0
XRECORD
  5
EA4
102
{ACAD_REACTORS
330
EA3
102
}
330
EA3
100
AcDbXrecord
280
     1
102
MATERIAL
148
0.0
149
0.0
149
0.0
 93
        0
 94
       63
282
     0
 72
     1
 77
     1
171
     1
175
     1
179
     1
273
     0
  0
XRECORD
  5
EA8
102
{ACAD_REACTORS
330
EA7
102
}
330
EA7
100
AcDbXrecord
280
     1
102
MATERIAL
148
0.0
149
0.0
149
0.0
 93
        0
 94
       63
282
     0
 72
     1
 77
     1
171
     1
175
     1
179
     1
273
     0
  0
XRECORD
  5
EAA
102
{ACAD_REACTORS
330
EA9
102
}
330
EA9
100
AcDbXrecord
280
     1
102
ACAD_ROUNDTRIP_PRE2007_TABLESTYLE
 90
      512
 91
        0
  1

 92
      512
 93
        0
  2

 94
      512
 95
        0
  3

  0
ENDSEC
  0
EOF
