  0
SECTION
  2
HEADER
  9
$ACADVER
  1
AC1014
  9
$ACADMAINTVER
 70
     9
  9
$DWGCODEPAGE
  3
ANSI_1252
  9
$INSBASE
 10
10.79723451915565
 20
-1.904689977685007
 30
0.0
  9
$EXTMIN
 10
4.391423524184116
 20
-2.957513698740902
 30
0.0
  9
$EXTMAX
 10
20.47819236797674
 20
3.615935836886449
 30
0.0
  9
$LIMMIN
 10
0.0
 20
0.0
  9
$LIMMAX
 10
36.0
 20
36.0
  9
$ORTHOMODE
 70
     1
  9
$REGENMODE
 70
     1
  9
$FILLMODE
 70
     1
  9
$QTEXTMODE
 70
     0
  9
$MIRRTEXT
 70
     1
  9
$DRAGMODE
 70
     0
  9
$LTSCALE
 40
1.0
  9
$OSMODE
 70
    37
  9
$ATTMODE
 70
     1
  9
$TEXTSIZE
 40
0.2
  9
$TRACEWID
 40
0.05
  9
$TEXTSTYLE
  7
STANDARD
  9
$CLAYER
  8
ADPDIM
  9
$CELTYPE
  6
BYLAYER
  9
$CECOLOR
 62
   256
  9
$CELTSCALE
 40
1.0
  9
$DELOBJ
 70
     1
  9
$DISPSILH
 70
     0
  9
$DIMSCALE
 40
1.0
  9
$DIMASZ
 40
0.125
  9
$DIMEXO
 40
0.0625
  9
$DIMDLI
 40
0.38
  9
$DIMRND
 40
0.0
  9
$DIMDLE
 40
0.0
  9
$DIMEXE
 40
0.18
  9
$DIMTP
 40
0.0
  9
$DIMTM
 40
0.0
  9
$DIMTXT
 40
0.125
  9
$DIMCEN
 40
0.1875
  9
$DIMTSZ
 40
0.125
  9
$DIMTOL
 70
     0
  9
$DIMLIM
 70
     0
  9
$DIMTIH
 70
     0
  9
$DIMTOH
 70
     0
  9
$DIMSE1
 70
     0
  9
$DIMSE2
 70
     0
  9
$DIMTAD
 70
     0
  9
$DIMZIN
 70
     3
  9
$DIMBLK
  1

  9
$DIMASO
 70
     1
  9
$DIMSHO
 70
     1
  9
$DIMPOST
  1

  9
$DIMAPOST
  1

  9
$DIMALT
 70
     0
  9
$DIMALTD
 70
     1
  9
$DIMALTF
 40
25.4
  9
$DIMLFAC
 40
1.0
  9
$DIMTOFL
 70
     0
  9
$DIMTVP
 40
0.0
  9
$DIMTIX
 70
     0
  9
$DIMSOXD
 70
     0
  9
$DIMSAH
 70
     0
  9
$DIMBLK1
  1

  9
$DIMBLK2
  1

  9
$DIMSTYLE
  2
STANDARD
  9
$DIMCLRD
 70
     0
  9
$DIMCLRE
 70
     0
  9
$DIMCLRT
 70
     0
  9
$DIMTFAC
 40
1.0
  9
$DIMGAP
 40
0.125
  9
$DIMJUST
 70
     0
  9
$DIMSD1
 70
     0
  9
$DIMSD2
 70
     0
  9
$DIMTOLJ
 70
     1
  9
$DIMTZIN
 70
     0
  9
$DIMALTZ
 70
     0
  9
$DIMALTTZ
 70
     0
  9
$DIMFIT
 70
     3
  9
$DIMUPT
 70
     0
  9
$DIMUNIT
 70
     2
  9
$DIMDEC
 70
     4
  9
$DIMTDEC
 70
     4
  9
$DIMALTU
 70
     2
  9
$DIMALTTD
 70
     2
  9
$DIMTXSTY
  7
STANDARD
  9
$DIMAUNIT
 70
     0
  9
$LUNITS
 70
     5
  9
$LUPREC
 70
     5
  9
$SKETCHINC
 40
0.1
  9
$FILLETRAD
 40
0.125
  9
$AUNITS
 70
     0
  9
$AUPREC
 70
     0
  9
$MENU
  1
acad
  9
$ELEVATION
 40
0.0
  9
$PELEVATION
 40
0.0
  9
$THICKNESS
 40
0.0
  9
$LIMCHECK
 70
     0
  9
$BLIPMODE
 70
     0
  9
$CHAMFERA
 40
0.03125
  9
$CHAMFERB
 40
0.03125
  9
$CHAMFERC
 40
0.0
  9
$CHAMFERD
 40
0.0
  9
$SKPOLY
 70
     0
  9
$TDCREATE
 40
2450280.654029699
  9
$TDUPDATE
 40
2452297.076067708
  9
$TDINDWG
 40
0.0044394444
  9
$TDUSRTIMER
 40
0.0044394444
  9
$USRTIMER
 70
     1
  9
$ANGBASE
 50
0.0
  9
$ANGDIR
 70
     0
  9
$PDMODE
 70
     0
  9
$PDSIZE
 40
0.0
  9
$PLINEWID
 40
0.0
  9
$COORDS
 70
     2
  9
$SPLFRAME
 70
     0
  9
$SPLINETYPE
 70
     6
  9
$SPLINESEGS
 70
     8
  9
$ATTDIA
 70
     0
  9
$ATTREQ
 70
     1
  9
$HANDLING
 70
 22529
  9
$HANDSEED
  5
2B4
  9
$SURFTAB1
 70
     6
  9
$SURFTAB2
 70
     6
  9
$SURFTYPE
 70
     6
  9
$SURFU
 70
     6
  9
$SURFV
 70
     6
  9
$UCSNAME
  2

  9
$UCSORG
 10
0.0
 20
0.0
 30
0.0
  9
$UCSXDIR
 10
1.0
 20
0.0
 30
0.0
  9
$UCSYDIR
 10
0.0
 20
1.0
 30
0.0
  9
$PUCSNAME
  2

  9
$PUCSORG
 10
0.0
 20
0.0
 30
0.0
  9
$PUCSXDIR
 10
1.0
 20
0.0
 30
0.0
  9
$PUCSYDIR
 10
0.0
 20
1.0
 30
0.0
  9
$USERI1
 70
     0
  9
$USERI2
 70
     0
  9
$USERI3
 70
     0
  9
$USERI4
 70
     0
  9
$USERI5
 70
     0
  9
$USERR1
 40
0.0
  9
$USERR2
 40
0.0
  9
$USERR3
 40
0.0
  9
$USERR4
 40
0.0
  9
$USERR5
 40
0.0
  9
$WORLDVIEW
 70
     1
  9
$SHADEDGE
 70
     3
  9
$SHADEDIF
 70
    70
  9
$TILEMODE
 70
     1
  9
$MAXACTVP
 70
    15
  9
$PINSBASE
 10
0.1093763113021852
 20
0.0
 30
0.0
  9
$PLIMCHECK
 70
     0
  9
$PEXTMIN
 10
1.000000000000000E+20
 20
1.000000000000000E+20
 30
1.000000000000000E+20
  9
$PEXTMAX
 10
-1.000000000000000E+20
 20
-1.000000000000000E+20
 30
-1.000000000000000E+20
  9
$PLIMMIN
 10
0.0
 20
0.0
  9
$PLIMMAX
 10
12.0
 20
9.0
  9
$UNITMODE
 70
     0
  9
$VISRETAIN
 70
     0
  9
$PLINEGEN
 70
     0
  9
$PSLTSCALE
 70
     1
  9
$TREEDEPTH
 70
  3020
  9
$PICKSTYLE
 70
     1
  9
$CMLSTYLE
  2
STANDARD
  9
$CMLJUST
 70
     0
  9
$CMLSCALE
 40
1.0
  9
$PROXYGRAPHICS
 70
     1
  9
$MEASUREMENT
 70
     0
  0
ENDSEC
  0
SECTION
  2
CLASSES
  0
CLASS
  1
ACDBDICTIONARYWDFLT
  2
AcDbDictionaryWithDefault
  3
AutoCAD 2000
 90
        0
280
     0
281
     0
  0
CLASS
  1
ACDBPLACEHOLDER
  2
AcDbPlaceHolder
  3
AutoCAD 2000
 90
        0
280
     0
281
     0
  0
CLASS
  1
LAYOUT
  2
AcDbLayout
  3
AutoCAD 2000
 90
        0
280
     0
281
     0
  0
CLASS
  1
DICTIONARYVAR
  2
AcDbDictionaryVar
  3
AutoCAD 2000
 90
        0
280
     0
281
     0
  0
CLASS
  1
LONG_TRANSACTION
  2
AcDbLongTransaction
  3
AutoCAD 2000
 90
        0
280
     0
281
     0
  0
CLASS
  1
LWPOLYLINE
  2
AcDbPolyline
  3
AutoCAD 2000
 90
        0
280
     0
281
     1
  0
CLASS
  1
HATCH
  2
AcDbHatch
  3
AutoCAD 2000
 90
        0
280
     0
281
     1
  0
CLASS
  1
XRECORD
  2
AcDbXrecord
  3
AutoCAD 2000
 90
        0
280
     0
281
     0
  0
CLASS
  1
LONG_TRANSACTION
  2
AcDbLongTransaction
  3
AutoCAD 2000
 90
        0
280
     0
281
     0
  0
CLASS
  1
LWPOLYLINE
  2
AcDbPolyline
  3
AutoCAD 2000
 90
        0
280
     0
281
     1
  0
CLASS
  1
HATCH
  2
AcDbHatch
  3
AutoCAD 2000
 90
        0
280
     0
281
     1
  0
CLASS
  1
XRECORD
  2
AcDbXrecord
  3
AutoCAD 2000
 90
        0
280
     0
281
     0
  0
CLASS
  1
LONG_TRANSACTION
  2
AcDbLongTransaction
  3
AutoCAD 2000
 90
        0
280
     0
281
     0
  0
CLASS
  1
LWPOLYLINE
  2
AcDbPolyline
  3
AutoCAD 2000
 90
        0
280
     0
281
     1
  0
CLASS
  1
HATCH
  2
AcDbHatch
  3
AutoCAD 2000
 90
        0
280
     0
281
     1
  0
CLASS
  1
XRECORD
  2
AcDbXrecord
  3
AutoCAD 2000
 90
        0
280
     0
281
     0
  0
CLASS
  1
LONG_TRANSACTION
  2
AcDbLongTransaction
  3
AutoCAD 2000
 90
        0
280
     0
281
     0
  0
CLASS
  1
LWPOLYLINE
  2
AcDbPolyline
  3
AutoCAD 2000
 90
        0
280
     0
281
     1
  0
CLASS
  1
HATCH
  2
AcDbHatch
  3
AutoCAD 2000
 90
        0
280
     0
281
     1
  0
CLASS
  1
XRECORD
  2
AcDbXrecord
  3
AutoCAD 2000
 90
        0
280
     0
281
     0
  0
CLASS
  1
LONG_TRANSACTION
  2
AcDbLongTransaction
  3
AutoCAD 2000
 90
        0
280
     0
281
     0
  0
CLASS
  1
LWPOLYLINE
  2
AcDbPolyline
  3
AutoCAD 2000
 90
        0
280
     0
281
     1
  0
CLASS
  1
HATCH
  2
AcDbHatch
  3
AutoCAD 2000
 90
        0
280
     0
281
     1
  0
CLASS
  1
XRECORD
  2
AcDbXrecord
  3
AutoCAD 2000
 90
        0
280
     0
281
     0
  0
ENDSEC
  0
SECTION
  2
TABLES
  0
TABLE
  2
VPORT
  5
8
330
0
100
AcDbSymbolTable
 70
     2
  0
VPORT
  5
291
330
8
100
AcDbSymbolTableRecord
100
AcDbViewportTableRecord
  2
*ACTIVE
 70
     0
 10
0.0
 20
0.0
 11
1.0
 21
1.0
 12
12.44841035964491
 22
0.3291640346205247
 13
0.0
 23
0.0
 14
0.5740882589684922
 24
0.5740882589684922
 15
0.5
 25
0.5
 16
0.0
 26
0.0
 36
1.0
 17
0.0
 27
0.0
 37
0.0
 40
10.31046922741698
 41
1.570528967254408
 42
50.0
 43
0.0
 44
0.0
 50
0.0
 51
0.0
 71
     0
 72
   100
 73
     1
 74
     0
 75
     0
 76
     0
 77
     0
 78
     0
  0
ENDTAB
  0
TABLE
  2
LTYPE
  5
5
330
0
100
AcDbSymbolTable
 70
     2
  0
LTYPE
  5
12
330
5
100
AcDbSymbolTableRecord
100
AcDbLinetypeTableRecord
  2
BYBLOCK
 70
     0
  3

 72
    65
 73
     0
 40
0.0
  0
LTYPE
  5
13
330
5
100
AcDbSymbolTableRecord
100
AcDbLinetypeTableRecord
  2
BYLAYER
 70
     0
  3

 72
    65
 73
     0
 40
0.0
  0
LTYPE
  5
14
330
5
100
AcDbSymbolTableRecord
100
AcDbLinetypeTableRecord
  2
CONTINUOUS
 70
     0
  3
Solid line
 72
    65
 73
     0
 40
0.0
  0
LTYPE
  5
21
330
5
100
AcDbSymbolTableRecord
100
AcDbLinetypeTableRecord
  2
HIDDEN2
 70
     0
  3
_ _ _ _ _ _ _ _ _ _ _ _ _ _ _ _ _ _ _ _ _ _ _ _
 72
    65
 73
     2
 40
0.1875
 49
0.125
 74
     0
 49
-0.0625
 74
     0
  0
ENDTAB
  0
TABLE
  2
LAYER
  5
2
330
0
100
AcDbSymbolTable
 70
     5
  0
LAYER
  5
F
330
2
100
AcDbSymbolTableRecord
100
AcDbLayerTableRecord
  2
0
 70
     0
 62
     7
  6
CONTINUOUS
  0
LAYER
  5
22
330
2
100
AcDbSymbolTableRecord
100
AcDbLayerTableRecord
  2
ADP2DETAIL
 70
     0
 62
     5
  6
CONTINUOUS
  0
LAYER
  5
23
330
2
100
AcDbSymbolTableRecord
100
AcDbLayerTableRecord
  2
ADPDIM
 70
     0
 62
     3
  6
CONTINUOUS
  0
LAYER
  5
24
330
2
100
AcDbSymbolTableRecord
100
AcDbLayerTableRecord
  2
ADP1DETAIL
 70
     0
 62
     7
  6
CONTINUOUS
  0
LAYER
  5
25
330
2
100
AcDbSymbolTableRecord
100
AcDbLayerTableRecord
  2
DEFPOINTS
 70
     0
 62
     7
  6
CONTINUOUS
  0
ENDTAB
  0
TABLE
  2
STYLE
  5
3
330
0
100
AcDbSymbolTable
 70
     2
  0
STYLE
  5
10
330
3
100
AcDbSymbolTableRecord
100
AcDbTextStyleTableRecord
  2
STANDARD
 70
     0
 40
0.0
 41
1.0
 50
0.0
 71
     0
 42
0.2
  3
txt
  4

  0
STYLE
  5
14D
330
3
100
AcDbSymbolTableRecord
100
AcDbTextStyleTableRecord
  2
ARIAL_WIDE
 70
     0
 40
0.0
 41
1.25
 50
0.0
 71
     0
 42
0.2
  3
ARIAL.TTF
  4

1001
ACAD
1000
Arial
1071
       34
  0
ENDTAB
  0
TABLE
  2
VIEW
  5
6
330
0
100
AcDbSymbolTable
 70
     0
  0
ENDTAB
  0
TABLE
  2
UCS
  5
7
330
0
100
AcDbSymbolTable
 70
     0
  0
ENDTAB
  0
TABLE
  2
APPID
  5
9
330
0
100
AcDbSymbolTable
 70
     1
  0
APPID
  5
11
330
9
100
AcDbSymbolTableRecord
100
AcDbRegAppTableRecord
  2
ACAD
 70
     0
  0
ENDTAB
  0
TABLE
  2
DIMSTYLE
  5
A
330
0
100
AcDbSymbolTable
 70
     1
  0
DIMSTYLE
105
141
330
A
100
AcDbSymbolTableRecord
100
AcDbDimStyleTableRecord
  2
STANDARD
 70
     0
  3

  4

  5

  6

  7

 40
1.0
 41
0.18
 42
0.0625
 43
0.38
 44
0.18
 45
0.0
 46
0.0
 47
0.0
 48
0.0
140
0.18
141
0.09
142
0.0
143
25.4
144
1.0
145
0.0
146
1.0
147
0.09
 71
     0
 72
     0
 73
     1
 74
     1
 75
     0
 76
     0
 77
     0
 78
     0
170
     0
171
     2
172
     0
173
     0
174
     0
175
     0
176
     0
177
     0
178
     0
270
     2
271
     4
272
     4
273
     2
274
     2
340
10
275
     0
280
     0
281
     0
282
     0
283
     1
284
     0
285
     0
286
     0
287
     3
288
     0
  0
ENDTAB
  0
TABLE
  2
BLOCK_RECORD
  5
1
330
0
100
AcDbSymbolTable
 70
     1
  0
BLOCK_RECORD
  5
18
102
{ACAD_XDICTIONARY
360
1A2
102
}
330
1
100
AcDbSymbolTableRecord
100
AcDbBlockTableRecord
  2
*MODEL_SPACE
  0
BLOCK_RECORD
  5
15
102
{ACAD_XDICTIONARY
360
1A0
102
}
330
1
100
AcDbSymbolTableRecord
100
AcDbBlockTableRecord
  2
*PAPER_SPACE
  0
BLOCK_RECORD
  5
20
330
1
100
AcDbSymbolTableRecord
100
AcDbBlockTableRecord
  2
*D0
  0
ENDTAB
  0
ENDSEC
  0
SECTION
  2
BLOCKS
  0
BLOCK
  5
28
330
18
100
AcDbEntity
  8
0
100
AcDbBlockBegin
  2
*MODEL_SPACE
 70
     0
 10
0.0
 20
0.0
 30
0.0
  3
*MODEL_SPACE
  1

  0
ENDBLK
  5
29
330
18
100
AcDbEntity
  8
0
100
AcDbBlockEnd
  0
BLOCK
  5
26
330
15
100
AcDbEntity
 67
     1
  8
0
100
AcDbBlockBegin
  2
*PAPER_SPACE
 70
     0
 10
0.0
 20
0.0
 30
0.0
  3
*PAPER_SPACE
  1

  0
ENDBLK
  5
27
330
15
100
AcDbEntity
 67
     1
  8
0
100
AcDbBlockEnd
  0
BLOCK
  5
2B
330
20
100
AcDbEntity
  8
0
100
AcDbBlockBegin
  2
*D0
 70
     1
 10
0.0
 20
0.0
 30
0.0
  3
*D0
  1

  0
LINE
  5
2C
330
20
100
AcDbEntity
  8
0
  6
BYBLOCK
 62
     0
100
AcDbLine
 10
14.3421177728749
 20
1.095310022314992
 30
0.0
 11
14.94504233199301
 21
1.095310022314992
 31
0.0
  0
LINE
  5
2D
330
20
100
AcDbEntity
  8
0
  6
BYBLOCK
 62
     0
100
AcDbLine
 10
14.3421177728749
 20
-1.904689977685007
 30
0.0
 11
14.94504233199301
 21
-1.904689977685007
 31
0.0
  0
LINE
  5
2E
330
20
100
AcDbEntity
  8
0
  6
BYBLOCK
 62
     0
100
AcDbLine
 10
14.76504233199301
 20
1.095310022314992
 30
0.0
 11
14.76504233199301
 21
-0.2380233110183404
 31
0.0
  0
LINE
  5
2F
330
20
100
AcDbEntity
  8
0
  6
BYBLOCK
 62
     0
100
AcDbLine
 10
14.76504233199301
 20
-1.904689977685007
 30
0.0
 11
14.76504233199301
 21
-0.5713566443516737
 31
0.0
  0
LINE
  5
30
330
20
100
AcDbEntity
  8
0
  6
BYBLOCK
 62
     0
100
AcDbLine
 10
14.89004233199302
 20
0.9703100223149929
 30
0.0
 11
14.64004233199301
 21
1.220310022314992
 31
0.0
  0
LINE
  5
31
330
20
100
AcDbEntity
  8
0
  6
BYBLOCK
 62
     0
100
AcDbLine
 10
14.89004233199302
 20
-2.029689977685007
 30
0.0
 11
14.64004233199301
 21
-1.779689977685007
 31
0.0
  0
TEXT
  5
32
330
20
100
AcDbEntity
  8
0
  6
BYBLOCK
 62
     0
100
AcDbText
 10
14.82754233199301
 20
-0.4463566443516738
 30
0.0
 40
0.125
  1
3
 50
90.0
 72
     1
 11
14.76504233199301
 21
-0.4046899776850071
 31
0.0
100
AcDbText
 73
     2
  0
POINT
  5
33
330
20
100
AcDbEntity
  8
DEFPOINTS
  6
BYBLOCK
 62
     0
100
AcDbPoint
 10
14.27961777287491
 20
1.095310022314992
 30
0.0
  0
POINT
  5
34
330
20
100
AcDbEntity
  8
DEFPOINTS
  6
BYBLOCK
 62
     0
100
AcDbPoint
 10
14.27961777287491
 20
-1.904689977685007
 30
0.0
  0
POINT
  5
35
330
20
100
AcDbEntity
  8
DEFPOINTS
  6
BYBLOCK
 62
     0
100
AcDbPoint
 10
14.76504233199301
 20
-1.904689977685007
 30
0.0
  0
ENDBLK
  5
36
330
20
100
AcDbEntity
  8
0
100
AcDbBlockEnd
  0
ENDSEC
  0
SECTION
  2
ENTITIES
  0
LINE
  5
37
330
18
100
AcDbEntity
  8
ADP1DETAIL
100
AcDbLine
 10
14.27961777287491
 20
-1.904689977685007
 30
0.0
 11
10.79723451915565
 21
-1.904689977685007
 31
0.0
  0
LINE
  5
38
330
18
100
AcDbEntity
  8
ADP1DETAIL
100
AcDbLine
 10
10.79723451915565
 20
1.095310022314992
 30
0.0
 11
14.27961777287491
 21
1.095310022314992
 31
0.0
  0
LINE
  5
39
330
18
100
AcDbEntity
  8
ADP2DETAIL
  6
HIDDEN2
100
AcDbLine
 10
12.38931420387966
 20
-1.234457492141848
 30
0.0
 11
12.36382921251704
 21
-1.234457492141847
 31
0.0
  0
LINE
  5
3A
330
18
100
AcDbEntity
  8
ADP2DETAIL
  6
HIDDEN2
100
AcDbLine
 10
12.38931420387966
 20
-1.328207492141848
 30
0.0
 11
12.36382921251704
 21
-1.328207492141847
 31
0.0
  0
LINE
  5
3B
330
18
100
AcDbEntity
  8
ADP2DETAIL
  6
HIDDEN2
100
AcDbLine
 10
12.38931420387966
 20
0.515542507858152
 30
0.0
 11
12.36382921251704
 21
0.5155425078581527
 31
0.0
  0
LINE
  5
3C
330
18
100
AcDbEntity
  8
ADP2DETAIL
  6
HIDDEN2
100
AcDbLine
 10
12.38931420387966
 20
0.421792507858152
 30
0.0
 11
12.36382921251704
 21
0.4217925078581527
 31
0.0
  0
LINE
  5
3D
330
18
100
AcDbEntity
  8
ADP2DETAIL
  6
HIDDEN2
100
AcDbLine
 10
12.38931420387966
 20
2.239876745935958
 30
0.0
 11
12.34902853983899
 21
2.239876745935959
 31
0.0
  0
LINE
  5
3E
330
18
100
AcDbEntity
  8
ADP2DETAIL
  6
HIDDEN2
100
AcDbLine
 10
12.38931420387966
 20
2.333626745935958
 30
0.0
 11
12.34982401826711
 21
2.333626745935959
 31
0.0
  0
LINE
  5
3F
330
18
100
AcDbEntity
  8
ADP2DETAIL
  6
HIDDEN2
100
AcDbLine
 10
12.46053416636673
 20
-0.2188324921418463
 30
0.0
 11
12.26235497383436
 21
-0.2188324921418463
 31
0.0
  0
LINE
  5
40
330
18
100
AcDbEntity
  8
ADP2DETAIL
  6
HIDDEN2
100
AcDbLine
 10
12.26235497383436
 20
-0.5938324921418463
 30
0.0
 11
12.45768196559803
 21
-0.5938324921418463
 31
0.0
  0
LINE
  5
41
330
18
100
AcDbEntity
  8
ADP2DETAIL
  6
HIDDEN2
100
AcDbLine
 10
12.33351529422504
 20
2.474251745935959
 30
0.0
 11
12.46053416636673
 21
2.474251745935959
 31
0.0
  0
LINE
  5
42
330
18
100
AcDbEntity
  8
ADP2DETAIL
  6
HIDDEN2
100
AcDbLine
 10
12.33027347890805
 20
2.099251745935959
 30
0.0
 11
12.45768196559803
 21
2.099251745935959
 31
0.0
  0
ARC
  5
43
330
18
100
AcDbEntity
  8
ADP1DETAIL
100
AcDbCircle
 10
11.40061767781611
 20
2.294802484866055
 30
0.0
 40
1.074999999999999
100
AcDbArc
 50
305.356394206041
 51
40.42122476072957
  0
ARC
  5
44
330
18
100
AcDbEntity
  8
ADP1DETAIL
100
AcDbCircle
 10
11.40061767781611
 20
2.294802484866055
 30
0.0
 40
0.95
100
AcDbArc
 50
305.4657102551451
 51
123.6406953120216
  0
LINE
  5
45
330
18
100
AcDbEntity
  8
ADP1DETAIL
100
AcDbLine
 10
11.47363781589874
 20
3.429956355244161
 30
0.0
 11
14.36936767781611
 21
3.429956355244161
 31
0.0
  0
LINE
  5
46
330
18
100
AcDbEntity
  8
ADP1DETAIL
100
AcDbLine
 10
13.15061767781611
 20
3.304956355244161
 30
0.0
 11
12.27373350557215
 21
3.145263329122386
 31
0.0
  0
CIRCLE
  5
47
330
18
100
AcDbEntity
  8
ADP1DETAIL
100
AcDbCircle
 10
9.971749090565269
 20
-0.4063324921418463
 30
0.0
 40
0.5
  0
LINE
  5
48
330
18
100
AcDbEntity
  8
ADP1DETAIL
100
AcDbLine
 10
10.79723451915565
 20
-1.904689977685007
 30
0.0
 11
10.79723451915565
 21
-0.5938324921418463
 31
0.0
  0
LINE
  5
49
330
18
100
AcDbEntity
  8
ADP2DETAIL
  6
HIDDEN2
100
AcDbLine
 10
12.36382921251704
 20
1.095310022314992
 30
0.0
 11
12.36382921251704
 21
-1.904689977685007
 31
0.0
  0
LINE
  5
4A
330
18
100
AcDbEntity
  8
ADP1DETAIL
100
AcDbLine
 10
10.88897239210459
 20
-0.5938324921418463
 30
0.0
 11
10.88897239210459
 21
-1.904689977685007
 31
0.0
  0
LINE
  5
4B
330
18
100
AcDbEntity
  8
ADP1DETAIL
100
AcDbLine
 10
11.99816223356144
 20
1.095310022314992
 30
0.0
 11
11.99816223356144
 21
-1.904689977685007
 31
0.0
  0
LINE
  5
4C
330
18
100
AcDbEntity
  8
ADP1DETAIL
100
AcDbLine
 10
11.93721773706885
 20
1.095310022314992
 30
0.0
 11
11.93721773706885
 21
-1.904689977685007
 31
0.0
  0
LINE
  5
4D
330
18
100
AcDbEntity
  8
ADP1DETAIL
100
AcDbLine
 10
10.86018219712979
 20
-0.5938324921418463
 30
0.0
 11
11.01047501516448
 21
-0.5938324921418463
 31
0.0
  0
LINE
  5
4E
330
18
100
AcDbEntity
  8
ADP1DETAIL
100
AcDbLine
 10
11.09172315353188
 20
-0.2188324921418463
 30
0.0
 11
10.86018219712979
 21
-0.2188324921418463
 31
0.0
  0
LINE
  5
4F
330
18
100
AcDbEntity
  8
ADP2DETAIL
  6
HIDDEN2
100
AcDbLine
 10
10.79723451915565
 20
-0.2188324921418463
 30
0.0
 11
10.79723451915565
 21
-0.5938324921418463
 31
0.0
  0
LINE
  5
50
330
18
100
AcDbEntity
  8
ADP1DETAIL
100
AcDbLine
 10
10.86018219712979
 20
-0.1196507759603911
 30
0.0
 11
10.86018219712979
 21
-0.6916507759603912
 31
0.0
  0
LINE
  5
51
330
18
100
AcDbEntity
  8
ADP1DETAIL
100
AcDbLine
 10
10.82893219712979
 20
-0.6916507759603912
 30
0.0
 11
10.82893219712979
 21
-0.1196507759603911
 31
0.0
  0
LINE
  5
52
330
18
100
AcDbEntity
  8
ADP1DETAIL
100
AcDbLine
 10
10.43526149600874
 20
-0.5938324921418463
 30
0.0
 11
10.82893219712979
 21
-0.5938324921418463
 31
0.0
  0
LINE
  5
53
330
18
100
AcDbEntity
  8
ADP2DETAIL
100
AcDbLine
 10
10.82893219712979
 20
-0.5938324921418463
 30
0.0
 11
10.86018219712979
 21
-0.5938324921418463
 31
0.0
  0
ARC
  5
54
330
18
100
AcDbEntity
  8
ADP1DETAIL
100
AcDbCircle
 10
10.84293219712979
 20
-0.6916507759603916
 30
0.0
 40
0.0139999999999997
100
AcDbArc
 50
179.9999999999986
 51
270.0
  0
LINE
  5
55
330
18
100
AcDbEntity
  8
ADP1DETAIL
100
AcDbLine
 10
10.84618219712979
 20
-0.7056507759603914
 30
0.0
 11
10.84293219712979
 21
-0.7056507759603914
 31
0.0
  0
LINE
  5
56
330
18
100
AcDbEntity
  8
ADP1DETAIL
100
AcDbLine
 10
10.83600450349351
 20
-0.7028659064967555
 30
0.0
 11
10.83303270219318
 21
-0.7015502708970032
 31
0.0
  0
ARC
  5
57
330
18
100
AcDbEntity
  8
ADP1DETAIL
100
AcDbCircle
 10
10.84618219712979
 20
-0.6916507759603916
 30
0.0
 40
0.0139999999999994
100
AcDbArc
 50
270.0
 51
0.0000000000013631
  0
LINE
  5
58
330
18
100
AcDbEntity
  8
ADP1DETAIL
100
AcDbLine
 10
10.79723451915565
 20
-0.2188324921418463
 30
0.0
 11
10.79723451915565
 21
1.095310022314992
 31
0.0
  0
LINE
  5
59
330
18
100
AcDbEntity
  8
ADP1DETAIL
100
AcDbLine
 10
10.88897239210459
 20
1.095310022314992
 30
0.0
 11
10.88897239210459
 21
-0.1079513270917982
 31
0.0
  0
LINE
  5
5A
330
18
100
AcDbEntity
  8
ADP1DETAIL
100
AcDbLine
 10
10.82893219712979
 20
-0.2188324921418463
 30
0.0
 11
10.43526149600874
 21
-0.2188324921418463
 31
0.0
  0
LINE
  5
5B
330
18
100
AcDbEntity
  8
ADP2DETAIL
100
AcDbLine
 10
10.82893219712979
 20
-0.2188324921418463
 30
0.0
 11
10.86018219712979
 21
-0.2188324921418463
 31
0.0
  0
ARC
  5
5C
330
18
100
AcDbEntity
  8
ADP1DETAIL
100
AcDbCircle
 10
10.87298380273123
 20
-0.1139834226076135
 30
0.0
 40
0.0139999999999998
100
AcDbArc
 50
113.8792810754185
 51
203.8792810754194
  0
LINE
  5
5D
330
18
100
AcDbEntity
  8
ADP1DETAIL
100
AcDbLine
 10
10.87028825067879
 20
-0.0998661814064232
 30
0.0
 11
10.86731644937845
 21
-0.1011818170061756
 31
0.0
  0
ARC
  5
5E
330
18
100
AcDbEntity
  8
ADP1DETAIL
100
AcDbCircle
 10
10.87595560403156
 20
-0.1126677870078612
 30
0.0
 40
0.0139999999999994
100
AcDbArc
 50
23.87928107541759
 51
113.8792810754185
  0
LINE
  5
5F
330
18
100
AcDbEntity
  8
ADP1DETAIL
100
AcDbLine
 10
10.84293219712979
 20
-0.1056507759603913
 30
0.0
 11
10.84618219712979
 21
-0.1056507759603913
 31
0.0
  0
ARC
  5
60
330
18
100
AcDbEntity
  8
ADP1DETAIL
100
AcDbCircle
 10
10.84293219712979
 20
-0.1196507759603911
 30
0.0
 40
0.0139999999999994
100
AcDbArc
 50
90.0
 51
180.0000000000009
  0
ARC
  5
61
330
18
100
AcDbEntity
  8
ADP1DETAIL
100
AcDbCircle
 10
10.84618219712979
 20
-0.1196507759603911
 30
0.0
 40
0.0139999999999998
100
AcDbArc
 50
359.999999999999
 51
90.0
  0
LINE
  5
62
330
18
100
AcDbEntity
  8
ADP1DETAIL
100
AcDbLine
 10
10.91406425016927
 20
-0.2188324921418459
 30
0.0
 11
10.888757209633
 21
-0.107000433655084
 31
0.0
  0
LINE
  5
63
330
18
100
AcDbEntity
  8
ADP1DETAIL
100
AcDbLine
 10
10.86018219712979
 20
-0.1196507759603906
 30
0.0
 11
10.8831570080095
 21
-0.2188324921418463
 31
0.0
  0
LINE
  5
64
330
18
100
AcDbEntity
  8
ADP2DETAIL
  6
HIDDEN2
100
AcDbLine
 10
12.16812645350109
 20
-0.1235273975780036
 30
0.0
 11
12.0444225659202
 21
-0.6944814991116162
 31
0.0
  0
LINE
  5
65
330
18
100
AcDbEntity
  8
ADP2DETAIL
  6
HIDDEN2
100
AcDbLine
 10
12.01584755341699
 20
-0.6818311568063096
 30
0.0
 11
12.13955144099789
 21
-0.110877055272697
 31
0.0
  0
LINE
  5
66
330
18
100
AcDbEntity
  8
ADP2DETAIL
  6
HIDDEN2
100
AcDbLine
 10
12.16860497383436
 20
-0.6908324921418463
 30
0.0
 11
12.16860497383436
 21
-0.1188324921418462
 31
0.0
  0
LINE
  5
67
330
18
100
AcDbEntity
  8
ADP2DETAIL
  6
HIDDEN2
100
AcDbLine
 10
12.19985497383436
 20
-0.1188324921418462
 30
0.0
 11
12.19985497383436
 21
-0.6908324921418463
 31
0.0
  0
LINE
  5
68
330
18
100
AcDbEntity
  8
ADP2DETAIL
  6
HIDDEN2
100
AcDbLine
 10
12.19985497383436
 20
-0.7485824921418463
 30
0.0
 11
12.19985497383436
 21
-0.0610824921418463
 31
0.0
  0
LINE
  5
69
330
18
100
AcDbEntity
  8
ADP2DETAIL
  6
HIDDEN2
100
AcDbLine
 10
12.26235497383436
 20
-0.0610824921418463
 30
0.0
 11
12.26235497383436
 21
-0.7485824921418463
 31
0.0
  0
LINE
  5
6A
330
18
100
AcDbEntity
  8
ADP1DETAIL
100
AcDbLine
 10
11.26235497383436
 20
-0.5938324921418463
 30
0.0
 11
11.26235497383436
 21
-0.2188324921418467
 31
0.0
  0
LINE
  5
6B
330
18
100
AcDbEntity
  8
ADP1DETAIL
100
AcDbLine
 10
11.75981895233345
 20
-0.6798928459975029
 30
0.0
 11
11.88352283991434
 21
-0.1089387444638903
 31
0.0
  0
LINE
  5
6C
330
18
100
AcDbEntity
  8
ADP1DETAIL
100
AcDbLine
 10
11.91209785241755
 20
-0.1215890867691969
 30
0.0
 11
11.78839396483666
 21
-0.6925431883028095
 31
0.0
  0
LINE
  5
6D
330
18
100
AcDbEntity
  8
ADP1DETAIL
100
AcDbLine
 10
11.5037903512499
 20
-0.6779545351886962
 30
0.0
 11
11.62749423883079
 21
-0.1070004336550836
 31
0.0
  0
LINE
  5
6E
330
18
100
AcDbEntity
  8
ADP1DETAIL
100
AcDbLine
 10
11.656069251334
 20
-0.1196507759603902
 30
0.0
 11
11.53236536375311
 21
-0.6906048774940028
 31
0.0
  0
LINE
  5
6F
330
18
100
AcDbEntity
  8
ADP1DETAIL
100
AcDbLine
 10
10.9922489901159
 20
-0.6779545351886967
 30
0.0
 11
11.11595287769679
 21
-0.107000433655084
 31
0.0
  0
LINE
  5
70
330
18
100
AcDbEntity
  8
ADP1DETAIL
100
AcDbLine
 10
11.2480196706829
 20
-0.6653041928833896
 30
0.0
 11
11.37146563774725
 21
-0.1089387444638903
 31
0.0
  0
LINE
  5
71
330
18
100
AcDbEntity
  8
ADP1DETAIL
100
AcDbLine
 10
11.400298570767
 20
-0.1070004336550836
 30
0.0
 11
11.27659468318611
 21
-0.6779545351886962
 31
0.0
  0
LINE
  5
72
330
18
100
AcDbEntity
  8
ADP1DETAIL
100
AcDbLine
 10
11.1445278902
 20
-0.1196507759603906
 30
0.0
 11
11.02082400261911
 21
-0.6906048774940033
 31
0.0
  0
LINE
  5
73
330
18
100
AcDbEntity
  8
ADP1DETAIL
100
AcDbLine
 10
11.76492357870691
 20
-0.6563324921418463
 30
0.0
 11
11.53979087710584
 21
-0.6563324921418463
 31
0.0
  0
ARC
  5
74
330
18
100
AcDbEntity
  8
ADP1DETAIL
100
AcDbCircle
 10
11.32485497383436
 20
-0.5938324921418463
 30
0.0
 40
0.0625
100
AcDbArc
 50
229.7634780343314
 51
270.0
  0
LINE
  5
75
330
18
100
AcDbEntity
  8
ADP1DETAIL
100
AcDbLine
 10
11.0417908723664
 20
-0.5938324921418463
 30
0.0
 11
11.26235497383436
 21
-0.5938324921418463
 31
0.0
  0
ARC
  5
76
330
18
100
AcDbEntity
  8
ADP1DETAIL
100
AcDbCircle
 10
11.26082127628434
 20
-0.6709715462361672
 30
0.0
 40
0.0139999999999997
100
AcDbArc
 50
156.1207189245801
 51
246.1207189245814
  0
ARC
  5
77
330
18
100
AcDbEntity
  8
ADP1DETAIL
100
AcDbCircle
 10
11.26379307758467
 20
-0.6722871818359196
 30
0.0
 40
0.0139999999999994
100
AcDbArc
 50
246.1207189245814
 51
336.1207189245829
  0
ARC
  5
78
330
18
100
AcDbEntity
  8
ADP1DETAIL
100
AcDbCircle
 10
11.00802239701767
 20
-0.6849375241412266
 30
0.0
 40
0.0139999999999994
100
AcDbArc
 50
246.1207189245814
 51
336.1207189245829
  0
ARC
  5
79
330
18
100
AcDbEntity
  8
ADP1DETAIL
100
AcDbCircle
 10
11.00505059571734
 20
-0.6836218885414742
 30
0.0
 40
0.0139999999999997
100
AcDbArc
 50
156.1207189245801
 51
246.1207189245814
  0
ARC
  5
7A
330
18
100
AcDbEntity
  8
ADP1DETAIL
100
AcDbCircle
 10
11.32485497383436
 20
-0.5938324921418463
 30
0.0
 40
0.0625
100
AcDbArc
 50
180.0
 51
185.225631442014
  0
LINE
  5
7B
330
18
100
AcDbEntity
  8
ADP1DETAIL
100
AcDbLine
 10
11.00482554829094
 20
-0.6199075520773492
 30
0.0
 11
10.99892489146943
 21
-0.5938324921418463
 31
0.0
  0
LINE
  5
7C
330
18
100
AcDbEntity
  8
ADP1DETAIL
100
AcDbLine
 10
10.97002336212795
 20
-0.5938324921418463
 30
0.0
 11
10.99199106959936
 21
-0.688666566685197
 31
0.0
  0
LINE
  5
7D
330
18
100
AcDbEntity
  8
ADP1DETAIL
100
AcDbLine
 10
11.26074915331103
 20
-0.6079329844189112
 30
0.0
 11
11.25755828179828
 21
-0.5938324921418463
 31
0.0
  0
LINE
  5
7E
330
18
100
AcDbEntity
  8
ADP1DETAIL
100
AcDbLine
 10
11.22872441366671
 20
-0.5938324921418463
 30
0.0
 11
11.24776175016636
 21
-0.67601622437989
 31
0.0
  0
ARC
  5
7F
330
18
100
AcDbEntity
  8
ADP1DETAIL
100
AcDbCircle
 10
11.51956375815167
 20
-0.6849375241412261
 30
0.0
 40
0.0139999999999994
100
AcDbArc
 50
246.1207189245814
 51
336.1207189245829
  0
ARC
  5
80
330
18
100
AcDbEntity
  8
ADP1DETAIL
100
AcDbCircle
 10
11.51659195685134
 20
-0.6836218885414738
 30
0.0
 40
0.0139999999999997
100
AcDbArc
 50
156.1207189245801
 51
246.1207189245814
  0
LINE
  5
81
330
18
100
AcDbEntity
  8
ADP1DETAIL
100
AcDbLine
 10
11.50847501990392
 20
-0.6563324921418463
 30
0.0
 11
11.32485497383436
 21
-0.6563324921418463
 31
0.0
  0
LINE
  5
82
330
18
100
AcDbEntity
  8
ADP1DETAIL
100
AcDbLine
 10
11.49604244894836
 20
-0.6563324921418463
 30
0.0
 11
11.50353243073336
 21
-0.6886665666851966
 31
0.0
  0
LINE
  5
83
330
18
100
AcDbEntity
  8
ADP2DETAIL
  6
HIDDEN2
100
AcDbLine
 10
12.00720165648553
 20
-0.6563324921418463
 30
0.0
 11
12.01558963290045
 21
-0.69254318830281
 31
0.0
  0
ARC
  5
84
330
18
100
AcDbEntity
  8
ADP2DETAIL
  6
HIDDEN2
100
AcDbCircle
 10
12.02864915901843
 20
-0.6874985101590872
 30
0.0
 40
0.0139999999999997
100
AcDbArc
 50
156.1207189245801
 51
246.1207189245814
  0
LINE
  5
85
330
18
100
AcDbEntity
  8
ADP2DETAIL
  6
HIDDEN2
100
AcDbLine
 10
12.0213721375099
 20
-0.6563324921418463
 30
0.0
 11
11.99816223356145
 21
-0.6563324921418463
 31
0.0
  0
LINE
  5
86
330
18
100
AcDbEntity
  8
ADP2DETAIL
100
AcDbLine
 10
11.93721773706885
 20
-0.6563324921418463
 30
0.0
 11
11.99816223356145
 21
-0.6563324921418463
 31
0.0
  0
LINE
  5
87
330
18
100
AcDbEntity
  8
ADP1DETAIL
100
AcDbLine
 10
11.93721773706885
 20
-0.6563324921418463
 30
0.0
 11
11.79623943590883
 21
-0.6563324921418463
 31
0.0
  0
ARC
  5
88
330
18
100
AcDbEntity
  8
ADP1DETAIL
100
AcDbCircle
 10
11.77559235923522
 20
-0.6868758349500328
 30
0.0
 40
0.0139999999999994
100
AcDbArc
 50
246.1207189245814
 51
336.1207189245829
  0
ARC
  5
89
330
18
100
AcDbEntity
  8
ADP1DETAIL
100
AcDbCircle
 10
11.77262055793488
 20
-0.6855601993502805
 30
0.0
 40
0.0139999999999997
100
AcDbArc
 50
156.1207189245801
 51
246.1207189245814
  0
LINE
  5
8A
330
18
100
AcDbEntity
  8
ADP1DETAIL
100
AcDbLine
 10
11.75162205271695
 20
-0.6563324921418463
 30
0.0
 11
11.7595610318169
 21
-0.6906048774940033
 31
0.0
  0
LINE
  5
8B
330
18
100
AcDbEntity
  8
ADP2DETAIL
  6
HIDDEN2
100
AcDbLine
 10
12.16860497383436
 20
-0.6563324921418463
 30
0.0
 11
12.05268799471183
 21
-0.6563324921418463
 31
0.0
  0
ARC
  5
8C
330
18
100
AcDbEntity
  8
ADP2DETAIL
  6
HIDDEN2
100
AcDbCircle
 10
12.03162096031877
 20
-0.6888141457588395
 30
0.0
 40
0.0139999999999994
100
AcDbArc
 50
246.1207189245814
 51
336.1207189245829
  0
ARC
  5
8D
330
18
100
AcDbEntity
  8
ADP2DETAIL
  6
HIDDEN2
100
AcDbCircle
 10
12.18585497383436
 20
-0.6908324921418468
 30
0.0
 40
0.0139999999999994
100
AcDbArc
 50
270.0
 51
0.0000000000013631
  0
LINE
  5
8E
330
18
100
AcDbEntity
  8
ADP2DETAIL
  6
HIDDEN2
100
AcDbLine
 10
12.18585497383436
 20
-0.7048324921418463
 30
0.0
 11
12.18260497383436
 21
-0.7048324921418463
 31
0.0
  0
ARC
  5
8F
330
18
100
AcDbEntity
  8
ADP2DETAIL
  6
HIDDEN2
100
AcDbCircle
 10
12.18260497383436
 20
-0.6908324921418468
 30
0.0
 40
0.0139999999999997
100
AcDbArc
 50
179.9999999999986
 51
270.0
  0
LINE
  5
90
330
18
100
AcDbEntity
  8
ADP2DETAIL
  6
HIDDEN2
100
AcDbLine
 10
12.26235497383436
 20
-0.7485824921418463
 30
0.0
 11
12.19985497383436
 21
-0.7485824921418463
 31
0.0
  0
LINE
  5
91
330
18
100
AcDbEntity
  8
ADP1DETAIL
100
AcDbLine
 10
11.87325442986344
 20
-0.1563324921418467
 30
0.0
 11
11.64812172826236
 21
-0.1563324921418472
 31
0.0
  0
ARC
  5
92
330
18
100
AcDbEntity
  8
ADP1DETAIL
100
AcDbCircle
 10
11.32485497383436
 20
-0.2188324921418467
 30
0.0
 40
0.0625
100
AcDbArc
 50
90.0
 51
180.0
  0
ARC
  5
93
330
18
100
AcDbEntity
  8
ADP1DETAIL
100
AcDbCircle
 10
11.13172628459856
 20
-0.1000174447025541
 30
0.0
 40
0.0139999999999994
100
AcDbArc
 50
23.87928107541759
 51
113.8792810754185
  0
LINE
  5
94
330
18
100
AcDbEntity
  8
ADP1DETAIL
100
AcDbLine
 10
11.12605893124579
 20
-0.0872158391011162
 30
0.0
 11
11.12308712994545
 21
-0.0885314747008685
 31
0.0
  0
ARC
  5
95
330
18
100
AcDbEntity
  8
ADP1DETAIL
100
AcDbCircle
 10
11.12875448329823
 20
-0.1013330803023065
 30
0.0
 40
0.0139999999999998
100
AcDbArc
 50
113.8792810754185
 51
203.8792810754194
  0
LINE
  5
96
330
18
100
AcDbEntity
  8
ADP1DETAIL
100
AcDbLine
 10
11.1321340783833
 20
-0.1768542950151235
 30
0.0
 11
11.14185805954827
 21
-0.2188324921418463
 31
0.0
  0
LINE
  5
97
330
18
100
AcDbEntity
  8
ADP1DETAIL
100
AcDbLine
 10
11.26235497383436
 20
-0.2188324921418463
 30
0.0
 11
11.12303901073379
 21
-0.2188324921418463
 31
0.0
  0
LINE
  5
98
330
18
100
AcDbEntity
  8
ADP1DETAIL
100
AcDbLine
 10
11.17269764049813
 20
-0.2188324921418463
 30
0.0
 11
11.1445278902
 21
-0.094350091349777
 31
0.0
  0
ARC
  5
99
330
18
100
AcDbEntity
  8
ADP1DETAIL
100
AcDbCircle
 10
11.64029584443223
 20
-0.1126677870078607
 30
0.0
 40
0.0139999999999994
100
AcDbArc
 50
66.12071892458148
 51
156.1207189245824
  0
LINE
  5
9A
330
18
100
AcDbEntity
  8
ADP1DETAIL
100
AcDbLine
 10
11.645963197785
 20
-0.0998661814064228
 30
0.0
 11
11.64893499908534
 21
-0.1011818170061751
 31
0.0
  0
ARC
  5
9B
330
18
100
AcDbEntity
  8
ADP1DETAIL
100
AcDbCircle
 10
11.64326764573256
 20
-0.1139834226076131
 30
0.0
 40
0.0139999999999998
100
AcDbArc
 50
336.1207189245805
 51
66.12071892458148
  0
LINE
  5
9C
330
18
100
AcDbEntity
  8
ADP1DETAIL
100
AcDbLine
 10
11.38182961181279
 20
-0.0998661814064228
 30
0.0
 11
11.37885781051245
 21
-0.1011818170061751
 31
0.0
  0
ARC
  5
9D
330
18
100
AcDbEntity
  8
ADP1DETAIL
100
AcDbCircle
 10
11.38749696516556
 20
-0.1126677870078607
 30
0.0
 40
0.0139999999999994
100
AcDbArc
 50
23.87928107541759
 51
113.8792810754185
  0
LINE
  5
9E
330
18
100
AcDbEntity
  8
ADP1DETAIL
100
AcDbLine
 10
11.6670521420414
 20
-0.1563324921418463
 30
0.0
 11
11.65632717185055
 21
-0.1089387444638903
 31
0.0
  0
LINE
  5
9F
330
18
100
AcDbEntity
  8
ADP1DETAIL
100
AcDbLine
 10
11.36094994696967
 20
-0.1563324921418472
 30
0.0
 11
11.32485497383436
 21
-0.1563324921418467
 31
0.0
  0
LINE
  5
A0
330
18
100
AcDbEntity
  8
ADP1DETAIL
100
AcDbLine
 10
11.41146217108658
 20
-0.1563324921418467
 30
0.0
 11
11.400298570767
 21
-0.1070004336550836
 31
0.0
  0
LINE
  5
A1
330
18
100
AcDbEntity
  8
ADP1DETAIL
100
AcDbLine
 10
11.61680587106044
 20
-0.1563324921418472
 30
0.0
 11
11.38961020299665
 21
-0.1563324921418472
 31
0.0
  0
LINE
  5
A2
330
18
100
AcDbEntity
  8
ADP2DETAIL
  6
HIDDEN2
100
AcDbLine
 10
12.12970298866643
 20
-0.1563324921418463
 30
0.0
 11
11.94940661520116
 21
-0.1563324921418463
 31
0.0
  0
LINE
  5
A3
330
18
100
AcDbEntity
  8
ADP1DETAIL
100
AcDbLine
 10
11.93721773706885
 20
-0.1563324921418463
 30
0.0
 11
11.90457028706535
 21
-0.1563324921418463
 31
0.0
  0
ARC
  5
A4
330
18
100
AcDbEntity
  8
ADP1DETAIL
100
AcDbCircle
 10
11.89632444551578
 20
-0.1146060978166674
 30
0.0
 40
0.0139999999999994
100
AcDbArc
 50
66.12071892458148
 51
156.1207189245824
  0
LINE
  5
A5
330
18
100
AcDbEntity
  8
ADP1DETAIL
100
AcDbLine
 10
11.90199179886855
 20
-0.1018044922152295
 30
0.0
 11
11.90496360016889
 21
-0.1031201278149818
 31
0.0
  0
ARC
  5
A6
330
18
100
AcDbEntity
  8
ADP1DETAIL
100
AcDbCircle
 10
11.89929624681611
 20
-0.1159217334164198
 30
0.0
 40
0.0139999999999998
100
AcDbArc
 50
336.1207189245805
 51
66.12071892458148
  0
LINE
  5
A7
330
18
100
AcDbEntity
  8
ADP1DETAIL
100
AcDbLine
 10
11.92264211299621
 20
-0.1563324921418463
 30
0.0
 11
11.91235577293409
 21
-0.110877055272697
 31
0.0
  0
LINE
  5
A8
330
18
100
AcDbEntity
  8
ADP2DETAIL
  6
HIDDEN2
100
AcDbLine
 10
12.16860497383436
 20
-0.1563324921418463
 30
0.0
 11
12.16101884586835
 21
-0.1563324921418463
 31
0.0
  0
ARC
  5
A9
330
18
100
AcDbEntity
  8
ADP2DETAIL
  6
HIDDEN2
100
AcDbCircle
 10
12.15532484789966
 20
-0.1178600442252264
 30
0.0
 40
0.0139999999999998
100
AcDbArc
 50
336.1207189245805
 51
66.12071892458148
  0
LINE
  5
AA
330
18
100
AcDbEntity
  8
ADP2DETAIL
  6
HIDDEN2
100
AcDbLine
 10
12.1580203999521
 20
-0.1037428030240362
 30
0.0
 11
12.16099220125244
 21
-0.1050584386237885
 31
0.0
  0
ARC
  5
AB
330
18
100
AcDbEntity
  8
ADP2DETAIL
  6
HIDDEN2
100
AcDbCircle
 10
12.15235304659932
 20
-0.1165444086254741
 30
0.0
 40
0.0139999999999994
100
AcDbArc
 50
66.12071892458148
 51
156.1207189245824
  0
ARC
  5
AC
330
18
100
AcDbEntity
  8
ADP2DETAIL
  6
HIDDEN2
100
AcDbCircle
 10
12.18260497383436
 20
-0.1188324921418458
 30
0.0
 40
0.0139999999999994
100
AcDbArc
 50
90.0
 51
180.0000000000009
  0
LINE
  5
AD
330
18
100
AcDbEntity
  8
ADP2DETAIL
  6
HIDDEN2
100
AcDbLine
 10
12.18260497383436
 20
-0.1048324921418464
 30
0.0
 11
12.18585497383436
 21
-0.1048324921418464
 31
0.0
  0
ARC
  5
AE
330
18
100
AcDbEntity
  8
ADP2DETAIL
  6
HIDDEN2
100
AcDbCircle
 10
12.18585497383436
 20
-0.1188324921418458
 30
0.0
 40
0.0139999999999998
100
AcDbArc
 50
359.999999999999
 51
90.0
  0
LINE
  5
AF
330
18
100
AcDbEntity
  8
ADP2DETAIL
  6
HIDDEN2
100
AcDbLine
 10
12.19985497383436
 20
-0.0610824921418463
 30
0.0
 11
12.26235497383436
 21
-0.0610824921418463
 31
0.0
  0
CIRCLE
  5
B0
330
18
100
AcDbEntity
  8
ADP1DETAIL
100
AcDbCircle
 10
9.971749090565269
 20
2.286751745935959
 30
0.0
 40
0.5
  0
LINE
  5
B1
330
18
100
AcDbEntity
  8
ADP1DETAIL
100
AcDbLine
 10
10.86018219712979
 20
2.099251745935959
 30
0.0
 11
11.01047501516448
 21
2.099251745935959
 31
0.0
  0
LINE
  5
B2
330
18
100
AcDbEntity
  8
ADP1DETAIL
100
AcDbLine
 10
11.09172315353188
 20
2.474251745935959
 30
0.0
 11
10.86018219712979
 21
2.474251745935959
 31
0.0
  0
ARC
  5
B3
330
18
100
AcDbEntity
  8
ADP1DETAIL
100
AcDbCircle
 10
11.40061767781611
 20
2.294802484866055
 30
0.0
 40
1.137499999999999
100
AcDbArc
 50
86.31945101019148
 51
120.3076658180792
  0
LINE
  5
B4
330
18
100
AcDbEntity
  8
ADP1DETAIL
100
AcDbLine
 10
10.86018219712979
 20
2.573433462117415
 30
0.0
 11
10.8831570080095
 21
2.474251745935959
 31
0.0
  0
LINE
  5
B5
330
18
100
AcDbEntity
  8
ADP1DETAIL
100
AcDbLine
 10
10.91406425016927
 20
2.47425174593596
 30
0.0
 11
10.888757209633
 21
2.586083804422722
 31
0.0
  0
LINE
  5
B6
330
18
100
AcDbEntity
  8
ADP1DETAIL
100
AcDbLine
 10
10.82893219712979
 20
2.001433462117415
 30
0.0
 11
10.82893219712979
 21
2.573433462117415
 31
0.0
  0
LINE
  5
B7
330
18
100
AcDbEntity
  8
ADP1DETAIL
100
AcDbLine
 10
10.86018219712979
 20
2.573433462117415
 30
0.0
 11
10.86018219712979
 21
2.001433462117415
 31
0.0
  0
LINE
  5
B8
330
18
100
AcDbEntity
  8
ADP1DETAIL
100
AcDbLine
 10
10.43526149600874
 20
2.099251745935959
 30
0.0
 11
10.82893219712979
 21
2.099251745935959
 31
0.0
  0
LINE
  5
B9
330
18
100
AcDbEntity
  8
ADP1DETAIL
100
AcDbLine
 10
10.82893219712979
 20
2.474251745935959
 30
0.0
 11
10.43526149600874
 21
2.474251745935959
 31
0.0
  0
ARC
  5
BA
330
18
100
AcDbEntity
  8
ADP1DETAIL
100
AcDbCircle
 10
10.84618219712979
 20
2.001433462117414
 30
0.0
 40
0.0139999999999994
100
AcDbArc
 50
270.0
 51
0.0000000000013631
  0
LINE
  5
BB
330
18
100
AcDbEntity
  8
ADP1DETAIL
100
AcDbLine
 10
10.83600450349351
 20
1.99021833158105
 30
0.0
 11
10.83303270219318
 21
1.991533967180803
 31
0.0
  0
LINE
  5
BC
330
18
100
AcDbEntity
  8
ADP1DETAIL
100
AcDbLine
 10
10.84618219712979
 20
1.987433462117414
 30
0.0
 11
10.84293219712979
 21
1.987433462117414
 31
0.0
  0
ARC
  5
BD
330
18
100
AcDbEntity
  8
ADP1DETAIL
100
AcDbCircle
 10
10.84293219712979
 20
2.001433462117414
 30
0.0
 40
0.0139999999999997
100
AcDbArc
 50
179.9999999999986
 51
270.0
  0
ARC
  5
BE
330
18
100
AcDbEntity
  8
ADP1DETAIL
100
AcDbCircle
 10
10.85812630635741
 20
3.222880128111948
 30
0.0
 40
0.0625
100
AcDbArc
 50
120.3076658180785
 51
213.6406953120224
  0
ARC
  5
BF
330
18
100
AcDbEntity
  8
ADP1DETAIL
100
AcDbCircle
 10
10.84618219712979
 20
2.573433462117415
 30
0.0
 40
0.0139999999999998
100
AcDbArc
 50
359.999999999999
 51
90.0
  0
ARC
  5
C0
330
18
100
AcDbEntity
  8
ADP1DETAIL
100
AcDbCircle
 10
10.84293219712979
 20
2.573433462117415
 30
0.0
 40
0.0139999999999994
100
AcDbArc
 50
90.0
 51
180.0000000000009
  0
LINE
  5
C1
330
18
100
AcDbEntity
  8
ADP1DETAIL
100
AcDbLine
 10
10.84293219712979
 20
2.587433462117414
 30
0.0
 11
10.84618219712979
 21
2.587433462117414
 31
0.0
  0
ARC
  5
C2
330
18
100
AcDbEntity
  8
ADP1DETAIL
100
AcDbCircle
 10
10.87595560403156
 20
2.580416451069944
 30
0.0
 40
0.0139999999999994
100
AcDbArc
 50
23.87928107541759
 51
113.8792810754185
  0
LINE
  5
C3
330
18
100
AcDbEntity
  8
ADP1DETAIL
100
AcDbLine
 10
10.87028825067879
 20
2.593218056671382
 30
0.0
 11
10.86731644937845
 21
2.59190242107163
 31
0.0
  0
ARC
  5
C4
330
18
100
AcDbEntity
  8
ADP1DETAIL
100
AcDbCircle
 10
10.87298380273123
 20
2.579100815470192
 30
0.0
 40
0.0139999999999998
100
AcDbArc
 50
113.8792810754185
 51
203.8792810754194
  0
LINE
  5
C5
330
18
100
AcDbEntity
  8
ADP1DETAIL
100
AcDbLine
 10
10.80609330793307
 20
3.188256190222501
 30
0.0
 11
10.87433382189651
 21
3.085704060916072
 31
0.0
  0
LINE
  5
C6
330
18
100
AcDbEntity
  8
ADP1DETAIL
100
AcDbLine
 10
11.1445278902
 20
2.573433462117415
 30
0.0
 11
11.02082400261911
 21
2.002479360583802
 31
0.0
  0
LINE
  5
C7
330
18
100
AcDbEntity
  8
ADP1DETAIL
100
AcDbLine
 10
11.17269764049813
 20
2.474251745935959
 30
0.0
 11
11.1445278902
 21
2.598734146728029
 31
0.0
  0
LINE
  5
C8
330
18
100
AcDbEntity
  8
ADP1DETAIL
100
AcDbLine
 10
11.400298570767
 20
2.586083804422722
 30
0.0
 11
11.27659468318611
 21
2.015129702889109
 31
0.0
  0
LINE
  5
C9
330
18
100
AcDbEntity
  8
ADP1DETAIL
100
AcDbLine
 10
11.2480196706829
 20
2.027780045194416
 30
0.0
 11
11.37146563774725
 21
2.584145493613915
 31
0.0
  0
LINE
  5
CA
330
18
100
AcDbEntity
  8
ADP1DETAIL
100
AcDbLine
 10
10.9922489901159
 20
2.015129702889109
 30
0.0
 11
11.11595287769679
 21
2.586083804422722
 31
0.0
  0
LINE
  5
CB
330
18
100
AcDbEntity
  8
ADP1DETAIL
100
AcDbLine
 10
11.656069251334
 20
2.573433462117415
 30
0.0
 11
11.53236536375311
 21
2.002479360583803
 31
0.0
  0
LINE
  5
CC
330
18
100
AcDbEntity
  8
ADP1DETAIL
100
AcDbLine
 10
11.5037903512499
 20
2.015129702889109
 30
0.0
 11
11.62749423883079
 21
2.586083804422722
 31
0.0
  0
LINE
  5
CD
330
18
100
AcDbEntity
  8
ADP1DETAIL
100
AcDbLine
 10
11.91209785241755
 20
2.571495151308609
 30
0.0
 11
11.78839396483666
 21
2.000541049774996
 31
0.0
  0
LINE
  5
CE
330
18
100
AcDbEntity
  8
ADP1DETAIL
100
AcDbLine
 10
11.75981895233345
 20
2.013191392080303
 30
0.0
 11
11.88352283991434
 21
2.584145493613915
 31
0.0
  0
LINE
  5
CF
330
18
100
AcDbEntity
  8
ADP1DETAIL
100
AcDbLine
 10
12.16812645350109
 20
2.569556840499802
 30
0.0
 11
12.0444225659202
 21
1.998602738966189
 31
0.0
  0
LINE
  5
D0
330
18
100
AcDbEntity
  8
ADP1DETAIL
100
AcDbLine
 10
12.01584755341699
 20
2.011253081271496
 30
0.0
 11
12.13955144099789
 21
2.582207182805109
 31
0.0
  0
LINE
  5
D1
330
18
100
AcDbEntity
  8
ADP1DETAIL
100
AcDbLine
 10
12.16860497383436
 20
2.002251745935959
 30
0.0
 11
12.16860497383436
 21
2.574251745935959
 31
0.0
  0
LINE
  5
D2
330
18
100
AcDbEntity
  8
ADP1DETAIL
100
AcDbLine
 10
12.19985497383436
 20
2.574251745935959
 30
0.0
 11
12.19985497383436
 21
2.002251745935959
 31
0.0
  0
ARC
  5
D3
330
18
100
AcDbEntity
  8
ADP1DETAIL
100
AcDbCircle
 10
11.32485497383436
 20
2.474251745935959
 30
0.0
 40
0.0625
100
AcDbArc
 50
90.0
 51
180.0
  0
LINE
  5
D4
330
18
100
AcDbEntity
  8
ADP1DETAIL
100
AcDbLine
 10
12.19985497383436
 20
1.944501745935959
 30
0.0
 11
12.19985497383436
 21
2.632001745935959
 31
0.0
  0
LINE
  5
D5
330
18
100
AcDbEntity
  8
ADP1DETAIL
100
AcDbLine
 10
12.26235497383436
 20
2.632001745935959
 30
0.0
 11
12.26235497383436
 21
1.944501745935959
 31
0.0
  0
LINE
  5
D6
330
18
100
AcDbEntity
  8
ADP1DETAIL
100
AcDbLine
 10
11.76492357870691
 20
2.036751745935959
 30
0.0
 11
11.53979087710584
 21
2.036751745935959
 31
0.0
  0
ARC
  5
D7
330
18
100
AcDbEntity
  8
ADP1DETAIL
100
AcDbCircle
 10
11.32485497383436
 20
2.099251745935959
 30
0.0
 40
0.0625
100
AcDbArc
 50
229.7634780343314
 51
270.0
  0
LINE
  5
D8
330
18
100
AcDbEntity
  8
ADP1DETAIL
100
AcDbLine
 10
11.0417908723664
 20
2.099251745935959
 30
0.0
 11
11.26235497383436
 21
2.099251745935959
 31
0.0
  0
LINE
  5
D9
330
18
100
AcDbEntity
  8
ADP1DETAIL
100
AcDbLine
 10
11.26235497383436
 20
2.474251745935959
 30
0.0
 11
11.12303901073379
 21
2.474251745935959
 31
0.0
  0
LINE
  5
DA
330
18
100
AcDbEntity
  8
ADP1DETAIL
100
AcDbLine
 10
11.22872441366671
 20
2.099251745935959
 30
0.0
 11
11.24776175016636
 21
2.017068013697916
 31
0.0
  0
LINE
  5
DB
330
18
100
AcDbEntity
  8
ADP1DETAIL
100
AcDbLine
 10
11.1321340783833
 20
2.516229943062682
 30
0.0
 11
11.14185805954827
 21
2.474251745935959
 31
0.0
  0
LINE
  5
DC
330
18
100
AcDbEntity
  8
ADP1DETAIL
100
AcDbLine
 10
11.26074915331103
 20
2.085151253658894
 30
0.0
 11
11.25755828179828
 21
2.099251745935959
 31
0.0
  0
LINE
  5
DD
330
18
100
AcDbEntity
  8
ADP1DETAIL
100
AcDbLine
 10
10.97002336212795
 20
2.099251745935959
 30
0.0
 11
10.99199106959936
 21
2.004417671392609
 31
0.0
  0
LINE
  5
DE
330
18
100
AcDbEntity
  8
ADP1DETAIL
100
AcDbLine
 10
11.00482554829094
 20
2.073176686000457
 30
0.0
 11
10.99892489146943
 21
2.099251745935959
 31
0.0
  0
ARC
  5
DF
330
18
100
AcDbEntity
  8
ADP1DETAIL
100
AcDbCircle
 10
11.32485497383436
 20
2.099251745935959
 30
0.0
 40
0.0625
100
AcDbArc
 50
180.0
 51
185.225631442014
  0
ARC
  5
E0
330
18
100
AcDbEntity
  8
ADP1DETAIL
100
AcDbCircle
 10
11.00505059571734
 20
2.009462349536331
 30
0.0
 40
0.0139999999999997
100
AcDbArc
 50
156.1207189245801
 51
246.1207189245814
  0
ARC
  5
E1
330
18
100
AcDbEntity
  8
ADP1DETAIL
100
AcDbCircle
 10
11.00802239701767
 20
2.008146713936579
 30
0.0
 40
0.0139999999999994
100
AcDbArc
 50
246.1207189245814
 51
336.1207189245829
  0
ARC
  5
E2
330
18
100
AcDbEntity
  8
ADP1DETAIL
100
AcDbCircle
 10
11.26379307758467
 20
2.020797056241886
 30
0.0
 40
0.0139999999999994
100
AcDbArc
 50
246.1207189245814
 51
336.1207189245829
  0
ARC
  5
E3
330
18
100
AcDbEntity
  8
ADP1DETAIL
100
AcDbCircle
 10
11.26082127628434
 20
2.022112691841638
 30
0.0
 40
0.0139999999999997
100
AcDbArc
 50
156.1207189245801
 51
246.1207189245814
  0
LINE
  5
E4
330
18
100
AcDbEntity
  8
ADP1DETAIL
100
AcDbLine
 10
11.26235497383436
 20
2.099251745935959
 30
0.0
 11
11.26235497383436
 21
2.474251745935959
 31
0.0
  0
LINE
  5
E5
330
18
100
AcDbEntity
  8
ADP1DETAIL
100
AcDbLine
 10
11.49604244894836
 20
2.036751745935959
 30
0.0
 11
11.50353243073336
 21
2.004417671392609
 31
0.0
  0
LINE
  5
E6
330
18
100
AcDbEntity
  8
ADP1DETAIL
100
AcDbLine
 10
11.50847501990392
 20
2.036751745935959
 30
0.0
 11
11.32485497383436
 21
2.036751745935959
 31
0.0
  0
ARC
  5
E7
330
18
100
AcDbEntity
  8
ADP1DETAIL
100
AcDbCircle
 10
11.51659195685134
 20
2.009462349536332
 30
0.0
 40
0.0139999999999997
100
AcDbArc
 50
156.1207189245801
 51
246.1207189245814
  0
ARC
  5
E8
330
18
100
AcDbEntity
  8
ADP1DETAIL
100
AcDbCircle
 10
11.51956375815167
 20
2.00814671393658
 30
0.0
 40
0.0139999999999994
100
AcDbArc
 50
246.1207189245814
 51
336.1207189245829
  0
ARC
  5
E9
330
18
100
AcDbEntity
  8
ADP1DETAIL
100
AcDbCircle
 10
12.00459472046553
 20
1.443552935995419
 30
0.0
 40
0.03125
100
AcDbArc
 50
213.6406953120213
 51
305.3563942060392
  0
LINE
  5
EA
330
18
100
AcDbEntity
  8
ADP1DETAIL
100
AcDbLine
 10
11.94393776445122
 20
1.478298790166014
 30
0.0
 11
11.97857822125336
 21
1.426240967050696
 31
0.0
  0
ARC
  5
EB
330
18
100
AcDbEntity
  8
ADP1DETAIL
100
AcDbCircle
 10
11.96995426366339
 20
1.495610759110737
 30
0.0
 40
0.03125
100
AcDbArc
 50
125.4657102551463
 51
213.6406953120206
  0
LINE
  5
EC
330
18
100
AcDbEntity
  8
ADP1DETAIL
100
AcDbLine
 10
12.0213721375099
 20
2.036751745935959
 30
0.0
 11
11.79623943590883
 21
2.036751745935959
 31
0.0
  0
LINE
  5
ED
330
18
100
AcDbEntity
  8
ADP1DETAIL
100
AcDbLine
 10
11.75162205271695
 20
2.036751745935959
 30
0.0
 11
11.7595610318169
 21
2.002479360583802
 31
0.0
  0
LINE
  5
EE
330
18
100
AcDbEntity
  8
ADP1DETAIL
100
AcDbLine
 10
12.00720165648553
 20
2.036751745935959
 30
0.0
 11
12.01558963290045
 21
2.000541049774996
 31
0.0
  0
ARC
  5
EF
330
18
100
AcDbEntity
  8
ADP1DETAIL
100
AcDbCircle
 10
11.77262055793488
 20
2.007524038727525
 30
0.0
 40
0.0139999999999997
100
AcDbArc
 50
156.1207189245801
 51
246.1207189245814
  0
ARC
  5
F0
330
18
100
AcDbEntity
  8
ADP1DETAIL
100
AcDbCircle
 10
11.77559235923522
 20
2.006208403127773
 30
0.0
 40
0.0139999999999994
100
AcDbArc
 50
246.1207189245814
 51
336.1207189245829
  0
ARC
  5
F1
330
18
100
AcDbEntity
  8
ADP1DETAIL
100
AcDbCircle
 10
12.02864915901843
 20
2.005585727918719
 30
0.0
 40
0.0139999999999997
100
AcDbArc
 50
156.1207189245801
 51
246.1207189245814
  0
LINE
  5
F2
330
18
100
AcDbEntity
  8
ADP1DETAIL
100
AcDbLine
 10
12.16860497383436
 20
2.036751745935959
 30
0.0
 11
12.05268799471183
 21
2.036751745935959
 31
0.0
  0
ARC
  5
F3
330
18
100
AcDbEntity
  8
ADP1DETAIL
100
AcDbCircle
 10
12.03162096031877
 20
2.004270092318966
 30
0.0
 40
0.0139999999999994
100
AcDbArc
 50
246.1207189245814
 51
336.1207189245829
  0
ARC
  5
F4
330
18
100
AcDbEntity
  8
ADP1DETAIL
100
AcDbCircle
 10
12.18585497383436
 20
2.002251745935959
 30
0.0
 40
0.0139999999999994
100
AcDbArc
 50
270.0
 51
0.0000000000013631
  0
LINE
  5
F5
330
18
100
AcDbEntity
  8
ADP1DETAIL
100
AcDbLine
 10
12.18585497383436
 20
1.988251745935959
 30
0.0
 11
12.18260497383436
 21
1.988251745935959
 31
0.0
  0
ARC
  5
F6
330
18
100
AcDbEntity
  8
ADP1DETAIL
100
AcDbCircle
 10
12.18260497383436
 20
2.002251745935959
 30
0.0
 40
0.0139999999999997
100
AcDbArc
 50
179.9999999999986
 51
270.0
  0
LINE
  5
F7
330
18
100
AcDbEntity
  8
ADP1DETAIL
100
AcDbLine
 10
12.26235497383436
 20
2.099251745935959
 30
0.0
 11
12.33027347890805
 21
2.099251745935959
 31
0.0
  0
LINE
  5
F8
330
18
100
AcDbEntity
  8
ADP1DETAIL
100
AcDbLine
 10
12.33351529422504
 20
2.474251745935959
 30
0.0
 11
12.26235497383436
 21
2.474251745935959
 31
0.0
  0
LINE
  5
F9
330
18
100
AcDbEntity
  8
ADP1DETAIL
100
AcDbLine
 10
12.26235497383436
 20
1.944501745935959
 30
0.0
 11
12.19985497383436
 21
1.944501745935959
 31
0.0
  0
LINE
  5
FA
330
18
100
AcDbEntity
  8
ADP1DETAIL
100
AcDbLine
 10
11.87325442986344
 20
2.536751745935959
 30
0.0
 11
11.64812172826236
 21
2.536751745935958
 31
0.0
  0
ARC
  5
FB
330
18
100
AcDbEntity
  8
ADP1DETAIL
100
AcDbCircle
 10
11.12875448329823
 20
2.591751157775499
 30
0.0
 40
0.0139999999999998
100
AcDbArc
 50
113.8792810754185
 51
203.8792810754194
  0
LINE
  5
FC
330
18
100
AcDbEntity
  8
ADP1DETAIL
100
AcDbLine
 10
11.12605893124579
 20
2.605868398976689
 30
0.0
 11
11.12308712994545
 21
2.604552763376937
 31
0.0
  0
ARC
  5
FD
330
18
100
AcDbEntity
  8
ADP1DETAIL
100
AcDbCircle
 10
11.13172628459856
 20
2.593066793375252
 30
0.0
 40
0.0139999999999994
100
AcDbArc
 50
23.87928107541759
 51
113.8792810754185
  0
LINE
  5
FE
330
18
100
AcDbEntity
  8
ADP1DETAIL
100
AcDbLine
 10
11.61680587106044
 20
2.536751745935958
 30
0.0
 11
11.38961020299665
 21
2.536751745935958
 31
0.0
  0
LINE
  5
FF
330
18
100
AcDbEntity
  8
ADP1DETAIL
100
AcDbLine
 10
11.41146217108658
 20
2.536751745935959
 30
0.0
 11
11.400298570767
 21
2.586083804422722
 31
0.0
  0
LINE
  5
100
330
18
100
AcDbEntity
  8
ADP1DETAIL
100
AcDbLine
 10
11.36094994696967
 20
2.536751745935958
 30
0.0
 11
11.32485497383436
 21
2.536751745935959
 31
0.0
  0
LINE
  5
101
330
18
100
AcDbEntity
  8
ADP1DETAIL
100
AcDbLine
 10
11.6670521420414
 20
2.536751745935959
 30
0.0
 11
11.65632717185055
 21
2.584145493613915
 31
0.0
  0
ARC
  5
102
330
18
100
AcDbEntity
  8
ADP1DETAIL
100
AcDbCircle
 10
11.38749696516556
 20
2.580416451069945
 30
0.0
 40
0.0139999999999994
100
AcDbArc
 50
23.87928107541759
 51
113.8792810754185
  0
LINE
  5
103
330
18
100
AcDbEntity
  8
ADP1DETAIL
100
AcDbLine
 10
11.38182961181279
 20
2.593218056671383
 30
0.0
 11
11.37885781051245
 21
2.591902421071631
 31
0.0
  0
ARC
  5
104
330
18
100
AcDbEntity
  8
ADP1DETAIL
100
AcDbCircle
 10
11.64326764573256
 20
2.579100815470193
 30
0.0
 40
0.0139999999999998
100
AcDbArc
 50
336.1207189245805
 51
66.12071892458148
  0
LINE
  5
105
330
18
100
AcDbEntity
  8
ADP1DETAIL
100
AcDbLine
 10
11.645963197785
 20
2.593218056671383
 30
0.0
 11
11.64893499908534
 21
2.591902421071631
 31
0.0
  0
ARC
  5
106
330
18
100
AcDbEntity
  8
ADP1DETAIL
100
AcDbCircle
 10
11.64029584443223
 20
2.580416451069945
 30
0.0
 40
0.0139999999999994
100
AcDbArc
 50
66.12071892458148
 51
156.1207189245824
  0
LINE
  5
107
330
18
100
AcDbEntity
  8
ADP2DETAIL
  6
HIDDEN2
100
AcDbLine
 10
11.24436767781611
 20
3.421519923934075
 30
0.0
 11
11.35374267781611
 21
3.304956355244161
 31
0.0
  0
LINE
  5
108
330
18
100
AcDbEntity
  8
ADP2DETAIL
  6
HIDDEN2
100
AcDbLine
 10
11.35374267781611
 20
3.304956355244161
 30
0.0
 11
11.35374267781611
 21
3.243645324526559
 31
0.0
  0
LINE
  5
109
330
18
100
AcDbEntity
  8
ADP2DETAIL
  6
HIDDEN2
100
AcDbLine
 10
11.44749267781611
 20
3.304956355244161
 30
0.0
 11
11.44749267781611
 21
3.243645324526559
 31
0.0
  0
LINE
  5
10A
330
18
100
AcDbEntity
  8
ADP2DETAIL
  6
HIDDEN2
100
AcDbLine
 10
11.55686767781611
 20
3.429956355244161
 30
0.0
 11
11.44749267781611
 21
3.304956355244161
 31
0.0
  0
LWPOLYLINE
  5
10B
330
18
100
AcDbEntity
  8
ADP1DETAIL
100
AcDbPolyline
 90
        2
 70
     0
 43
0.0
 10
11.32759753973348
 20
3.429956355244161
 10
11.32759753973348
 20
3.429956355244161
  0
LINE
  5
10F
330
18
100
AcDbEntity
  8
ADP1DETAIL
100
AcDbLine
 10
12.12970298866643
 20
2.536751745935959
 30
0.0
 11
11.90457028706535
 21
2.536751745935959
 31
0.0
  0
LINE
  5
110
330
18
100
AcDbEntity
  8
ADP1DETAIL
100
AcDbLine
 10
11.92264211299621
 20
2.536751745935959
 30
0.0
 11
11.91235577293409
 21
2.582207182805109
 31
0.0
  0
ARC
  5
111
330
18
100
AcDbEntity
  8
ADP1DETAIL
100
AcDbCircle
 10
11.89929624681611
 20
2.577162504661386
 30
0.0
 40
0.0139999999999998
100
AcDbArc
 50
336.1207189245805
 51
66.12071892458148
  0
LINE
  5
112
330
18
100
AcDbEntity
  8
ADP1DETAIL
100
AcDbLine
 10
11.90199179886855
 20
2.591279745862576
 30
0.0
 11
11.90496360016889
 21
2.589964110262824
 31
0.0
  0
ARC
  5
113
330
18
100
AcDbEntity
  8
ADP1DETAIL
100
AcDbCircle
 10
11.89632444551578
 20
2.578478140261138
 30
0.0
 40
0.0139999999999994
100
AcDbArc
 50
66.12071892458148
 51
156.1207189245824
  0
LINE
  5
114
330
18
100
AcDbEntity
  8
ADP1DETAIL
100
AcDbLine
 10
12.16860497383436
 20
2.536751745935959
 30
0.0
 11
12.16101884586835
 21
2.536751745935959
 31
0.0
  0
ARC
  5
115
330
18
100
AcDbEntity
  8
ADP1DETAIL
100
AcDbCircle
 10
12.15532484789966
 20
2.575224193852579
 30
0.0
 40
0.0139999999999998
100
AcDbArc
 50
336.1207189245805
 51
66.12071892458148
  0
LINE
  5
116
330
18
100
AcDbEntity
  8
ADP1DETAIL
100
AcDbLine
 10
12.1580203999521
 20
2.58934143505377
 30
0.0
 11
12.16099220125244
 21
2.588025799454017
 31
0.0
  0
ARC
  5
117
330
18
100
AcDbEntity
  8
ADP1DETAIL
100
AcDbCircle
 10
12.15235304659932
 20
2.576539829452332
 30
0.0
 40
0.0139999999999994
100
AcDbArc
 50
66.12071892458148
 51
156.1207189245824
  0
ARC
  5
118
330
18
100
AcDbEntity
  8
ADP1DETAIL
100
AcDbCircle
 10
12.18260497383436
 20
2.57425174593596
 30
0.0
 40
0.0139999999999994
100
AcDbArc
 50
90.0
 51
180.0000000000009
  0
LINE
  5
119
330
18
100
AcDbEntity
  8
ADP1DETAIL
100
AcDbLine
 10
12.18260497383436
 20
2.588251745935959
 30
0.0
 11
12.18585497383436
 21
2.588251745935959
 31
0.0
  0
ARC
  5
11A
330
18
100
AcDbEntity
  8
ADP1DETAIL
100
AcDbCircle
 10
12.18585497383436
 20
2.57425174593596
 30
0.0
 40
0.0139999999999998
100
AcDbArc
 50
359.999999999999
 51
90.0
  0
LINE
  5
11B
330
18
100
AcDbEntity
  8
ADP1DETAIL
100
AcDbLine
 10
12.19985497383436
 20
2.632001745935959
 30
0.0
 11
12.26235497383436
 21
2.632001745935959
 31
0.0
  0
ARC
  5
11C
330
18
100
AcDbEntity
  8
ADP1DETAIL
100
AcDbCircle
 10
12.2905752320995
 20
3.052784378827857
 30
0.0
 40
0.094
100
AcDbArc
 50
100.3212613542721
 51
220.4212247607297
  0
DIMENSION
  5
11D
330
18
100
AcDbEntity
  8
ADPDIM
100
AcDbDimension
  2
*D0
 10
14.76504233199301
 20
-1.904689977685007
 30
0.0
 11
14.76504233199301
 21
-0.4046899776850071
 31
0.0
100
AcDbAlignedDimension
 13
14.27961777287491
 23
1.095310022314992
 33
0.0
 14
14.27961777287491
 24
-1.904689977685007
 34
0.0
 50
90.0
100
AcDbRotatedDimension
  0
LINE
  5
11E
330
18
100
AcDbEntity
  8
ADP1DETAIL
100
AcDbLine
 10
14.40461777287491
 20
0.9703100223149929
 30
0.0
 11
14.40461777287491
 21
-1.779689977685007
 31
0.0
  0
LINE
  5
11F
330
18
100
AcDbEntity
  8
ADP1DETAIL
100
AcDbLine
 10
13.14391873587299
 20
-0.5938324921418463
 30
0.0
 11
13.14391873587299
 21
-1.904689977685007
 31
0.0
  0
LINE
  5
120
330
18
100
AcDbEntity
  8
ADP1DETAIL
100
AcDbLine
 10
12.47352930091216
 20
1.095310022314992
 30
0.0
 11
12.47352930091216
 21
-1.904689977685007
 31
0.0
  0
ARC
  5
121
330
18
100
AcDbEntity
  8
ADP1DETAIL
100
AcDbCircle
 10
14.27961777287491
 20
-1.779689977685007
 30
0.0
 40
0.125
100
AcDbArc
 50
270.0
 51
0.0000000000000382
  0
CIRCLE
  5
122
330
18
100
AcDbEntity
  8
ADP1DETAIL
100
AcDbCircle
 10
13.83811767781611
 20
-0.4063324921418463
 30
0.0
 40
0.375
  0
LINE
  5
123
330
18
100
AcDbEntity
  8
ADP2DETAIL
  6
HIDDEN2
100
AcDbLine
 10
13.14391873587299
 20
-0.2188324921418463
 30
0.0
 11
13.14391873587299
 21
-0.5938324921418463
 31
0.0
  0
ARC
  5
124
330
18
100
AcDbEntity
  8
ADP1DETAIL
100
AcDbCircle
 10
13.28574909056527
 20
-0.4048324921418463
 30
0.0
 40
0.186
100
AcDbArc
 50
0.0
 51
90.0
  0
LINE
  5
125
330
18
100
AcDbEntity
  8
ADP1DETAIL
100
AcDbLine
 10
12.45768196559803
 20
-0.5938324921418463
 30
0.0
 11
13.28574909056526
 21
-0.5938324921418463
 31
0.0
  0
LINE
  5
126
330
18
100
AcDbEntity
  8
ADP2DETAIL
  6
HIDDEN2
100
AcDbLine
 10
12.47352930091216
 20
-1.401895702045286
 30
0.0
 11
12.38931420387966
 21
-1.328207492141848
 31
0.0
  0
LINE
  5
127
330
18
100
AcDbEntity
  8
ADP2DETAIL
  6
HIDDEN2
100
AcDbLine
 10
12.47352930091216
 20
-1.155436007629534
 30
0.0
 11
12.38931420387966
 21
-1.234457492141848
 31
0.0
  0
ARC
  5
128
330
18
100
AcDbEntity
  8
ADP1DETAIL
100
AcDbCircle
 10
13.28574909056526
 20
-0.4078324921418464
 30
0.0
 40
0.186
100
AcDbArc
 50
270.0
 51
0.0
  0
LINE
  5
129
330
18
100
AcDbEntity
  8
ADP1DETAIL
100
AcDbLine
 10
13.47174909056526
 20
-0.4078324921418464
 30
0.0
 11
13.47174909056527
 21
-0.4048324921418463
 31
0.0
  0
LINE
  5
12A
330
18
100
AcDbEntity
  8
ADP1DETAIL
100
AcDbLine
 10
13.28574909056527
 20
-0.2188324921418463
 30
0.0
 11
12.46053416636673
 21
-0.2188324921418463
 31
0.0
  0
LINE
  5
12B
330
18
100
AcDbEntity
  8
ADP2DETAIL
  6
HIDDEN2
100
AcDbLine
 10
12.47352930091216
 20
0.3481042979547134
 30
0.0
 11
12.38931420387966
 21
0.421792507858152
 31
0.0
  0
LINE
  5
12C
330
18
100
AcDbEntity
  8
ADP2DETAIL
  6
HIDDEN2
100
AcDbLine
 10
12.47352930091216
 20
0.5945639923704657
 30
0.0
 11
12.38931420387966
 21
0.515542507858152
 31
0.0
  0
LINE
  5
12D
330
18
100
AcDbEntity
  8
ADP1DETAIL
100
AcDbLine
 10
13.14391873587299
 20
1.095310022314992
 30
0.0
 11
13.14391873587299
 21
-0.2188324921418463
 31
0.0
  0
ARC
  5
12E
330
18
100
AcDbEntity
  8
ADP1DETAIL
100
AcDbCircle
 10
14.27961777287491
 20
0.9703100223149929
 30
0.0
 40
0.125
100
AcDbArc
 50
0.0
 51
90.0
  0
ARC
  5
12F
330
18
100
AcDbEntity
  8
ADP1DETAIL
100
AcDbCircle
 10
13.83811767781611
 20
3.367456355244161
 30
0.0
 40
0.125
100
AcDbArc
 50
30.00000000000014
 51
149.9999999999998
  0
LINE
  5
130
330
18
100
AcDbEntity
  8
ADP1DETAIL
100
AcDbLine
 10
13.46311767781611
 20
3.304956355244161
 30
0.0
 11
14.21311767781611
 21
3.304956355244161
 31
0.0
  0
LINE
  5
131
330
18
100
AcDbEntity
  8
ADP1DETAIL
100
AcDbLine
 10
14.21311767781611
 20
3.179956355244161
 30
0.0
 11
13.46311767781611
 21
3.179956355244161
 31
0.0
  0
LINE
  5
132
330
18
100
AcDbEntity
  8
ADP1DETAIL
100
AcDbLine
 10
14.36936767781611
 20
3.304956355244161
 30
0.0
 11
13.15061767781611
 21
3.304956355244161
 31
0.0
  0
LINE
  5
133
330
18
100
AcDbEntity
  8
ADP1DETAIL
100
AcDbLine
 10
12.45768196559803
 20
2.099251745935959
 30
0.0
 11
13.28574909056526
 21
2.099251745935959
 31
0.0
  0
LINE
  5
134
330
18
100
AcDbEntity
  8
ADP1DETAIL
100
AcDbLine
 10
13.28574909056527
 20
2.474251745935959
 30
0.0
 11
12.46053416636673
 21
2.474251745935959
 31
0.0
  0
LINE
  5
135
330
18
100
AcDbEntity
  8
ADP2DETAIL
  6
HIDDEN2
100
AcDbLine
 10
12.4684249468168
 20
2.170654845865964
 30
0.0
 11
12.38931420387966
 21
2.239876745935958
 31
0.0
  0
LINE
  5
136
330
18
100
AcDbEntity
  8
ADP2DETAIL
  6
HIDDEN2
100
AcDbLine
 10
12.46954454761531
 20
2.408909220080437
 30
0.0
 11
12.38931420387966
 21
2.333626745935958
 31
0.0
  0
ARC
  5
137
330
18
100
AcDbEntity
  8
ADP1DETAIL
100
AcDbCircle
 10
13.28574909056526
 20
2.285251745935959
 30
0.0
 40
0.186
100
AcDbArc
 50
270.0
 51
0.0
  0
ARC
  5
138
330
18
100
AcDbEntity
  8
ADP1DETAIL
100
AcDbCircle
 10
13.28574909056527
 20
2.288251745935959
 30
0.0
 40
0.186
100
AcDbArc
 50
0.0
 51
90.0
  0
LINE
  5
139
330
18
100
AcDbEntity
  8
ADP1DETAIL
100
AcDbLine
 10
13.47174909056526
 20
2.285251745935959
 30
0.0
 11
13.47174909056527
 21
2.288251745935959
 31
0.0
  0
LINE
  5
13A
330
18
100
AcDbEntity
  8
ADP1DETAIL
100
AcDbLine
 10
13.46311767781611
 20
3.179956355244161
 30
0.0
 11
13.46311767781611
 21
3.304956355244161
 31
0.0
  0
LINE
  5
13B
330
18
100
AcDbEntity
  8
ADP2DETAIL
  6
HIDDEN2
100
AcDbLine
 10
13.77561767781611
 20
3.429956355244161
 30
0.0
 11
13.77561767781611
 21
3.304956355244161
 31
0.0
  0
LINE
  5
13C
330
18
100
AcDbEntity
  8
ADP1DETAIL
100
AcDbLine
 10
14.21311767781611
 20
3.304956355244161
 30
0.0
 11
14.21311767781611
 21
3.179956355244161
 31
0.0
  0
LINE
  5
13D
330
18
100
AcDbEntity
  8
ADP2DETAIL
  6
HIDDEN2
100
AcDbLine
 10
13.90061767781611
 20
3.429956355244161
 30
0.0
 11
13.90061767781611
 21
3.304956355244161
 31
0.0
  0
ARC
  5
13E
330
18
100
AcDbEntity
  8
ADP1DETAIL
100
AcDbCircle
 10
14.36936767781611
 20
3.336206355244161
 30
0.0
 40
0.03125
100
AcDbArc
 50
270.0
 51
0.0
  0
LINE
  5
13F
330
18
100
AcDbEntity
  8
ADP1DETAIL
100
AcDbLine
 10
14.40061767781611
 20
3.398706355244161
 30
0.0
 11
14.40061767781611
 21
3.336206355244161
 31
0.0
  0
ARC
  5
140
330
18
100
AcDbEntity
  8
ADP1DETAIL
100
AcDbCircle
 10
14.36936767781611
 20
3.398706355244161
 30
0.0
 40
0.03125
100
AcDbArc
 50
0.0
 51
90.0
  0
TEXT
  5
14E
330
18
100
AcDbEntity
  8
ADPDIM
100
AcDbText
 10
4.391423524184116
 20
-2.911256877458501
 30
0.0
 40
0.15625
  1
J U L I U S  B L U M  &  C O . ,  I N C .      ( 8 0 0 )  5 2 6 - 6 2 9 3        W W W . J U L I U S B L U M . C O M        P A R T  N o .  7 8 4
 41
1.25
  7
ARIAL_WIDE
 72
     1
 11
12.43480794608043
 21
-2.755006877458501
 31
0.0
100
AcDbText
 73
     3
  0
ENDSEC
  0
SECTION
  2
OBJECTS
  0
DICTIONARY
  5
C
330
0
100
AcDbDictionary
  3
ACAD_GROUP
350
D
  3
ACAD_LAYOUT
350
147
  3
ACAD_MLINESTYLE
350
E
  3
ACAD_PLOTSETTINGS
350
148
  3
ACAD_PLOTSTYLENAME
350
145
  3
ACDBHEADERROUNDTRIPXREC
350
292
  3
ACDBVARIABLEDICTIONARY
350
1A8
  0
DICTIONARY
  5
1A2
330
18
100
AcDbDictionary
280
     1
  3
ACAD_LAYOUTSELFREF
360
2B3
  0
DICTIONARY
  5
1A0
330
15
100
AcDbDictionary
280
     1
  3
ACAD_LAYOUTSELFREF
360
2B2
  0
DICTIONARY
  5
D
102
{ACAD_REACTORS
330
C
102
}
330
C
100
AcDbDictionary
  0
DICTIONARY
  5
147
102
{ACAD_REACTORS
330
C
102
}
330
C
100
AcDbDictionary
  0
DICTIONARY
  5
E
102
{ACAD_REACTORS
330
C
102
}
330
C
100
AcDbDictionary
  3
STANDARD
350
1B
  0
DICTIONARY
  5
148
102
{ACAD_REACTORS
330
C
102
}
330
C
100
AcDbDictionary
  0
ACDBDICTIONARYWDFLT
  5
145
102
{ACAD_REACTORS
330
C
102
}
330
C
100
AcDbDictionary
281
     1
  3
Normal
350
146
100
AcDbDictionaryWithDefault
340
146
  0
DICTIONARY
  5
292
102
{ACAD_REACTORS
330
C
102
}
330
C
100
AcDbDictionary
  3
CEPSNTYPE
350
29C
  3
FINGERPRINTGUID
350
29D
  3
HYPERLINKBASE
350
295
  3
INSUNITS
350
29B
  3
LAYOUTDICT
350
297
  3
LWETCUNION
350
29A
  3
PLOTSETDICT
350
298
  3
PLOTSTYLNAMDICT
350
299
  3
PSVPSCALE
350
29F
  3
PUCSBASE
350
2A2
  3
PUCSORGBACK
350
2A8
  3
PUCSORGBOTTOM
350
2A4
  3
PUCSORGFRONT
350
2A7
  3
PUCSORGLEFT
350
2A5
  3
PUCSORGRIGHT
350
2A6
  3
PUCSORGTOP
350
2A3
  3
PUCSORTHOREF
350
2A0
  3
PUCSORTHOVIEW
350
2A1
  3
STYLESHEET
350
296
  3
TSTACKALIGN
350
293
  3
TSTACKSIZE
350
294
  3
UCSBASE
350
2AB
  3
UCSORGBACK
350
2B1
  3
UCSORGBOTTOM
350
2AD
  3
UCSORGFRONT
350
2B0
  3
UCSORGLEFT
350
2AE
  3
UCSORGRIGHT
350
2AF
  3
UCSORGTOP
350
2AC
  3
UCSORTHOREF
350
2A9
  3
UCSORTHOVIEW
350
2AA
  3
VERSIONGUID
350
29E
  0
DICTIONARY
  5
1A8
102
{ACAD_REACTORS
330
C
102
}
330
C
100
AcDbDictionary
  3
DIMASSOC
350
1A9
  0
XRECORD
  5
2B3
102
{ACAD_REACTORS
330
1A2
102
}
330
1A2
100
AcDbXrecord
340
18
  0
XRECORD
  5
2B2
102
{ACAD_REACTORS
330
1A0
102
}
330
1A0
100
AcDbXrecord
340
15
  0
MLINESTYLE
  5
1B
102
{ACAD_REACTORS
330
E
102
}
330
E
100
AcDbMlineStyle
  2
STANDARD
 70
     0
  3

 62
     0
 51
90.0
 52
90.0
 71
     2
 49
0.5
 62
   256
  6
BYLAYER
 49
-0.5
 62
   256
  6
BYLAYER
  0
ACDBPLACEHOLDER
  5
146
102
{ACAD_REACTORS
330
145
102
}
330
145
100
AcDbPlaceHolder
280
     0
  0
XRECORD
  5
29C
102
{ACAD_REACTORS
330
292
102
}
330
292
100
AcDbXrecord
 90
        0
  0
XRECORD
  5
29D
102
{ACAD_REACTORS
330
292
102
}
330
292
100
AcDbXrecord
  1
{067B868C-743C-4A80-97D1-50B94BFF876A}
  0
XRECORD
  5
295
102
{ACAD_REACTORS
330
292
102
}
330
292
100
AcDbXrecord
  1

  0
XRECORD
  5
29B
102
{ACAD_REACTORS
330
292
102
}
330
292
100
AcDbXrecord
 90
        0
  0
XRECORD
  5
297
102
{ACAD_REACTORS
330
292
102
}
330
292
100
AcDbXrecord
340
147
  0
XRECORD
  5
29A
102
{ACAD_REACTORS
330
292
102
}
330
292
100
AcDbXrecord
 90
    14877
  0
XRECORD
  5
298
102
{ACAD_REACTORS
330
292
102
}
330
292
100
AcDbXrecord
340
148
  0
XRECORD
  5
299
102
{ACAD_REACTORS
330
292
102
}
330
292
100
AcDbXrecord
340
145
  0
XRECORD
  5
29F
102
{ACAD_REACTORS
330
292
102
}
330
292
100
AcDbXrecord
 40
0.0
  0
XRECORD
  5
2A2
102
{ACAD_REACTORS
330
292
102
}
330
292
100
AcDbXrecord
340
0
  0
XRECORD
  5
2A8
102
{ACAD_REACTORS
330
292
102
}
330
292
100
AcDbXrecord
 10
0.0
 20
0.0
 30
0.0
  0
XRECORD
  5
2A4
102
{ACAD_REACTORS
330
292
102
}
330
292
100
AcDbXrecord
 10
0.0
 20
0.0
 30
0.0
  0
XRECORD
  5
2A7
102
{ACAD_REACTORS
330
292
102
}
330
292
100
AcDbXrecord
 10
0.0
 20
0.0
 30
0.0
  0
XRECORD
  5
2A5
102
{ACAD_REACTORS
330
292
102
}
330
292
100
AcDbXrecord
 10
0.0
 20
0.0
 30
0.0
  0
XRECORD
  5
2A6
102
{ACAD_REACTORS
330
292
102
}
330
292
100
AcDbXrecord
 10
0.0
 20
0.0
 30
0.0
  0
XRECORD
  5
2A3
102
{ACAD_REACTORS
330
292
102
}
330
292
100
AcDbXrecord
 10
0.0
 20
0.0
 30
0.0
  0
XRECORD
  5
2A0
102
{ACAD_REACTORS
330
292
102
}
330
292
100
AcDbXrecord
340
0
  0
XRECORD
  5
2A1
102
{ACAD_REACTORS
330
292
102
}
330
292
100
AcDbXrecord
 70
     0
  0
XRECORD
  5
296
102
{ACAD_REACTORS
330
292
102
}
330
292
100
AcDbXrecord
  1

  0
XRECORD
  5
293
102
{ACAD_REACTORS
330
292
102
}
330
292
100
AcDbXrecord
 90
        1
  0
XRECORD
  5
294
102
{ACAD_REACTORS
330
292
102
}
330
292
100
AcDbXrecord
 90
       70
  0
XRECORD
  5
2AB
102
{ACAD_REACTORS
330
292
102
}
330
292
100
AcDbXrecord
340
0
  0
XRECORD
  5
2B1
102
{ACAD_REACTORS
330
292
102
}
330
292
100
AcDbXrecord
 10
0.0
 20
0.0
 30
0.0
  0
XRECORD
  5
2AD
102
{ACAD_REACTORS
330
292
102
}
330
292
100
AcDbXrecord
 10
0.0
 20
0.0
 30
0.0
  0
XRECORD
  5
2B0
102
{ACAD_REACTORS
330
292
102
}
330
292
100
AcDbXrecord
 10
0.0
 20
0.0
 30
0.0
  0
XRECORD
  5
2AE
102
{ACAD_REACTORS
330
292
102
}
330
292
100
AcDbXrecord
 10
0.0
 20
0.0
 30
0.0
  0
XRECORD
  5
2AF
102
{ACAD_REACTORS
330
292
102
}
330
292
100
AcDbXrecord
 10
0.0
 20
0.0
 30
0.0
  0
XRECORD
  5
2AC
102
{ACAD_REACTORS
330
292
102
}
330
292
100
AcDbXrecord
 10
0.0
 20
0.0
 30
0.0
  0
XRECORD
  5
2A9
102
{ACAD_REACTORS
330
292
102
}
330
292
100
AcDbXrecord
340
0
  0
XRECORD
  5
2AA
102
{ACAD_REACTORS
330
292
102
}
330
292
100
AcDbXrecord
 70
     0
  0
XRECORD
  5
29E
102
{ACAD_REACTORS
330
292
102
}
330
292
100
AcDbXrecord
  1
{2591305C-A40A-402C-AB74-E7AE3D0838A6}
  0
DICTIONARYVAR
  5
1A9
102
{ACAD_REACTORS
330
1A8
102
}
330
1A8
100
DictionaryVariables
280
     0
  1
1
  0
ENDSEC
  0
EOF
