  0
SECTION
  2
HEADER
  9
$ACADVER
  1
AC1014
  9
$ACADMAINTVER
 70
     9
  9
$DWGCODEPAGE
  3
ANSI_1252
  9
$INSBASE
 10
-5.213612409872086
 20
-3.79178138313303
 30
0.0
  9
$EXTMIN
 10
-10.27406136833887
 20
-5.133993717610047
 30
0.0
  9
$EXTMAX
 10
2.595353706695229
 20
0.5595509937108606
 30
0.0
  9
$LIMMIN
 10
0.0
 20
0.0
  9
$LIMMAX
 10
36.0
 20
36.0
  9
$ORTHOMODE
 70
     1
  9
$REGENMODE
 70
     1
  9
$FILLMODE
 70
     1
  9
$QTEXTMODE
 70
     0
  9
$MIRRTEXT
 70
     1
  9
$DRAGMODE
 70
     0
  9
$LTSCALE
 40
1.0
  9
$OSMODE
 70
    37
  9
$ATTMODE
 70
     1
  9
$TEXTSIZE
 40
0.2
  9
$TRACEWID
 40
0.05
  9
$TEXTSTYLE
  7
STANDARD
  9
$CLAYER
  8
ADPDIM
  9
$CELTYPE
  6
BYLAYER
  9
$CECOLOR
 62
   256
  9
$CELTSCALE
 40
1.0
  9
$DELOBJ
 70
     1
  9
$DISPSILH
 70
     0
  9
$DIMSCALE
 40
1.0
  9
$DIMASZ
 40
0.125
  9
$DIMEXO
 40
0.0625
  9
$DIMDLI
 40
0.38
  9
$DIMRND
 40
0.0
  9
$DIMDLE
 40
0.0
  9
$DIMEXE
 40
0.18
  9
$DIMTP
 40
0.0
  9
$DIMTM
 40
0.0
  9
$DIMTXT
 40
0.125
  9
$DIMCEN
 40
0.1875
  9
$DIMTSZ
 40
0.125
  9
$DIMTOL
 70
     0
  9
$DIMLIM
 70
     0
  9
$DIMTIH
 70
     0
  9
$DIMTOH
 70
     0
  9
$DIMSE1
 70
     0
  9
$DIMSE2
 70
     0
  9
$DIMTAD
 70
     0
  9
$DIMZIN
 70
     3
  9
$DIMBLK
  1

  9
$DIMASO
 70
     1
  9
$DIMSHO
 70
     1
  9
$DIMPOST
  1

  9
$DIMAPOST
  1

  9
$DIMALT
 70
     0
  9
$DIMALTD
 70
     1
  9
$DIMALTF
 40
25.4
  9
$DIMLFAC
 40
1.0
  9
$DIMTOFL
 70
     0
  9
$DIMTVP
 40
0.0
  9
$DIMTIX
 70
     0
  9
$DIMSOXD
 70
     0
  9
$DIMSAH
 70
     0
  9
$DIMBLK1
  1

  9
$DIMBLK2
  1

  9
$DIMSTYLE
  2
STANDARD
  9
$DIMCLRD
 70
     0
  9
$DIMCLRE
 70
     0
  9
$DIMCLRT
 70
     0
  9
$DIMTFAC
 40
1.0
  9
$DIMGAP
 40
0.125
  9
$DIMJUST
 70
     0
  9
$DIMSD1
 70
     0
  9
$DIMSD2
 70
     0
  9
$DIMTOLJ
 70
     1
  9
$DIMTZIN
 70
     0
  9
$DIMALTZ
 70
     0
  9
$DIMALTTZ
 70
     0
  9
$DIMFIT
 70
     3
  9
$DIMUPT
 70
     0
  9
$DIMUNIT
 70
     2
  9
$DIMDEC
 70
     4
  9
$DIMTDEC
 70
     4
  9
$DIMALTU
 70
     2
  9
$DIMALTTD
 70
     2
  9
$DIMTXSTY
  7
STANDARD
  9
$DIMAUNIT
 70
     0
  9
$LUNITS
 70
     5
  9
$LUPREC
 70
     4
  9
$SKETCHINC
 40
0.1
  9
$FILLETRAD
 40
0.09375
  9
$AUNITS
 70
     0
  9
$AUPREC
 70
     0
  9
$MENU
  1
acad
  9
$ELEVATION
 40
0.0
  9
$PELEVATION
 40
0.0
  9
$THICKNESS
 40
0.0
  9
$LIMCHECK
 70
     0
  9
$BLIPMODE
 70
     0
  9
$CHAMFERA
 40
0.0
  9
$CHAMFERB
 40
0.0
  9
$CHAMFERC
 40
0.0
  9
$CHAMFERD
 40
0.0
  9
$SKPOLY
 70
     0
  9
$TDCREATE
 40
2450233.508152580
  9
$TDUPDATE
 40
2452297.075932071
  9
$TDINDWG
 40
0.0065557060
  9
$TDUSRTIMER
 40
0.0065557060
  9
$USRTIMER
 70
     1
  9
$ANGBASE
 50
0.0
  9
$ANGDIR
 70
     0
  9
$PDMODE
 70
     0
  9
$PDSIZE
 40
0.0
  9
$PLINEWID
 40
0.0
  9
$COORDS
 70
     2
  9
$SPLFRAME
 70
     0
  9
$SPLINETYPE
 70
     6
  9
$SPLINESEGS
 70
     8
  9
$ATTDIA
 70
     0
  9
$ATTREQ
 70
     1
  9
$HANDLING
 70
 22529
  9
$HANDSEED
  5
271
  9
$SURFTAB1
 70
     6
  9
$SURFTAB2
 70
     6
  9
$SURFTYPE
 70
     6
  9
$SURFU
 70
     6
  9
$SURFV
 70
     6
  9
$UCSNAME
  2

  9
$UCSORG
 10
0.0
 20
0.0
 30
0.0
  9
$UCSXDIR
 10
1.0
 20
0.0
 30
0.0
  9
$UCSYDIR
 10
0.0
 20
1.0
 30
0.0
  9
$PUCSNAME
  2

  9
$PUCSORG
 10
0.0
 20
0.0
 30
0.0
  9
$PUCSXDIR
 10
1.0
 20
0.0
 30
0.0
  9
$PUCSYDIR
 10
0.0
 20
1.0
 30
0.0
  9
$USERI1
 70
     0
  9
$USERI2
 70
     0
  9
$USERI3
 70
     0
  9
$USERI4
 70
     0
  9
$USERI5
 70
     0
  9
$USERR1
 40
0.0
  9
$USERR2
 40
0.0
  9
$USERR3
 40
0.0
  9
$USERR4
 40
0.0
  9
$USERR5
 40
0.0
  9
$WORLDVIEW
 70
     1
  9
$SHADEDGE
 70
     3
  9
$SHADEDIF
 70
    70
  9
$TILEMODE
 70
     1
  9
$MAXACTVP
 70
    15
  9
$PINSBASE
 10
0.0
 20
-3.941062727799726E+99
 30
0.0
  9
$PLIMCHECK
 70
     0
  9
$PEXTMIN
 10
1.000000000000000E+20
 20
1.000000000000000E+20
 30
1.000000000000000E+20
  9
$PEXTMAX
 10
-1.000000000000000E+20
 20
-1.000000000000000E+20
 30
-1.000000000000000E+20
  9
$PLIMMIN
 10
0.0
 20
0.0
  9
$PLIMMAX
 10
12.0
 20
9.0
  9
$UNITMODE
 70
     0
  9
$VISRETAIN
 70
     0
  9
$PLINEGEN
 70
     0
  9
$PSLTSCALE
 70
     1
  9
$TREEDEPTH
 70
  3020
  9
$PICKSTYLE
 70
     1
  9
$CMLSTYLE
  2
STANDARD
  9
$CMLJUST
 70
     0
  9
$CMLSCALE
 40
1.0
  9
$PROXYGRAPHICS
 70
     1
  9
$MEASUREMENT
 70
     0
  0
ENDSEC
  0
SECTION
  2
CLASSES
  0
CLASS
  1
ACDBDICTIONARYWDFLT
  2
AcDbDictionaryWithDefault
  3
AutoCAD 2000
 90
        0
280
     0
281
     0
  0
CLASS
  1
ACDBPLACEHOLDER
  2
AcDbPlaceHolder
  3
AutoCAD 2000
 90
        0
280
     0
281
     0
  0
CLASS
  1
LAYOUT
  2
AcDbLayout
  3
AutoCAD 2000
 90
        0
280
     0
281
     0
  0
CLASS
  1
DICTIONARYVAR
  2
AcDbDictionaryVar
  3
AutoCAD 2000
 90
        0
280
     0
281
     0
  0
CLASS
  1
LONG_TRANSACTION
  2
AcDbLongTransaction
  3
AutoCAD 2000
 90
        0
280
     0
281
     0
  0
CLASS
  1
LWPOLYLINE
  2
AcDbPolyline
  3
AutoCAD 2000
 90
        0
280
     0
281
     1
  0
CLASS
  1
HATCH
  2
AcDbHatch
  3
AutoCAD 2000
 90
        0
280
     0
281
     1
  0
CLASS
  1
XRECORD
  2
AcDbXrecord
  3
AutoCAD 2000
 90
        0
280
     0
281
     0
  0
CLASS
  1
LONG_TRANSACTION
  2
AcDbLongTransaction
  3
AutoCAD 2000
 90
        0
280
     0
281
     0
  0
CLASS
  1
LWPOLYLINE
  2
AcDbPolyline
  3
AutoCAD 2000
 90
        0
280
     0
281
     1
  0
CLASS
  1
HATCH
  2
AcDbHatch
  3
AutoCAD 2000
 90
        0
280
     0
281
     1
  0
CLASS
  1
XRECORD
  2
AcDbXrecord
  3
AutoCAD 2000
 90
        0
280
     0
281
     0
  0
CLASS
  1
LONG_TRANSACTION
  2
AcDbLongTransaction
  3
AutoCAD 2000
 90
        0
280
     0
281
     0
  0
CLASS
  1
LWPOLYLINE
  2
AcDbPolyline
  3
AutoCAD 2000
 90
        0
280
     0
281
     1
  0
CLASS
  1
HATCH
  2
AcDbHatch
  3
AutoCAD 2000
 90
        0
280
     0
281
     1
  0
CLASS
  1
XRECORD
  2
AcDbXrecord
  3
AutoCAD 2000
 90
        0
280
     0
281
     0
  0
CLASS
  1
LONG_TRANSACTION
  2
AcDbLongTransaction
  3
AutoCAD 2000
 90
        0
280
     0
281
     0
  0
CLASS
  1
LWPOLYLINE
  2
AcDbPolyline
  3
AutoCAD 2000
 90
        0
280
     0
281
     1
  0
CLASS
  1
HATCH
  2
AcDbHatch
  3
AutoCAD 2000
 90
        0
280
     0
281
     1
  0
CLASS
  1
XRECORD
  2
AcDbXrecord
  3
AutoCAD 2000
 90
        0
280
     0
281
     0
  0
CLASS
  1
LONG_TRANSACTION
  2
AcDbLongTransaction
  3
AutoCAD 2000
 90
        0
280
     0
281
     0
  0
CLASS
  1
LWPOLYLINE
  2
AcDbPolyline
  3
AutoCAD 2000
 90
        0
280
     0
281
     1
  0
CLASS
  1
HATCH
  2
AcDbHatch
  3
AutoCAD 2000
 90
        0
280
     0
281
     1
  0
CLASS
  1
XRECORD
  2
AcDbXrecord
  3
AutoCAD 2000
 90
        0
280
     0
281
     0
  0
ENDSEC
  0
SECTION
  2
TABLES
  0
TABLE
  2
VPORT
  5
8
330
0
100
AcDbSymbolTable
 70
     2
  0
VPORT
  5
24E
330
8
100
AcDbSymbolTableRecord
100
AcDbViewportTableRecord
  2
*ACTIVE
 70
     0
 10
0.0
 20
0.0
 11
1.0
 21
1.0
 12
-3.82962713441515
 22
-2.286617518506135
 13
0.0
 23
0.0
 14
0.5740882589684922
 24
0.5740882589684922
 15
0.5
 25
0.5
 16
0.0
 26
0.0
 36
1.0
 17
0.0
 27
0.0
 37
0.0
 40
8.248718583883071
 41
1.570528967254408
 42
50.0
 43
0.0
 44
0.0
 50
0.0
 51
0.0
 71
     0
 72
   100
 73
     1
 74
     0
 75
     0
 76
     0
 77
     0
 78
     0
  0
ENDTAB
  0
TABLE
  2
LTYPE
  5
5
330
0
100
AcDbSymbolTable
 70
     2
  0
LTYPE
  5
12
330
5
100
AcDbSymbolTableRecord
100
AcDbLinetypeTableRecord
  2
BYBLOCK
 70
     0
  3

 72
    65
 73
     0
 40
0.0
  0
LTYPE
  5
13
330
5
100
AcDbSymbolTableRecord
100
AcDbLinetypeTableRecord
  2
BYLAYER
 70
     0
  3

 72
    65
 73
     0
 40
0.0
  0
LTYPE
  5
14
330
5
100
AcDbSymbolTableRecord
100
AcDbLinetypeTableRecord
  2
CONTINUOUS
 70
     0
  3
Solid line
 72
    65
 73
     0
 40
0.0
  0
LTYPE
  5
8C
330
5
100
AcDbSymbolTableRecord
100
AcDbLinetypeTableRecord
  2
HIDDEN2
 70
     0
  3
_ _ _ _ _ _ _ _ _ _ _ _ _ _ _ _ _ _ _ _ _ _ _ _
 72
    65
 73
     2
 40
0.1875
 49
0.125
 74
     0
 49
-0.0625
 74
     0
  0
ENDTAB
  0
TABLE
  2
LAYER
  5
2
330
0
100
AcDbSymbolTable
 70
     5
  0
LAYER
  5
F
330
2
100
AcDbSymbolTableRecord
100
AcDbLayerTableRecord
  2
0
 70
     0
 62
     7
  6
CONTINUOUS
  0
LAYER
  5
8D
330
2
100
AcDbSymbolTableRecord
100
AcDbLayerTableRecord
  2
ADP2DETAIL
 70
     0
 62
     5
  6
CONTINUOUS
  0
LAYER
  5
8E
330
2
100
AcDbSymbolTableRecord
100
AcDbLayerTableRecord
  2
ADPDIM
 70
     0
 62
     3
  6
CONTINUOUS
  0
LAYER
  5
90
330
2
100
AcDbSymbolTableRecord
100
AcDbLayerTableRecord
  2
ADP1DETAIL
 70
     0
 62
     7
  6
CONTINUOUS
  0
LAYER
  5
92
330
2
100
AcDbSymbolTableRecord
100
AcDbLayerTableRecord
  2
DEFPOINTS
 70
     0
 62
     7
  6
CONTINUOUS
  0
ENDTAB
  0
TABLE
  2
STYLE
  5
3
330
0
100
AcDbSymbolTable
 70
     2
  0
STYLE
  5
10
330
3
100
AcDbSymbolTableRecord
100
AcDbTextStyleTableRecord
  2
STANDARD
 70
     0
 40
0.0
 41
1.0
 50
0.0
 71
     0
 42
0.2
  3
txt
  4

  0
STYLE
  5
10A
330
3
100
AcDbSymbolTableRecord
100
AcDbTextStyleTableRecord
  2
ARIAL_WIDE
 70
     0
 40
0.0
 41
1.25
 50
0.0
 71
     0
 42
0.2
  3
ARIAL.TTF
  4

1001
ACAD
1000
Arial
1071
       34
  0
ENDTAB
  0
TABLE
  2
VIEW
  5
6
330
0
100
AcDbSymbolTable
 70
     0
  0
ENDTAB
  0
TABLE
  2
UCS
  5
7
330
0
100
AcDbSymbolTable
 70
     0
  0
ENDTAB
  0
TABLE
  2
APPID
  5
9
330
0
100
AcDbSymbolTable
 70
     1
  0
APPID
  5
11
330
9
100
AcDbSymbolTableRecord
100
AcDbRegAppTableRecord
  2
ACAD
 70
     0
  0
ENDTAB
  0
TABLE
  2
DIMSTYLE
  5
A
330
0
100
AcDbSymbolTable
 70
     1
  0
DIMSTYLE
105
FE
330
A
100
AcDbSymbolTableRecord
100
AcDbDimStyleTableRecord
  2
STANDARD
 70
     0
  3

  4

  5

  6

  7

 40
1.0
 41
0.18
 42
0.0625
 43
0.38
 44
0.18
 45
0.0
 46
0.0
 47
0.0
 48
0.0
140
0.18
141
0.09
142
0.0
143
25.4
144
1.0
145
0.0
146
1.0
147
0.09
 71
     0
 72
     0
 73
     1
 74
     1
 75
     0
 76
     0
 77
     0
 78
     0
170
     0
171
     2
172
     0
173
     0
174
     0
175
     0
176
     0
177
     0
178
     0
270
     2
271
     4
272
     4
273
     2
274
     2
340
10
275
     0
280
     0
281
     0
282
     0
283
     1
284
     0
285
     0
286
     0
287
     3
288
     0
  0
ENDTAB
  0
TABLE
  2
BLOCK_RECORD
  5
1
330
0
100
AcDbSymbolTable
 70
     4
  0
BLOCK_RECORD
  5
18
102
{ACAD_XDICTIONARY
360
15F
102
}
330
1
100
AcDbSymbolTableRecord
100
AcDbBlockTableRecord
  2
*MODEL_SPACE
  0
BLOCK_RECORD
  5
15
102
{ACAD_XDICTIONARY
360
15D
102
}
330
1
100
AcDbSymbolTableRecord
100
AcDbBlockTableRecord
  2
*PAPER_SPACE
  0
BLOCK_RECORD
  5
66
330
1
100
AcDbSymbolTableRecord
100
AcDbBlockTableRecord
  2
*D0
  0
BLOCK_RECORD
  5
72
330
1
100
AcDbSymbolTableRecord
100
AcDbBlockTableRecord
  2
*D1
  0
BLOCK_RECORD
  5
73
330
1
100
AcDbSymbolTableRecord
100
AcDbBlockTableRecord
  2
*D2
  0
BLOCK_RECORD
  5
78
330
1
100
AcDbSymbolTableRecord
100
AcDbBlockTableRecord
  2
*D3
  0
ENDTAB
  0
ENDSEC
  0
SECTION
  2
BLOCKS
  0
BLOCK
  5
95
330
18
100
AcDbEntity
  8
0
100
AcDbBlockBegin
  2
*MODEL_SPACE
 70
     0
 10
0.0
 20
0.0
 30
0.0
  3
*MODEL_SPACE
  1

  0
ENDBLK
  5
96
330
18
100
AcDbEntity
  8
0
100
AcDbBlockEnd
  0
BLOCK
  5
93
330
15
100
AcDbEntity
 67
     1
  8
0
100
AcDbBlockBegin
  2
*PAPER_SPACE
 70
     0
 10
0.0
 20
0.0
 30
0.0
  3
*PAPER_SPACE
  1

  0
ENDBLK
  5
94
330
15
100
AcDbEntity
 67
     1
  8
0
100
AcDbBlockEnd
  0
BLOCK
  5
98
330
66
100
AcDbEntity
  8
0
100
AcDbBlockBegin
  2
*D0
 70
     1
 10
0.0
 20
0.0
 30
0.0
  3
*D0
  1

  0
LINE
  5
99
330
66
100
AcDbEntity
  8
0
  6
BYBLOCK
 62
     0
100
AcDbLine
 10
-9.843731601410855
 20
-1.589769143955612
 30
0.0
 11
-10.36269165580067
 21
-1.589769143955612
 31
0.0
  0
LINE
  5
9A
330
66
100
AcDbEntity
  8
0
  6
BYBLOCK
 62
     0
100
AcDbLine
 10
-10.03173160141085
 20
-1.839769143955612
 30
0.0
 11
-10.36269165580067
 21
-1.839769143955612
 31
0.0
  0
LINE
  5
9B
330
66
100
AcDbEntity
  8
0
  6
BYBLOCK
 62
     0
100
AcDbLine
 10
-10.18269165580067
 20
-1.589769143955612
 30
0.0
 11
-10.18269165580067
 21
-1.339769143955612
 31
0.0
  0
LINE
  5
9C
330
66
100
AcDbEntity
  8
0
  6
BYBLOCK
 62
     0
100
AcDbLine
 10
-10.18269165580067
 20
-1.839769143955612
 30
0.0
 11
-10.18269165580067
 21
-2.089769143955612
 31
0.0
  0
LINE
  5
9D
330
66
100
AcDbEntity
  8
0
  6
BYBLOCK
 62
     0
100
AcDbLine
 10
-10.05769165580068
 20
-1.714769143955612
 30
0.0
 11
-10.30769165580067
 21
-1.464769143955612
 31
0.0
  0
LINE
  5
9E
330
66
100
AcDbEntity
  8
0
  6
BYBLOCK
 62
     0
100
AcDbLine
 10
-10.05769165580068
 20
-1.964769143955612
 30
0.0
 11
-10.30769165580067
 21
-1.714769143955612
 31
0.0
  0
TEXT
  5
9F
330
66
100
AcDbEntity
  8
0
  6
BYBLOCK
 62
     0
100
AcDbText
 10
-10.12019165580068
 20
-2.506435810622279
 30
0.0
 40
0.125
  1
1/4
 50
90.0
 72
     1
 11
-10.18269165580067
 21
-2.360602477288946
 31
0.0
100
AcDbText
 73
     2
  0
POINT
  5
A0
330
66
100
AcDbEntity
  8
DEFPOINTS
  6
BYBLOCK
 62
     0
100
AcDbPoint
 10
-9.781231601410855
 20
-1.589769143955612
 30
0.0
  0
POINT
  5
A1
330
66
100
AcDbEntity
  8
DEFPOINTS
  6
BYBLOCK
 62
     0
100
AcDbPoint
 10
-9.969231601410855
 20
-1.839769143955612
 30
0.0
  0
POINT
  5
A2
330
66
100
AcDbEntity
  8
DEFPOINTS
  6
BYBLOCK
 62
     0
100
AcDbPoint
 10
-10.18269165580067
 20
-1.839769143955612
 30
0.0
  0
ENDBLK
  5
A3
330
66
100
AcDbEntity
  8
0
100
AcDbBlockEnd
  0
BLOCK
  5
A4
330
72
100
AcDbEntity
  8
0
100
AcDbBlockBegin
  2
*D1
 70
     1
 10
0.0
 20
0.0
 30
0.0
  3
*D1
  1

  0
LINE
  5
A5
330
72
100
AcDbEntity
  8
0
  6
BYBLOCK
 62
     0
100
AcDbLine
 10
-5.213612409872085
 20
0.1026301964400996
 30
0.0
 11
-5.213612409872085
 21
0.5595509937108606
 31
0.0
  0
LINE
  5
A6
330
72
100
AcDbEntity
  8
0
  6
BYBLOCK
 62
     0
100
AcDbLine
 10
-2.463612409872086
 20
0.1026301964400996
 30
0.0
 11
-2.463612409872086
 21
0.5595509937108606
 31
0.0
  0
LINE
  5
A7
330
72
100
AcDbEntity
  8
0
  6
BYBLOCK
 62
     0
100
AcDbLine
 10
-5.213612409872085
 20
0.3795509937108605
 30
0.0
 11
-4.255279076538752
 21
0.3795509937108605
 31
0.0
  0
LINE
  5
A8
330
72
100
AcDbEntity
  8
0
  6
BYBLOCK
 62
     0
100
AcDbLine
 10
-2.463612409872086
 20
0.3795509937108605
 30
0.0
 11
-3.421945743205419
 21
0.3795509937108605
 31
0.0
  0
LINE
  5
A9
330
72
100
AcDbEntity
  8
0
  6
BYBLOCK
 62
     0
100
AcDbLine
 10
-5.338612409872085
 20
0.2545509937108605
 30
0.0
 11
-5.088612409872085
 21
0.5045509937108605
 31
0.0
  0
LINE
  5
AA
330
72
100
AcDbEntity
  8
0
  6
BYBLOCK
 62
     0
100
AcDbLine
 10
-2.588612409872086
 20
0.2545509937108605
 30
0.0
 11
-2.338612409872086
 21
0.5045509937108605
 31
0.0
  0
TEXT
  5
AB
330
72
100
AcDbEntity
  8
0
  6
BYBLOCK
 62
     0
100
AcDbText
 10
-4.130279076538752
 20
0.3170509937108605
 30
0.0
 40
0.125
  1
2 3/4
 72
     1
 11
-3.838612409872086
 21
0.3795509937108605
 31
0.0
100
AcDbText
 73
     2
  0
POINT
  5
AC
330
72
100
AcDbEntity
  8
DEFPOINTS
  6
BYBLOCK
 62
     0
100
AcDbPoint
 10
-5.213612409872085
 20
0.0401301964400996
 30
0.0
  0
POINT
  5
AD
330
72
100
AcDbEntity
  8
DEFPOINTS
  6
BYBLOCK
 62
     0
100
AcDbPoint
 10
-2.463612409872086
 20
0.0401301964400996
 30
0.0
  0
POINT
  5
AE
330
72
100
AcDbEntity
  8
DEFPOINTS
  6
BYBLOCK
 62
     0
100
AcDbPoint
 10
-2.463612409872086
 20
0.3795509937108605
 30
0.0
  0
ENDBLK
  5
AF
330
72
100
AcDbEntity
  8
0
100
AcDbBlockEnd
  0
BLOCK
  5
B0
330
73
100
AcDbEntity
  8
0
100
AcDbBlockBegin
  2
*D2
 70
     1
 10
0.0
 20
0.0
 30
0.0
  3
*D2
  1

  0
LINE
  5
B1
330
73
100
AcDbEntity
  8
0
  6
BYBLOCK
 62
     0
100
AcDbLine
 10
-2.494862409872086
 20
0.1338801964400996
 30
0.0
 11
-1.85094621480593
 21
0.1338801964400996
 31
0.0
  0
LINE
  5
B2
330
73
100
AcDbEntity
  8
0
  6
BYBLOCK
 62
     0
100
AcDbLine
 10
-2.494862409872086
 20
-2.6161198035599
 30
0.0
 11
-1.85094621480593
 21
-2.6161198035599
 31
0.0
  0
LINE
  5
B3
330
73
100
AcDbEntity
  8
0
  6
BYBLOCK
 62
     0
100
AcDbLine
 10
-2.03094621480593
 20
0.1338801964400996
 30
0.0
 11
-2.03094621480593
 21
-0.8244531368932335
 31
0.0
  0
LINE
  5
B4
330
73
100
AcDbEntity
  8
0
  6
BYBLOCK
 62
     0
100
AcDbLine
 10
-2.03094621480593
 20
-2.6161198035599
 30
0.0
 11
-2.03094621480593
 21
-1.657786470226566
 31
0.0
  0
LINE
  5
B5
330
73
100
AcDbEntity
  8
0
  6
BYBLOCK
 62
     0
100
AcDbLine
 10
-1.905946214805929
 20
0.0088801964400996
 30
0.0
 11
-2.15594621480593
 21
0.2588801964400996
 31
0.0
  0
LINE
  5
B6
330
73
100
AcDbEntity
  8
0
  6
BYBLOCK
 62
     0
100
AcDbLine
 10
-1.90594621480593
 20
-2.7411198035599
 30
0.0
 11
-2.15594621480593
 21
-2.4911198035599
 31
0.0
  0
TEXT
  5
B7
330
73
100
AcDbEntity
  8
0
  6
BYBLOCK
 62
     0
100
AcDbText
 10
-1.968446214805929
 20
-1.532786470226566
 30
0.0
 40
0.125
  1
2 3/4
 50
90.0
 72
     1
 11
-2.03094621480593
 21
-1.2411198035599
 31
0.0
100
AcDbText
 73
     2
  0
POINT
  5
B8
330
73
100
AcDbEntity
  8
DEFPOINTS
  6
BYBLOCK
 62
     0
100
AcDbPoint
 10
-2.557362409872086
 20
0.1338801964400996
 30
0.0
  0
POINT
  5
B9
330
73
100
AcDbEntity
  8
DEFPOINTS
  6
BYBLOCK
 62
     0
100
AcDbPoint
 10
-2.557362409872086
 20
-2.6161198035599
 30
0.0
  0
POINT
  5
BA
330
73
100
AcDbEntity
  8
DEFPOINTS
  6
BYBLOCK
 62
     0
100
AcDbPoint
 10
-2.03094621480593
 20
-2.6161198035599
 30
0.0
  0
ENDBLK
  5
BB
330
73
100
AcDbEntity
  8
0
100
AcDbBlockEnd
  0
BLOCK
  5
BC
330
78
100
AcDbEntity
  8
0
100
AcDbBlockBegin
  2
*D3
 70
     1
 10
0.0
 20
0.0
 30
0.0
  3
*D3
  1

  0
LINE
  5
BD
330
78
100
AcDbEntity
  8
0
  6
BYBLOCK
 62
     0
100
AcDbLine
 10
-2.970076198686648
 20
-3.04178138313303
 30
0.0
 11
-2.033862716037819
 21
-3.04178138313303
 31
0.0
  0
LINE
  5
BE
330
78
100
AcDbEntity
  8
0
  6
BYBLOCK
 62
     0
100
AcDbLine
 10
-2.402595251771562
 20
-3.79178138313303
 30
0.0
 11
-2.033862716037819
 21
-3.79178138313303
 31
0.0
  0
LINE
  5
BF
330
78
100
AcDbEntity
  8
0
  6
BYBLOCK
 62
     0
100
AcDbLine
 10
-2.213862716037819
 20
-3.04178138313303
 30
0.0
 11
-2.213862716037819
 21
-2.79178138313303
 31
0.0
  0
LINE
  5
C0
330
78
100
AcDbEntity
  8
0
  6
BYBLOCK
 62
     0
100
AcDbLine
 10
-2.213862716037819
 20
-3.79178138313303
 30
0.0
 11
-2.213862716037819
 21
-4.04178138313303
 31
0.0
  0
LINE
  5
C1
330
78
100
AcDbEntity
  8
0
  6
BYBLOCK
 62
     0
100
AcDbLine
 10
-2.088862716037819
 20
-3.16678138313303
 30
0.0
 11
-2.338862716037819
 21
-2.91678138313303
 31
0.0
  0
LINE
  5
C2
330
78
100
AcDbEntity
  8
0
  6
BYBLOCK
 62
     0
100
AcDbLine
 10
-2.088862716037819
 20
-3.91678138313303
 30
0.0
 11
-2.338862716037819
 21
-3.66678138313303
 31
0.0
  0
TEXT
  5
C3
330
78
100
AcDbEntity
  8
0
  6
BYBLOCK
 62
     0
100
AcDbText
 10
-2.151362716037819
 20
-4.500114716466364
 30
0.0
 40
0.125
  1
3/4
 50
90.0
 72
     1
 11
-2.213862716037819
 21
-4.333448049799697
 31
0.0
100
AcDbText
 73
     2
  0
POINT
  5
C4
330
78
100
AcDbEntity
  8
DEFPOINTS
  6
BYBLOCK
 62
     0
100
AcDbPoint
 10
-3.032576198686648
 20
-3.04178138313303
 30
0.0
  0
POINT
  5
C5
330
78
100
AcDbEntity
  8
DEFPOINTS
  6
BYBLOCK
 62
     0
100
AcDbPoint
 10
-2.465095251771562
 20
-3.79178138313303
 30
0.0
  0
POINT
  5
C6
330
78
100
AcDbEntity
  8
DEFPOINTS
  6
BYBLOCK
 62
     0
100
AcDbPoint
 10
-2.213862716037819
 20
-3.79178138313303
 30
0.0
  0
ENDBLK
  5
C7
330
78
100
AcDbEntity
  8
0
100
AcDbBlockEnd
  0
ENDSEC
  0
SECTION
  2
ENTITIES
  0
LINE
  5
C8
330
18
100
AcDbEntity
  8
ADP1DETAIL
100
AcDbLine
 10
-5.213612409872086
 20
-3.79178138313303
 30
0.0
 11
-2.465095251771562
 21
-3.79178138313303
 31
0.0
  0
ARC
  5
C9
330
18
100
AcDbEntity
  8
ADP1DETAIL
100
AcDbCircle
 10
-5.025612409872086
 20
-3.72978138313303
 30
0.0
 40
0.188
100
AcDbArc
 50
90.0
 51
180.0
  0
DIMENSION
  5
CA
330
18
100
AcDbEntity
  8
ADPDIM
100
AcDbDimension
  2
*D0
 10
-5.42707246426191
 20
-3.79178138313303
 30
0.0
 11
-5.42707246426191
 21
-4.312614716466363
 31
0.0
 12
4.755619191538769
 22
-1.952012239177417
 32
0.0
100
AcDbAlignedDimension
 13
-5.025612409872086
 23
-3.54178138313303
 33
0.0
 14
-5.213612409872086
 24
-3.79178138313303
 34
0.0
 50
90.0
100
AcDbRotatedDimension
  0
DIMENSION
  5
CB
330
18
100
AcDbEntity
  8
ADPDIM
100
AcDbDimension
  2
*D1
 10
-2.463612409872086
 20
0.3795509937108605
 30
0.0
 11
-3.838612409872086
 21
0.3795509937108605
 31
0.0
100
AcDbAlignedDimension
 13
-5.213612409872085
 23
0.0401301964400996
 33
0.0
 14
-2.463612409872086
 24
0.0401301964400996
 34
0.0
100
AcDbRotatedDimension
  0
LINE
  5
CC
330
18
100
AcDbEntity
  8
ADP1DETAIL
100
AcDbLine
 10
-5.119862409872085
 20
0.1338801964400996
 30
0.0
 11
-2.557362409872086
 21
0.1338801964400996
 31
0.0
  0
LINE
  5
CD
330
18
100
AcDbEntity
  8
ADP1DETAIL
100
AcDbLine
 10
-2.557362409872086
 20
-2.6161198035599
 30
0.0
 11
-5.119862409872086
 21
-2.616119803559899
 31
0.0
  0
LINE
  5
CE
330
18
100
AcDbEntity
  8
ADP1DETAIL
100
AcDbLine
 10
-5.213612409872086
 20
-2.522369803559899
 30
0.0
 11
-5.213612409872085
 21
0.0401301964400996
 31
0.0
  0
LINE
  5
CF
330
18
100
AcDbEntity
  8
ADP1DETAIL
100
AcDbLine
 10
-5.213612409872085
 20
-3.79178138313303
 30
0.0
 11
-5.213612409872085
 21
-3.72978138313303
 31
0.0
  0
ARC
  5
D0
330
18
100
AcDbEntity
  8
ADP1DETAIL
100
AcDbCircle
 10
-5.119862409872086
 20
-2.522369803559899
 30
0.0
 40
0.09375
100
AcDbArc
 50
179.9999999999999
 51
270.0
  0
ARC
  5
D1
330
18
100
AcDbEntity
  8
ADP1DETAIL
100
AcDbCircle
 10
-5.119862409872085
 20
0.0401301964400996
 30
0.0
 40
0.09375
100
AcDbArc
 50
90.0
 51
180.0
  0
DIMENSION
  5
D2
330
18
100
AcDbEntity
  8
ADPDIM
100
AcDbDimension
  2
*D3
 10
-2.213862716037819
 20
-3.79178138313303
 30
0.0
 11
-2.213862716037819
 21
-4.333448049799697
 31
0.0
100
AcDbAlignedDimension
 13
-3.032576198686648
 23
-3.04178138313303
 33
0.0
 14
-2.465095251771562
 24
-3.79178138313303
 34
0.0
 50
90.0
100
AcDbRotatedDimension
  0
LINE
  5
D3
330
18
100
AcDbEntity
  8
ADP2DETAIL
  6
HIDDEN2
100
AcDbLine
 10
-2.794157307208241
 20
-3.697947236928041
 30
0.0
 11
-4.884550354435408
 21
-3.697947236928041
 31
0.0
  0
LINE
  5
D4
330
18
100
AcDbEntity
  8
ADP1DETAIL
100
AcDbLine
 10
-3.032576198686648
 20
-3.04178138313303
 30
0.0
 11
-4.659997361101788
 21
-3.04178138313303
 31
0.0
  0
ARC
  5
D5
330
18
100
AcDbEntity
  8
ADP2DETAIL
  6
HIDDEN2
100
AcDbCircle
 10
-3.02906254766223
 20
-3.509947236928041
 30
0.0
 40
0.188
100
AcDbArc
 50
180.0
 51
270.0
  0
LINE
  5
D6
330
18
100
AcDbEntity
  8
ADP1DETAIL
100
AcDbLine
 10
-2.653095251771562
 20
-3.54178138313303
 30
0.0
 11
-5.025612409872086
 21
-3.54178138313303
 31
0.0
  0
LINE
  5
D7
330
18
100
AcDbEntity
  8
ADP1DETAIL
100
AcDbLine
 10
-4.932362409872086
 20
-0.0536198035599004
 30
0.0
 11
-2.744862409872087
 21
-0.0536198035599004
 31
0.0
  0
LINE
  5
D8
330
18
100
AcDbEntity
  8
ADP1DETAIL
100
AcDbLine
 10
-2.744862409872086
 20
-2.4286198035599
 30
0.0
 11
-4.932362409872086
 21
-2.428619803559899
 31
0.0
  0
LINE
  5
D9
330
18
100
AcDbEntity
  8
ADP1DETAIL
100
AcDbLine
 10
-3.119862409872086
 20
-2.0536198035599
 30
0.0
 11
-4.557362409872086
 21
-2.053619803559899
 31
0.0
  0
LINE
  5
DA
330
18
100
AcDbEntity
  8
ADP1DETAIL
100
AcDbLine
 10
-4.557362409872086
 20
-0.4286198035599004
 30
0.0
 11
-3.119862409872086
 21
-0.4286198035599003
 31
0.0
  0
ARC
  5
DB
330
18
100
AcDbEntity
  8
ADP1DETAIL
100
AcDbCircle
 10
-3.306612409872086
 20
-0.7091198035599004
 30
0.0
 40
0.093
100
AcDbArc
 50
0.0
 51
90.0
  0
ARC
  5
DC
330
18
100
AcDbEntity
  8
ADP1DETAIL
100
AcDbCircle
 10
-3.306612409872086
 20
-1.7731198035599
 30
0.0
 40
0.093
100
AcDbArc
 50
270.0
 51
0.0
  0
LINE
  5
DD
330
18
100
AcDbEntity
  8
ADP1DETAIL
100
AcDbLine
 10
-4.651112409872086
 20
-1.959869803559899
 30
0.0
 11
-4.651112409872086
 21
-0.5223698035599004
 31
0.0
  0
LINE
  5
DE
330
18
100
AcDbEntity
  8
ADP1DETAIL
100
AcDbLine
 10
-5.026112409872086
 20
-2.334869803559899
 30
0.0
 11
-5.026112409872086
 21
-0.1473698035599004
 31
0.0
  0
LINE
  5
DF
330
18
100
AcDbEntity
  8
ADP1DETAIL
100
AcDbLine
 10
-4.463612409872086
 20
-1.7731198035599
 30
0.0
 11
-4.463612409872086
 21
-0.7091198035599004
 31
0.0
  0
LINE
  5
E0
330
18
100
AcDbEntity
  8
ADP1DETAIL
100
AcDbLine
 10
-3.306612409872086
 20
-1.8661198035599
 30
0.0
 11
-4.370612409872086
 21
-1.8661198035599
 31
0.0
  0
ARC
  5
E1
330
18
100
AcDbEntity
  8
ADP2DETAIL
  6
HIDDEN2
100
AcDbCircle
 10
-4.653801135811085
 20
-3.509947236928041
 30
0.0
 40
0.188
100
AcDbArc
 50
270.0
 51
0.0
  0
ARC
  5
E2
330
18
100
AcDbEntity
  8
ADP1DETAIL
100
AcDbCircle
 10
-4.847997361101787
 20
-3.35378138313303
 30
0.0
 40
0.188
100
AcDbArc
 50
270.0
 51
0.0
  0
ARC
  5
E3
330
18
100
AcDbEntity
  8
ADP2DETAIL
  6
HIDDEN2
100
AcDbCircle
 10
-4.884550354435408
 20
-3.822947236928042
 30
0.0
 40
0.1250000000000004
100
AcDbArc
 50
90.0
 51
165.5623189392525
  0
LINE
  5
E4
330
18
100
AcDbEntity
  8
ADP1DETAIL
100
AcDbLine
 10
-4.659997361101786
 20
-3.35378138313303
 30
0.0
 11
-4.659997361101786
 21
-3.04178138313303
 31
0.0
  0
LINE
  5
E5
330
18
100
AcDbEntity
  8
ADP2DETAIL
  6
HIDDEN2
100
AcDbLine
 10
-4.465801135811084
 20
-3.509947236928041
 30
0.0
 11
-4.465801135811084
 21
-3.04178138313303
 31
0.0
  0
ARC
  5
E6
330
18
100
AcDbEntity
  8
ADP1DETAIL
100
AcDbCircle
 10
-4.557362409872086
 20
-1.959869803559899
 30
0.0
 40
0.09375
100
AcDbArc
 50
180.0
 51
270.0
  0
ARC
  5
E7
330
18
100
AcDbEntity
  8
ADP1DETAIL
100
AcDbCircle
 10
-4.932362409872086
 20
-2.334869803559899
 30
0.0
 40
0.09375
100
AcDbArc
 50
180.0
 51
270.0
  0
ARC
  5
E8
330
18
100
AcDbEntity
  8
ADP1DETAIL
100
AcDbCircle
 10
-4.370612409872086
 20
-1.7731198035599
 30
0.0
 40
0.093
100
AcDbArc
 50
180.0
 51
270.0
  0
LINE
  5
E9
330
18
100
AcDbEntity
  8
ADP1DETAIL
100
AcDbLine
 10
-4.370612409872086
 20
-0.6161198035599004
 30
0.0
 11
-3.306612409872086
 21
-0.6161198035599004
 31
0.0
  0
ARC
  5
EA
330
18
100
AcDbEntity
  8
ADP1DETAIL
100
AcDbCircle
 10
-4.557362409872086
 20
-0.5223698035599004
 30
0.0
 40
0.09375
100
AcDbArc
 50
90.0
 51
180.0
  0
ARC
  5
EB
330
18
100
AcDbEntity
  8
ADP1DETAIL
100
AcDbCircle
 10
-4.370612409872086
 20
-0.7091198035599004
 30
0.0
 40
0.093
100
AcDbArc
 50
90.0
 51
180.0
  0
ARC
  5
EC
330
18
100
AcDbEntity
  8
ADP1DETAIL
100
AcDbCircle
 10
-4.932362409872086
 20
-0.1473698035599004
 30
0.0
 40
0.09375
100
AcDbArc
 50
90.0
 51
180.0
  0
DIMENSION
  5
ED
330
18
100
AcDbEntity
  8
ADPDIM
100
AcDbDimension
  2
*D2
 10
-2.03094621480593
 20
-2.6161198035599
 30
0.0
 11
-2.03094621480593
 21
-1.2411198035599
 31
0.0
100
AcDbAlignedDimension
 13
-2.557362409872086
 23
0.1338801964400996
 33
0.0
 14
-2.557362409872086
 24
-2.6161198035599
 34
0.0
 50
90.0
100
AcDbRotatedDimension
  0
LINE
  5
EE
330
18
100
AcDbEntity
  8
ADP1DETAIL
100
AcDbLine
 10
-2.463612409872086
 20
0.0401301964400996
 30
0.0
 11
-2.463612409872086
 21
-2.5223698035599
 31
0.0
  0
LINE
  5
EF
330
18
100
AcDbEntity
  8
ADP1DETAIL
100
AcDbLine
 10
-2.651112409872087
 20
-0.1473698035599004
 30
0.0
 11
-2.651112409872086
 21
-2.3348698035599
 31
0.0
  0
LINE
  5
F0
330
18
100
AcDbEntity
  8
ADP1DETAIL
100
AcDbLine
 10
-3.026112409872086
 20
-0.5223698035599003
 30
0.0
 11
-3.026112409872086
 21
-1.9598698035599
 31
0.0
  0
LINE
  5
F1
330
18
100
AcDbEntity
  8
ADP1DETAIL
100
AcDbLine
 10
-3.213612409872086
 20
-0.7091198035599004
 30
0.0
 11
-3.213612409872086
 21
-1.7731198035599
 31
0.0
  0
ARC
  5
F2
330
18
100
AcDbEntity
  8
ADP1DETAIL
100
AcDbCircle
 10
-2.844576198686647
 20
-3.35378138313303
 30
0.0
 40
0.188
100
AcDbArc
 50
180.0
 51
270.0
  0
LINE
  5
F3
330
18
100
AcDbEntity
  8
ADP2DETAIL
  6
HIDDEN2
100
AcDbLine
 10
-3.21706254766223
 20
-3.509947236928041
 30
0.0
 11
-3.21706254766223
 21
-3.04178138313303
 31
0.0
  0
LINE
  5
F4
330
18
100
AcDbEntity
  8
ADP1DETAIL
100
AcDbLine
 10
-3.032576198686647
 20
-3.35378138313303
 30
0.0
 11
-3.032576198686648
 21
-3.04178138313303
 31
0.0
  0
LINE
  5
F5
330
18
100
AcDbEntity
  8
ADP1DETAIL
100
AcDbLine
 10
-2.465095251771562
 20
-3.79178138313303
 30
0.0
 11
-2.465095251771562
 21
-3.72978138313303
 31
0.0
  0
ARC
  5
F6
330
18
100
AcDbEntity
  8
ADP2DETAIL
  6
HIDDEN2
100
AcDbCircle
 10
-2.794157307208241
 20
-3.822947236928041
 30
0.0
 40
0.125
100
AcDbArc
 50
14.43768106074743
 51
90.0
  0
ARC
  5
F7
330
18
100
AcDbEntity
  8
ADP1DETAIL
100
AcDbCircle
 10
-2.653095251771562
 20
-3.72978138313303
 30
0.0
 40
0.188
100
AcDbArc
 50
0.0
 51
90.0
  0
ARC
  5
F8
330
18
100
AcDbEntity
  8
ADP1DETAIL
100
AcDbCircle
 10
-3.119862409872086
 20
-1.9598698035599
 30
0.0
 40
0.09375
100
AcDbArc
 50
270.0
 51
0.0
  0
ARC
  5
F9
330
18
100
AcDbEntity
  8
ADP1DETAIL
100
AcDbCircle
 10
-2.557362409872086
 20
-2.5223698035599
 30
0.0
 40
0.09375
100
AcDbArc
 50
270.0
 51
0.0
  0
ARC
  5
FA
330
18
100
AcDbEntity
  8
ADP1DETAIL
100
AcDbCircle
 10
-2.744862409872086
 20
-2.3348698035599
 30
0.0
 40
0.09375
100
AcDbArc
 50
270.0
 51
0.0
  0
ARC
  5
FB
330
18
100
AcDbEntity
  8
ADP1DETAIL
100
AcDbCircle
 10
-3.119862409872086
 20
-0.5223698035599003
 30
0.0
 40
0.09375
100
AcDbArc
 50
0.0
 51
90.0
  0
ARC
  5
FC
330
18
100
AcDbEntity
  8
ADP1DETAIL
100
AcDbCircle
 10
-2.557362409872086
 20
0.0401301964400996
 30
0.0
 40
0.09375
100
AcDbArc
 50
0.0
 51
90.0
  0
ARC
  5
FD
330
18
100
AcDbEntity
  8
ADP1DETAIL
100
AcDbCircle
 10
-2.744862409872087
 20
-0.1473698035599004
 30
0.0
 40
0.09375
100
AcDbArc
 50
0.0
 51
90.0
  0
TEXT
  5
10B
330
18
100
AcDbEntity
  8
ADPDIM
100
AcDbText
 10
-10.27406136833887
 20
-5.096988260584126
 30
0.0
 40
0.125
  1
J U L I U S  B L U M  &  C O . ,  I N C .      ( 8 0 0 )  5 2 6 - 6 2 9 3        W W W . J U L I U S B L U M . C O M        P A R T  N o .  7 7 3
 41
1.25
  7
ARIAL_WIDE
 72
     1
 11
-3.839353830821824
 21
-4.971988260584126
 31
0.0
100
AcDbText
 73
     3
  0
ENDSEC
  0
SECTION
  2
OBJECTS
  0
DICTIONARY
  5
C
330
0
100
AcDbDictionary
  3
ACAD_GROUP
350
D
  3
ACAD_LAYOUT
350
104
  3
ACAD_MLINESTYLE
350
E
  3
ACAD_PLOTSETTINGS
350
105
  3
ACAD_PLOTSTYLENAME
350
102
  3
ACDBHEADERROUNDTRIPXREC
350
24F
  3
ACDBVARIABLEDICTIONARY
350
165
  0
DICTIONARY
  5
15F
330
18
100
AcDbDictionary
280
     1
  3
ACAD_LAYOUTSELFREF
360
270
  0
DICTIONARY
  5
15D
330
15
100
AcDbDictionary
280
     1
  3
ACAD_LAYOUTSELFREF
360
26F
  0
DICTIONARY
  5
D
102
{ACAD_REACTORS
330
C
102
}
330
C
100
AcDbDictionary
  0
DICTIONARY
  5
104
102
{ACAD_REACTORS
330
C
102
}
330
C
100
AcDbDictionary
  0
DICTIONARY
  5
E
102
{ACAD_REACTORS
330
C
102
}
330
C
100
AcDbDictionary
  3
STANDARD
350
1B
  0
DICTIONARY
  5
105
102
{ACAD_REACTORS
330
C
102
}
330
C
100
AcDbDictionary
  0
ACDBDICTIONARYWDFLT
  5
102
102
{ACAD_REACTORS
330
C
102
}
330
C
100
AcDbDictionary
281
     1
  3
Normal
350
103
100
AcDbDictionaryWithDefault
340
103
  0
DICTIONARY
  5
24F
102
{ACAD_REACTORS
330
C
102
}
330
C
100
AcDbDictionary
  3
CEPSNTYPE
350
259
  3
FINGERPRINTGUID
350
25A
  3
HYPERLINKBASE
350
252
  3
INSUNITS
350
258
  3
LAYOUTDICT
350
254
  3
LWETCUNION
350
257
  3
PLOTSETDICT
350
255
  3
PLOTSTYLNAMDICT
350
256
  3
PSVPSCALE
350
25C
  3
PUCSBASE
350
25F
  3
PUCSORGBACK
350
265
  3
PUCSORGBOTTOM
350
261
  3
PUCSORGFRONT
350
264
  3
PUCSORGLEFT
350
262
  3
PUCSORGRIGHT
350
263
  3
PUCSORGTOP
350
260
  3
PUCSORTHOREF
350
25D
  3
PUCSORTHOVIEW
350
25E
  3
STYLESHEET
350
253
  3
TSTACKALIGN
350
250
  3
TSTACKSIZE
350
251
  3
UCSBASE
350
268
  3
UCSORGBACK
350
26E
  3
UCSORGBOTTOM
350
26A
  3
UCSORGFRONT
350
26D
  3
UCSORGLEFT
350
26B
  3
UCSORGRIGHT
350
26C
  3
UCSORGTOP
350
269
  3
UCSORTHOREF
350
266
  3
UCSORTHOVIEW
350
267
  3
VERSIONGUID
350
25B
  0
DICTIONARY
  5
165
102
{ACAD_REACTORS
330
C
102
}
330
C
100
AcDbDictionary
  3
DIMASSOC
350
166
  0
XRECORD
  5
270
102
{ACAD_REACTORS
330
15F
102
}
330
15F
100
AcDbXrecord
340
18
  0
XRECORD
  5
26F
102
{ACAD_REACTORS
330
15D
102
}
330
15D
100
AcDbXrecord
340
15
  0
MLINESTYLE
  5
1B
102
{ACAD_REACTORS
330
E
102
}
330
E
100
AcDbMlineStyle
  2
STANDARD
 70
     0
  3

 62
     0
 51
90.0
 52
90.0
 71
     2
 49
0.5
 62
   256
  6
BYLAYER
 49
-0.5
 62
   256
  6
BYLAYER
  0
ACDBPLACEHOLDER
  5
103
102
{ACAD_REACTORS
330
102
102
}
330
102
100
AcDbPlaceHolder
280
     0
  0
XRECORD
  5
259
102
{ACAD_REACTORS
330
24F
102
}
330
24F
100
AcDbXrecord
 90
        0
  0
XRECORD
  5
25A
102
{ACAD_REACTORS
330
24F
102
}
330
24F
100
AcDbXrecord
  1
{38798076-887C-45D8-8E70-97F628C7AC3A}
  0
XRECORD
  5
252
102
{ACAD_REACTORS
330
24F
102
}
330
24F
100
AcDbXrecord
  1

  0
XRECORD
  5
258
102
{ACAD_REACTORS
330
24F
102
}
330
24F
100
AcDbXrecord
 90
        0
  0
XRECORD
  5
254
102
{ACAD_REACTORS
330
24F
102
}
330
24F
100
AcDbXrecord
340
104
  0
XRECORD
  5
257
102
{ACAD_REACTORS
330
24F
102
}
330
24F
100
AcDbXrecord
 90
    14877
  0
XRECORD
  5
255
102
{ACAD_REACTORS
330
24F
102
}
330
24F
100
AcDbXrecord
340
105
  0
XRECORD
  5
256
102
{ACAD_REACTORS
330
24F
102
}
330
24F
100
AcDbXrecord
340
102
  0
XRECORD
  5
25C
102
{ACAD_REACTORS
330
24F
102
}
330
24F
100
AcDbXrecord
 40
0.0
  0
XRECORD
  5
25F
102
{ACAD_REACTORS
330
24F
102
}
330
24F
100
AcDbXrecord
340
0
  0
XRECORD
  5
265
102
{ACAD_REACTORS
330
24F
102
}
330
24F
100
AcDbXrecord
 10
0.0
 20
0.0
 30
0.0
  0
XRECORD
  5
261
102
{ACAD_REACTORS
330
24F
102
}
330
24F
100
AcDbXrecord
 10
0.0
 20
0.0
 30
0.0
  0
XRECORD
  5
264
102
{ACAD_REACTORS
330
24F
102
}
330
24F
100
AcDbXrecord
 10
0.0
 20
0.0
 30
0.0
  0
XRECORD
  5
262
102
{ACAD_REACTORS
330
24F
102
}
330
24F
100
AcDbXrecord
 10
0.0
 20
0.0
 30
0.0
  0
XRECORD
  5
263
102
{ACAD_REACTORS
330
24F
102
}
330
24F
100
AcDbXrecord
 10
0.0
 20
0.0
 30
0.0
  0
XRECORD
  5
260
102
{ACAD_REACTORS
330
24F
102
}
330
24F
100
AcDbXrecord
 10
0.0
 20
0.0
 30
0.0
  0
XRECORD
  5
25D
102
{ACAD_REACTORS
330
24F
102
}
330
24F
100
AcDbXrecord
340
0
  0
XRECORD
  5
25E
102
{ACAD_REACTORS
330
24F
102
}
330
24F
100
AcDbXrecord
 70
     0
  0
XRECORD
  5
253
102
{ACAD_REACTORS
330
24F
102
}
330
24F
100
AcDbXrecord
  1

  0
XRECORD
  5
250
102
{ACAD_REACTORS
330
24F
102
}
330
24F
100
AcDbXrecord
 90
        1
  0
XRECORD
  5
251
102
{ACAD_REACTORS
330
24F
102
}
330
24F
100
AcDbXrecord
 90
       70
  0
XRECORD
  5
268
102
{ACAD_REACTORS
330
24F
102
}
330
24F
100
AcDbXrecord
340
0
  0
XRECORD
  5
26E
102
{ACAD_REACTORS
330
24F
102
}
330
24F
100
AcDbXrecord
 10
0.0
 20
0.0
 30
0.0
  0
XRECORD
  5
26A
102
{ACAD_REACTORS
330
24F
102
}
330
24F
100
AcDbXrecord
 10
0.0
 20
0.0
 30
0.0
  0
XRECORD
  5
26D
102
{ACAD_REACTORS
330
24F
102
}
330
24F
100
AcDbXrecord
 10
0.0
 20
0.0
 30
0.0
  0
XRECORD
  5
26B
102
{ACAD_REACTORS
330
24F
102
}
330
24F
100
AcDbXrecord
 10
0.0
 20
0.0
 30
0.0
  0
XRECORD
  5
26C
102
{ACAD_REACTORS
330
24F
102
}
330
24F
100
AcDbXrecord
 10
0.0
 20
0.0
 30
0.0
  0
XRECORD
  5
269
102
{ACAD_REACTORS
330
24F
102
}
330
24F
100
AcDbXrecord
 10
0.0
 20
0.0
 30
0.0
  0
XRECORD
  5
266
102
{ACAD_REACTORS
330
24F
102
}
330
24F
100
AcDbXrecord
340
0
  0
XRECORD
  5
267
102
{ACAD_REACTORS
330
24F
102
}
330
24F
100
AcDbXrecord
 70
     0
  0
XRECORD
  5
25B
102
{ACAD_REACTORS
330
24F
102
}
330
24F
100
AcDbXrecord
  1
{DC28528D-36CA-4D38-806D-D03C6C36B921}
  0
DICTIONARYVAR
  5
166
102
{ACAD_REACTORS
330
165
102
}
330
165
100
DictionaryVariables
280
     0
  1
1
  0
ENDSEC
  0
EOF
