  0
SECTION
  2
HEADER
  9
$ACADVER
  1
AC1015
  9
$ACADMAINTVER
 70
    20
  9
$DWGCODEPAGE
  3
ANSI_1252
  9
$INSBASE
 10
16.58352714329815
 20
-3.371046698751623
 30
0.0
  9
$EXTMIN
 10
2.394204581906613
 20
-4.713969007428567
 30
0.0
  9
$EXTMAX
 10
35.0228497046897
 20
14.64527288097673
 30
0.0
  9
$LIMMIN
 10
0.0
 20
0.0
  9
$LIMMAX
 10
36.0
 20
36.0
  9
$ORTHOMODE
 70
     1
  9
$REGENMODE
 70
     1
  9
$FILLMODE
 70
     1
  9
$QTEXTMODE
 70
     0
  9
$MIRRTEXT
 70
     1
  9
$LTSCALE
 40
1.0
  9
$ATTMODE
 70
     1
  9
$TEXTSIZE
 40
0.2
  9
$TRACEWID
 40
0.05
  9
$TEXTSTYLE
  7
STANDARD
  9
$CLAYER
  8
ADPDIM
  9
$CELTYPE
  6
BYLAYER
  9
$CECOLOR
 62
   256
  9
$CELTSCALE
 40
1.0
  9
$DISPSILH
 70
     0
  9
$DIMSCALE
 40
1.0
  9
$DIMASZ
 40
0.125
  9
$DIMEXO
 40
0.0625
  9
$DIMDLI
 40
0.38
  9
$DIMRND
 40
0.0
  9
$DIMDLE
 40
0.0
  9
$DIMEXE
 40
0.18
  9
$DIMTP
 40
0.0
  9
$DIMTM
 40
0.0
  9
$DIMTXT
 40
0.125
  9
$DIMCEN
 40
0.1875
  9
$DIMTSZ
 40
0.125
  9
$DIMTOL
 70
     0
  9
$DIMLIM
 70
     0
  9
$DIMTIH
 70
     0
  9
$DIMTOH
 70
     0
  9
$DIMSE1
 70
     0
  9
$DIMSE2
 70
     0
  9
$DIMTAD
 70
     0
  9
$DIMZIN
 70
     3
  9
$DIMBLK
  1

  9
$DIMASO
 70
     1
  9
$DIMSHO
 70
     1
  9
$DIMPOST
  1

  9
$DIMAPOST
  1

  9
$DIMALT
 70
     0
  9
$DIMALTD
 70
     1
  9
$DIMALTF
 40
25.4
  9
$DIMLFAC
 40
1.0
  9
$DIMTOFL
 70
     0
  9
$DIMTVP
 40
0.0
  9
$DIMTIX
 70
     0
  9
$DIMSOXD
 70
     0
  9
$DIMSAH
 70
     0
  9
$DIMBLK1
  1

  9
$DIMBLK2
  1

  9
$DIMSTYLE
  2
STANDARD
  9
$DIMCLRD
 70
     0
  9
$DIMCLRE
 70
     0
  9
$DIMCLRT
 70
     0
  9
$DIMTFAC
 40
1.0
  9
$DIMGAP
 40
0.125
  9
$DIMJUST
 70
     0
  9
$DIMSD1
 70
     0
  9
$DIMSD2
 70
     0
  9
$DIMTOLJ
 70
     1
  9
$DIMTZIN
 70
     0
  9
$DIMALTZ
 70
     0
  9
$DIMALTTZ
 70
     0
  9
$DIMUPT
 70
     0
  9
$DIMDEC
 70
     4
  9
$DIMTDEC
 70
     4
  9
$DIMALTU
 70
     2
  9
$DIMALTTD
 70
     2
  9
$DIMTXSTY
  7
STANDARD
  9
$DIMAUNIT
 70
     0
  9
$DIMADEC
 70
     0
  9
$DIMALTRND
 40
0.0
  9
$DIMAZIN
 70
     0
  9
$DIMDSEP
 70
    46
  9
$DIMATFIT
 70
     3
  9
$DIMFRAC
 70
     0
  9
$DIMLDRBLK
  1

  9
$DIMLUNIT
 70
     2
  9
$DIMLWD
 70
    -2
  9
$DIMLWE
 70
    -2
  9
$DIMTMOVE
 70
     0
  9
$LUNITS
 70
     5
  9
$LUPREC
 70
     4
  9
$SKETCHINC
 40
0.1
  9
$FILLETRAD
 40
0.125
  9
$AUNITS
 70
     0
  9
$AUPREC
 70
     0
  9
$MENU
  1
acad
  9
$ELEVATION
 40
0.0
  9
$PELEVATION
 40
0.0
  9
$THICKNESS
 40
0.0
  9
$LIMCHECK
 70
     0
  9
$CHAMFERA
 40
0.0
  9
$CHAMFERB
 40
0.0
  9
$CHAMFERC
 40
0.0
  9
$CHAMFERD
 40
0.0
  9
$SKPOLY
 70
     0
  9
$TDCREATE
 40
2450226.616906435
  9
$TDUCREATE
 40
2450226.783573102
  9
$TDUPDATE
 40
2453960.694071886
  9
$TDUUPDATE
 40
2453960.860738553
  9
$TDINDWG
 40
0.0618537616
  9
$TDUSRTIMER
 40
0.0618537616
  9
$USRTIMER
 70
     1
  9
$ANGBASE
 50
0.0
  9
$ANGDIR
 70
     0
  9
$PDMODE
 70
     0
  9
$PDSIZE
 40
0.0
  9
$PLINEWID
 40
0.0
  9
$SPLFRAME
 70
     0
  9
$SPLINETYPE
 70
     6
  9
$SPLINESEGS
 70
     8
  9
$HANDSEED
  5
34B
  9
$SURFTAB1
 70
     6
  9
$SURFTAB2
 70
     6
  9
$SURFTYPE
 70
     6
  9
$SURFU
 70
     6
  9
$SURFV
 70
     6
  9
$UCSBASE
  2

  9
$UCSNAME
  2

  9
$UCSORG
 10
0.0
 20
0.0
 30
0.0
  9
$UCSXDIR
 10
1.0
 20
0.0
 30
0.0
  9
$UCSYDIR
 10
0.0
 20
1.0
 30
0.0
  9
$UCSORTHOREF
  2

  9
$UCSORTHOVIEW
 70
     0
  9
$UCSORGTOP
 10
0.0
 20
0.0
 30
0.0
  9
$UCSORGBOTTOM
 10
0.0
 20
0.0
 30
0.0
  9
$UCSORGLEFT
 10
0.0
 20
0.0
 30
0.0
  9
$UCSORGRIGHT
 10
0.0
 20
0.0
 30
0.0
  9
$UCSORGFRONT
 10
0.0
 20
0.0
 30
0.0
  9
$UCSORGBACK
 10
0.0
 20
0.0
 30
0.0
  9
$PUCSBASE
  2

  9
$PUCSNAME
  2

  9
$PUCSORG
 10
0.0
 20
0.0
 30
0.0
  9
$PUCSXDIR
 10
1.0
 20
0.0
 30
0.0
  9
$PUCSYDIR
 10
0.0
 20
1.0
 30
0.0
  9
$PUCSORTHOREF
  2

  9
$PUCSORTHOVIEW
 70
     0
  9
$PUCSORGTOP
 10
0.0
 20
0.0
 30
0.0
  9
$PUCSORGBOTTOM
 10
0.0
 20
0.0
 30
0.0
  9
$PUCSORGLEFT
 10
0.0
 20
0.0
 30
0.0
  9
$PUCSORGRIGHT
 10
0.0
 20
0.0
 30
0.0
  9
$PUCSORGFRONT
 10
0.0
 20
0.0
 30
0.0
  9
$PUCSORGBACK
 10
0.0
 20
0.0
 30
0.0
  9
$USERI1
 70
     0
  9
$USERI2
 70
     0
  9
$USERI3
 70
     0
  9
$USERI4
 70
     0
  9
$USERI5
 70
     0
  9
$USERR1
 40
0.0
  9
$USERR2
 40
0.0
  9
$USERR3
 40
0.0
  9
$USERR4
 40
0.0
  9
$USERR5
 40
0.0
  9
$WORLDVIEW
 70
     1
  9
$SHADEDGE
 70
     3
  9
$SHADEDIF
 70
    70
  9
$TILEMODE
 70
     1
  9
$MAXACTVP
 70
    15
  9
$PINSBASE
 10
0.0008545056916773
 20
1.250276130627782
 30
0.0
  9
$PLIMCHECK
 70
     0
  9
$PEXTMIN
 10
1.000000000000000E+20
 20
1.000000000000000E+20
 30
1.000000000000000E+20
  9
$PEXTMAX
 10
-1.000000000000000E+20
 20
-1.000000000000000E+20
 30
-1.000000000000000E+20
  9
$PLIMMIN
 10
0.0
 20
0.0
  9
$PLIMMAX
 10
12.0
 20
9.0
  9
$UNITMODE
 70
     0
  9
$VISRETAIN
 70
     0
  9
$PLINEGEN
 70
     0
  9
$PSLTSCALE
 70
     1
  9
$TREEDEPTH
 70
  3020
  9
$CMLSTYLE
  2
STANDARD
  9
$CMLJUST
 70
     0
  9
$CMLSCALE
 40
1.0
  9
$PROXYGRAPHICS
 70
     1
  9
$MEASUREMENT
 70
     0
  9
$CELWEIGHT
370
    -1
  9
$ENDCAPS
280
     0
  9
$JOINSTYLE
280
     0
  9
$LWDISPLAY
290
     0
  9
$INSUNITS
 70
     0
  9
$HYPERLINKBASE
  1

  9
$STYLESHEET
  1

  9
$XEDIT
290
     1
  9
$CEPSNTYPE
380
     0
  9
$PSTYLEMODE
290
     1
  9
$FINGERPRINTGUID
  2
{30512D2D-2A05-4678-8404-6AC295801EF6}
  9
$VERSIONGUID
  2
{D789118D-4302-4165-925E-B53800D4602B}
  9
$EXTNAMES
290
     1
  9
$PSVPSCALE
 40
0.0
  9
$OLESTARTUP
290
     0
  0
ENDSEC
  0
SECTION
  2
CLASSES
  0
CLASS
  1
ACDBDICTIONARYWDFLT
  2
AcDbDictionaryWithDefault
  3
ObjectDBX Classes
 90
        0
280
     0
281
     0
  0
CLASS
  1
ACDBPLACEHOLDER
  2
AcDbPlaceHolder
  3
ObjectDBX Classes
 90
        0
280
     0
281
     0
  0
CLASS
  1
LAYOUT
  2
AcDbLayout
  3
ObjectDBX Classes
 90
        0
280
     0
281
     0
  0
CLASS
  1
DICTIONARYVAR
  2
AcDbDictionaryVar
  3
ObjectDBX Classes
 90
        0
280
     0
281
     0
  0
CLASS
  1
MATERIAL
  2
AcDbMaterial
  3
ObjectDBX Classes
 90
     1024
280
     0
281
     0
  0
CLASS
  1
VISUALSTYLE
  2
AcDbVisualStyle
  3
ObjectDBX Classes
 90
     4095
280
     0
281
     0
  0
CLASS
  1
TABLESTYLE
  2
AcDbTableStyle
  3
ObjectDBX Classes
 90
     4095
280
     0
281
     0
  0
ENDSEC
  0
SECTION
  2
TABLES
  0
TABLE
  2
VPORT
  5
8
330
0
100
AcDbSymbolTable
 70
     1
  0
VPORT
  5
1EE
330
8
100
AcDbSymbolTableRecord
100
AcDbViewportTableRecord
  2
*Active
 70
     0
 10
0.0
 20
0.0
 11
1.0
 21
1.0
 12
22.97396859857049
 22
0.786149732490749
 13
0.0
 23
0.0
 14
0.5740882589684922
 24
0.5740882589684922
 15
0.5
 25
0.5
 16
0.0
 26
0.0
 36
1.0
 17
0.0
 27
0.0
 37
0.0
 40
14.3374950150333
 41
1.774011299435028
 42
50.0
 43
0.0
 44
0.0
 50
0.0
 51
0.0
 71
     0
 72
   100
 73
     1
 74
     0
 75
     0
 76
     0
 77
     0
 78
     0
281
     0
 65
     1
110
0.0
120
0.0
130
0.0
111
1.0
121
0.0
131
0.0
112
0.0
122
1.0
132
0.0
 79
     0
146
0.0
  0
ENDTAB
  0
TABLE
  2
LTYPE
  5
5
330
0
100
AcDbSymbolTable
 70
     2
  0
LTYPE
  5
12
330
5
100
AcDbSymbolTableRecord
100
AcDbLinetypeTableRecord
  2
BYBLOCK
 70
     0
  3

 72
    65
 73
     0
 40
0.0
  0
LTYPE
  5
13
330
5
100
AcDbSymbolTableRecord
100
AcDbLinetypeTableRecord
  2
BYLAYER
 70
     0
  3

 72
    65
 73
     0
 40
0.0
  0
LTYPE
  5
14
330
5
100
AcDbSymbolTableRecord
100
AcDbLinetypeTableRecord
  2
CONTINUOUS
 70
     0
  3
Solid line
 72
    65
 73
     0
 40
0.0
  0
LTYPE
  5
6F
330
5
100
AcDbSymbolTableRecord
100
AcDbLinetypeTableRecord
  2
HIDDEN2
 70
     0
  3
_ _ _ _ _ _ _ _ _ _ _ _ _ _ _ _ _ _ _ _ _ _ _ _
 72
    65
 73
     2
 40
0.1875
 49
0.125
 74
     0
 49
-0.0625
 74
     0
  0
ENDTAB
  0
TABLE
  2
LAYER
  5
2
330
0
100
AcDbSymbolTable
 70
     5
  0
LAYER
  5
F
330
2
100
AcDbSymbolTableRecord
100
AcDbLayerTableRecord
  2
0
 70
     0
 62
     7
  6
CONTINUOUS
370
    -3
390
D2
  0
LAYER
  5
70
330
2
100
AcDbSymbolTableRecord
100
AcDbLayerTableRecord
  2
ADP2DETAIL
 70
     0
 62
     5
  6
CONTINUOUS
370
    -3
390
D2
  0
LAYER
  5
71
330
2
100
AcDbSymbolTableRecord
100
AcDbLayerTableRecord
  2
ADPDIM
 70
     0
 62
     3
  6
CONTINUOUS
370
    -3
390
D2
  0
LAYER
  5
73
330
2
100
AcDbSymbolTableRecord
100
AcDbLayerTableRecord
  2
ADP1DETAIL
 70
     0
 62
     7
  6
CONTINUOUS
370
    -3
390
D2
  0
LAYER
  5
75
330
2
100
AcDbSymbolTableRecord
100
AcDbLayerTableRecord
  2
DEFPOINTS
 70
     0
 62
     7
  6
CONTINUOUS
290
     0
370
    -3
390
D2
  0
ENDTAB
  0
TABLE
  2
STYLE
  5
3
330
0
100
AcDbSymbolTable
 70
     2
  0
STYLE
  5
10
330
3
100
AcDbSymbolTableRecord
100
AcDbTextStyleTableRecord
  2
STANDARD
 70
     0
 40
0.0
 41
1.0
 50
0.0
 71
     0
 42
0.2
  3
txt
  4

  0
STYLE
  5
D9
330
3
100
AcDbSymbolTableRecord
100
AcDbTextStyleTableRecord
  2
ARIAL_WIDE
 70
     0
 40
0.0
 41
1.25
 50
0.0
 71
     0
 42
0.2
  3
ARIAL.TTF
  4

1001
ACAD
1000
Arial
1071
       34
  0
ENDTAB
  0
TABLE
  2
VIEW
  5
6
330
0
100
AcDbSymbolTable
 70
     0
  0
ENDTAB
  0
TABLE
  2
UCS
  5
7
330
0
100
AcDbSymbolTable
 70
     0
  0
ENDTAB
  0
TABLE
  2
APPID
  5
9
330
0
100
AcDbSymbolTable
 70
     2
  0
APPID
  5
11
330
9
100
AcDbSymbolTableRecord
100
AcDbRegAppTableRecord
  2
ACAD
 70
     0
  0
APPID
  5
284
330
9
100
AcDbSymbolTableRecord
100
AcDbRegAppTableRecord
  2
DCO15
 70
     0
  0
ENDTAB
  0
TABLE
  2
DIMSTYLE
  5
A
330
0
100
AcDbSymbolTable
 70
     1
100
AcDbDimStyleTable
 71
     1
340
CD
  0
DIMSTYLE
105
CD
102
{ACAD_REACTORS
330
242
330
2B4
330
2BD
330
2BE
330
2BF
102
}
330
A
100
AcDbSymbolTableRecord
100
AcDbDimStyleTableRecord
  2
STANDARD
 70
     0
340
10
  0
ENDTAB
  0
TABLE
  2
BLOCK_RECORD
  5
1
330
0
100
AcDbSymbolTable
 70
    14
  0
BLOCK_RECORD
  5
18
102
{ACAD_XDICTIONARY
360
12E
102
}
330
1
100
AcDbSymbolTableRecord
100
AcDbBlockTableRecord
  2
*MODEL_SPACE
340
D5
  0
BLOCK_RECORD
  5
15
102
{ACAD_XDICTIONARY
360
12C
102
}
330
1
100
AcDbSymbolTableRecord
100
AcDbBlockTableRecord
  2
*PAPER_SPACE
340
D6
  0
BLOCK_RECORD
  5
57
330
1
100
AcDbSymbolTableRecord
100
AcDbBlockTableRecord
  2
*D0
340
0
  0
BLOCK_RECORD
  5
59
330
1
100
AcDbSymbolTableRecord
100
AcDbBlockTableRecord
  2
*D1
340
0
  0
BLOCK_RECORD
  5
5B
330
1
100
AcDbSymbolTableRecord
100
AcDbBlockTableRecord
  2
*D2
340
0
  0
BLOCK_RECORD
  5
235
330
1
100
AcDbSymbolTableRecord
100
AcDbBlockTableRecord
  2
*D3
340
0
  0
BLOCK_RECORD
  5
243
330
1
100
AcDbSymbolTableRecord
100
AcDbBlockTableRecord
  2
*D4
340
0
  0
BLOCK_RECORD
  5
250
330
1
100
AcDbSymbolTableRecord
100
AcDbBlockTableRecord
  2
*D5
340
0
  0
BLOCK_RECORD
  5
25D
330
1
100
AcDbSymbolTableRecord
100
AcDbBlockTableRecord
  2
*D6
340
0
  0
BLOCK_RECORD
  5
26A
330
1
100
AcDbSymbolTableRecord
100
AcDbBlockTableRecord
  2
*D7
340
0
  0
BLOCK_RECORD
  5
277
330
1
100
AcDbSymbolTableRecord
100
AcDbBlockTableRecord
  2
*D8
340
0
  0
BLOCK_RECORD
  5
2C0
330
1
100
AcDbSymbolTableRecord
100
AcDbBlockTableRecord
  2
*D10
340
0
  0
BLOCK_RECORD
  5
2CD
330
1
100
AcDbSymbolTableRecord
100
AcDbBlockTableRecord
  2
*D11
340
0
  0
BLOCK_RECORD
  5
2DA
330
1
100
AcDbSymbolTableRecord
100
AcDbBlockTableRecord
  2
*D12
340
0
  0
BLOCK_RECORD
  5
2E7
330
1
100
AcDbSymbolTableRecord
100
AcDbBlockTableRecord
  2
*D13
340
0
  0
ENDTAB
  0
ENDSEC
  0
SECTION
  2
BLOCKS
  0
BLOCK
  5
78
330
18
100
AcDbEntity
  8
0
100
AcDbBlockBegin
  2
*MODEL_SPACE
 70
     0
 10
0.0
 20
0.0
 30
0.0
  3
*MODEL_SPACE
  1

  0
ENDBLK
  5
79
330
18
100
AcDbEntity
  8
0
100
AcDbBlockEnd
  0
BLOCK
  5
76
330
15
100
AcDbEntity
 67
     1
  8
0
100
AcDbBlockBegin
  2
*PAPER_SPACE
 70
     0
 10
0.0
 20
0.0
 30
0.0
  3
*PAPER_SPACE
  1

  0
ENDBLK
  5
77
330
15
100
AcDbEntity
 67
     1
  8
0
100
AcDbBlockEnd
  0
BLOCK
  5
7B
330
57
100
AcDbEntity
  8
0
100
AcDbBlockBegin
  2
*D0
 70
     1
 10
0.0
 20
0.0
 30
0.0
  3
*D0
  1

  0
LINE
  5
7C
330
57
100
AcDbEntity
  8
0
  6
ByBlock
 62
     0
100
AcDbLine
 10
19.56352714329815
 20
14.07331340584734
 30
0.0
 11
21.50745595212522
 21
14.07331340584734
 31
0.0
  0
LINE
  5
7D
330
57
100
AcDbEntity
  8
0
  6
ByBlock
 62
     0
100
AcDbLine
 10
21.14602714329816
 20
2.073313405847345
 30
0.0
 11
21.50745595212522
 21
2.073313405847345
 31
0.0
  0
LINE
  5
7E
330
57
100
AcDbEntity
  8
0
  6
ByBlock
 62
     0
100
AcDbLine
 10
21.32745595212522
 20
14.07331340584734
 30
0.0
 11
21.32745595212522
 21
8.281646739180679
 31
0.0
  0
LINE
  5
7F
330
57
100
AcDbEntity
  8
0
  6
ByBlock
 62
     0
100
AcDbLine
 10
21.32745595212522
 20
2.073313405847345
 30
0.0
 11
21.32745595212522
 21
7.864980072514013
 31
0.0
  0
LINE
  5
80
330
57
100
AcDbEntity
  8
0
  6
ByBlock
 62
     0
100
AcDbLine
 10
21.45245595212522
 20
13.94831340584735
 30
0.0
 11
21.20245595212522
 21
14.19831340584735
 31
0.0
  0
LINE
  5
81
330
57
100
AcDbEntity
  8
0
  6
ByBlock
 62
     0
100
AcDbLine
 10
21.45245595212522
 20
1.948313405847345
 30
0.0
 11
21.20245595212522
 21
2.198313405847345
 31
0.0
  0
TEXT
  5
82
330
57
100
AcDbEntity
  8
0
  6
ByBlock
 62
     0
100
AcDbText
 10
21.38995595212522
 20
7.989980072514012
 30
0.0
 40
0.125
  1
12
 50
90.0
 72
     1
 11
21.32745595212522
 21
8.073313405847345
 31
0.0
100
AcDbText
 73
     2
  0
POINT
  5
83
330
57
100
AcDbEntity
  8
DEFPOINTS
  6
ByBlock
 62
     0
100
AcDbPoint
 10
19.50102714329815
 20
14.07331340584734
 30
0.0
  0
POINT
  5
84
330
57
100
AcDbEntity
  8
DEFPOINTS
  6
ByBlock
 62
     0
100
AcDbPoint
 10
21.08352714329816
 20
2.073313405847345
 30
0.0
  0
POINT
  5
85
330
57
100
AcDbEntity
  8
DEFPOINTS
  6
ByBlock
 62
     0
100
AcDbPoint
 10
21.32745595212522
 20
2.073313405847345
 30
0.0
  0
ENDBLK
  5
86
330
57
100
AcDbEntity
  8
0
100
AcDbBlockEnd
  0
BLOCK
  5
87
330
59
100
AcDbEntity
  8
0
100
AcDbBlockBegin
  2
*D1
 70
     1
 10
0.0
 20
0.0
 30
0.0
  3
*D1
  1

  0
LINE
  5
88
330
59
100
AcDbEntity
  8
0
  6
ByBlock
 62
     0
100
AcDbLine
 10
20.89602714329815
 20
-3.371046698751623
 30
0.0
 11
21.50745595212522
 21
-3.371046698751623
 31
0.0
  0
LINE
  5
89
330
59
100
AcDbEntity
  8
0
  6
ByBlock
 62
     0
100
AcDbLine
 10
20.89602714329815
 20
1.378953301248376
 30
0.0
 11
21.50745595212522
 21
1.378953301248376
 31
0.0
  0
LINE
  5
8A
330
59
100
AcDbEntity
  8
0
  6
ByBlock
 62
     0
100
AcDbLine
 10
21.32745595212522
 20
-3.371046698751623
 30
0.0
 11
21.32745595212522
 21
-1.41271336541829
 31
0.0
  0
LINE
  5
8B
330
59
100
AcDbEntity
  8
0
  6
ByBlock
 62
     0
100
AcDbLine
 10
21.32745595212522
 20
1.378953301248376
 30
0.0
 11
21.32745595212522
 21
-0.5793800320849567
 31
0.0
  0
LINE
  5
8C
330
59
100
AcDbEntity
  8
0
  6
ByBlock
 62
     0
100
AcDbLine
 10
21.45245595212522
 20
-3.496046698751623
 30
0.0
 11
21.20245595212522
 21
-3.246046698751623
 31
0.0
  0
LINE
  5
8D
330
59
100
AcDbEntity
  8
0
  6
ByBlock
 62
     0
100
AcDbLine
 10
21.45245595212522
 20
1.253953301248376
 30
0.0
 11
21.20245595212522
 21
1.503953301248376
 31
0.0
  0
TEXT
  5
8E
330
59
100
AcDbEntity
  8
0
  6
ByBlock
 62
     0
100
AcDbText
 10
21.38995595212522
 20
-1.28771336541829
 30
0.0
 40
0.125
  1
4 3/4
 50
90.0
 72
     1
 11
21.32745595212522
 21
-0.9960466987516234
 31
0.0
100
AcDbText
 73
     2
  0
POINT
  5
8F
330
59
100
AcDbEntity
  8
DEFPOINTS
  6
ByBlock
 62
     0
100
AcDbPoint
 10
20.83352714329816
 20
-3.371046698751623
 30
0.0
  0
POINT
  5
90
330
59
100
AcDbEntity
  8
DEFPOINTS
  6
ByBlock
 62
     0
100
AcDbPoint
 10
20.83352714329816
 20
1.378953301248376
 30
0.0
  0
POINT
  5
91
330
59
100
AcDbEntity
  8
DEFPOINTS
  6
ByBlock
 62
     0
100
AcDbPoint
 10
21.32745595212522
 20
1.378953301248376
 30
0.0
  0
ENDBLK
  5
92
330
59
100
AcDbEntity
  8
0
100
AcDbBlockEnd
  0
BLOCK
  5
93
330
5B
100
AcDbEntity
  8
0
100
AcDbBlockBegin
  2
*D2
 70
     1
 10
0.0
 20
0.0
 30
0.0
  3
*D2
  1

  0
LINE
  5
94
330
5B
100
AcDbEntity
  8
0
  6
ByBlock
 62
     0
100
AcDbLine
 10
19.50102714329815
 20
14.13581340584735
 30
0.0
 11
19.50102714329815
 21
14.60298548719139
 31
0.0
  0
LINE
  5
95
330
5B
100
AcDbEntity
  8
0
  6
ByBlock
 62
     0
100
AcDbLine
 10
17.91602714329815
 20
14.13581340584735
 30
0.0
 11
17.91602714329815
 21
14.60298548719139
 31
0.0
  0
LINE
  5
96
330
5B
100
AcDbEntity
  8
0
  6
ByBlock
 62
     0
100
AcDbLine
 10
19.50102714329815
 20
14.42298548719139
 30
0.0
 11
19.14602714329815
 21
14.42298548719139
 31
0.0
  0
LINE
  5
97
330
5B
100
AcDbEntity
  8
0
  6
ByBlock
 62
     0
100
AcDbLine
 10
17.91602714329815
 20
14.42298548719139
 30
0.0
 11
18.27102714329815
 21
14.42298548719139
 31
0.0
  0
LINE
  5
98
330
5B
100
AcDbEntity
  8
0
  6
ByBlock
 62
     0
100
AcDbLine
 10
19.37602714329815
 20
14.29798548719139
 30
0.0
 11
19.62602714329815
 21
14.54798548719139
 31
0.0
  0
LINE
  5
99
330
5B
100
AcDbEntity
  8
0
  6
ByBlock
 62
     0
100
AcDbLine
 10
17.79102714329815
 20
14.29798548719139
 30
0.0
 11
18.04102714329815
 21
14.54798548719139
 31
0.0
  0
TEXT
  5
9A
330
5B
100
AcDbEntity
  8
0
  6
ByBlock
 62
     0
100
AcDbText
 10
18.39602714329815
 20
14.36048548719139
 30
0.0
 40
0.125
  1
1 9/16
 72
     1
 11
18.70852714329815
 21
14.42298548719139
 31
0.0
100
AcDbText
 73
     2
  0
POINT
  5
9B
330
5B
100
AcDbEntity
  8
DEFPOINTS
  6
ByBlock
 62
     0
100
AcDbPoint
 10
19.50102714329815
 20
14.07331340584734
 30
0.0
  0
POINT
  5
9C
330
5B
100
AcDbEntity
  8
DEFPOINTS
  6
ByBlock
 62
     0
100
AcDbPoint
 10
17.91602714329815
 20
14.07331340584734
 30
0.0
  0
POINT
  5
9D
330
5B
100
AcDbEntity
  8
DEFPOINTS
  6
ByBlock
 62
     0
100
AcDbPoint
 10
17.91602714329815
 20
14.42298548719139
 30
0.0
  0
ENDBLK
  5
9E
330
5B
100
AcDbEntity
  8
0
100
AcDbBlockEnd
  0
BLOCK
  5
240
330
235
100
AcDbEntity
  8
0
100
AcDbBlockBegin
  2
*D3
 70
     1
 10
0.0
 20
0.0
 30
0.0
  3
*D3
  1

  0
LINE
  5
236
330
235
100
AcDbEntity
  8
ADPDIM
 62
     0
370
    -2
100
AcDbLine
 10
19.50102714329815
 20
14.13581340584735
 30
0.0
 11
19.50102714329815
 21
14.60298548719139
 31
0.0
  0
LINE
  5
237
330
235
100
AcDbEntity
  8
ADPDIM
 62
     0
370
    -2
100
AcDbLine
 10
17.91602714329815
 20
14.13581340584735
 30
0.0
 11
17.91602714329815
 21
14.60298548719139
 31
0.0
  0
LINE
  5
238
330
235
100
AcDbEntity
  8
ADPDIM
 62
     0
370
    -2
100
AcDbLine
 10
19.50102714329815
 20
14.42298548719139
 30
0.0
 11
19.11477714329815
 21
14.42298548719139
 31
0.0
  0
LINE
  5
239
330
235
100
AcDbEntity
  8
ADPDIM
 62
     0
370
    -2
100
AcDbLine
 10
17.91602714329815
 20
14.42298548719139
 30
0.0
 11
18.30227714329815
 21
14.42298548719139
 31
0.0
  0
LINE
  5
23A
330
235
100
AcDbEntity
  8
ADPDIM
 62
     0
370
    -2
100
AcDbLine
 10
17.79102714329815
 20
14.29798548719139
 30
0.0
 11
18.04102714329815
 21
14.54798548719139
 31
0.0
  0
LINE
  5
23B
330
235
100
AcDbEntity
  8
ADPDIM
 62
     0
370
    -2
100
AcDbLine
 10
19.37602714329815
 20
14.29798548719139
 30
0.0
 11
19.62602714329815
 21
14.54798548719139
 31
0.0
  0
MTEXT
  5
23C
330
235
100
AcDbEntity
  8
ADPDIM
 62
     0
100
AcDbMText
 10
18.70852714329815
 20
14.42298548719139
 30
0.0
 40
0.125
 41
0.0
 71
     5
 72
     1
  1
\A1;1.5850
 73
     1
 44
1.0
1001
ACAD
1000
MTEXTBEGIN
1070
    73
1070
     1
1070
    44
1040
1.0
1070
    74
1070
     0
1000
MTEXTEND
  0
POINT
  5
23D
330
235
100
AcDbEntity
  8
DEFPOINTS
 62
     0
100
AcDbPoint
 10
19.50102714329815
 20
14.07331340584734
 30
0.0
  0
POINT
  5
23E
330
235
100
AcDbEntity
  8
DEFPOINTS
 62
     0
100
AcDbPoint
 10
17.91602714329815
 20
14.07331340584734
 30
0.0
  0
POINT
  5
23F
330
235
100
AcDbEntity
  8
DEFPOINTS
 62
     0
100
AcDbPoint
 10
17.91602714329815
 20
14.42298548719139
 30
0.0
  0
ENDBLK
  5
241
330
235
100
AcDbEntity
  8
0
100
AcDbBlockEnd
  0
BLOCK
  5
24E
330
243
100
AcDbEntity
  8
0
 62
     3
100
AcDbBlockBegin
  2
*D4
 70
     1
 10
0.0
 20
0.0
 30
0.0
  3
*D4
  1

  0
LINE
  5
244
330
243
100
AcDbEntity
  8
ADPDIM
 62
     0
370
    -2
100
AcDbLine
 10
19.50310109133356
 20
14.13845059588431
 30
0.0
 11
19.50310109133356
 21
14.64527288097673
 31
0.0
  0
LINE
  5
245
330
243
100
AcDbEntity
  8
ADPDIM
 62
     0
370
    -2
100
AcDbLine
 10
17.91810109133356
 20
14.13845059588431
 30
0.0
 11
17.91810109133356
 21
14.64527288097673
 31
0.0
  0
LINE
  5
246
330
243
100
AcDbEntity
  8
ADPDIM
 62
     0
370
    -2
100
AcDbLine
 10
19.50310109133356
 20
14.46527288097673
 30
0.0
 11
19.11685109133356
 21
14.46527288097673
 31
0.0
  0
LINE
  5
247
330
243
100
AcDbEntity
  8
ADPDIM
 62
     0
370
    -2
100
AcDbLine
 10
17.91810109133356
 20
14.46527288097673
 30
0.0
 11
18.30435109133356
 21
14.46527288097673
 31
0.0
  0
LINE
  5
248
330
243
100
AcDbEntity
  8
ADPDIM
 62
     0
370
    -2
100
AcDbLine
 10
17.79310109133356
 20
14.34027288097673
 30
0.0
 11
18.04310109133356
 21
14.59027288097673
 31
0.0
  0
LINE
  5
249
330
243
100
AcDbEntity
  8
ADPDIM
 62
     0
370
    -2
100
AcDbLine
 10
19.37810109133356
 20
14.34027288097673
 30
0.0
 11
19.62810109133356
 21
14.59027288097673
 31
0.0
  0
MTEXT
  5
24A
330
243
100
AcDbEntity
  8
ADPDIM
 62
     0
100
AcDbMText
 10
18.71060109133356
 20
14.46527288097673
 30
0.0
 40
0.125
 41
0.0
 71
     5
 72
     1
  1
\A1;1.5850
 73
     1
 44
1.0
1001
ACAD
1000
MTEXTBEGIN
1070
    73
1070
     1
1070
    44
1040
1.0
1070
    74
1070
     0
1000
MTEXTEND
  0
POINT
  5
24B
330
243
100
AcDbEntity
  8
DEFPOINTS
 62
     0
100
AcDbPoint
 10
19.50310109133356
 20
14.0759505958843
 30
0.0
  0
POINT
  5
24C
330
243
100
AcDbEntity
  8
DEFPOINTS
 62
     0
100
AcDbPoint
 10
17.91810109133356
 20
14.0759505958843
 30
0.0
  0
POINT
  5
24D
330
243
100
AcDbEntity
  8
DEFPOINTS
 62
     0
100
AcDbPoint
 10
17.91810109133356
 20
14.46527288097673
 30
0.0
  0
ENDBLK
  5
24F
330
243
100
AcDbEntity
  8
0
 62
     3
100
AcDbBlockEnd
  0
BLOCK
  5
251
330
250
100
AcDbEntity
  8
0
100
AcDbBlockBegin
  2
*D5
 70
     1
 10
0.0
 20
0.0
 30
0.0
  3
*D5
  1

  0
LINE
  5
252
330
250
100
AcDbEntity
  8
0
  6
ByBlock
 62
     0
100
AcDbLine
 10
43.15391070739599
 20
-3.371046698751623
 30
0.0
 11
44.08130927859277
 21
-3.371046698751623
 31
0.0
  0
LINE
  5
253
330
250
100
AcDbEntity
  8
0
  6
ByBlock
 62
     0
100
AcDbLine
 10
43.15391070739599
 20
1.378953301248376
 30
0.0
 11
44.08130927859277
 21
1.378953301248376
 31
0.0
  0
LINE
  5
254
330
250
100
AcDbEntity
  8
0
  6
ByBlock
 62
     0
100
AcDbLine
 10
43.90130927859277
 20
-3.371046698751623
 30
0.0
 11
43.90130927859277
 21
-1.41271336541829
 31
0.0
  0
LINE
  5
255
330
250
100
AcDbEntity
  8
0
  6
ByBlock
 62
     0
100
AcDbLine
 10
43.90130927859277
 20
1.378953301248376
 30
0.0
 11
43.90130927859277
 21
-0.5793800320849567
 31
0.0
  0
LINE
  5
256
330
250
100
AcDbEntity
  8
0
  6
ByBlock
 62
     0
100
AcDbLine
 10
44.02630927859276
 20
-3.496046698751623
 30
0.0
 11
43.77630927859277
 21
-3.246046698751623
 31
0.0
  0
LINE
  5
257
330
250
100
AcDbEntity
  8
0
  6
ByBlock
 62
     0
100
AcDbLine
 10
44.02630927859276
 20
1.253953301248376
 30
0.0
 11
43.77630927859277
 21
1.503953301248376
 31
0.0
  0
TEXT
  5
258
330
250
100
AcDbEntity
  8
0
  6
ByBlock
 62
     0
100
AcDbText
 10
43.96380927859277
 20
-1.28771336541829
 30
0.0
 40
0.125
  1
4 3/4
 50
90.0
 72
     1
 11
43.90130927859277
 21
-0.9960466987516234
 31
0.0
100
AcDbText
 73
     2
  0
POINT
  5
259
330
250
100
AcDbEntity
  8
DEFPOINTS
  6
ByBlock
 62
     0
100
AcDbPoint
 10
43.091410707396
 20
-3.371046698751623
 30
0.0
  0
POINT
  5
25A
330
250
100
AcDbEntity
  8
DEFPOINTS
  6
ByBlock
 62
     0
100
AcDbPoint
 10
43.091410707396
 20
1.378953301248376
 30
0.0
  0
POINT
  5
25B
330
250
100
AcDbEntity
  8
DEFPOINTS
  6
ByBlock
 62
     0
100
AcDbPoint
 10
43.90130927859277
 20
1.378953301248376
 30
0.0
  0
ENDBLK
  5
25C
330
250
100
AcDbEntity
  8
0
100
AcDbBlockEnd
  0
BLOCK
  5
25E
330
25D
100
AcDbEntity
  8
0
 62
     3
100
AcDbBlockBegin
  2
*D6
 70
     1
 10
0.0
 20
0.0
 30
0.0
  3
*D6
  1

  0
LINE
  5
25F
330
25D
100
AcDbEntity
  8
ADPDIM
 62
     0
370
    -2
100
AcDbLine
 10
39.16512127864355
 20
0.7590153336974659
 30
0.0
 11
37.97862480743031
 21
0.7590153336974663
 31
0.0
  0
LINE
  5
260
330
25D
100
AcDbEntity
  8
ADPDIM
 62
     0
370
    -2
100
AcDbLine
 10
39.16512127864355
 20
1.384015333697465
 30
0.0
 11
37.97862480743031
 21
1.384015333697466
 31
0.0
  0
LINE
  5
261
330
25D
100
AcDbEntity
  8
ADPDIM
 62
     0
370
    -2
100
AcDbLine
 10
38.15862480743032
 20
0.7590153336974663
 30
0.0
 11
38.15862480743032
 21
0.5090153336974663
 31
0.0
  0
LINE
  5
262
330
25D
100
AcDbEntity
  8
ADPDIM
 62
     0
370
    -2
100
AcDbLine
 10
38.15862480743032
 20
1.384015333697466
 30
0.0
 11
38.15862480743032
 21
1.634015333697466
 31
0.0
  0
LINE
  5
263
330
25D
100
AcDbEntity
  8
ADPDIM
 62
     0
370
    -2
100
AcDbLine
 10
38.28362480743031
 20
1.259015333697466
 30
0.0
 11
38.03362480743031
 21
1.509015333697466
 31
0.0
  0
LINE
  5
264
330
25D
100
AcDbEntity
  8
ADPDIM
 62
     0
370
    -2
100
AcDbLine
 10
38.28362480743031
 20
0.6340153336974661
 30
0.0
 11
38.03362480743031
 21
0.8840153336974662
 31
0.0
  0
MTEXT
  5
265
330
25D
100
AcDbEntity
  8
ADPDIM
 62
     0
100
AcDbMText
 10
38.15862480743032
 20
1.071515333697472
 30
0.0
 40
0.125
 41
0.0
 71
     5
 72
     1
  1
\A1;5/8
 11
0.0000000000000001
 21
1.0
 31
0.0
 73
     1
 44
1.0
1001
ACAD
1000
MTEXTBEGIN
1070
    73
1070
     1
1070
    44
1040
1.0
1070
    74
1070
     0
1000
MTEXTEND
  0
POINT
  5
266
330
25D
100
AcDbEntity
  8
DEFPOINTS
 62
     0
100
AcDbPoint
 10
39.22762127864355
 20
0.7590153336974659
 30
0.0
  0
POINT
  5
267
330
25D
100
AcDbEntity
  8
DEFPOINTS
 62
     0
100
AcDbPoint
 10
39.22762127864355
 20
1.384015333697465
 30
0.0
  0
POINT
  5
268
330
25D
100
AcDbEntity
  8
DEFPOINTS
 62
     0
100
AcDbPoint
 10
38.15862480743032
 20
1.384015333697466
 30
0.0
  0
ENDBLK
  5
269
330
25D
100
AcDbEntity
  8
0
 62
     3
100
AcDbBlockEnd
  0
BLOCK
  5
26B
330
26A
100
AcDbEntity
  8
0
100
AcDbBlockBegin
  2
*D7
 70
     1
 10
0.0
 20
0.0
 30
0.0
  3
*D7
  1

  0
LINE
  5
26C
330
26A
100
AcDbEntity
  8
ADPDIM
 62
     0
370
    -2
100
AcDbLine
 10
39.15463919164518
 20
-3.378305395712271
 30
0.0
 11
37.96814272043195
 21
-3.37830539571227
 31
0.0
  0
LINE
  5
26D
330
26A
100
AcDbEntity
  8
ADPDIM
 62
     0
370
    -2
100
AcDbLine
 10
39.15463919164518
 20
-2.753305395712271
 30
0.0
 11
37.96814272043195
 21
-2.75330539571227
 31
0.0
  0
LINE
  5
26E
330
26A
100
AcDbEntity
  8
ADPDIM
 62
     0
370
    -2
100
AcDbLine
 10
38.14814272043195
 20
-3.37830539571227
 30
0.0
 11
38.14814272043195
 21
-3.62830539571227
 31
0.0
  0
LINE
  5
26F
330
26A
100
AcDbEntity
  8
ADPDIM
 62
     0
370
    -2
100
AcDbLine
 10
38.14814272043195
 20
-2.75330539571227
 30
0.0
 11
38.14814272043195
 21
-2.50330539571227
 31
0.0
  0
LINE
  5
270
330
26A
100
AcDbEntity
  8
ADPDIM
 62
     0
370
    -2
100
AcDbLine
 10
38.27314272043195
 20
-2.87830539571227
 30
0.0
 11
38.02314272043195
 21
-2.62830539571227
 31
0.0
  0
LINE
  5
271
330
26A
100
AcDbEntity
  8
ADPDIM
 62
     0
370
    -2
100
AcDbLine
 10
38.27314272043195
 20
-3.50330539571227
 30
0.0
 11
38.02314272043195
 21
-3.25330539571227
 31
0.0
  0
MTEXT
  5
272
330
26A
100
AcDbEntity
  8
ADPDIM
 62
     0
100
AcDbMText
 10
38.14814272043195
 20
-3.065805395712264
 30
0.0
 40
0.125
 41
0.0
 71
     5
 72
     1
  1
\A1;5/8
 11
0.0000000000000001
 21
1.0
 31
0.0
 73
     1
 44
1.0
1001
ACAD
1000
MTEXTBEGIN
1070
    73
1070
     1
1070
    44
1040
1.0
1070
    74
1070
     0
1000
MTEXTEND
  0
POINT
  5
273
330
26A
100
AcDbEntity
  8
DEFPOINTS
 62
     0
100
AcDbPoint
 10
39.21713919164518
 20
-3.378305395712271
 30
0.0
  0
POINT
  5
274
330
26A
100
AcDbEntity
  8
DEFPOINTS
 62
     0
100
AcDbPoint
 10
39.21713919164518
 20
-2.753305395712271
 30
0.0
  0
POINT
  5
275
330
26A
100
AcDbEntity
  8
DEFPOINTS
 62
     0
100
AcDbPoint
 10
38.14814272043195
 20
-2.75330539571227
 30
0.0
  0
ENDBLK
  5
276
330
26A
100
AcDbEntity
  8
0
100
AcDbBlockEnd
  0
BLOCK
  5
278
330
277
100
AcDbEntity
  8
0
 62
     3
100
AcDbBlockBegin
  2
*D8
 70
     1
 10
0.0
 20
0.0
 30
0.0
  3
*D8
  1

  0
LINE
  5
279
330
277
100
AcDbEntity
  8
ADPDIM
 62
     0
370
    -2
100
AcDbLine
 10
38.09612480743032
 20
0.7590153336974661
 30
0.0
 11
37.97487883641693
 21
0.7590153336974661
 31
0.0
  0
LINE
  5
27A
330
277
100
AcDbEntity
  8
ADPDIM
 62
     0
370
    -2
100
AcDbLine
 10
38.21064272043195
 20
-2.75330539571227
 30
0.0
 11
38.33487883641693
 21
-2.75330539571227
 31
0.0
  0
LINE
  5
27B
330
277
100
AcDbEntity
  8
ADPDIM
 62
     0
370
    -2
100
AcDbLine
 10
38.15487883641693
 20
0.7590153336974661
 30
0.0
 11
38.15487883641693
 21
-0.6013116976740689
 31
0.0
  0
LINE
  5
27C
330
277
100
AcDbEntity
  8
ADPDIM
 62
     0
370
    -2
100
AcDbLine
 10
38.15487883641693
 20
-2.75330539571227
 30
0.0
 11
38.15487883641693
 21
-1.392978364340735
 31
0.0
  0
LINE
  5
27D
330
277
100
AcDbEntity
  8
ADPDIM
 62
     0
370
    -2
100
AcDbLine
 10
38.27987883641693
 20
-2.87830539571227
 30
0.0
 11
38.02987883641693
 21
-2.62830539571227
 31
0.0
  0
LINE
  5
27E
330
277
100
AcDbEntity
  8
ADPDIM
 62
     0
370
    -2
100
AcDbLine
 10
38.27987883641693
 20
0.634015333697466
 30
0.0
 11
38.02987883641693
 21
0.884015333697466
 31
0.0
  0
MTEXT
  5
27F
330
277
100
AcDbEntity
  8
ADPDIM
 62
     0
100
AcDbMText
 10
38.15487883641693
 20
-0.9971450310073961
 30
0.0
 40
0.125
 41
0.0
 71
     5
 72
     1
  1
\A1;3 1/2
 11
0.0000000000000001
 21
1.0
 31
0.0
 73
     1
 44
1.0
1001
ACAD
1000
MTEXTBEGIN
1070
    73
1070
     1
1070
    44
1040
1.0
1070
    74
1070
     0
1000
MTEXTEND
  0
POINT
  5
280
330
277
100
AcDbEntity
  8
DEFPOINTS
 62
     0
100
AcDbPoint
 10
38.15862480743032
 20
0.7590153336974661
 30
0.0
  0
POINT
  5
281
330
277
100
AcDbEntity
  8
DEFPOINTS
 62
     0
100
AcDbPoint
 10
38.14814272043195
 20
-2.75330539571227
 30
0.0
  0
POINT
  5
282
330
277
100
AcDbEntity
  8
DEFPOINTS
 62
     0
100
AcDbPoint
 10
38.15487883641693
 20
-2.75330539571227
 30
0.0
  0
ENDBLK
  5
283
330
277
100
AcDbEntity
  8
0
 62
     3
100
AcDbBlockEnd
  0
BLOCK
  5
2CB
330
2C0
100
AcDbEntity
  8
0
100
AcDbBlockBegin
  2
*D10
 70
     1
 10
0.0
 20
0.0
 30
0.0
  3
*D10
  1

  0
LINE
  5
2F4
330
2C0
100
AcDbEntity
  8
ADPDIM
 62
     0
370
    -2
100
AcDbLine
 10
20.92187575337601
 20
-3.227077246491678
 30
0.0
 11
21.84927432457278
 21
-3.227077246491678
 31
0.0
  0
LINE
  5
2F5
330
2C0
100
AcDbEntity
  8
ADPDIM
 62
     0
370
    -2
100
AcDbLine
 10
20.92187575337601
 20
1.522922753508321
 30
0.0
 11
21.84927432457278
 21
1.522922753508321
 31
0.0
  0
LINE
  5
2F6
330
2C0
100
AcDbEntity
  8
ADPDIM
 62
     0
370
    -2
100
AcDbLine
 10
21.66927432457278
 20
-3.047077246491678
 30
0.0
 11
21.66927432457278
 21
-1.032077246491678
 31
0.0
  0
LINE
  5
2F7
330
2C0
100
AcDbEntity
  8
ADPDIM
 62
     0
370
    -2
100
AcDbLine
 10
21.66927432457278
 20
1.342922753508321
 30
0.0
 11
21.66927432457278
 21
-0.6720772464916784
 31
0.0
  0
SOLID
  5
2F8
330
2C0
100
AcDbEntity
  8
ADPDIM
 62
     0
100
AcDbTrace
 10
21.63927432457278
 20
-3.047077246491678
 30
0.0
 11
21.69927432457278
 21
-3.047077246491678
 31
0.0
 12
21.66927432457278
 22
-3.227077246491678
 32
0.0
 13
21.66927432457278
 23
-3.227077246491678
 33
0.0
  0
SOLID
  5
2F9
330
2C0
100
AcDbEntity
  8
ADPDIM
 62
     0
100
AcDbTrace
 10
21.63927432457278
 20
1.342922753508321
 30
0.0
 11
21.69927432457278
 21
1.342922753508321
 31
0.0
 12
21.66927432457278
 22
1.522922753508321
 32
0.0
 13
21.66927432457278
 23
1.522922753508321
 33
0.0
  0
MTEXT
  5
2FA
330
2C0
100
AcDbEntity
  8
ADPDIM
 62
     0
100
AcDbMText
 10
21.66927432457278
 20
-0.8520772464916747
 30
0.0
 40
0.18
 41
0.0
 71
     5
 72
     1
  1
\A1;4.7500
 73
     1
 44
1.0
1001
ACAD
1000
MTEXTBEGIN
1070
    73
1070
     1
1070
    44
1040
1.0
1070
    74
1070
     0
1000
MTEXTEND
  0
POINT
  5
2FB
330
2C0
100
AcDbEntity
  8
DEFPOINTS
 62
     0
100
AcDbPoint
 10
20.85937575337601
 20
-3.227077246491678
 30
0.0
  0
POINT
  5
2FC
330
2C0
100
AcDbEntity
  8
DEFPOINTS
 62
     0
100
AcDbPoint
 10
20.85937575337601
 20
1.522922753508321
 30
0.0
  0
POINT
  5
2FD
330
2C0
100
AcDbEntity
  8
DEFPOINTS
 62
     0
100
AcDbPoint
 10
21.66927432457278
 20
1.522922753508321
 30
0.0
  0
ENDBLK
  5
2CC
330
2C0
100
AcDbEntity
  8
0
100
AcDbBlockEnd
  0
BLOCK
  5
2D8
330
2CD
100
AcDbEntity
  8
0
100
AcDbBlockBegin
  2
*D11
 70
     1
 10
0.0
 20
0.0
 30
0.0
  3
*D11
  1

  0
LINE
  5
2FE
330
2CD
100
AcDbEntity
  8
ADPDIM
 62
     0
370
    -2
100
AcDbLine
 10
16.93308632462355
 20
0.9029847859574111
 30
0.0
 11
15.74658985341032
 21
0.9029847859574115
 31
0.0
  0
LINE
  5
2FF
330
2CD
100
AcDbEntity
  8
ADPDIM
 62
     0
370
    -2
100
AcDbLine
 10
16.93308632462355
 20
1.527984785957411
 30
0.0
 11
15.74658985341032
 21
1.527984785957411
 31
0.0
  0
LINE
  5
300
330
2CD
100
AcDbEntity
  8
ADPDIM
 62
     0
370
    -2
100
AcDbLine
 10
15.92658985341032
 20
0.9029847859574115
 30
0.0
 11
15.92658985341032
 21
0.6529847859574116
 31
0.0
  0
LINE
  5
301
330
2CD
100
AcDbEntity
  8
ADPDIM
 62
     0
370
    -2
100
AcDbLine
 10
15.92658985341032
 20
1.527984785957411
 30
0.0
 11
15.92658985341032
 21
1.777984785957411
 31
0.0
  0
LINE
  5
302
330
2CD
100
AcDbEntity
  8
ADPDIM
 62
     0
370
    -2
100
AcDbLine
 10
16.05158985341032
 20
1.402984785957411
 30
0.0
 11
15.80158985341032
 21
1.652984785957411
 31
0.0
  0
LINE
  5
303
330
2CD
100
AcDbEntity
  8
ADPDIM
 62
     0
370
    -2
100
AcDbLine
 10
16.05158985341032
 20
0.7779847859574116
 30
0.0
 11
15.80158985341032
 21
1.027984785957411
 31
0.0
  0
MTEXT
  5
304
330
2CD
100
AcDbEntity
  8
ADPDIM
 62
     0
100
AcDbMText
 10
15.92658985341032
 20
1.215484785957414
 30
0.0
 40
0.125
 41
0.0
 71
     5
 72
     1
  1
\A1;5/8
 11
0.0000000000000001
 21
1.0
 31
0.0
 73
     1
 44
1.0
1001
ACAD
1000
MTEXTBEGIN
1070
    73
1070
     1
1070
    44
1040
1.0
1070
    74
1070
     0
1000
MTEXTEND
  0
POINT
  5
305
330
2CD
100
AcDbEntity
  8
DEFPOINTS
 62
     0
100
AcDbPoint
 10
16.99558632462355
 20
0.9029847859574111
 30
0.0
  0
POINT
  5
306
330
2CD
100
AcDbEntity
  8
DEFPOINTS
 62
     0
100
AcDbPoint
 10
16.99558632462355
 20
1.527984785957411
 30
0.0
  0
POINT
  5
307
330
2CD
100
AcDbEntity
  8
DEFPOINTS
 62
     0
100
AcDbPoint
 10
15.92658985341032
 20
1.527984785957411
 30
0.0
  0
ENDBLK
  5
2D9
330
2CD
100
AcDbEntity
  8
0
100
AcDbBlockEnd
  0
BLOCK
  5
2E5
330
2DA
100
AcDbEntity
  8
0
100
AcDbBlockBegin
  2
*D12
 70
     1
 10
0.0
 20
0.0
 30
0.0
  3
*D12
  1

  0
LINE
  5
308
330
2DA
100
AcDbEntity
  8
ADPDIM
 62
     0
370
    -2
100
AcDbLine
 10
16.92260423762518
 20
-3.234335943452325
 30
0.0
 11
15.73610776641195
 21
-3.234335943452325
 31
0.0
  0
LINE
  5
309
330
2DA
100
AcDbEntity
  8
ADPDIM
 62
     0
370
    -2
100
AcDbLine
 10
16.92260423762518
 20
-2.609335943452325
 30
0.0
 11
15.73610776641195
 21
-2.609335943452325
 31
0.0
  0
LINE
  5
30A
330
2DA
100
AcDbEntity
  8
ADPDIM
 62
     0
370
    -2
100
AcDbLine
 10
15.91610776641195
 20
-3.234335943452325
 30
0.0
 11
15.91610776641195
 21
-3.484335943452325
 31
0.0
  0
LINE
  5
30B
330
2DA
100
AcDbEntity
  8
ADPDIM
 62
     0
370
    -2
100
AcDbLine
 10
15.91610776641195
 20
-2.609335943452325
 30
0.0
 11
15.91610776641195
 21
-2.359335943452325
 31
0.0
  0
LINE
  5
30C
330
2DA
100
AcDbEntity
  8
ADPDIM
 62
     0
370
    -2
100
AcDbLine
 10
16.04110776641195
 20
-2.734335943452325
 30
0.0
 11
15.79110776641195
 21
-2.484335943452325
 31
0.0
  0
LINE
  5
30D
330
2DA
100
AcDbEntity
  8
ADPDIM
 62
     0
370
    -2
100
AcDbLine
 10
16.04110776641195
 20
-3.359335943452325
 30
0.0
 11
15.79110776641195
 21
-3.109335943452325
 31
0.0
  0
MTEXT
  5
30E
330
2DA
100
AcDbEntity
  8
ADPDIM
 62
     0
100
AcDbMText
 10
15.91610776641195
 20
-2.921835943452323
 30
0.0
 40
0.125
 41
0.0
 71
     5
 72
     1
  1
\A1;5/8
 11
0.0000000000000001
 21
1.0
 31
0.0
 73
     1
 44
1.0
1001
ACAD
1000
MTEXTBEGIN
1070
    73
1070
     1
1070
    44
1040
1.0
1070
    74
1070
     0
1000
MTEXTEND
  0
POINT
  5
30F
330
2DA
100
AcDbEntity
  8
DEFPOINTS
 62
     0
100
AcDbPoint
 10
16.98510423762519
 20
-3.234335943452325
 30
0.0
  0
POINT
  5
310
330
2DA
100
AcDbEntity
  8
DEFPOINTS
 62
     0
100
AcDbPoint
 10
16.98510423762519
 20
-2.609335943452325
 30
0.0
  0
POINT
  5
311
330
2DA
100
AcDbEntity
  8
DEFPOINTS
 62
     0
100
AcDbPoint
 10
15.91610776641195
 20
-2.609335943452325
 30
0.0
  0
ENDBLK
  5
2E6
330
2DA
100
AcDbEntity
  8
0
100
AcDbBlockEnd
  0
BLOCK
  5
2F2
330
2E7
100
AcDbEntity
  8
0
100
AcDbBlockBegin
  2
*D13
 70
     1
 10
0.0
 20
0.0
 30
0.0
  3
*D13
  1

  0
LINE
  5
312
330
2E7
100
AcDbEntity
  8
ADPDIM
 62
     0
370
    -2
100
AcDbLine
 10
15.86408985341032
 20
0.9029847859574111
 30
0.0
 11
15.74284388239693
 21
0.9029847859574113
 31
0.0
  0
LINE
  5
313
330
2E7
100
AcDbEntity
  8
ADPDIM
 62
     0
370
    -2
100
AcDbLine
 10
15.97860776641195
 20
-2.609335943452325
 30
0.0
 11
16.10284388239693
 21
-2.609335943452325
 31
0.0
  0
LINE
  5
314
330
2E7
100
AcDbEntity
  8
ADPDIM
 62
     0
370
    -2
100
AcDbLine
 10
15.92284388239693
 20
0.9029847859574111
 30
0.0
 11
15.92284388239693
 21
-0.4573422454141238
 31
0.0
  0
LINE
  5
315
330
2E7
100
AcDbEntity
  8
ADPDIM
 62
     0
370
    -2
100
AcDbLine
 10
15.92284388239693
 20
-2.609335943452325
 30
0.0
 11
15.92284388239693
 21
-1.24900891208079
 31
0.0
  0
LINE
  5
316
330
2E7
100
AcDbEntity
  8
ADPDIM
 62
     0
370
    -2
100
AcDbLine
 10
16.04784388239693
 20
-2.734335943452325
 30
0.0
 11
15.79784388239693
 21
-2.484335943452325
 31
0.0
  0
LINE
  5
317
330
2E7
100
AcDbEntity
  8
ADPDIM
 62
     0
370
    -2
100
AcDbLine
 10
16.04784388239693
 20
0.7779847859574112
 30
0.0
 11
15.79784388239693
 21
1.027984785957411
 31
0.0
  0
MTEXT
  5
318
330
2E7
100
AcDbEntity
  8
ADPDIM
 62
     0
100
AcDbMText
 10
15.92284388239693
 20
-0.8531755787474544
 30
0.0
 40
0.125
 41
0.0
 71
     5
 72
     1
  1
\A1;3 1/2
 11
0.0000000000000001
 21
1.0
 31
0.0
 73
     1
 44
1.0
1001
ACAD
1000
MTEXTBEGIN
1070
    73
1070
     1
1070
    44
1040
1.0
1070
    74
1070
     0
1000
MTEXTEND
  0
POINT
  5
319
330
2E7
100
AcDbEntity
  8
DEFPOINTS
 62
     0
100
AcDbPoint
 10
15.92658985341032
 20
0.9029847859574111
 30
0.0
  0
POINT
  5
31A
330
2E7
100
AcDbEntity
  8
DEFPOINTS
 62
     0
100
AcDbPoint
 10
15.91610776641195
 20
-2.609335943452325
 30
0.0
  0
POINT
  5
31B
330
2E7
100
AcDbEntity
  8
DEFPOINTS
 62
     0
100
AcDbPoint
 10
15.92284388239693
 20
-2.609335943452325
 30
0.0
  0
ENDBLK
  5
2F3
330
2E7
100
AcDbEntity
  8
0
100
AcDbBlockEnd
  0
ENDSEC
  0
SECTION
  2
ENTITIES
  0
LINE
  5
A0
330
18
100
AcDbEntity
  8
ADP1DETAIL
100
AcDbLine
 10
16.45075491498677
 20
2.510813405847345
 30
0.0
 11
20.96629937160954
 21
2.510813405847345
 31
0.0
  0
LINE
  5
A1
330
18
100
AcDbEntity
  8
ADP1DETAIL
100
AcDbLine
 10
19.88329161333554
 20
3.823313405847345
 30
0.0
 11
17.53376267326076
 21
3.823313405847345
 31
0.0
  0
LINE
  5
A8
330
18
100
AcDbEntity
  8
ADP1DETAIL
100
AcDbLine
 10
21.08352714329816
 20
2.073313405847345
 30
0.0
 11
16.33352714329815
 21
2.073313405847345
 31
0.0
  0
LINE
  5
AA
330
18
100
AcDbEntity
  8
ADP1DETAIL
100
AcDbLine
 10
17.91602714329815
 20
14.07331340584734
 30
0.0
 11
19.50102714329815
 21
14.07331340584734
 31
0.0
  0
LINE
  5
AB
330
18
100
AcDbEntity
  8
ADP1DETAIL
100
AcDbLine
 10
17.91602714329815
 20
3.823313405847346
 30
0.0
 11
17.91602714329815
 21
14.07331340584734
 31
0.0
  0
LINE
  5
AC
330
18
100
AcDbEntity
  8
ADP2DETAIL
  6
HIDDEN2
100
AcDbLine
 10
17.91602714329815
 20
2.073313405847346
 30
0.0
 11
17.91602714329815
 21
3.823313405847346
 31
0.0
  0
LINE
  5
AD
330
18
100
AcDbEntity
  8
ADP2DETAIL
  6
HIDDEN2
100
AcDbLine
 10
16.73701289832733
 20
2.073313405847345
 30
0.0
 11
16.73701289832733
 21
2.510813405847345
 31
0.0
  0
LINE
  5
AE
330
18
100
AcDbEntity
  8
ADP2DETAIL
  6
HIDDEN2
100
AcDbLine
 10
17.17427567006494
 20
2.073313405847345
 30
0.0
 11
17.17427567006494
 21
2.510813405847345
 31
0.0
  0
LINE
  5
AF
330
18
100
AcDbEntity
  8
ADP1DETAIL
100
AcDbLine
 10
16.33352714329815
 20
2.073313405847345
 30
0.0
 11
16.45075491498677
 21
2.510813405847345
 31
0.0
  0
LINE
  5
B8
330
18
100
AcDbEntity
  8
ADP1DETAIL
100
AcDbLine
 10
17.40983206558903
 20
3.714629179874851
 30
0.0
 11
17.26565526210085
 21
2.619497631819839
 31
0.0
  0
ARC
  5
B9
330
18
100
AcDbEntity
  8
ADP1DETAIL
100
AcDbCircle
 10
17.14172465442912
 20
2.635813405847345
 30
0.0
 40
0.125
100
AcDbArc
 50
270.0
 51
352.5000000000001
  0
ARC
  5
BA
330
18
100
AcDbEntity
  8
ADP1DETAIL
100
AcDbCircle
 10
17.53376267326076
 20
3.698313405847345
 30
0.0
 40
0.125
100
AcDbArc
 50
90.0
 51
172.5
  0
DIMENSION
  5
BB
330
18
100
AcDbEntity
  8
ADPDIM
100
AcDbDimension
  2
*D0
 10
21.32745595212522
 20
2.073313405847345
 30
0.0
 11
21.32745595212522
 21
8.073313405847345
 31
0.0
 71
     5
 42
-1.0
100
AcDbAlignedDimension
 13
19.50102714329815
 23
14.07331340584734
 33
0.0
 14
21.08352714329816
 24
2.073313405847345
 34
0.0
 50
90.0
100
AcDbRotatedDimension
  0
LINE
  5
BC
330
18
100
AcDbEntity
  8
ADP1DETAIL
100
AcDbLine
 10
19.50102714329815
 20
14.07331340584734
 30
0.0
 11
19.50102714329815
 21
3.823313405847346
 31
0.0
  0
LINE
  5
BD
330
18
100
AcDbEntity
  8
ADP2DETAIL
  6
HIDDEN2
100
AcDbLine
 10
19.50102714329815
 20
2.073313405847346
 30
0.0
 11
19.50102714329815
 21
3.823313405847346
 31
0.0
  0
LINE
  5
BE
330
18
100
AcDbEntity
  8
ADP2DETAIL
  6
HIDDEN2
100
AcDbLine
 10
20.23511624899541
 20
2.073313405847345
 30
0.0
 11
20.23511624899541
 21
2.510813405847345
 31
0.0
  0
LINE
  5
BF
330
18
100
AcDbEntity
  8
ADP2DETAIL
  6
HIDDEN2
100
AcDbLine
 10
20.67237902073302
 20
2.073313405847345
 30
0.0
 11
20.67237902073303
 21
2.510813405847345
 31
0.0
  0
LINE
  5
C2
330
18
100
AcDbEntity
  8
ADP1DETAIL
100
AcDbLine
 10
20.00722222100728
 20
3.714629179874852
 30
0.0
 11
20.15139902449547
 21
2.619497631819839
 31
0.0
  0
ARC
  5
C3
330
18
100
AcDbEntity
  8
ADP1DETAIL
100
AcDbCircle
 10
19.88329161333554
 20
3.698313405847345
 30
0.0
 40
0.125
100
AcDbArc
 50
7.500000000000093
 51
90.0
  0
ARC
  5
C4
330
18
100
AcDbEntity
  8
ADP1DETAIL
100
AcDbCircle
 10
20.2753296321672
 20
2.635813405847345
 30
0.0
 40
0.125
100
AcDbArc
 50
187.5
 51
270.0
  0
LINE
  5
C5
330
18
100
AcDbEntity
  8
ADP1DETAIL
100
AcDbLine
 10
21.08352714329816
 20
2.073313405847345
 30
0.0
 11
20.96629937160954
 21
2.510813405847345
 31
0.0
  0
TEXT
  5
DA
330
18
100
AcDbEntity
  8
ADPDIM
100
AcDbText
 10
2.394204581906613
 20
-4.621455364863765
 30
0.0
 40
0.3125
  1
J U L I U S  B L U M  &  C O . ,  I N C .      ( 8 0 0 )  5 2 6 - 6 2 9 3        W W W . J U L I U S B L U M . C O M        P A R T  N o .  7 5 7 1
 41
1.25
  7
ARIAL_WIDE
 72
     1
 11
18.70852714329815
 21
-4.308955364863765
 31
0.0
100
AcDbText
 73
     3
  0
DIMENSION
  5
242
330
18
100
AcDbEntity
  8
ADPDIM
 62
     3
100
AcDbDimension
  2
*D4
 10
17.91810109133356
 20
14.46527288097673
 30
0.0
 11
18.71060109133356
 21
14.46527288097673
 31
0.0
 70
    32
 71
     5
 42
1.585
  3
STANDARD
100
AcDbAlignedDimension
 13
19.50310109133356
 23
14.0759505958843
 33
0.0
 14
17.91810109133356
 24
14.0759505958843
 34
0.0
100
AcDbRotatedDimension
1001
ACAD
1000
DSTYLE
1002
{
1070
    41
1040
0.125
1070
    73
1070
     0
1070
    74
1070
     0
1070
    78
1070
     3
1070
   140
1040
0.125
1070
   141
1040
0.1875
1070
   142
1040
0.125
1070
   147
1040
0.125
1070
   171
1070
     1
1002
}
  0
LINE
  5
2A5
330
18
100
AcDbEntity
  8
ADP1DETAIL
100
AcDbLine
 10
16.60937575337601
 20
1.522922753508321
 30
0.0
 11
20.85937575337601
 21
1.522922753508321
 31
0.0
  0
LINE
  5
2A6
330
18
100
AcDbEntity
  8
ADP1DETAIL
100
AcDbLine
 10
16.60937575337601
 20
1.404649410423441
 30
0.0
 11
20.85937575337601
 21
1.404649410423441
 31
0.0
  0
CIRCLE
  5
2A7
330
18
100
AcDbEntity
  8
ADP1DETAIL
100
AcDbCircle
 10
18.734375753376
 20
-0.970350589576558
 30
0.0
 40
1.28125
  0
LINE
  5
2A8
330
18
100
AcDbEntity
  8
ADP1DETAIL
100
AcDbLine
 10
20.85937575337601
 20
-3.227077246491678
 30
0.0
 11
16.60937575337601
 21
-3.227077246491678
 31
0.0
  0
LINE
  5
2A9
330
18
100
AcDbEntity
  8
ADP1DETAIL
100
AcDbLine
 10
20.85937575337601
 20
-3.108803903406798
 30
0.0
 11
16.60937575337601
 21
-3.108803903406798
 31
0.0
  0
CIRCLE
  5
2AA
330
18
100
AcDbEntity
  8
ADP1DETAIL
100
AcDbCircle
 10
18.734375753376
 20
-0.970350589576558
 30
0.0
 40
1.46875
  0
LINE
  5
2AB
330
18
100
AcDbEntity
  8
ADP1DETAIL
100
AcDbLine
 10
16.35937575337601
 20
-2.977077246491678
 30
0.0
 11
16.35937575337601
 21
1.272922753508321
 31
0.0
  0
LINE
  5
2AC
330
18
100
AcDbEntity
  8
ADP1DETAIL
100
AcDbLine
 10
16.47764909646088
 20
-2.977077246491678
 30
0.0
 11
16.47764909646088
 21
1.272922753508321
 31
0.0
  0
ARC
  5
2AD
330
18
100
AcDbEntity
  8
ADP1DETAIL
100
AcDbCircle
 10
16.60937575337601
 20
-2.977077246491678
 30
0.0
 40
0.25
100
AcDbArc
 50
180.0
 51
270.0
  0
CIRCLE
  5
2AE
330
18
100
AcDbEntity
  8
ADP1DETAIL
100
AcDbCircle
 10
16.98933247131975
 20
-2.626157324667449
 30
0.0
 40
0.21875
  0
ARC
  5
2AF
330
18
100
AcDbEntity
  8
ADP1DETAIL
100
AcDbCircle
 10
16.60937575337601
 20
-2.977077246491678
 30
0.0
 40
0.1317266569151201
100
AcDbArc
 50
180.0
 51
270.0
  0
ARC
  5
2B0
330
18
100
AcDbEntity
  8
ADP1DETAIL
100
AcDbCircle
 10
16.60937575337601
 20
1.272922753508321
 30
0.0
 40
0.25
100
AcDbArc
 50
90.0
 51
180.0
  0
CIRCLE
  5
2B1
330
18
100
AcDbEntity
  8
ADP1DETAIL
100
AcDbCircle
 10
16.98162441278392
 20
0.9062346205940308
 30
0.0
 40
0.21875
  0
CIRCLE
  5
2B2
330
18
100
AcDbEntity
  8
ADP1DETAIL
100
AcDbCircle
 10
18.734375753376
 20
-0.970350589576558
 30
0.0
 40
0.875
  0
ARC
  5
2B3
330
18
100
AcDbEntity
  8
ADP1DETAIL
100
AcDbCircle
 10
16.60937575337601
 20
1.272922753508321
 30
0.0
 40
0.1317266569151201
100
AcDbArc
 50
90.0
 51
180.0
  0
DIMENSION
  5
2B4
330
18
100
AcDbEntity
  8
ADPDIM
100
AcDbDimension
  2
*D10
 10
21.66927432457278
 20
1.522922753508321
 30
0.0
 11
21.66927432457278
 21
-0.8520772464916747
 31
0.0
 70
    32
 71
     5
 42
4.75
  3
STANDARD
100
AcDbAlignedDimension
 13
20.85937575337601
 23
-3.227077246491678
 33
0.0
 14
20.85937575337601
 24
1.522922753508321
 34
0.0
 50
90.0
100
AcDbRotatedDimension
  0
LINE
  5
2B5
330
18
100
AcDbEntity
  8
ADP1DETAIL
100
AcDbLine
 10
21.10937575337601
 20
1.272922753508321
 30
0.0
 11
21.10937575337601
 21
-2.977077246491678
 31
0.0
  0
LINE
  5
2B6
330
18
100
AcDbEntity
  8
ADP1DETAIL
100
AcDbLine
 10
20.99110241029113
 20
1.272922753508321
 30
0.0
 11
20.99110241029113
 21
-2.977077246491678
 31
0.0
  0
CIRCLE
  5
2B7
330
18
100
AcDbEntity
  8
ADP1DETAIL
100
AcDbCircle
 10
20.48933247131975
 20
-2.626157324667449
 30
0.0
 40
0.21875
  0
ARC
  5
2B8
330
18
100
AcDbEntity
  8
ADP1DETAIL
100
AcDbCircle
 10
20.85937575337601
 20
-2.977077246491678
 30
0.0
 40
0.25
100
AcDbArc
 50
270.0
 51
0.0
  0
ARC
  5
2B9
330
18
100
AcDbEntity
  8
ADP1DETAIL
100
AcDbCircle
 10
20.85937575337601
 20
-2.977077246491678
 30
0.0
 40
0.1317266569151201
100
AcDbArc
 50
270.0
 51
0.0
  0
CIRCLE
  5
2BA
330
18
100
AcDbEntity
  8
ADP1DETAIL
100
AcDbCircle
 10
20.48162441278392
 20
0.9062346205940308
 30
0.0
 40
0.21875
  0
ARC
  5
2BB
330
18
100
AcDbEntity
  8
ADP1DETAIL
100
AcDbCircle
 10
20.85937575337601
 20
1.272922753508321
 30
0.0
 40
0.25
100
AcDbArc
 50
0.0
 51
90.0
  0
ARC
  5
2BC
330
18
100
AcDbEntity
  8
ADP1DETAIL
100
AcDbCircle
 10
20.85937575337601
 20
1.272922753508321
 30
0.0
 40
0.1317266569151201
100
AcDbArc
 50
0.0
 51
90.0
  0
DIMENSION
  5
2BD
330
18
100
AcDbEntity
  8
ADPDIM
 62
     3
100
AcDbDimension
  2
*D11
 10
15.92658985341032
 20
1.527984785957411
 30
0.0
 11
15.92658985341032
 21
1.215484785957414
 31
0.0
 70
    32
 71
     5
 42
0.625
  3
STANDARD
100
AcDbAlignedDimension
 13
16.99558632462355
 23
0.9029847859574111
 33
0.0
 14
16.99558632462355
 24
1.527984785957411
 34
0.0
 50
90.0
100
AcDbRotatedDimension
1001
ACAD
1000
DSTYLE
1002
{
1070
   276
1070
     2
1070
    41
1040
0.125
1070
    73
1070
     0
1070
    74
1070
     0
1070
    78
1070
     3
1070
   140
1040
0.125
1070
   141
1040
0.1875
1070
   142
1040
0.125
1070
   147
1040
0.125
1070
   171
1070
     1
1070
   273
1070
     5
1070
   274
1070
     1
1070
   277
1070
     5
1070
   279
1070
     2
1070
   284
1070
     3
1070
   285
1070
     3
1070
   286
1070
     3
1002
}
  0
DIMENSION
  5
2BE
330
18
100
AcDbEntity
  8
ADPDIM
 62
     3
100
AcDbDimension
  2
*D12
 10
15.91610776641195
 20
-2.609335943452325
 30
0.0
 11
15.91610776641195
 21
-2.921835943452323
 31
0.0
 70
    32
 71
     5
 42
0.625
  3
STANDARD
100
AcDbAlignedDimension
 13
16.98510423762519
 23
-3.234335943452325
 33
0.0
 14
16.98510423762519
 24
-2.609335943452325
 34
0.0
 50
90.0
100
AcDbRotatedDimension
1001
ACAD
1000
DSTYLE
1002
{
1070
   276
1070
     2
1070
    41
1040
0.125
1070
    73
1070
     0
1070
    74
1070
     0
1070
    78
1070
     3
1070
   140
1040
0.125
1070
   141
1040
0.1875
1070
   142
1040
0.125
1070
   147
1040
0.125
1070
   171
1070
     1
1070
   273
1070
     5
1070
   274
1070
     1
1070
   277
1070
     5
1070
   279
1070
     2
1070
   284
1070
     3
1070
   285
1070
     3
1070
   286
1070
     3
1002
}
  0
DIMENSION
  5
2BF
330
18
100
AcDbEntity
  8
ADPDIM
 62
     3
100
AcDbDimension
  2
*D13
 10
15.92284388239693
 20
-2.609335943452325
 30
0.0
 11
15.92284388239693
 21
-0.8531755787474544
 31
0.0
 70
    32
 71
     5
 42
3.512320729409736
  3
STANDARD
100
AcDbAlignedDimension
 13
15.92658985341032
 23
0.9029847859574111
 33
0.0
 14
15.91610776641195
 24
-2.609335943452325
 34
0.0
 50
90.0
100
AcDbRotatedDimension
1001
ACAD
1000
DSTYLE
1002
{
1070
   276
1070
     2
1070
    41
1040
0.125
1070
    73
1070
     0
1070
    74
1070
     0
1070
    78
1070
     3
1070
   140
1040
0.125
1070
   141
1040
0.1875
1070
   142
1040
0.125
1070
   147
1040
0.125
1070
   171
1070
     1
1070
   273
1070
     5
1070
   274
1070
     1
1070
   277
1070
     5
1070
   279
1070
     2
1070
   284
1070
     3
1070
   285
1070
     3
1070
   286
1070
     3
1002
}
  0
ENDSEC
  0
SECTION
  2
OBJECTS
  0
DICTIONARY
  5
C
330
0
100
AcDbDictionary
281
     1
  3
ACAD_COLOR
350
22F
  3
ACAD_GROUP
350
D
  3
ACAD_LAYOUT
350
D3
  3
ACAD_MATERIAL
350
21A
  3
ACAD_MLINESTYLE
350
E
  3
ACAD_PLOTSETTINGS
350
D4
  3
ACAD_PLOTSTYLENAME
350
D1
  3
ACAD_TABLESTYLE
350
230
  3
ACAD_VISUALSTYLE
350
21E
  3
AcDbVariableDictionary
350
134
  3
ASE_INDEX_DICTIONARY
350
31D
  3
DWGPROPS
350
33E
  0
DICTIONARY
  5
12E
330
18
100
AcDbDictionary
280
     1
281
     1
  3
ACAD_LAYOUTSELFREF
360
214
  0
DICTIONARY
  5
12C
330
15
100
AcDbDictionary
280
     1
281
     1
  3
ACAD_LAYOUTSELFREF
360
213
  0
DICTIONARY
  5
22F
102
{ACAD_REACTORS
330
C
102
}
330
C
100
AcDbDictionary
281
     1
  0
DICTIONARY
  5
D
102
{ACAD_REACTORS
330
C
102
}
330
C
100
AcDbDictionary
281
     1
  0
DICTIONARY
  5
D3
102
{ACAD_REACTORS
330
C
102
}
330
C
100
AcDbDictionary
281
     1
  3
Layout1
350
D6
  3
Model
350
D5
  0
DICTIONARY
  5
21A
102
{ACAD_REACTORS
330
C
102
}
330
C
100
AcDbDictionary
281
     1
  3
ByBlock
350
21C
  3
ByLayer
350
21B
  3
Global
350
21D
  0
DICTIONARY
  5
E
102
{ACAD_REACTORS
330
C
102
}
330
C
100
AcDbDictionary
281
     1
  3
STANDARD
350
1B
  0
DICTIONARY
  5
D4
102
{ACAD_REACTORS
330
C
102
}
330
C
100
AcDbDictionary
281
     1
  0
ACDBDICTIONARYWDFLT
  5
D1
102
{ACAD_REACTORS
330
C
102
}
330
C
100
AcDbDictionary
281
     1
  3
Normal
350
D2
100
AcDbDictionaryWithDefault
340
D2
  0
DICTIONARY
  5
230
102
{ACAD_REACTORS
330
C
102
}
330
C
100
AcDbDictionary
281
     1
  3
Standard
350
231
  0
DICTIONARY
  5
21E
102
{ACAD_REACTORS
330
C
102
}
330
C
100
AcDbDictionary
281
     1
  3
2dWireframe
350
224
  3
3D Hidden
350
226
  3
3dWireframe
350
225
  3
Basic
350
223
  3
Brighten
350
22A
  3
ColorChange
350
22E
  3
Conceptual
350
227
  3
Dim
350
229
  3
Facepattern
350
22D
  3
Flat
350
21F
  3
FlatWithEdges
350
220
  3
Gouraud
350
221
  3
GouraudWithEdges
350
222
  3
Linepattern
350
22C
  3
Realistic
350
228
  3
Thicken
350
22B
  0
DICTIONARY
  5
134
102
{ACAD_REACTORS
330
C
102
}
330
C
100
AcDbDictionary
281
     1
  3
CTABLESTYLE
350
33B
  3
DIMASSOC
350
135
  3
INDEXCTL
350
33D
  3
SORTENTS
350
33C
  0
DICTIONARY
  5
31D
102
{ACAD_REACTORS
330
C
102
}
330
C
100
AcDbDictionary
281
     1
  3
ASEBlockHierarchyIndexRecord
350
31E
1001
DCO15
1040
1568806463.811
  0
XRECORD
  5
33E
102
{ACAD_REACTORS
330
C
102
}
330
C
100
AcDbXrecord
280
     1
  1
DWGPROPS COOKIE
  2

  3

  4

  6

  7

  8
Yu Hu
  9

300
=
301
=
302
=
303
=
304
=
305
=
306
=
307
=
308
=
309
=
 40
0.0618527199074074
 41
2450226.616906435
 42
2453960.694071886
  1

 90
        0
  0
XRECORD
  5
214
102
{ACAD_REACTORS
330
12E
102
}
330
12E
100
AcDbXrecord
280
     1
340
18
  0
XRECORD
  5
213
102
{ACAD_REACTORS
330
12C
102
}
330
12C
100
AcDbXrecord
280
     1
340
15
  0
LAYOUT
  5
D6
102
{ACAD_XDICTIONARY
360
341
102
}
102
{ACAD_REACTORS
330
D3
102
}
330
D3
100
AcDbPlotSettings
  1

  2
Fax
  4

  6

 40
0.0
 41
0.0
 42
0.0
 43
0.0
 44
0.0
 45
0.0
 46
0.0
 47
0.0
 48
0.0
 49
0.0
140
0.0
141
0.0
142
1.0
143
1.0
 70
   688
 72
     0
 73
     0
 74
     5
  7
Default R14 pen assignments.ctb
 75
    16
147
1.0
148
0.0
149
0.0
100
AcDbLayout
  1
Layout1
 70
     1
 71
     1
 10
0.0
 20
0.0
 11
12.0
 21
9.0
 12
0.0008545056916773
 22
1.250276130627782
 32
0.0
 14
1.000000000000000E+20
 24
1.000000000000000E+20
 34
1.000000000000000E+20
 15
-1.000000000000000E+20
 25
-1.000000000000000E+20
 35
-1.000000000000000E+20
146
0.0
 13
0.0
 23
0.0
 33
0.0
 16
1.0
 26
0.0
 36
0.0
 17
0.0
 27
1.0
 37
0.0
 76
     0
330
15
  0
LAYOUT
  5
D5
102
{ACAD_XDICTIONARY
360
33F
102
}
102
{ACAD_REACTORS
330
D3
102
}
330
D3
100
AcDbPlotSettings
  1

  2
Fax
  4

  6

 40
0.0
 41
0.0
 42
0.0
 43
0.0
 44
0.0
 45
0.0
 46
0.0
 47
0.0
 48
0.0
 49
0.0
140
0.0
141
0.0
142
1.0
143
1.0
 70
  1712
 72
     0
 73
     0
 74
     0
  7
Default R14 pen assignments.ctb
 75
     0
147
1.0
148
0.0
149
0.0
100
AcDbLayout
  1
Model
 70
     1
 71
     0
 10
0.0
 20
0.0
 11
12.0
 21
9.0
 12
0.0
 22
0.0
 32
0.0
 14
0.0
 24
0.0
 34
0.0
 15
0.0
 25
0.0
 35
0.0
146
0.0
 13
0.0
 23
0.0
 33
0.0
 16
1.0
 26
0.0
 36
0.0
 17
0.0
 27
1.0
 37
0.0
 76
     0
330
18
331
1EE
  0
MATERIAL
  5
21C
102
{ACAD_XDICTIONARY
360
345
102
}
102
{ACAD_REACTORS
330
21A
102
}
330
21A
100
AcDbMaterial
  1
ByBlock
  0
MATERIAL
  5
21B
102
{ACAD_XDICTIONARY
360
343
102
}
102
{ACAD_REACTORS
330
21A
102
}
330
21A
100
AcDbMaterial
  1
ByLayer
  0
MATERIAL
  5
21D
102
{ACAD_XDICTIONARY
360
347
102
}
102
{ACAD_REACTORS
330
21A
102
}
330
21A
100
AcDbMaterial
  1
Global
  0
MLINESTYLE
  5
1B
102
{ACAD_REACTORS
330
E
102
}
330
E
100
AcDbMlineStyle
  2
STANDARD
 70
     0
  3

 62
     0
 51
90.0
 52
90.0
 71
     2
 49
0.5
 62
   256
  6
BYLAYER
 49
-0.5
 62
   256
  6
BYLAYER
  0
ACDBPLACEHOLDER
  5
D2
102
{ACAD_REACTORS
330
D1
102
}
330
D1
  0
TABLESTYLE
  5
231
102
{ACAD_XDICTIONARY
360
349
102
}
102
{ACAD_REACTORS
330
230
102
}
330
230
100
AcDbTableStyle
  3
Standard
 70
     0
 71
     0
 40
0.06
 41
0.06
280
     0
281
     0
  7
STANDARD
140
0.18
170
     2
 62
     0
 63
     7
283
     0
274
    -2
284
     1
 64
     0
275
    -2
285
     1
 65
     0
276
    -2
286
     1
 66
     0
277
    -2
287
     1
 67
     0
278
    -2
288
     1
 68
     0
279
    -2
289
     1
 69
     0
  7
STANDARD
140
0.25
170
     5
 62
     0
 63
     7
283
     0
274
    -2
284
     1
 64
     0
275
    -2
285
     1
 65
     0
276
    -2
286
     1
 66
     0
277
    -2
287
     1
 67
     0
278
    -2
288
     1
 68
     0
279
    -2
289
     1
 69
     0
  7
STANDARD
140
0.18
170
     5
 62
     0
 63
     7
283
     0
274
    -2
284
     1
 64
     0
275
    -2
285
     1
 65
     0
276
    -2
286
     1
 66
     0
277
    -2
287
     1
 67
     0
278
    -2
288
     1
 68
     0
279
    -2
289
     1
 69
     0
  0
VISUALSTYLE
  5
224
102
{ACAD_REACTORS
330
21E
102
}
330
21E
100
AcDbVisualStyle
  2
2dWireframe
 70
     4
 71
     0
 72
     2
 73
     0
 90
        0
 40
-0.6
 41
-30.0
 62
     5
 63
     7
 74
     1
 91
        4
 64
     7
 65
   257
 75
     1
175
     1
 42
1.0
 92
        0
 66
   257
 43
1.0
 76
     1
 77
     6
 78
     2
 67
     7
 79
     5
170
     0
171
     0
290
     0
174
     0
 93
        1
 44
0.0
173
     0
291
     0
 45
0.0
1001
ACAD
1000
AcDbSavedByObjectVersion
1070
     0
  0
VISUALSTYLE
  5
226
102
{ACAD_REACTORS
330
21E
102
}
330
21E
100
AcDbVisualStyle
  2
3D Hidden
 70
     6
 71
     1
 72
     2
 73
     2
 90
        0
 40
-0.6
 41
-30.0
 62
     5
 63
     7
 74
     2
 91
        2
 64
     7
 65
   257
 75
     2
175
     1
 42
40.0
 92
        0
 66
   257
 43
1.0
 76
     1
 77
     6
 78
     2
 67
     7
 79
     3
170
     0
171
     0
290
     0
174
     0
 93
        1
 44
0.0
173
     0
291
     0
 45
0.0
1001
ACAD
1000
AcDbSavedByObjectVersion
1070
     0
  0
VISUALSTYLE
  5
225
102
{ACAD_REACTORS
330
21E
102
}
330
21E
100
AcDbVisualStyle
  2
3dWireframe
 70
     5
 71
     0
 72
     2
 73
     0
 90
        0
 40
-0.6
 41
-30.0
 62
     5
 63
     7
 74
     1
 91
        4
 64
     7
 65
   257
 75
     1
175
     1
 42
1.0
 92
        0
 66
   257
 43
1.0
 76
     1
 77
     6
 78
     2
 67
     7
 79
     5
170
     0
171
     0
290
     0
174
     0
 93
        1
 44
0.0
173
     0
291
     0
 45
0.0
1001
ACAD
1000
AcDbSavedByObjectVersion
1070
     0
  0
VISUALSTYLE
  5
223
102
{ACAD_REACTORS
330
21E
102
}
330
21E
100
AcDbVisualStyle
  2
Basic
 70
     7
 71
     1
 72
     0
 73
     1
 90
        0
 40
-0.6
 41
-30.0
 62
     5
 63
     7
 74
     0
 91
        4
 64
     7
 65
   257
 75
     1
175
     1
 42
1.0
 92
        8
 66
     7
 43
1.0
 76
     1
 77
     6
 78
     2
 67
     7
 79
     5
170
     0
171
     0
290
     0
174
     0
 93
        1
 44
0.0
173
     0
291
     1
 45
0.0
1001
ACAD
1000
AcDbSavedByObjectVersion
1070
     0
  0
VISUALSTYLE
  5
22A
102
{ACAD_REACTORS
330
21E
102
}
330
21E
100
AcDbVisualStyle
  2
Brighten
 70
    12
 71
     2
 72
     2
 73
     0
 90
        0
 40
-0.6
 41
-30.0
 62
     5
 63
     7
 74
     1
 91
        4
 64
     7
 65
   257
 75
     1
175
     1
 42
1.0
 92
        8
 66
     7
 43
1.0
 76
     1
 77
     6
 78
     2
 67
     7
 79
     5
170
     0
171
     0
290
     0
174
     0
 93
        1
 44
50.0
173
     0
291
     1
 45
0.0
1001
ACAD
1000
AcDbSavedByObjectVersion
1070
     0
  0
VISUALSTYLE
  5
22E
102
{ACAD_REACTORS
330
21E
102
}
330
21E
100
AcDbVisualStyle
  2
ColorChange
 70
    16
 71
     2
 72
     2
 73
     3
 90
        0
 40
-0.6
 41
-30.0
 62
     5
 63
     8
 74
     1
 91
        4
 64
     7
 65
   257
 75
     1
175
     1
 42
1.0
 92
        8
 66
     8
 43
1.0
 76
     1
 77
     6
 78
     2
 67
     7
 79
     5
170
     0
171
     0
290
     0
174
     0
 93
        1
 44
0.0
173
     0
291
     1
 45
0.0
1001
ACAD
1000
AcDbSavedByObjectVersion
1070
     0
  0
VISUALSTYLE
  5
227
102
{ACAD_REACTORS
330
21E
102
}
330
21E
100
AcDbVisualStyle
  2
Conceptual
 70
     9
 71
     3
 72
     2
 73
     0
 90
        0
 40
-0.6
 41
-30.0
 62
     5
 63
     7
 74
     2
 91
        2
 64
     7
 65
   257
 75
     1
175
     1
 42
40.0
 92
        8
 66
     7
 43
1.0
 76
     1
 77
     6
 78
     2
 67
     7
 79
     3
170
     0
171
     0
290
     0
174
     0
 93
        1
 44
0.0
173
     0
291
     0
 45
0.0
1001
ACAD
1000
AcDbSavedByObjectVersion
1070
     0
  0
VISUALSTYLE
  5
229
102
{ACAD_REACTORS
330
21E
102
}
330
21E
100
AcDbVisualStyle
  2
Dim
 70
    11
 71
     2
 72
     2
 73
     0
 90
        0
 40
-0.6
 41
-30.0
 62
     5
 63
     7
 74
     1
 91
        4
 64
     7
 65
   257
 75
     1
175
     1
 42
1.0
 92
        8
 66
     7
 43
1.0
 76
     1
 77
     6
 78
     2
 67
     7
 79
     5
170
     0
171
     0
290
     0
174
     0
 93
        1
 44
-50.0
173
     0
291
     1
 45
0.0
1001
ACAD
1000
AcDbSavedByObjectVersion
1070
     0
  0
VISUALSTYLE
  5
22D
102
{ACAD_REACTORS
330
21E
102
}
330
21E
100
AcDbVisualStyle
  2
Facepattern
 70
    15
 71
     2
 72
     2
 73
     0
 90
        0
 40
-0.6
 41
-30.0
 62
     5
 63
     7
 74
     1
 91
        4
 64
     7
 65
   257
 75
     1
175
     1
 42
1.0
 92
        8
 66
     7
 43
1.0
 76
     1
 77
     6
 78
     2
 67
     7
 79
     5
170
     0
171
     0
290
     0
174
     0
 93
        1
 44
0.0
173
     0
291
     1
 45
0.0
1001
ACAD
1000
AcDbSavedByObjectVersion
1070
     0
  0
VISUALSTYLE
  5
21F
102
{ACAD_REACTORS
330
21E
102
}
330
21E
100
AcDbVisualStyle
  2
Flat
 70
     0
 71
     2
 72
     1
 73
     1
 90
        2
 40
-0.6
 41
30.0
 62
     5
 63
     7
 74
     0
 91
        4
 64
     7
 65
   257
 75
     1
175
     1
 42
1.0
 92
        8
 66
     7
 43
1.0
 76
     1
 77
     6
 78
     2
 67
     7
 79
     5
170
     0
171
     0
290
     0
174
     0
 93
       13
 44
0.0
173
     0
291
     1
 45
0.0
1001
ACAD
1000
AcDbSavedByObjectVersion
1070
     0
  0
VISUALSTYLE
  5
220
102
{ACAD_REACTORS
330
21E
102
}
330
21E
100
AcDbVisualStyle
  2
FlatWithEdges
 70
     1
 71
     2
 72
     1
 73
     1
 90
        2
 40
-0.6
 41
30.0
 62
     5
 63
     7
 74
     1
 91
        4
 64
     7
 65
   257
 75
     1
175
     1
 42
1.0
 92
        0
 66
   257
 43
1.0
 76
     1
 77
     6
 78
     2
 67
     7
 79
     5
170
     0
171
     0
290
     0
174
     0
 93
       13
 44
0.0
173
     0
291
     1
 45
0.0
1001
ACAD
1000
AcDbSavedByObjectVersion
1070
     0
  0
VISUALSTYLE
  5
221
102
{ACAD_REACTORS
330
21E
102
}
330
21E
100
AcDbVisualStyle
  2
Gouraud
 70
     2
 71
     2
 72
     2
 73
     1
 90
        2
 40
-0.6
 41
30.0
 62
     5
 63
     7
 74
     0
 91
        4
 64
     7
 65
   257
 75
     1
175
     1
 42
1.0
 92
        0
 66
     7
 43
1.0
 76
     1
 77
     6
 78
     2
 67
     7
 79
     5
170
     0
171
     0
290
     0
174
     0
 93
       13
 44
0.0
173
     0
291
     1
 45
0.0
1001
ACAD
1000
AcDbSavedByObjectVersion
1070
     0
  0
VISUALSTYLE
  5
222
102
{ACAD_REACTORS
330
21E
102
}
330
21E
100
AcDbVisualStyle
  2
GouraudWithEdges
 70
     3
 71
     2
 72
     2
 73
     1
 90
        2
 40
-0.6
 41
30.0
 62
     5
 63
     7
 74
     1
 91
        4
 64
     7
 65
   257
 75
     1
175
     1
 42
1.0
 92
        0
 66
   257
 43
1.0
 76
     1
 77
     6
 78
     2
 67
     7
 79
     5
170
     0
171
     0
290
     0
174
     0
 93
       13
 44
0.0
173
     0
291
     1
 45
0.0
1001
ACAD
1000
AcDbSavedByObjectVersion
1070
     0
  0
VISUALSTYLE
  5
22C
102
{ACAD_REACTORS
330
21E
102
}
330
21E
100
AcDbVisualStyle
  2
Linepattern
 70
    14
 71
     2
 72
     2
 73
     0
 90
        0
 40
-0.6
 41
-30.0
 62
     5
 63
     7
 74
     1
 91
        4
 64
     7
 65
   257
 75
     7
175
     7
 42
1.0
 92
        8
 66
     7
 43
1.0
 76
     1
 77
     6
 78
     2
 67
     7
 79
     5
170
     0
171
     0
290
     0
174
     0
 93
        1
 44
0.0
173
     0
291
     1
 45
0.0
1001
ACAD
1000
AcDbSavedByObjectVersion
1070
     0
  0
VISUALSTYLE
  5
228
102
{ACAD_REACTORS
330
21E
102
}
330
21E
100
AcDbVisualStyle
  2
Realistic
 70
     8
 71
     2
 72
     2
 73
     0
 90
        0
 40
-0.6
 41
-30.0
 62
     5
 63
     7
 74
     1
 91
        0
 64
     7
 65
   257
 75
     1
175
     1
 42
1.0
 92
        8
 66
     8
 43
1.0
 76
     1
 77
     6
 78
     2
 67
     7
 79
     5
170
     0
171
     0
290
     0
174
     0
 93
       13
 44
0.0
173
     0
291
     0
 45
0.0
1001
ACAD
1000
AcDbSavedByObjectVersion
1070
     0
  0
VISUALSTYLE
  5
22B
102
{ACAD_REACTORS
330
21E
102
}
330
21E
100
AcDbVisualStyle
  2
Thicken
 70
    13
 71
     2
 72
     2
 73
     0
 90
        0
 40
-0.6
 41
-30.0
 62
     5
 63
     7
 74
     1
 91
        4
 64
     7
 65
   257
 75
     1
175
     1
 42
1.0
 92
       12
 66
     7
 43
1.0
 76
     1
 77
     6
 78
     2
 67
     7
 79
     5
170
     0
171
     0
290
     0
174
     0
 93
        1
 44
0.0
173
     0
291
     1
 45
0.0
1001
ACAD
1000
AcDbSavedByObjectVersion
1070
     0
  0
DICTIONARYVAR
  5
33B
102
{ACAD_REACTORS
330
134
102
}
330
134
100
DictionaryVariables
280
     0
  1
STANDARD
  0
DICTIONARYVAR
  5
135
102
{ACAD_REACTORS
330
134
102
}
330
134
100
DictionaryVariables
280
     0
  1
1
  0
DICTIONARYVAR
  5
33D
102
{ACAD_REACTORS
330
134
102
}
330
134
100
DictionaryVariables
280
     0
  1
0
  0
DICTIONARYVAR
  5
33C
102
{ACAD_REACTORS
330
134
102
}
330
134
100
DictionaryVariables
280
     0
  1
127
  0
XRECORD
  5
31E
102
{ACAD_REACTORS
330
31D
102
}
330
31D
100
AcDbXrecord
280
     1
  0
DICTIONARY
  5
341
330
D6
100
AcDbDictionary
280
     1
281
     1
  3
ACAD_XREC_ROUNDTRIP
360
342
  0
DICTIONARY
  5
33F
330
D5
100
AcDbDictionary
280
     1
281
     1
  3
ACAD_XREC_ROUNDTRIP
360
340
  0
DICTIONARY
  5
345
330
21C
100
AcDbDictionary
280
     1
281
     1
  3
ACAD_XREC_ROUNDTRIP
360
346
  0
DICTIONARY
  5
343
330
21B
100
AcDbDictionary
280
     1
281
     1
  3
ACAD_XREC_ROUNDTRIP
360
344
  0
DICTIONARY
  5
347
330
21D
100
AcDbDictionary
280
     1
281
     1
  3
ACAD_XREC_ROUNDTRIP
360
348
  0
DICTIONARY
  5
349
330
231
100
AcDbDictionary
280
     1
281
     1
  3
ACAD_XREC_ROUNDTRIP
360
34A
  0
XRECORD
  5
342
102
{ACAD_REACTORS
330
341
102
}
330
341
100
AcDbXrecord
280
     1
102
SHADEPLOT
 70
     0
102
SHADEPLOTRESLEVEL
 70
     2
102
SHADEPLOTCUSTOMDPI
 70
   300
  0
XRECORD
  5
340
102
{ACAD_REACTORS
330
33F
102
}
330
33F
100
AcDbXrecord
280
     1
102
SHADEPLOT
 70
     0
102
SHADEPLOTRESLEVEL
 70
     2
102
SHADEPLOTCUSTOMDPI
 70
   300
  0
XRECORD
  5
346
102
{ACAD_REACTORS
330
345
102
}
330
345
100
AcDbXrecord
280
     1
102
MATERIAL
148
0.0
149
0.0
149
0.0
 93
        0
 94
       63
282
     0
 72
     1
 77
     1
171
     1
175
     1
179
     1
273
     0
  0
XRECORD
  5
344
102
{ACAD_REACTORS
330
343
102
}
330
343
100
AcDbXrecord
280
     1
102
MATERIAL
148
0.0
149
0.0
149
0.0
 93
        0
 94
       63
282
     0
 72
     1
 77
     1
171
     1
175
     1
179
     1
273
     0
  0
XRECORD
  5
348
102
{ACAD_REACTORS
330
347
102
}
330
347
100
AcDbXrecord
280
     1
102
MATERIAL
148
0.0
149
0.0
149
0.0
 93
        0
 94
       63
282
     0
 72
     1
 77
     1
171
     1
175
     1
179
     1
273
     0
  0
XRECORD
  5
34A
102
{ACAD_REACTORS
330
349
102
}
330
349
100
AcDbXrecord
280
     1
102
ACAD_ROUNDTRIP_PRE2007_TABLESTYLE
 90
      512
 91
        0
  1

 92
      512
 93
        0
  2

 94
      512
 95
        0
  3

  0
ENDSEC
  0
EOF
