  0
SECTION
  2
HEADER
  9
$ACADVER
  1
AC1014
  9
$ACADMAINTVER
 70
     9
  9
$DWGCODEPAGE
  3
ANSI_1252
  9
$INSBASE
 10
8.006033005788452
 20
-1.311130418079863
 30
0.0
  9
$EXTMIN
 10
3.002017014105932
 20
-2.272215359169247
 30
0.0
  9
$EXTMAX
 10
16.05347506321916
 20
0.6065012281134255
 30
0.0
  9
$LIMMIN
 10
0.0
 20
0.0
  9
$LIMMAX
 10
36.0
 20
36.0
  9
$ORTHOMODE
 70
     1
  9
$REGENMODE
 70
     1
  9
$FILLMODE
 70
     1
  9
$QTEXTMODE
 70
     0
  9
$MIRRTEXT
 70
     1
  9
$DRAGMODE
 70
     0
  9
$LTSCALE
 40
1.0
  9
$OSMODE
 70
    37
  9
$ATTMODE
 70
     1
  9
$TEXTSIZE
 40
0.2
  9
$TRACEWID
 40
0.05
  9
$TEXTSTYLE
  7
STANDARD
  9
$CLAYER
  8
ADPDIM
  9
$CELTYPE
  6
BYLAYER
  9
$CECOLOR
 62
   256
  9
$CELTSCALE
 40
1.0
  9
$DELOBJ
 70
     1
  9
$DISPSILH
 70
     0
  9
$DIMSCALE
 40
1.0
  9
$DIMASZ
 40
0.125
  9
$DIMEXO
 40
0.0625
  9
$DIMDLI
 40
0.38
  9
$DIMRND
 40
0.0
  9
$DIMDLE
 40
0.0
  9
$DIMEXE
 40
0.18
  9
$DIMTP
 40
0.0
  9
$DIMTM
 40
0.0
  9
$DIMTXT
 40
0.125
  9
$DIMCEN
 40
0.1875
  9
$DIMTSZ
 40
0.125
  9
$DIMTOL
 70
     0
  9
$DIMLIM
 70
     0
  9
$DIMTIH
 70
     0
  9
$DIMTOH
 70
     0
  9
$DIMSE1
 70
     0
  9
$DIMSE2
 70
     0
  9
$DIMTAD
 70
     0
  9
$DIMZIN
 70
     3
  9
$DIMBLK
  1

  9
$DIMASO
 70
     1
  9
$DIMSHO
 70
     1
  9
$DIMPOST
  1

  9
$DIMAPOST
  1

  9
$DIMALT
 70
     0
  9
$DIMALTD
 70
     1
  9
$DIMALTF
 40
25.4
  9
$DIMLFAC
 40
1.0
  9
$DIMTOFL
 70
     0
  9
$DIMTVP
 40
0.0
  9
$DIMTIX
 70
     0
  9
$DIMSOXD
 70
     0
  9
$DIMSAH
 70
     0
  9
$DIMBLK1
  1

  9
$DIMBLK2
  1

  9
$DIMSTYLE
  2
STANDARD
  9
$DIMCLRD
 70
     0
  9
$DIMCLRE
 70
     0
  9
$DIMCLRT
 70
     0
  9
$DIMTFAC
 40
1.0
  9
$DIMGAP
 40
0.125
  9
$DIMJUST
 70
     0
  9
$DIMSD1
 70
     0
  9
$DIMSD2
 70
     0
  9
$DIMTOLJ
 70
     1
  9
$DIMTZIN
 70
     0
  9
$DIMALTZ
 70
     0
  9
$DIMALTTZ
 70
     0
  9
$DIMFIT
 70
     3
  9
$DIMUPT
 70
     0
  9
$DIMUNIT
 70
     2
  9
$DIMDEC
 70
     4
  9
$DIMTDEC
 70
     4
  9
$DIMALTU
 70
     2
  9
$DIMALTTD
 70
     2
  9
$DIMTXSTY
  7
STANDARD
  9
$DIMAUNIT
 70
     0
  9
$LUNITS
 70
     5
  9
$LUPREC
 70
     4
  9
$SKETCHINC
 40
0.1
  9
$FILLETRAD
 40
0.045
  9
$AUNITS
 70
     0
  9
$AUPREC
 70
     0
  9
$MENU
  1
acad
  9
$ELEVATION
 40
0.0
  9
$PELEVATION
 40
0.0
  9
$THICKNESS
 40
0.0
  9
$LIMCHECK
 70
     0
  9
$BLIPMODE
 70
     0
  9
$CHAMFERA
 40
0.0
  9
$CHAMFERB
 40
0.0
  9
$CHAMFERC
 40
0.0
  9
$CHAMFERD
 40
0.0
  9
$SKPOLY
 70
     0
  9
$TDCREATE
 40
2450225.395222025
  9
$TDUPDATE
 40
2452297.103032581
  9
$TDINDWG
 40
0.0604878472
  9
$TDUSRTIMER
 40
0.0604878472
  9
$USRTIMER
 70
     1
  9
$ANGBASE
 50
0.0
  9
$ANGDIR
 70
     0
  9
$PDMODE
 70
     0
  9
$PDSIZE
 40
0.0
  9
$PLINEWID
 40
0.0
  9
$COORDS
 70
     2
  9
$SPLFRAME
 70
     0
  9
$SPLINETYPE
 70
     6
  9
$SPLINESEGS
 70
     8
  9
$ATTDIA
 70
     0
  9
$ATTREQ
 70
     1
  9
$HANDLING
 70
 22529
  9
$HANDSEED
  5
5B9
  9
$SURFTAB1
 70
     6
  9
$SURFTAB2
 70
     6
  9
$SURFTYPE
 70
     6
  9
$SURFU
 70
     6
  9
$SURFV
 70
     6
  9
$UCSNAME
  2

  9
$UCSORG
 10
0.0
 20
0.0
 30
0.0
  9
$UCSXDIR
 10
1.0
 20
0.0
 30
0.0
  9
$UCSYDIR
 10
0.0
 20
1.0
 30
0.0
  9
$PUCSNAME
  2

  9
$PUCSORG
 10
0.0
 20
0.0
 30
0.0
  9
$PUCSXDIR
 10
1.0
 20
0.0
 30
0.0
  9
$PUCSYDIR
 10
0.0
 20
1.0
 30
0.0
  9
$USERI1
 70
     0
  9
$USERI2
 70
     0
  9
$USERI3
 70
     0
  9
$USERI4
 70
     0
  9
$USERI5
 70
     0
  9
$USERR1
 40
0.0
  9
$USERR2
 40
0.0
  9
$USERR3
 40
0.0
  9
$USERR4
 40
0.0
  9
$USERR5
 40
0.0
  9
$WORLDVIEW
 70
     1
  9
$SHADEDGE
 70
     3
  9
$SHADEDIF
 70
    70
  9
$TILEMODE
 70
     1
  9
$MAXACTVP
 70
    15
  9
$PINSBASE
 10
0.0008545056916773
 20
1.250276130627782
 30
0.0
  9
$PLIMCHECK
 70
     0
  9
$PEXTMIN
 10
1.000000000000000E+20
 20
1.000000000000000E+20
 30
1.000000000000000E+20
  9
$PEXTMAX
 10
-1.000000000000000E+20
 20
-1.000000000000000E+20
 30
-1.000000000000000E+20
  9
$PLIMMIN
 10
0.0
 20
0.0
  9
$PLIMMAX
 10
12.0
 20
9.0
  9
$UNITMODE
 70
     0
  9
$VISRETAIN
 70
     0
  9
$PLINEGEN
 70
     0
  9
$PSLTSCALE
 70
     1
  9
$TREEDEPTH
 70
  3020
  9
$PICKSTYLE
 70
     1
  9
$CMLSTYLE
  2
STANDARD
  9
$CMLJUST
 70
     0
  9
$CMLSCALE
 40
1.0
  9
$PROXYGRAPHICS
 70
     1
  9
$MEASUREMENT
 70
     0
  0
ENDSEC
  0
SECTION
  2
CLASSES
  0
CLASS
  1
ACDBDICTIONARYWDFLT
  2
AcDbDictionaryWithDefault
  3
AutoCAD 2000
 90
        0
280
     0
281
     0
  0
CLASS
  1
ACDBPLACEHOLDER
  2
AcDbPlaceHolder
  3
AutoCAD 2000
 90
        0
280
     0
281
     0
  0
CLASS
  1
LAYOUT
  2
AcDbLayout
  3
AutoCAD 2000
 90
        0
280
     0
281
     0
  0
CLASS
  1
DICTIONARYVAR
  2
AcDbDictionaryVar
  3
AutoCAD 2000
 90
        0
280
     0
281
     0
  0
CLASS
  1
LONG_TRANSACTION
  2
AcDbLongTransaction
  3
AutoCAD 2000
 90
        0
280
     0
281
     0
  0
CLASS
  1
LWPOLYLINE
  2
AcDbPolyline
  3
AutoCAD 2000
 90
        0
280
     0
281
     1
  0
CLASS
  1
HATCH
  2
AcDbHatch
  3
AutoCAD 2000
 90
        0
280
     0
281
     1
  0
CLASS
  1
XRECORD
  2
AcDbXrecord
  3
AutoCAD 2000
 90
        0
280
     0
281
     0
  0
CLASS
  1
LONG_TRANSACTION
  2
AcDbLongTransaction
  3
AutoCAD 2000
 90
        0
280
     0
281
     0
  0
CLASS
  1
LWPOLYLINE
  2
AcDbPolyline
  3
AutoCAD 2000
 90
        0
280
     0
281
     1
  0
CLASS
  1
HATCH
  2
AcDbHatch
  3
AutoCAD 2000
 90
        0
280
     0
281
     1
  0
CLASS
  1
XRECORD
  2
AcDbXrecord
  3
AutoCAD 2000
 90
        0
280
     0
281
     0
  0
CLASS
  1
LONG_TRANSACTION
  2
AcDbLongTransaction
  3
AutoCAD 2000
 90
        0
280
     0
281
     0
  0
CLASS
  1
LWPOLYLINE
  2
AcDbPolyline
  3
AutoCAD 2000
 90
        0
280
     0
281
     1
  0
CLASS
  1
HATCH
  2
AcDbHatch
  3
AutoCAD 2000
 90
        0
280
     0
281
     1
  0
CLASS
  1
XRECORD
  2
AcDbXrecord
  3
AutoCAD 2000
 90
        0
280
     0
281
     0
  0
CLASS
  1
LONG_TRANSACTION
  2
AcDbLongTransaction
  3
AutoCAD 2000
 90
        0
280
     0
281
     0
  0
CLASS
  1
LWPOLYLINE
  2
AcDbPolyline
  3
AutoCAD 2000
 90
        0
280
     0
281
     1
  0
CLASS
  1
HATCH
  2
AcDbHatch
  3
AutoCAD 2000
 90
        0
280
     0
281
     1
  0
CLASS
  1
XRECORD
  2
AcDbXrecord
  3
AutoCAD 2000
 90
        0
280
     0
281
     0
  0
CLASS
  1
LONG_TRANSACTION
  2
AcDbLongTransaction
  3
AutoCAD 2000
 90
        0
280
     0
281
     0
  0
CLASS
  1
LWPOLYLINE
  2
AcDbPolyline
  3
AutoCAD 2000
 90
        0
280
     0
281
     1
  0
CLASS
  1
HATCH
  2
AcDbHatch
  3
AutoCAD 2000
 90
        0
280
     0
281
     1
  0
CLASS
  1
XRECORD
  2
AcDbXrecord
  3
AutoCAD 2000
 90
        0
280
     0
281
     0
  0
ENDSEC
  0
SECTION
  2
TABLES
  0
TABLE
  2
VPORT
  5
8
330
0
100
AcDbSymbolTable
 70
     2
  0
VPORT
  5
596
330
8
100
AcDbSymbolTableRecord
100
AcDbViewportTableRecord
  2
*ACTIVE
 70
     0
 10
0.0
 20
0.0
 11
1.0
 21
1.0
 12
9.538703813429904
 22
-0.8326073209893429
 13
0.0
 23
0.0
 14
0.5740882589684922
 24
0.5740882589684922
 15
0.5
 25
0.5
 16
0.0
 26
0.0
 36
1.0
 17
0.0
 27
0.0
 37
0.0
 40
8.365595802020571
 41
1.570528967254408
 42
50.0
 43
0.0
 44
0.0
 50
0.0
 51
0.0
 71
     0
 72
   100
 73
     1
 74
     0
 75
     0
 76
     0
 77
     0
 78
     0
  0
ENDTAB
  0
TABLE
  2
LTYPE
  5
5
330
0
100
AcDbSymbolTable
 70
     2
  0
LTYPE
  5
12
330
5
100
AcDbSymbolTableRecord
100
AcDbLinetypeTableRecord
  2
BYBLOCK
 70
     0
  3

 72
    65
 73
     0
 40
0.0
  0
LTYPE
  5
13
330
5
100
AcDbSymbolTableRecord
100
AcDbLinetypeTableRecord
  2
BYLAYER
 70
     0
  3

 72
    65
 73
     0
 40
0.0
  0
LTYPE
  5
14
330
5
100
AcDbSymbolTableRecord
100
AcDbLinetypeTableRecord
  2
CONTINUOUS
 70
     0
  3
Solid line
 72
    65
 73
     0
 40
0.0
  0
LTYPE
  5
22
330
5
100
AcDbSymbolTableRecord
100
AcDbLinetypeTableRecord
  2
HIDDEN2
 70
     0
  3
_ _ _ _ _ _ _ _ _ _ _ _ _ _ _ _ _ _ _ _ _ _ _ _
 72
    65
 73
     2
 40
0.1875
 49
0.125
 74
     0
 49
-0.0625
 74
     0
  0
ENDTAB
  0
TABLE
  2
LAYER
  5
2
330
0
100
AcDbSymbolTable
 70
     5
  0
LAYER
  5
F
330
2
100
AcDbSymbolTableRecord
100
AcDbLayerTableRecord
  2
0
 70
     0
 62
     7
  6
CONTINUOUS
  0
LAYER
  5
23
330
2
100
AcDbSymbolTableRecord
100
AcDbLayerTableRecord
  2
ADP2DETAIL
 70
     0
 62
     5
  6
CONTINUOUS
  0
LAYER
  5
24
330
2
100
AcDbSymbolTableRecord
100
AcDbLayerTableRecord
  2
ADPDIM
 70
     0
 62
     3
  6
CONTINUOUS
  0
LAYER
  5
25
330
2
100
AcDbSymbolTableRecord
100
AcDbLayerTableRecord
  2
ADP1DETAIL
 70
     0
 62
     7
  6
CONTINUOUS
  0
LAYER
  5
26
330
2
100
AcDbSymbolTableRecord
100
AcDbLayerTableRecord
  2
DEFPOINTS
 70
     0
 62
     7
  6
CONTINUOUS
  0
ENDTAB
  0
TABLE
  2
STYLE
  5
3
330
0
100
AcDbSymbolTable
 70
     2
  0
STYLE
  5
10
330
3
100
AcDbSymbolTableRecord
100
AcDbTextStyleTableRecord
  2
STANDARD
 70
     0
 40
0.0
 41
1.0
 50
0.0
 71
     0
 42
0.2
  3
txt
  4

  0
STYLE
  5
452
330
3
100
AcDbSymbolTableRecord
100
AcDbTextStyleTableRecord
  2
ARIAL_WIDE
 70
     0
 40
0.0
 41
1.25
 50
0.0
 71
     0
 42
0.2
  3
ARIAL.TTF
  4

1001
ACAD
1000
Arial
1071
       34
  0
ENDTAB
  0
TABLE
  2
VIEW
  5
6
330
0
100
AcDbSymbolTable
 70
     0
  0
ENDTAB
  0
TABLE
  2
UCS
  5
7
330
0
100
AcDbSymbolTable
 70
     0
  0
ENDTAB
  0
TABLE
  2
APPID
  5
9
330
0
100
AcDbSymbolTable
 70
     1
  0
APPID
  5
11
330
9
100
AcDbSymbolTableRecord
100
AcDbRegAppTableRecord
  2
ACAD
 70
     0
  0
ENDTAB
  0
TABLE
  2
DIMSTYLE
  5
A
330
0
100
AcDbSymbolTable
 70
     1
  0
DIMSTYLE
105
446
330
A
100
AcDbSymbolTableRecord
100
AcDbDimStyleTableRecord
  2
STANDARD
 70
     0
  3

  4

  5

  6

  7

 40
1.0
 41
0.18
 42
0.0625
 43
0.38
 44
0.18
 45
0.0
 46
0.0
 47
0.0
 48
0.0
140
0.18
141
0.09
142
0.0
143
25.4
144
1.0
145
0.0
146
1.0
147
0.09
 71
     0
 72
     0
 73
     1
 74
     1
 75
     0
 76
     0
 77
     0
 78
     0
170
     0
171
     2
172
     0
173
     0
174
     0
175
     0
176
     0
177
     0
178
     0
270
     2
271
     4
272
     4
273
     2
274
     2
340
10
275
     0
280
     0
281
     0
282
     0
283
     1
284
     0
285
     0
286
     0
287
     3
288
     0
  0
ENDTAB
  0
TABLE
  2
BLOCK_RECORD
  5
1
330
0
100
AcDbSymbolTable
 70
     2
  0
BLOCK_RECORD
  5
18
102
{ACAD_XDICTIONARY
360
4A7
102
}
330
1
100
AcDbSymbolTableRecord
100
AcDbBlockTableRecord
  2
*MODEL_SPACE
  0
BLOCK_RECORD
  5
15
102
{ACAD_XDICTIONARY
360
4A5
102
}
330
1
100
AcDbSymbolTableRecord
100
AcDbBlockTableRecord
  2
*PAPER_SPACE
  0
BLOCK_RECORD
  5
1C
330
1
100
AcDbSymbolTableRecord
100
AcDbBlockTableRecord
  2
*D0
  0
BLOCK_RECORD
  5
21
330
1
100
AcDbSymbolTableRecord
100
AcDbBlockTableRecord
  2
*D1
  0
ENDTAB
  0
ENDSEC
  0
SECTION
  2
BLOCKS
  0
BLOCK
  5
29
330
18
100
AcDbEntity
  8
0
100
AcDbBlockBegin
  2
*MODEL_SPACE
 70
     0
 10
0.0
 20
0.0
 30
0.0
  3
*MODEL_SPACE
  1

  0
ENDBLK
  5
2A
330
18
100
AcDbEntity
  8
0
100
AcDbBlockEnd
  0
BLOCK
  5
27
330
15
100
AcDbEntity
 67
     1
  8
0
100
AcDbBlockBegin
  2
*PAPER_SPACE
 70
     0
 10
0.0
 20
0.0
 30
0.0
  3
*PAPER_SPACE
  1

  0
ENDBLK
  5
28
330
15
100
AcDbEntity
 67
     1
  8
0
100
AcDbBlockEnd
  0
BLOCK
  5
2C
330
1C
100
AcDbEntity
  8
0
100
AcDbBlockBegin
  2
*D0
 70
     1
 10
0.0
 20
0.0
 30
0.0
  3
*D0
  1

  0
LINE
  5
2D
330
1C
100
AcDbEntity
  8
0
  6
BYBLOCK
 62
     0
100
AcDbLine
 10
7.943533005788451
 20
0.0002726239807384
 30
0.0
 11
7.943533005788451
 21
0.4145854585901115
 31
0.0
  0
LINE
  5
2E
330
1C
100
AcDbEntity
  8
0
  6
BYBLOCK
 62
     0
100
AcDbLine
 10
12.94353300578845
 20
0.0002726239807384
 30
0.0
 11
12.94353300578845
 21
0.4145854585901115
 31
0.0
  0
LINE
  5
2F
330
1C
100
AcDbEntity
  8
0
  6
BYBLOCK
 62
     0
100
AcDbLine
 10
7.943533005788451
 20
0.2345854585901114
 30
0.0
 11
10.27686633912178
 21
0.2345854585901114
 31
0.0
  0
LINE
  5
30
330
1C
100
AcDbEntity
  8
0
  6
BYBLOCK
 62
     0
100
AcDbLine
 10
12.94353300578845
 20
0.2345854585901114
 30
0.0
 11
10.61019967245511
 21
0.2345854585901114
 31
0.0
  0
LINE
  5
31
330
1C
100
AcDbEntity
  8
0
  6
BYBLOCK
 62
     0
100
AcDbLine
 10
7.818533005788451
 20
0.1095854585901115
 30
0.0
 11
8.068533005788451
 21
0.3595854585901115
 31
0.0
  0
LINE
  5
32
330
1C
100
AcDbEntity
  8
0
  6
BYBLOCK
 62
     0
100
AcDbLine
 10
12.81853300578845
 20
0.1095854585901115
 30
0.0
 11
13.06853300578845
 21
0.3595854585901115
 31
0.0
  0
TEXT
  5
33
330
1C
100
AcDbEntity
  8
0
  6
BYBLOCK
 62
     0
100
AcDbText
 10
10.40186633912178
 20
0.1720854585901115
 30
0.0
 40
0.125
  1
5
 72
     1
 11
10.44353300578845
 21
0.2345854585901114
 31
0.0
100
AcDbText
 73
     2
  0
POINT
  5
34
330
1C
100
AcDbEntity
  8
DEFPOINTS
  6
BYBLOCK
 62
     0
100
AcDbPoint
 10
7.943533005788451
 20
-0.0622273760192617
 30
0.0
  0
POINT
  5
35
330
1C
100
AcDbEntity
  8
DEFPOINTS
  6
BYBLOCK
 62
     0
100
AcDbPoint
 10
12.94353300578845
 20
-0.0622273760192617
 30
0.0
  0
POINT
  5
36
330
1C
100
AcDbEntity
  8
DEFPOINTS
  6
BYBLOCK
 62
     0
100
AcDbPoint
 10
12.94353300578845
 20
0.2345854585901114
 30
0.0
  0
ENDBLK
  5
37
330
1C
100
AcDbEntity
  8
0
100
AcDbBlockEnd
  0
BLOCK
  5
38
330
21
100
AcDbEntity
  8
0
100
AcDbBlockBegin
  2
*D1
 70
     1
 10
0.0
 20
0.0
 30
0.0
  3
*D1
  1

  0
LINE
  5
39
330
21
100
AcDbEntity
  8
0
  6
BYBLOCK
 62
     0
100
AcDbLine
 10
6.153775089871147
 20
-0.5553245875387177
 30
0.0
 11
6.153775089871147
 21
0.6034920587446735
 31
0.0
  0
LINE
  5
3A
330
21
100
AcDbEntity
  8
0
  6
BYBLOCK
 62
     0
100
AcDbLine
 10
7.778740464062807
 20
-0.5563822965654686
 30
0.0
 11
7.778740464062807
 21
0.6034920587446735
 31
0.0
  0
LINE
  5
3B
330
21
100
AcDbEntity
  8
0
  6
BYBLOCK
 62
     0
100
AcDbLine
 10
6.153775089871147
 20
0.4234920587446735
 30
0.0
 11
6.570424443633644
 21
0.4234920587446735
 31
0.0
  0
LINE
  5
3C
330
21
100
AcDbEntity
  8
0
  6
BYBLOCK
 62
     0
100
AcDbLine
 10
7.778740464062807
 20
0.4234920587446735
 30
0.0
 11
7.36209111030031
 21
0.4234920587446735
 31
0.0
  0
LINE
  5
3D
330
21
100
AcDbEntity
  8
0
  6
BYBLOCK
 62
     0
100
AcDbLine
 10
6.028775089871147
 20
0.2984920587446735
 30
0.0
 11
6.278775089871147
 21
0.5484920587446736
 31
0.0
  0
LINE
  5
3E
330
21
100
AcDbEntity
  8
0
  6
BYBLOCK
 62
     0
100
AcDbLine
 10
7.653740464062807
 20
0.2984920587446735
 30
0.0
 11
7.903740464062807
 21
0.5484920587446736
 31
0.0
  0
TEXT
  5
3F
330
21
100
AcDbEntity
  8
0
  6
BYBLOCK
 62
     0
100
AcDbText
 10
6.695424443633644
 20
0.3609920587446735
 30
0.0
 40
0.125
  1
1 5/8
 72
     1
 11
6.966257776966977
 21
0.4234920587446735
 31
0.0
100
AcDbText
 73
     2
  0
POINT
  5
40
330
21
100
AcDbEntity
  8
DEFPOINTS
  6
BYBLOCK
 62
     0
100
AcDbPoint
 10
6.153775089871147
 20
-0.6178245875387177
 30
0.0
  0
POINT
  5
41
330
21
100
AcDbEntity
  8
DEFPOINTS
  6
BYBLOCK
 62
     0
100
AcDbPoint
 10
7.778740464062807
 20
-0.6188822965654686
 30
0.0
  0
POINT
  5
42
330
21
100
AcDbEntity
  8
DEFPOINTS
  6
BYBLOCK
 62
     0
100
AcDbPoint
 10
7.778740464062807
 20
0.4234920587446735
 30
0.0
  0
ENDBLK
  5
43
330
21
100
AcDbEntity
  8
0
100
AcDbBlockEnd
  0
ENDSEC
  0
SECTION
  2
ENTITIES
  0
DIMENSION
  5
44
330
18
100
AcDbEntity
  8
ADPDIM
100
AcDbDimension
  2
*D1
 10
7.778740464062807
 20
0.4234920587446735
 30
0.0
 11
6.966257776966977
 21
0.4234920587446735
 31
0.0
100
AcDbAlignedDimension
 13
6.153775089871147
 23
-0.6178245875387177
 33
0.0
 14
7.778740464062807
 24
-0.6188822965654686
 34
0.0
100
AcDbRotatedDimension
  0
ARC
  5
45
330
18
100
AcDbEntity
  8
ADP1DETAIL
100
AcDbCircle
 10
6.966257776966978
 20
-0.6433534420520926
 30
0.0
 40
0.6725
100
AcDbArc
 50
303.5041945653643
 51
236.5846691687321
  0
LWPOLYLINE
  5
46
330
18
100
AcDbEntity
  8
ADP1DETAIL
100
AcDbPolyline
 90
        2
 70
     0
 43
0.0
 10
6.761691698490319
 20
0.1426264880189278
 10
6.733741752863454
 20
0.160148128307688
  0
LWPOLYLINE
  5
4A
330
18
100
AcDbEntity
  8
ADP1DETAIL
100
AcDbPolyline
 90
        2
 70
     0
 43
0.0
 10
6.314532682853507
 20
-0.1331620862935763
 10
6.319313693259858
 20
-0.1658017749938065
  0
LWPOLYLINE
  5
4E
330
18
100
AcDbEntity
  8
ADP1DETAIL
100
AcDbPolyline
 90
        2
 70
     0
 43
0.0
 10
6.21845976413029
 20
-0.8668204749391865
 10
6.202592912490258
 20
-0.895741926458545
  0
LWPOLYLINE
  5
52
330
18
100
AcDbEntity
  8
ADP1DETAIL
100
AcDbPolyline
 90
        2
 70
     0
 43
0.0
 10
6.375266693188873
 20
-1.175924772820435
 10
6.408240725421234
 20
-1.17688421916744
  0
LWPOLYLINE
  5
56
330
18
100
AcDbEntity
  8
ADP1DETAIL
100
AcDbPolyline
 90
        2
 70
     0
 43
0.0
 10
6.234171993130184
 20
-0.909880695560717
 10
6.220013618542295
 20
-0.9396757919354975
  0
LWPOLYLINE
  5
5A
330
18
100
AcDbEntity
  8
ADP1DETAIL
100
AcDbPolyline
 90
        2
 70
     0
 43
0.0
 10
6.220207190126754
 20
-0.9401682519589037
 10
6.250864494915945
 20
-0.9523476198413618
  0
LWPOLYLINE
  5
5E
330
18
100
AcDbEntity
  8
ADP1DETAIL
100
AcDbPolyline
 90
        2
 70
     0
 43
0.0
 10
6.25236136868629
 20
-0.9519544802371504
 10
6.239959378608423
 20
-0.9825224042926354
  0
LWPOLYLINE
  5
62
330
18
100
AcDbEntity
  8
ADP1DETAIL
100
AcDbPolyline
 90
        2
 70
     0
 43
0.0
 10
6.240181256704204
 20
-0.9830027759649649
 10
6.271494861447624
 20
-0.9933789745427858
  0
LWPOLYLINE
  5
66
330
18
100
AcDbEntity
  8
ADP1DETAIL
100
AcDbPolyline
 90
        2
 70
     0
 43
0.0
 10
6.26261213639212
 20
-1.024603442052089
 10
6.294476085763408
 20
-1.033141361553794
  0
LWPOLYLINE
  5
6A
330
18
100
AcDbEntity
  8
ADP1DETAIL
100
AcDbPolyline
 90
        2
 70
     0
 43
0.0
 10
6.272966343709439
 20
-0.992899464599284
 10
6.26236270255026
 20
-1.024136784156518
  0
LWPOLYLINE
  5
6E
330
18
100
AcDbEntity
  8
ADP1DETAIL
100
AcDbPolyline
 90
        2
 70
     0
 43
0.0
 10
6.262612136392123
 20
-1.024603442052091
 10
6.294476085763409
 20
-1.033141361553795
  0
LWPOLYLINE
  5
72
330
18
100
AcDbEntity
  8
ADP1DETAIL
100
AcDbPolyline
 90
        2
 70
     0
 43
0.0
 10
6.262612136392121
 20
-1.024603442052092
 10
6.29447608576341
 20
-1.033141361553797
  0
LWPOLYLINE
  5
76
330
18
100
AcDbEntity
  8
ADP1DETAIL
100
AcDbPolyline
 90
        2
 70
     0
 43
0.0
 10
6.272966343709441
 20
-0.9928994645992872
 10
6.262362702550261
 20
-1.024136784156521
  0
LWPOLYLINE
  5
7A
330
18
100
AcDbEntity
  8
ADP1DETAIL
100
AcDbPolyline
 90
        2
 70
     0
 43
0.0
 10
6.272966343709438
 20
-0.9928994645992846
 10
6.262362702550257
 20
-1.024136784156519
  0
LWPOLYLINE
  5
7E
330
18
100
AcDbEntity
  8
ADP1DETAIL
100
AcDbPolyline
 90
        2
 70
     0
 43
0.0
 10
6.262612136392118
 20
-1.02460344205209
 10
6.294476085763406
 20
-1.033141361553794
  0
LWPOLYLINE
  5
82
330
18
100
AcDbEntity
  8
ADP1DETAIL
100
AcDbPolyline
 90
        2
 70
     0
 43
0.0
 10
6.295917197486501
 20
-1.032577103780866
 10
6.287147784611188
 20
-1.064378121638408
  0
LWPOLYLINE
  5
86
330
18
100
AcDbEntity
  8
ADP1DETAIL
100
AcDbPolyline
 90
        2
 70
     0
 43
0.0
 10
6.287423930193964
 20
-1.064829486734619
 10
6.319730406674741
 20
-1.071500237543229
  0
LWPOLYLINE
  5
8A
330
18
100
AcDbEntity
  8
ADP1DETAIL
100
AcDbPolyline
 90
        2
 70
     0
 43
0.0
 10
6.321136271593219
 20
-1.070853141210568
 10
6.31423075991905
 20
-1.103110252790362
  0
LWPOLYLINE
  5
8E
330
18
100
AcDbEntity
  8
ADP1DETAIL
100
AcDbPolyline
 90
        2
 70
     0
 43
0.0
 10
6.314532682853503
 20
-1.103544797810603
 10
6.347172371553731
 20
-1.108325808216958
  0
LWPOLYLINE
  5
92
330
18
100
AcDbEntity
  8
ADP1DETAIL
100
AcDbPolyline
 90
        2
 70
     0
 43
0.0
 10
6.348538232665723
 20
-1.107598062893718
 10
6.343519988258317
 20
-1.140202120340928
  0
LWPOLYLINE
  5
96
330
18
100
AcDbEntity
  8
ADP1DETAIL
100
AcDbPolyline
 90
        2
 70
     0
 43
0.0
 10
6.343846666932805
 20
-1.140618374922402
 10
6.376709125477775
 20
-1.14349346750068
  0
LWPOLYLINE
  5
9A
330
18
100
AcDbEntity
  8
ADP1DETAIL
100
AcDbPolyline
 90
        2
 70
     0
 43
0.0
 10
6.378030361141632
 20
-1.142687535646674
 10
6.374916364151575
 20
-1.175528217151468
  0
LWPOLYLINE
  5
9E
330
18
100
AcDbEntity
  8
ADP1DETAIL
100
AcDbPolyline
 90
        2
 70
     0
 43
0.0
 10
6.202757522578426
 20
-0.8962448085041948
 10
6.232654792798321
 20
-0.9101861345656631
  0
LINE
  5
A2
330
18
100
AcDbEntity
  8
ADP1DETAIL
100
AcDbLine
 10
6.519349394380792
 20
-1.296882213801497
 30
0.0
 11
6.531204789571865
 21
-1.304564159076091
 31
0.0
  0
LWPOLYLINE
  5
A3
330
18
100
AcDbEntity
  8
ADP1DETAIL
100
AcDbPolyline
 90
        2
 70
     0
 43
0.0
 10
6.514805870817965
 20
-1.264208619989559
 10
6.519349394380792
 20
-1.296882213801497
  0
LWPOLYLINE
  5
A7
330
18
100
AcDbEntity
  8
ADP1DETAIL
100
AcDbPolyline
 90
        2
 70
     0
 43
0.0
 10
6.481066421208462
 20
-1.270078536165564
 10
6.513706109908691
 20
-1.265297525759213
  0
LWPOLYLINE
  5
AB
330
18
100
AcDbEntity
  8
ADP1DETAIL
100
AcDbPolyline
 90
        2
 70
     0
 43
0.0
 10
6.478016517169184
 20
-1.236866341404464
 10
6.480652553287166
 20
-1.269748839067174
  0
ARC
  5
AF
330
18
100
AcDbEntity
  8
ADP1DETAIL
100
AcDbCircle
 10
6.563331779410273
 20
-1.253890136895857
 30
0.0
 40
0.06
100
AcDbArc
 50
237.6255770379718
 51
332.1988658577537
  0
LINE
  5
B0
330
18
100
AcDbEntity
  8
ADP1DETAIL
100
AcDbLine
 10
6.615941325722348
 20
-1.282755836117886
 30
0.0
 11
6.616406083998901
 21
-1.281874385901925
 31
0.0
  0
ARC
  5
B1
330
18
100
AcDbEntity
  8
ADP1DETAIL
100
AcDbCircle
 10
6.56286702113372
 20
-1.254771587111818
 30
0.0
 40
0.06
100
AcDbArc
 50
332.1988658577534
 51
56.58466916873241
  0
LWPOLYLINE
  5
B2
330
18
100
AcDbEntity
  8
ADP1DETAIL
100
AcDbPolyline
 90
        2
 70
     0
 43
0.0
 10
6.409512864993696
 20
-1.17600282780095
 10
6.40831365220109
 20
-1.208969010892589
  0
LWPOLYLINE
  5
B6
330
18
100
AcDbEntity
  8
ADP1DETAIL
100
AcDbPolyline
 90
        2
 70
     0
 43
0.0
 10
6.408686446198628
 20
-1.209344525830192
 10
6.441660478430989
 20
-1.208385079483191
  0
LWPOLYLINE
  5
BA
330
18
100
AcDbEntity
  8
ADP1DETAIL
100
AcDbPolyline
 90
        2
 70
     0
 43
0.0
 10
6.443992844096661
 20
-1.240764552086259
 10
6.476855302641632
 20
-1.237889459507985
  0
LWPOLYLINE
  5
BE
330
18
100
AcDbEntity
  8
ADP1DETAIL
100
AcDbPolyline
 90
        2
 70
     0
 43
0.0
 10
6.442879217394431
 20
-1.207431210953602
 10
6.443598846555763
 20
-1.240411348503703
  0
LWPOLYLINE
  5
C2
330
18
100
AcDbEntity
  8
ADP1DETAIL
100
AcDbPolyline
 90
        2
 70
     0
 43
0.0
 10
6.443992844096664
 20
-1.240764552086261
 10
6.476855302641634
 20
-1.237889459507987
  0
LWPOLYLINE
  5
C6
330
18
100
AcDbEntity
  8
ADP1DETAIL
100
AcDbPolyline
 90
        2
 70
     0
 43
0.0
 10
6.443992844096663
 20
-1.240764552086262
 10
6.476855302641634
 20
-1.237889459507988
  0
LWPOLYLINE
  5
CA
330
18
100
AcDbEntity
  8
ADP1DETAIL
100
AcDbPolyline
 90
        2
 70
     0
 43
0.0
 10
6.442879217394434
 20
-1.207431210953604
 10
6.443598846555766
 20
-1.240411348503705
  0
LWPOLYLINE
  5
CE
330
18
100
AcDbEntity
  8
ADP1DETAIL
100
AcDbPolyline
 90
        2
 70
     0
 43
0.0
 10
6.442879217394432
 20
-1.207431210953604
 10
6.443598846555764
 20
-1.240411348503705
  0
LWPOLYLINE
  5
D2
330
18
100
AcDbEntity
  8
ADP1DETAIL
100
AcDbPolyline
 90
        2
 70
     0
 43
0.0
 10
6.443992844096662
 20
-1.240764552086261
 10
6.476855302641633
 20
-1.237889459507987
  0
LWPOLYLINE
  5
D6
330
18
100
AcDbEntity
  8
ADP1DETAIL
100
AcDbPolyline
 90
        2
 70
     0
 43
0.0
 10
6.320402599029512
 20
-0.1669015359030792
 10
6.287729005217575
 20
-0.171445059465906
  0
LWPOLYLINE
  5
DA
330
18
100
AcDbEntity
  8
ADP1DETAIL
100
AcDbPolyline
 90
        2
 70
     0
 43
0.0
 10
6.28742393019397
 20
-0.1718773973695604
 10
6.294094681002576
 20
-0.2041838738503383
  0
LWPOLYLINE
  5
DE
330
18
100
AcDbEntity
  8
ADP1DETAIL
100
AcDbPolyline
 90
        2
 70
     0
 43
0.0
 10
6.262612136392124
 20
-0.2121034420520897
 10
6.271150055893824
 20
-0.2439673914233782
  0
LWPOLYLINE
  5
E2
330
18
100
AcDbEntity
  8
ADP1DETAIL
100
AcDbPolyline
 90
        2
 70
     0
 43
0.0
 10
6.295245689925921
 20
-0.2052184598985358
 10
6.262891557063634
 20
-0.211654097060689
  0
LWPOLYLINE
  5
E6
330
18
100
AcDbEntity
  8
ADP1DETAIL
100
AcDbPolyline
 90
        2
 70
     0
 43
0.0
 10
6.262612136392122
 20
-0.2121034420520929
 10
6.271150055893825
 20
-0.2439673914233806
  0
LWPOLYLINE
  5
EA
330
18
100
AcDbEntity
  8
ADP1DETAIL
100
AcDbPolyline
 90
        2
 70
     0
 43
0.0
 10
6.262612136392122
 20
-0.2121034420520929
 10
6.271150055893823
 20
-0.2439673914233817
  0
LWPOLYLINE
  5
EE
330
18
100
AcDbEntity
  8
ADP1DETAIL
100
AcDbPolyline
 90
        2
 70
     0
 43
0.0
 10
6.295245689925919
 20
-0.2052184598985389
 10
6.262891557063632
 20
-0.2116540970606922
  0
LWPOLYLINE
  5
F2
330
18
100
AcDbEntity
  8
ADP1DETAIL
100
AcDbPolyline
 90
        2
 70
     0
 43
0.0
 10
6.295245689925921
 20
-0.2052184598985358
 10
6.262891557063633
 20
-0.211654097060689
  0
LWPOLYLINE
  5
F6
330
18
100
AcDbEntity
  8
ADP1DETAIL
100
AcDbPolyline
 90
        2
 70
     0
 43
0.0
 10
6.262612136392123
 20
-0.2121034420520893
 10
6.271150055893824
 20
-0.2439673914233782
  0
LWPOLYLINE
  5
FA
330
18
100
AcDbEntity
  8
ADP1DETAIL
100
AcDbPolyline
 90
        2
 70
     0
 43
0.0
 10
6.27235927332101
 20
-0.244933301898806
 10
6.240434077552519
 20
-0.2532392765012819
  0
LWPOLYLINE
  5
FE
330
18
100
AcDbEntity
  8
ADP1DETAIL
100
AcDbPolyline
 90
        2
 70
     0
 43
0.0
 10
6.240181256704206
 20
-0.2537041081392142
 10
6.250557455282024
 20
-0.2850177128826363
  0
LWPOLYLINE
  5
102
330
18
100
AcDbEntity
  8
ADP1DETAIL
100
AcDbPolyline
 90
        2
 70
     0
 43
0.0
 10
6.251820789604043
 20
-0.2859116794499965
 10
6.220432555686148
 20
-0.2960598867039344
  0
LWPOLYLINE
  5
106
330
18
100
AcDbEntity
  8
ADP1DETAIL
100
AcDbPolyline
 90
        2
 70
     0
 43
0.0
 10
6.220207190126758
 20
-0.2965386321452752
 10
6.23238655800921
 20
-0.3271959369344668
  0
LWPOLYLINE
  5
10A
330
18
100
AcDbEntity
  8
ADP1DETAIL
100
AcDbPolyline
 90
        2
 70
     0
 43
0.0
 10
6.187891298210645
 20
-0.3853258154743282
 10
6.203547409416751
 20
-0.4143618882262623
  0
LWPOLYLINE
  5
10E
330
18
100
AcDbEntity
  8
ADP1DETAIL
100
AcDbPolyline
 90
        2
 70
     0
 43
0.0
 10
6.175658819620872
 20
-0.4309780470738565
 10
6.192976740647123
 20
-0.459054673478788
  0
LWPOLYLINE
  5
112
330
18
100
AcDbEntity
  8
ADP1DETAIL
100
AcDbPolyline
 90
        2
 70
     0
 43
0.0
 10
6.16610147764456
 20
-0.4772642976977082
 10
6.185022610128062
 20
-0.5042864753393293
  0
LWPOLYLINE
  5
116
330
18
100
AcDbEntity
  8
ADP1DETAIL
100
AcDbPolyline
 90
        2
 70
     0
 43
0.0
 10
6.194412184507338
 20
-0.4596331981169158
 10
6.166210362149312
 20
-0.476746484026984
  0
LWPOLYLINE
  5
11A
330
18
100
AcDbEntity
  8
ADP1DETAIL
100
AcDbPolyline
 90
        2
 70
     0
 43
0.0
 10
6.16610147764456
 20
-0.4772642976977118
 10
6.185022610128062
 20
-0.5042864753393311
  0
LWPOLYLINE
  5
11E
330
18
100
AcDbEntity
  8
ADP1DETAIL
100
AcDbPolyline
 90
        2
 70
     0
 43
0.0
 10
6.166101477644558
 20
-0.4772642976977116
 10
6.185022610128062
 20
-0.5042864753393327
  0
LWPOLYLINE
  5
122
330
18
100
AcDbEntity
  8
ADP1DETAIL
100
AcDbPolyline
 90
        2
 70
     0
 43
0.0
 10
6.194412184507338
 20
-0.4596331981169194
 10
6.166210362149311
 20
-0.4767464840269876
  0
LWPOLYLINE
  5
126
330
18
100
AcDbEntity
  8
ADP1DETAIL
100
AcDbPolyline
 90
        2
 70
     0
 43
0.0
 10
6.194412184507337
 20
-0.4596331981169155
 10
6.16621036214931
 20
-0.476746484026984
  0
LWPOLYLINE
  5
12A
330
18
100
AcDbEntity
  8
ADP1DETAIL
100
AcDbPolyline
 90
        2
 70
     0
 43
0.0
 10
6.166101477644557
 20
-0.4772642976977082
 10
6.18502261012806
 20
-0.5042864753393293
  0
LWPOLYLINE
  5
12E
330
18
100
AcDbEntity
  8
ADP1DETAIL
100
AcDbPolyline
 90
        2
 70
     0
 43
0.0
 10
6.186489263660558
 20
-0.5047805575676705
 10
6.15933020340376
 20
-0.5235046806424915
  0
LWPOLYLINE
  5
132
330
18
100
AcDbEntity
  8
ADP1DETAIL
100
AcDbPolyline
 90
        2
 70
     0
 43
0.0
 10
6.159251611301648
 20
-0.5240279493253397
 10
6.17971193211942
 20
-0.5499042437081796
  0
LWPOLYLINE
  5
136
330
18
100
AcDbEntity
  8
ADP1DETAIL
100
AcDbPolyline
 90
        2
 70
     0
 43
0.0
 10
6.181204832632904
 20
-0.5503122117088719
 10
6.155180432140246
 20
-0.5705838154429417
  0
LWPOLYLINE
  5
13A
330
18
100
AcDbEntity
  8
ADP1DETAIL
100
AcDbPolyline
 90
        2
 70
     0
 43
0.0
 10
6.155132398371573
 20
-0.5711107685623278
 10
6.177062676274528
 20
-0.595753622497143
  0
LWPOLYLINE
  5
13E
330
18
100
AcDbEntity
  8
ADP1DETAIL
100
AcDbPolyline
 90
        2
 70
     0
 43
0.0
 10
6.178576772266228
 20
-0.5960740958356102
 10
6.153775089871147
 20
-0.6178245875387177
  0
LWPOLYLINE
  5
142
330
18
100
AcDbEntity
  8
ADP1DETAIL
100
AcDbPolyline
 90
        2
 70
     0
 43
0.0
 10
6.153757776966976
 20
-0.6183534420520887
 10
6.177083806836561
 20
-0.6416794719216754
  0
LWPOLYLINE
  5
146
330
18
100
AcDbEntity
  8
ADP1DETAIL
100
AcDbPolyline
 90
        2
 70
     0
 43
0.0
 10
6.178613975084915
 20
-0.6419113662175846
 10
6.155118931829849
 20
-0.6650671491107627
  0
LWPOLYLINE
  5
14A
330
18
100
AcDbEntity
  8
ADP1DETAIL
100
AcDbPolyline
 90
        2
 70
     0
 43
0.0
 10
6.155132398371572
 20
-0.6655961155418502
 10
6.179775252306384
 20
-0.6875263934448104
  0
LWPOLYLINE
  5
14E
330
18
100
AcDbEntity
  8
ADP1DETAIL
100
AcDbPolyline
 90
        2
 70
     0
 43
0.0
 10
6.233699734502618
 20
-0.3280149346938728
 10
6.202954670283184
 20
-0.3399710362782649
  0
LWPOLYLINE
  5
152
330
18
100
AcDbEntity
  8
ADP1DETAIL
100
AcDbPolyline
 90
        2
 70
     0
 43
0.0
 10
6.202757522578429
 20
-0.3404620755999832
 10
6.216698848639894
 20
-0.3703593458198797
  0
LWPOLYLINE
  5
156
330
18
100
AcDbEntity
  8
ADP1DETAIL
100
AcDbPolyline
 90
        2
 70
     0
 43
0.0
 10
6.21805742393111
 20
-0.3711006035421624
 10
6.188059560975336
 20
-0.3848241437938618
  0
LWPOLYLINE
  5
15A
330
18
100
AcDbEntity
  8
ADP1DETAIL
100
AcDbPolyline
 90
        2
 70
     0
 43
0.0
 10
6.204946786517039
 20
-0.4150228977299293
 10
6.175797628097567
 20
-0.4304674405328082
  0
LWPOLYLINE
  5
15E
330
18
100
AcDbEntity
  8
ADP1DETAIL
100
AcDbPolyline
 90
        2
 70
     0
 43
0.0
 10
6.159251611301647
 20
-0.7126789347788383
 10
6.185127905684485
 20
-0.7331392555966141
  0
LWPOLYLINE
  5
162
330
18
100
AcDbEntity
  8
ADP1DETAIL
100
AcDbPolyline
 90
        2
 70
     0
 43
0.0
 10
6.166101477644557
 20
-0.7594425864064696
 10
6.193123655286176
 20
-0.7783637188899755
  0
LWPOLYLINE
  5
166
330
18
100
AcDbEntity
  8
ADP1DETAIL
100
AcDbPolyline
 90
        2
 70
     0
 43
0.0
 10
6.186674648767132
 20
-0.733191940215199
 10
6.166026692904313
 20
-0.7589187600272267
  0
LWPOLYLINE
  5
16A
330
18
100
AcDbEntity
  8
ADP1DETAIL
100
AcDbPolyline
 90
        2
 70
     0
 43
0.0
 10
6.166101477644558
 20
-0.7594425864064729
 10
6.193123655286177
 20
-0.7783637188899771
  0
LWPOLYLINE
  5
16E
330
18
100
AcDbEntity
  8
ADP1DETAIL
100
AcDbPolyline
 90
        2
 70
     0
 43
0.0
 10
6.166101477644557
 20
-0.7594425864064734
 10
6.193123655286177
 20
-0.7783637188899788
  0
LWPOLYLINE
  5
172
330
18
100
AcDbEntity
  8
ADP1DETAIL
100
AcDbPolyline
 90
        2
 70
     0
 43
0.0
 10
6.186674648767132
 20
-0.7331919402152025
 10
6.166026692904314
 20
-0.7589187600272302
  0
LWPOLYLINE
  5
176
330
18
100
AcDbEntity
  8
ADP1DETAIL
100
AcDbPolyline
 90
        2
 70
     0
 43
0.0
 10
6.186674648767132
 20
-0.7331919402151997
 10
6.166026692904313
 20
-0.7589187600272278
  0
LWPOLYLINE
  5
17A
330
18
100
AcDbEntity
  8
ADP1DETAIL
100
AcDbPolyline
 90
        2
 70
     0
 43
0.0
 10
6.166101477644557
 20
-0.7594425864064707
 10
6.193123655286176
 20
-0.7783637188899764
  0
LWPOLYLINE
  5
17E
330
18
100
AcDbEntity
  8
ADP1DETAIL
100
AcDbPolyline
 90
        2
 70
     0
 43
0.0
 10
6.194670844862466
 20
-0.778326379262616
 10
6.175553703609371
 20
-0.8052102452283328
  0
LWPOLYLINE
  5
182
330
18
100
AcDbEntity
  8
ADP1DETAIL
100
AcDbPolyline
 90
        2
 70
     0
 43
0.0
 10
6.175658819620871
 20
-0.8057288370303224
 10
6.2037354460258
 20
-0.823046758056577
  0
LWPOLYLINE
  5
186
330
18
100
AcDbEntity
  8
ADP1DETAIL
100
AcDbPolyline
 90
        2
 70
     0
 43
0.0
 10
6.205277846895957
 20
-0.8229195205287515
 10
6.187756206607197
 20
-0.8508694661556164
  0
LWPOLYLINE
  5
18A
330
18
100
AcDbEntity
  8
ADP1DETAIL
100
AcDbPolyline
 90
        2
 70
     0
 43
0.0
 10
6.187891298210643
 20
-0.8513810686298503
 10
6.216927370962574
 20
-0.8670371798359603
  0
LWPOLYLINE
  5
18E
330
18
100
AcDbEntity
  8
ADP1DETAIL
100
AcDbPolyline
 90
        2
 70
     0
 43
0.0
 10
6.181316315206405
 20
-0.6876689240412684
 10
6.159207410880548
 20
-0.7121516462849962
  0
LWPOLYLINE
  5
192
330
18
100
AcDbEntity
  8
ADP1DETAIL
100
AcDbPolyline
 90
        2
 70
     0
 43
0.0
 10
6.408608391218121
 20
-0.061608530078813
 10
6.375642208126481
 20
-0.0604093172862057
  0
LWPOLYLINE
  5
196
330
18
100
AcDbEntity
  8
ADP1DETAIL
100
AcDbPolyline
 90
        2
 70
     0
 43
0.0
 10
6.343846666932811
 20
-0.0960885091817767
 10
6.346721759511084
 20
-0.1289509677267477
  0
LWPOLYLINE
  5
19A
330
18
100
AcDbEntity
  8
ADP1DETAIL
100
AcDbPolyline
 90
        2
 70
     0
 43
0.0
 10
6.347744877614607
 20
-0.1301121822542983
 10
6.314862379951897
 20
-0.132748218372281
  0
LWPOLYLINE
  5
19E
330
18
100
AcDbEntity
  8
ADP1DETAIL
100
AcDbPolyline
 90
        2
 70
     0
 43
0.0
 10
6.375266693188879
 20
-0.060782111283745
 10
6.376226139535879
 20
-0.0937561435161061
  0
LWPOLYLINE
  5
1A2
330
18
100
AcDbEntity
  8
ADP1DETAIL
100
AcDbPolyline
 90
        2
 70
     0
 43
0.0
 10
6.377180008065468
 20
-0.0949748824795474
 10
6.344199870515367
 20
-0.0956945116408794
  0
LWPOLYLINE
  5
1A6
330
18
100
AcDbEntity
  8
ADP1DETAIL
100
AcDbPolyline
 90
        2
 70
     0
 43
0.0
 10
6.674730523458353
 20
0.1137323417847016
 10
6.644935427083573
 20
0.1278907163725904
  0
LWPOLYLINE
  5
1AA
330
18
100
AcDbEntity
  8
ADP1DETAIL
100
AcDbPolyline
 90
        2
 70
     0
 43
0.0
 10
6.644442967060165
 20
0.1276971447881321
 10
6.632263599177708
 20
0.0970398399989412
  0
LWPOLYLINE
  5
1AE
330
18
100
AcDbEntity
  8
ADP1DETAIL
100
AcDbPolyline
 90
        2
 70
     0
 43
0.0
 10
6.632656738781919
 20
0.0955429662285949
 10
6.602088814726434
 20
0.1079449563064627
  0
LWPOLYLINE
  5
1B2
330
18
100
AcDbEntity
  8
ADP1DETAIL
100
AcDbPolyline
 90
        2
 70
     0
 43
0.0
 10
6.601608443054105
 20
0.1077230782106811
 10
6.591232244476284
 20
0.0764094734672609
  0
LWPOLYLINE
  5
1B6
330
18
100
AcDbEntity
  8
ADP1DETAIL
100
AcDbPolyline
 90
        2
 70
     0
 43
0.0
 10
6.591711754419786
 20
0.0749379912054469
 10
6.560474434862552
 20
0.0855416323646266
  0
LWPOLYLINE
  5
1BA
330
18
100
AcDbEntity
  8
ADP1DETAIL
100
AcDbPolyline
 90
        2
 70
     0
 43
0.0
 10
6.552034115238203
 20
0.0519871374283842
 10
6.520233097380661
 20
0.0607565503036969
  0
LWPOLYLINE
  5
1BE
330
18
100
AcDbEntity
  8
ADP1DETAIL
100
AcDbPolyline
 90
        2
 70
     0
 43
0.0
 10
6.519781732284451
 20
0.0604804047209204
 10
6.513110981475841
 20
0.0281739282401437
  0
LWPOLYLINE
  5
1C2
330
18
100
AcDbEntity
  8
ADP1DETAIL
100
AcDbPolyline
 90
        2
 70
     0
 43
0.0
 10
6.513758077808502
 20
0.0267680633216663
 10
6.481500966228708
 20
0.0336735749958339
  0
LWPOLYLINE
  5
1C6
330
18
100
AcDbEntity
  8
ADP1DETAIL
100
AcDbPolyline
 90
        2
 70
     0
 43
0.0
 10
6.481066421208467
 20
0.0333716520613829
 10
6.476285410802112
 20
0.0007319633611531
  0
LWPOLYLINE
  5
1CA
330
18
100
AcDbEntity
  8
ADP1DETAIL
100
AcDbPolyline
 90
        2
 70
     0
 43
0.0
 10
6.443992844096667
 20
0.0040576679820799
 10
6.441117751518389
 20
-0.0288047905628908
  0
LWPOLYLINE
  5
1CE
330
18
100
AcDbEntity
  8
ADP1DETAIL
100
AcDbPolyline
 90
        2
 70
     0
 43
0.0
 10
6.477013156125352
 20
-0.0006338977508382
 10
6.444409098678142
 20
0.0043843466565678
  0
LWPOLYLINE
  5
1D2
330
18
100
AcDbEntity
  8
ADP1DETAIL
100
AcDbPolyline
 90
        2
 70
     0
 43
0.0
 10
6.443992844096665
 20
0.0040576679820772
 10
6.441117751518389
 20
-0.0288047905628925
  0
LWPOLYLINE
  5
1D6
330
18
100
AcDbEntity
  8
ADP1DETAIL
100
AcDbPolyline
 90
        2
 70
     0
 43
0.0
 10
6.443992844096664
 20
0.0040576679820776
 10
6.441117751518387
 20
-0.028804790562893
  0
LWPOLYLINE
  5
1DA
330
18
100
AcDbEntity
  8
ADP1DETAIL
100
AcDbPolyline
 90
        2
 70
     0
 43
0.0
 10
6.477013156125349
 20
-0.0006338977508409
 10
6.444409098678139
 20
0.0043843466565656
  0
LWPOLYLINE
  5
1DE
330
18
100
AcDbEntity
  8
ADP1DETAIL
100
AcDbPolyline
 90
        2
 70
     0
 43
0.0
 10
6.477013156125352
 20
-0.0006338977508391
 10
6.444409098678143
 20
0.004384346656567
  0
LWPOLYLINE
  5
1E2
330
18
100
AcDbEntity
  8
ADP1DETAIL
100
AcDbPolyline
 90
        2
 70
     0
 43
0.0
 10
6.443992844096667
 20
0.004057667982079
 10
6.441117751518389
 20
-0.0288047905628917
  0
LWPOLYLINE
  5
1E6
330
18
100
AcDbEntity
  8
ADP1DETAIL
100
AcDbPolyline
 90
        2
 70
     0
 43
0.0
 10
6.441923683372396
 20
-0.0301260262267489
 10
6.409083001867602
 20
-0.0270120292366913
  0
LWPOLYLINE
  5
1EA
330
18
100
AcDbEntity
  8
ADP1DETAIL
100
AcDbPolyline
 90
        2
 70
     0
 43
0.0
 10
6.408686446198634
 20
-0.0273623582739884
 10
6.40772699985163
 20
-0.0603363905063494
  0
LWPOLYLINE
  5
1EE
330
18
100
AcDbEntity
  8
ADP1DETAIL
100
AcDbPolyline
 90
        2
 70
     0
 43
0.0
 10
6.560007776966981
 20
0.0852921985227662
 10
6.551469857465276
 20
0.0534282491514784
  0
LWPOLYLINE
  5
1F2
330
18
100
AcDbEntity
  8
ADP1DETAIL
100
AcDbPolyline
 90
        2
 70
     0
 43
0.0
 10
6.73323015038922
 20
0.160013036704242
 10
6.71757403918311
 20
0.1309769639523104
  0
LWPOLYLINE
  5
1F6
330
18
100
AcDbEntity
  8
ADP1DETAIL
100
AcDbPolyline
 90
        2
 70
     0
 43
0.0
 10
6.688366410514875
 20
0.1451468123364585
 10
6.674425084453407
 20
0.115249542116564
  0
LWPOLYLINE
  5
1FA
330
18
100
AcDbEntity
  8
ADP1DETAIL
100
AcDbPolyline
 90
        2
 70
     0
 43
0.0
 10
6.717790744079884
 20
0.1294445707845941
 10
6.688869292560525
 20
0.1453114224246268
  0
LWPOLYLINE
  5
1FE
330
18
100
AcDbEntity
  8
ADP1DETAIL
100
AcDbPolyline
 90
        2
 70
     0
 43
0.0
 10
6.688366410514873
 20
0.1451468123364568
 10
6.674425084453406
 20
0.1152495421165627
  0
LWPOLYLINE
  5
202
330
18
100
AcDbEntity
  8
ADP1DETAIL
100
AcDbPolyline
 90
        2
 70
     0
 43
0.0
 10
6.688366410514872
 20
0.1451468123364576
 10
6.674425084453404
 20
0.1152495421165627
  0
LWPOLYLINE
  5
206
330
18
100
AcDbEntity
  8
ADP1DETAIL
100
AcDbPolyline
 90
        2
 70
     0
 43
0.0
 10
6.717790744079881
 20
0.1294445707845933
 10
6.688869292560522
 20
0.1453114224246259
  0
LWPOLYLINE
  5
20A
330
18
100
AcDbEntity
  8
ADP1DETAIL
100
AcDbPolyline
 90
        2
 70
     0
 43
0.0
 10
6.717790744079883
 20
0.1294445707845955
 10
6.688869292560524
 20
0.1453114224246286
  0
LWPOLYLINE
  5
20E
330
18
100
AcDbEntity
  8
ADP1DETAIL
100
AcDbPolyline
 90
        2
 70
     0
 43
0.0
 10
6.688366410514874
 20
0.1451468123364603
 10
6.674425084453406
 20
0.1152495421165653
  0
DIMENSION
  5
212
330
18
100
AcDbEntity
  8
ADPDIM
100
AcDbDimension
  2
*D0
 10
12.94353300578845
 20
0.4265012281134255
 30
0.0
 11
10.44353300578845
 21
0.2345854585901114
 31
0.0
 12
0.0
 22
0.191915769523314
 32
0.0
100
AcDbAlignedDimension
 13
7.943533005788451
 23
0.1296883935040524
 33
0.0
 14
12.94353300578845
 24
0.1296883935040524
 34
0.0
100
AcDbRotatedDimension
  0
LINE
  5
213
330
18
100
AcDbEntity
  8
ADP1DETAIL
100
AcDbLine
 10
8.006033005788451
 20
0.1921883935040524
 30
0.0
 11
12.88103300578845
 21
0.1921883935040524
 31
0.0
  0
LINE
  5
214
330
18
100
AcDbEntity
  8
ADP2DETAIL
  6
HIDDEN2
100
AcDbLine
 10
12.94353300578845
 20
-1.210983781091214
 30
0.0
 11
7.943533005788451
 21
-1.210983781091214
 31
0.0
  0
LWPOLYLINE
  5
215
330
18
100
AcDbEntity
  8
ADP1DETAIL
100
AcDbPolyline
 90
        2
 70
     0
 43
0.0
 10
7.611379282340737
 20
-0.1658537428936184
 10
7.618284794014905
 20
-0.1335966313138237
  0
LINE
  5
219
330
18
100
AcDbEntity
  8
ADP1DETAIL
100
AcDbLine
 10
7.943533005788451
 20
-1.248630418079863
 30
0.0
 11
7.943533005788451
 21
0.1296883935040524
 31
0.0
  0
LINE
  5
21A
330
18
100
AcDbEntity
  8
ADP1DETAIL
100
AcDbLine
 10
8.006033005788452
 20
-1.311130418079863
 30
0.0
 11
8.006033005788451
 21
0.1921883935040524
 31
0.0
  0
LWPOLYLINE
  5
21B
330
18
100
AcDbEntity
  8
ADP1DETAIL
100
AcDbPolyline
 90
        2
 70
     0
 43
0.0
 10
7.451449132725487
 20
-1.270078536165568
 10
7.456230143131842
 20
-1.237438847465338
  0
LINE
  5
21F
330
18
100
AcDbEntity
  8
ADP1DETAIL
100
AcDbLine
 10
7.402343236367036
 20
-1.303908488784186
 30
0.0
 11
7.412733821649503
 21
-1.297187288825105
 31
0.0
  0
LWPOLYLINE
  5
220
330
18
100
AcDbEntity
  8
ADP1DETAIL
100
AcDbPolyline
 90
        2
 70
     0
 43
0.0
 10
7.418757476125451
 20
-1.263474947425851
 10
7.451014587705246
 20
-1.270380459100019
  0
LWPOLYLINE
  5
224
330
18
100
AcDbEntity
  8
ADP1DETAIL
100
AcDbPolyline
 90
        2
 70
     0
 43
0.0
 10
7.412733821649503
 20
-1.297187288825105
 10
7.419404572458113
 20
-1.264880812344328
  0
ARC
  5
228
330
18
100
AcDbEntity
  8
ADP1DETAIL
100
AcDbCircle
 10
7.370140002442108
 20
-1.253282885333201
 30
0.0
 40
0.06
100
AcDbArc
 50
207.8873825072969
 51
302.4606713270785
  0
ARC
  5
229
330
18
100
AcDbEntity
  8
ADP1DETAIL
100
AcDbCircle
 10
7.370596335231414
 20
-1.254145207141178
 30
0.0
 40
0.06
100
AcDbArc
 50
123.5041945653647
 51
207.8873825072968
  0
LINE
  5
22A
330
18
100
AcDbEntity
  8
ADPDIM
100
AcDbLine
 10
7.317564215951772
 20
-1.282209318114269
 30
0.0
 11
7.317107883162468
 21
-1.281346996306291
 31
0.0
  0
LWPOLYLINE
  5
22B
330
18
100
AcDbEntity
  8
ADP1DETAIL
100
AcDbPolyline
 90
        2
 70
     0
 43
0.0
 10
7.729758031355527
 20
-0.8962448085042025
 10
7.715816705294062
 20
-0.866347538284306
  0
LWPOLYLINE
  5
22F
330
18
100
AcDbEntity
  8
ADP1DETAIL
100
AcDbPolyline
 90
        2
 70
     0
 43
0.0
 10
7.455502397808603
 20
-1.236072986353347
 10
7.488106455255814
 20
-1.241091230760753
  0
LWPOLYLINE
  5
233
330
18
100
AcDbEntity
  8
ADP1DETAIL
100
AcDbPolyline
 90
        2
 70
     0
 43
0.0
 10
7.455502397808605
 20
-1.236072986353344
 10
7.488106455255814
 20
-1.24109123076075
  0
LWPOLYLINE
  5
237
330
18
100
AcDbEntity
  8
ADP1DETAIL
100
AcDbPolyline
 90
        2
 70
     0
 43
0.0
 10
7.455502397808602
 20
-1.236072986353346
 10
7.488106455255812
 20
-1.241091230760752
  0
LWPOLYLINE
  5
23B
330
18
100
AcDbEntity
  8
ADP1DETAIL
100
AcDbPolyline
 90
        2
 70
     0
 43
0.0
 10
7.617982871080447
 20
-1.10354479781061
 10
7.613201860674098
 20
-1.070905109110379
  0
LWPOLYLINE
  5
23F
330
18
100
AcDbEntity
  8
ADP1DETAIL
100
AcDbPolyline
 90
        2
 70
     0
 43
0.0
 10
7.612112954904444
 20
-1.069805348201107
 10
7.644786548716381
 20
-1.06526182463828
  0
LWPOLYLINE
  5
243
330
18
100
AcDbEntity
  8
ADP1DETAIL
100
AcDbPolyline
 90
        2
 70
     0
 43
0.0
 10
7.645091623739985
 20
-1.064829486734626
 10
7.638420872931381
 20
-1.032523010253848
  0
LWPOLYLINE
  5
247
330
18
100
AcDbEntity
  8
ADP1DETAIL
100
AcDbPolyline
 90
        2
 70
     0
 43
0.0
 10
7.669903417541832
 20
-1.024603442052096
 10
7.66136549804013
 20
-0.9927394926808077
  0
LWPOLYLINE
  5
24B
330
18
100
AcDbEntity
  8
ADP1DETAIL
100
AcDbPolyline
 90
        2
 70
     0
 43
0.0
 10
7.637269864008033
 20
-1.03148842420565
 10
7.669623996870321
 20
-1.025052787043496
  0
LWPOLYLINE
  5
24F
330
18
100
AcDbEntity
  8
ADP1DETAIL
100
AcDbPolyline
 90
        2
 70
     0
 43
0.0
 10
7.669903417541832
 20
-1.024603442052093
 10
7.661365498040132
 20
-0.9927394926808062
  0
LWPOLYLINE
  5
253
330
18
100
AcDbEntity
  8
ADP1DETAIL
100
AcDbPolyline
 90
        2
 70
     0
 43
0.0
 10
7.669903417541834
 20
-1.024603442052093
 10
7.661365498040132
 20
-0.9927394926808046
  0
LWPOLYLINE
  5
257
330
18
100
AcDbEntity
  8
ADP1DETAIL
100
AcDbPolyline
 90
        2
 70
     0
 43
0.0
 10
7.637269864008035
 20
-1.031488424205647
 10
7.669623996870323
 20
-1.025052787043493
  0
LWPOLYLINE
  5
25B
330
18
100
AcDbEntity
  8
ADP1DETAIL
100
AcDbPolyline
 90
        2
 70
     0
 43
0.0
 10
7.637269864008033
 20
-1.031488424205649
 10
7.669623996870321
 20
-1.025052787043496
  0
LWPOLYLINE
  5
25F
330
18
100
AcDbEntity
  8
ADP1DETAIL
100
AcDbPolyline
 90
        2
 70
     0
 43
0.0
 10
7.669903417541832
 20
-1.024603442052096
 10
7.661365498040132
 20
-0.9927394926808075
  0
LWPOLYLINE
  5
263
330
18
100
AcDbEntity
  8
ADP1DETAIL
100
AcDbPolyline
 90
        2
 70
     0
 43
0.0
 10
7.660156280612945
 20
-0.9917735822053794
 10
7.692081476381436
 20
-0.9834676076029039
  0
LWPOLYLINE
  5
267
330
18
100
AcDbEntity
  8
ADP1DETAIL
100
AcDbPolyline
 90
        2
 70
     0
 43
0.0
 10
7.692334297229748
 20
-0.9830027759649714
 10
7.681958098651931
 20
-0.9516891712215493
  0
LWPOLYLINE
  5
26B
330
18
100
AcDbEntity
  8
ADP1DETAIL
100
AcDbPolyline
 90
        2
 70
     0
 43
0.0
 10
7.680694764329913
 20
-0.9507952046541891
 10
7.712082998247807
 20
-0.9406469974002513
  0
LWPOLYLINE
  5
26F
330
18
100
AcDbEntity
  8
ADP1DETAIL
100
AcDbPolyline
 90
        2
 70
     0
 43
0.0
 10
7.712308363807198
 20
-0.9401682519589105
 10
7.700128995924745
 20
-0.9095109471697188
  0
LWPOLYLINE
  5
273
330
18
100
AcDbEntity
  8
ADP1DETAIL
100
AcDbPolyline
 90
        2
 70
     0
 43
0.0
 10
7.698815819431337
 20
-0.9086919494103129
 10
7.729560883650772
 20
-0.8967358478259209
  0
LWPOLYLINE
  5
277
330
18
100
AcDbEntity
  8
ADP1DETAIL
100
AcDbPolyline
 90
        2
 70
     0
 43
0.0
 10
7.555335545868488
 20
-1.141732001624639
 10
7.588315683418589
 20
-1.141012372463307
  0
LWPOLYLINE
  5
27B
330
18
100
AcDbEntity
  8
ADP1DETAIL
100
AcDbPolyline
 90
        2
 70
     0
 43
0.0
 10
7.588668887001145
 20
-1.140618374922409
 10
7.58579379442287
 20
-1.107755916377438
  0
LWPOLYLINE
  5
27F
330
18
100
AcDbEntity
  8
ADP1DETAIL
100
AcDbPolyline
 90
        2
 70
     0
 43
0.0
 10
7.58477067631935
 20
-1.106594701849888
 10
7.617653173982058
 20
-1.103958665731905
  0
LWPOLYLINE
  5
283
330
18
100
AcDbEntity
  8
ADP1DETAIL
100
AcDbPolyline
 90
        2
 70
     0
 43
0.0
 10
7.488522709837286
 20
-1.240764552086265
 10
7.491397802415565
 20
-1.207902093541294
  0
LWPOLYLINE
  5
287
330
18
100
AcDbEntity
  8
ADP1DETAIL
100
AcDbPolyline
 90
        2
 70
     0
 43
0.0
 10
7.488522709837289
 20
-1.240764552086262
 10
7.491397802415565
 20
-1.207902093541293
  0
LWPOLYLINE
  5
28B
330
18
100
AcDbEntity
  8
ADP1DETAIL
100
AcDbPolyline
 90
        2
 70
     0
 43
0.0
 10
7.488522709837289
 20
-1.240764552086263
 10
7.491397802415566
 20
-1.207902093541292
  0
LWPOLYLINE
  5
28F
330
18
100
AcDbEntity
  8
ADP1DETAIL
100
AcDbPolyline
 90
        2
 70
     0
 43
0.0
 10
7.488522709837289
 20
-1.240764552086266
 10
7.491397802415566
 20
-1.207902093541295
  0
LWPOLYLINE
  5
293
330
18
100
AcDbEntity
  8
ADP1DETAIL
100
AcDbPolyline
 90
        2
 70
     0
 43
0.0
 10
7.490591870561559
 20
-1.206580857877437
 10
7.523432552066354
 20
-1.209694854867495
  0
LWPOLYLINE
  5
297
330
18
100
AcDbEntity
  8
ADP1DETAIL
100
AcDbPolyline
 90
        2
 70
     0
 43
0.0
 10
7.523829107735321
 20
-1.209344525830197
 10
7.524788554082326
 20
-1.176370493597836
  0
LWPOLYLINE
  5
29B
330
18
100
AcDbEntity
  8
ADP1DETAIL
100
AcDbPolyline
 90
        2
 70
     0
 43
0.0
 10
7.523907162715835
 20
-1.175098354025374
 10
7.556873345807475
 20
-1.17629756681798
  0
LWPOLYLINE
  5
29F
330
18
100
AcDbEntity
  8
ADP1DETAIL
100
AcDbPolyline
 90
        2
 70
     0
 43
0.0
 10
7.557248860745077
 20
-1.175924772820441
 10
7.556289414398077
 20
-1.14295074058808
  0
LINE
  5
2A3
330
18
100
AcDbEntity
  8
ADP1DETAIL
100
AcDbLine
 10
7.943533005788451
 20
-1.248630418079863
 30
0.0
 11
8.006033005788452
 21
-1.311130418079863
 31
0.0
  0
LWPOLYLINE
  5
2A4
330
18
100
AcDbEntity
  8
ADP1DETAIL
100
AcDbPolyline
 90
        2
 70
     0
 43
0.0
 10
7.712308363807202
 20
-0.2965386321452825
 10
7.681651059018011
 20
-0.2843592642628245
  0
LWPOLYLINE
  5
2A8
330
18
100
AcDbEntity
  8
ADP1DETAIL
100
AcDbPolyline
 90
        2
 70
     0
 43
0.0
 10
7.680154185247666
 20
-0.2847524038670357
 10
7.692556175325534
 20
-0.2541844798115509
  0
LWPOLYLINE
  5
2AC
330
18
100
AcDbEntity
  8
ADP1DETAIL
100
AcDbPolyline
 90
        2
 70
     0
 43
0.0
 10
7.692334297229751
 20
-0.2537041081392219
 10
7.661020692486331
 20
-0.2433279095614009
  0
LWPOLYLINE
  5
2B0
330
18
100
AcDbEntity
  8
ADP1DETAIL
100
AcDbPolyline
 90
        2
 70
     0
 43
0.0
 10
7.669903417541836
 20
-0.2121034420520971
 10
7.638039468170549
 20
-0.2035655225503918
  0
LWPOLYLINE
  5
2B4
330
18
100
AcDbEntity
  8
ADP1DETAIL
100
AcDbPolyline
 90
        2
 70
     0
 43
0.0
 10
7.659549210224517
 20
-0.2438074195049018
 10
7.670152851383698
 20
-0.2125700999476676
  0
LWPOLYLINE
  5
2B8
330
18
100
AcDbEntity
  8
ADP1DETAIL
100
AcDbPolyline
 90
        2
 70
     0
 43
0.0
 10
7.669903417541834
 20
-0.212103442052094
 10
7.638039468170547
 20
-0.2035655225503912
  0
LWPOLYLINE
  5
2BC
330
18
100
AcDbEntity
  8
ADP1DETAIL
100
AcDbPolyline
 90
        2
 70
     0
 43
0.0
 10
7.669903417541834
 20
-0.212103442052094
 10
7.638039468170547
 20
-0.2035655225503887
  0
LWPOLYLINE
  5
2C0
330
18
100
AcDbEntity
  8
ADP1DETAIL
100
AcDbPolyline
 90
        2
 70
     0
 43
0.0
 10
7.659549210224516
 20
-0.2438074195048987
 10
7.670152851383696
 20
-0.2125700999476645
  0
LWPOLYLINE
  5
2C4
330
18
100
AcDbEntity
  8
ADP1DETAIL
100
AcDbPolyline
 90
        2
 70
     0
 43
0.0
 10
7.659549210224517
 20
-0.2438074195049027
 10
7.670152851383698
 20
-0.2125700999476678
  0
LWPOLYLINE
  5
2C8
330
18
100
AcDbEntity
  8
ADP1DETAIL
100
AcDbPolyline
 90
        2
 70
     0
 43
0.0
 10
7.669903417541838
 20
-0.2121034420520964
 10
7.638039468170549
 20
-0.2035655225503916
  0
LWPOLYLINE
  5
2CC
330
18
100
AcDbEntity
  8
ADP1DETAIL
100
AcDbPolyline
 90
        2
 70
     0
 43
0.0
 10
7.636598356447454
 20
-0.2041297803233202
 10
7.645367769322766
 20
-0.1723287624657777
  0
LWPOLYLINE
  5
2D0
330
18
100
AcDbEntity
  8
ADP1DETAIL
100
AcDbPolyline
 90
        2
 70
     0
 43
0.0
 10
7.645091623739992
 20
-0.1718773973695673
 10
7.612785147259214
 20
-0.1652066465609578
  0
LWPOLYLINE
  5
2D4
330
18
100
AcDbEntity
  8
ADP1DETAIL
100
AcDbPolyline
 90
        2
 70
     0
 43
0.0
 10
7.75131072130105
 20
-0.6863946723953143
 10
7.777335121793707
 20
-0.6661230686612445
  0
LWPOLYLINE
  5
2D8
330
18
100
AcDbEntity
  8
ADP1DETAIL
100
AcDbPolyline
 90
        2
 70
     0
 43
0.0
 10
7.777383155562383
 20
-0.6655961155418582
 10
7.755452877659426
 20
-0.6409532616070431
  0
LWPOLYLINE
  5
2DC
330
18
100
AcDbEntity
  8
ADP1DETAIL
100
AcDbPolyline
 90
        2
 70
     0
 43
0.0
 10
7.753938781667726
 20
-0.6406327882685761
 10
7.778740464062807
 20
-0.6188822965654686
  0
LWPOLYLINE
  5
2E0
330
18
100
AcDbEntity
  8
ADP1DETAIL
100
AcDbPolyline
 90
        2
 70
     0
 43
0.0
 10
7.778757776966977
 20
-0.6183534420520976
 10
7.755431747097394
 20
-0.5950274121825108
  0
LWPOLYLINE
  5
2E4
330
18
100
AcDbEntity
  8
ADP1DETAIL
100
AcDbPolyline
 90
        2
 70
     0
 43
0.0
 10
7.753901578849039
 20
-0.5947955178866014
 10
7.777396622104105
 20
-0.5716397349934235
  0
LWPOLYLINE
  5
2E8
330
18
100
AcDbEntity
  8
ADP1DETAIL
100
AcDbPolyline
 90
        2
 70
     0
 43
0.0
 10
7.777383155562383
 20
-0.5711107685623358
 10
7.752740301627571
 20
-0.5491804906593753
  0
LWPOLYLINE
  5
2EC
330
18
100
AcDbEntity
  8
ADP1DETAIL
100
AcDbPolyline
 90
        2
 70
     0
 43
0.0
 10
7.751199238727548
 20
-0.5490379600629176
 10
7.773308143053404
 20
-0.52455523781919
  0
LWPOLYLINE
  5
2F0
330
18
100
AcDbEntity
  8
ADP1DETAIL
100
AcDbPolyline
 90
        2
 70
     0
 43
0.0
 10
7.773263942632307
 20
-0.5240279493253477
 10
7.747387648249469
 20
-0.5035676285075719
  0
LWPOLYLINE
  5
2F4
330
18
100
AcDbEntity
  8
ADP1DETAIL
100
AcDbPolyline
 90
        2
 70
     0
 43
0.0
 10
7.766414076289398
 20
-0.4772642976977164
 10
7.739391898647778
 20
-0.4583431652142107
  0
LWPOLYLINE
  5
2F8
330
18
100
AcDbEntity
  8
ADP1DETAIL
100
AcDbPolyline
 90
        2
 70
     0
 43
0.0
 10
7.745840905166823
 20
-0.503514943888987
 10
7.76648886102964
 20
-0.4777881240769593
  0
LWPOLYLINE
  5
2FC
330
18
100
AcDbEntity
  8
ADP1DETAIL
100
AcDbPolyline
 90
        2
 70
     0
 43
0.0
 10
7.766414076289396
 20
-0.4772642976977131
 10
7.739391898647778
 20
-0.4583431652142089
  0
LWPOLYLINE
  5
300
330
18
100
AcDbEntity
  8
ADP1DETAIL
100
AcDbPolyline
 90
        2
 70
     0
 43
0.0
 10
7.766414076289398
 20
-0.4772642976977128
 10
7.739391898647778
 20
-0.4583431652142071
  0
LWPOLYLINE
  5
304
330
18
100
AcDbEntity
  8
ADP1DETAIL
100
AcDbPolyline
 90
        2
 70
     0
 43
0.0
 10
7.745840905166821
 20
-0.5035149438889837
 10
7.76648886102964
 20
-0.477788124076956
  0
LWPOLYLINE
  5
308
330
18
100
AcDbEntity
  8
ADP1DETAIL
100
AcDbPolyline
 90
        2
 70
     0
 43
0.0
 10
7.745840905166823
 20
-0.503514943888987
 10
7.766488861029642
 20
-0.4777881240769593
  0
LWPOLYLINE
  5
30C
330
18
100
AcDbEntity
  8
ADP1DETAIL
100
AcDbPolyline
 90
        2
 70
     0
 43
0.0
 10
7.766414076289398
 20
-0.4772642976977164
 10
7.73939189864778
 20
-0.4583431652142105
  0
LWPOLYLINE
  5
310
330
18
100
AcDbEntity
  8
ADP1DETAIL
100
AcDbPolyline
 90
        2
 70
     0
 43
0.0
 10
7.737844709071489
 20
-0.4583805048415706
 10
7.756961850324585
 20
-0.4314966388758537
  0
LWPOLYLINE
  5
314
330
18
100
AcDbEntity
  8
ADP1DETAIL
100
AcDbPolyline
 90
        2
 70
     0
 43
0.0
 10
7.756856734313086
 20
-0.4309780470738643
 10
7.728780107908156
 20
-0.41366012604761
  0
LWPOLYLINE
  5
318
330
18
100
AcDbEntity
  8
ADP1DETAIL
100
AcDbPolyline
 90
        2
 70
     0
 43
0.0
 10
7.727237707037999
 20
-0.4137873635754353
 10
7.744759347326758
 20
-0.3858374179485704
  0
LWPOLYLINE
  5
31C
330
18
100
AcDbEntity
  8
ADP1DETAIL
100
AcDbPolyline
 90
        2
 70
     0
 43
0.0
 10
7.744624255723313
 20
-0.3853258154743362
 10
7.715588182971381
 20
-0.3696697042682264
  0
LWPOLYLINE
  5
320
330
18
100
AcDbEntity
  8
ADP1DETAIL
100
AcDbPolyline
 90
        2
 70
     0
 43
0.0
 10
7.714055789803665
 20
-0.3698864091650003
 10
7.729922641443697
 20
-0.3409649576456419
  0
LWPOLYLINE
  5
324
330
18
100
AcDbEntity
  8
ADP1DETAIL
100
AcDbPolyline
 90
        2
 70
     0
 43
0.0
 10
7.72975803135553
 20
-0.3404620755999914
 10
7.699860761135636
 20
-0.3265207495385227
  0
LWPOLYLINE
  5
328
330
18
100
AcDbEntity
  8
ADP1DETAIL
100
AcDbPolyline
 90
        2
 70
     0
 43
0.0
 10
7.698343560803771
 20
-0.3268261885434698
 10
7.712501935391661
 20
-0.2970310921686894
  0
LWPOLYLINE
  5
32C
330
18
100
AcDbEntity
  8
ADP1DETAIL
100
AcDbPolyline
 90
        2
 70
     0
 43
0.0
 10
7.74462425572331
 20
-0.8513810686298574
 10
7.728968144517204
 20
-0.8223449958779234
  0
LWPOLYLINE
  5
330
330
18
100
AcDbEntity
  8
ADP1DETAIL
100
AcDbPolyline
 90
        2
 70
     0
 43
0.0
 10
7.714458130002845
 20
-0.8656062805620232
 10
7.744455992958619
 20
-0.8518827403103239
  0
LWPOLYLINE
  5
334
330
18
100
AcDbEntity
  8
ADP1DETAIL
100
AcDbPolyline
 90
        2
 70
     0
 43
0.0
 10
7.727568767416916
 20
-0.8216839863742563
 10
7.756717925836388
 20
-0.8062394435713775
  0
LWPOLYLINE
  5
338
330
18
100
AcDbEntity
  8
ADP1DETAIL
100
AcDbPolyline
 90
        2
 70
     0
 43
0.0
 10
7.756856734313083
 20
-0.8057288370303293
 10
7.739538813286832
 20
-0.7776522106253978
  0
LWPOLYLINE
  5
33C
330
18
100
AcDbEntity
  8
ADP1DETAIL
100
AcDbPolyline
 90
        2
 70
     0
 43
0.0
 10
7.766414076289396
 20
-0.7594425864064776
 10
7.747492943805894
 20
-0.7324204087648565
  0
LWPOLYLINE
  5
340
330
18
100
AcDbEntity
  8
ADP1DETAIL
100
AcDbPolyline
 90
        2
 70
     0
 43
0.0
 10
7.738103369426617
 20
-0.7770736859872701
 10
7.766305191784643
 20
-0.7599604000772019
  0
LWPOLYLINE
  5
344
330
18
100
AcDbEntity
  8
ADP1DETAIL
100
AcDbPolyline
 90
        2
 70
     0
 43
0.0
 10
7.766414076289396
 20
-0.759442586406474
 10
7.747492943805894
 20
-0.732420408764855
  0
LWPOLYLINE
  5
348
330
18
100
AcDbEntity
  8
ADP1DETAIL
100
AcDbPolyline
 90
        2
 70
     0
 43
0.0
 10
7.766414076289398
 20
-0.7594425864064743
 10
7.747492943805894
 20
-0.7324204087648532
  0
LWPOLYLINE
  5
34C
330
18
100
AcDbEntity
  8
ADP1DETAIL
100
AcDbPolyline
 90
        2
 70
     0
 43
0.0
 10
7.738103369426617
 20
-0.7770736859872665
 10
7.766305191784643
 20
-0.7599604000771983
  0
LWPOLYLINE
  5
350
330
18
100
AcDbEntity
  8
ADP1DETAIL
100
AcDbPolyline
 90
        2
 70
     0
 43
0.0
 10
7.738103369426618
 20
-0.7770736859872704
 10
7.766305191784645
 20
-0.759960400077202
  0
LWPOLYLINE
  5
354
330
18
100
AcDbEntity
  8
ADP1DETAIL
100
AcDbPolyline
 90
        2
 70
     0
 43
0.0
 10
7.766414076289398
 20
-0.7594425864064779
 10
7.747492943805894
 20
-0.7324204087648568
  0
LWPOLYLINE
  5
358
330
18
100
AcDbEntity
  8
ADP1DETAIL
100
AcDbPolyline
 90
        2
 70
     0
 43
0.0
 10
7.746026290273396
 20
-0.7319263265365157
 10
7.773185350530193
 20
-0.7132022034616947
  0
LWPOLYLINE
  5
35C
330
18
100
AcDbEntity
  8
ADP1DETAIL
100
AcDbPolyline
 90
        2
 70
     0
 43
0.0
 10
7.773263942632305
 20
-0.7126789347788466
 10
7.752803621814533
 20
-0.6868026403960066
  0
LWPOLYLINE
  5
360
330
18
100
AcDbEntity
  8
ADP1DETAIL
100
AcDbPolyline
 90
        2
 70
     0
 43
0.0
 10
7.454499036764773
 20
0.0001594573002777
 10
7.451863000646791
 20
0.0330419549629877
  0
LWPOLYLINE
  5
364
330
18
100
AcDbEntity
  8
ADP1DETAIL
100
AcDbPolyline
 90
        2
 70
     0
 43
0.0
 10
7.107346921321362
 20
0.1818028572703256
 10
7.080324743679741
 20
0.1628817247868231
  0
LWPOLYLINE
  5
368
330
18
100
AcDbEntity
  8
ADP1DETAIL
100
AcDbPolyline
 90
        2
 70
     0
 43
0.0
 10
6.988537123183457
 20
0.1693275626486557
 10
6.966786631480349
 20
0.1941292450437366
  0
LWPOLYLINE
  5
36C
330
18
100
AcDbEntity
  8
ADP1DETAIL
100
AcDbPolyline
 90
        2
 70
     0
 43
0.0
 10
6.966257776966978
 20
0.1941465579479073
 10
6.942931747097391
 20
0.1708205280783228
  0
LWPOLYLINE
  5
370
330
18
100
AcDbEntity
  8
ADP1DETAIL
100
AcDbPolyline
 90
        2
 70
     0
 43
0.0
 10
6.966257776966978
 20
0.1941465579479065
 10
6.942931747097393
 20
0.1708205280783224
  0
LWPOLYLINE
  5
374
330
18
100
AcDbEntity
  8
ADP1DETAIL
100
AcDbPolyline
 90
        2
 70
     0
 43
0.0
 10
6.98853712318346
 20
0.1693275626486557
 10
6.966786631480353
 20
0.1941292450437366
  0
LWPOLYLINE
  5
378
330
18
100
AcDbEntity
  8
ADP1DETAIL
100
AcDbPolyline
 90
        2
 70
     0
 43
0.0
 10
6.966257776966982
 20
0.1941465579479069
 10
6.942931747097395
 20
0.1708205280783233
  0
LWPOLYLINE
  5
37C
330
18
100
AcDbEntity
  8
ADP1DETAIL
100
AcDbPolyline
 90
        2
 70
     0
 43
0.0
 10
7.013500450456743
 20
0.1927719365433118
 10
6.988857596521928
 20
0.1708416586403549
  0
LWPOLYLINE
  5
380
330
18
100
AcDbEntity
  8
ADP1DETAIL
100
AcDbPolyline
 90
        2
 70
     0
 43
0.0
 10
7.034299007310199
 20
0.1666995022819786
 10
7.014027403576129
 20
0.1927239027746368
  0
LWPOLYLINE
  5
384
330
18
100
AcDbEntity
  8
ADP1DETAIL
100
AcDbPolyline
 90
        2
 70
     0
 43
0.0
 10
7.060583269693731
 20
0.1886527236132349
 10
7.034706975310891
 20
0.1681924027954627
  0
LWPOLYLINE
  5
388
330
18
100
AcDbEntity
  8
ADP1DETAIL
100
AcDbPolyline
 90
        2
 70
     0
 43
0.0
 10
7.0798306614514
 20
0.1614150712543259
 10
7.061106538376579
 20
0.1885741315111238
  0
LWPOLYLINE
  5
38C
330
18
100
AcDbEntity
  8
ADP1DETAIL
100
AcDbPolyline
 90
        2
 70
     0
 43
0.0
 10
6.98853712318346
 20
0.1693275626486557
 10
6.966786631480352
 20
0.1941292450437371
  0
LWPOLYLINE
  5
390
330
18
100
AcDbEntity
  8
ADP1DETAIL
100
AcDbPolyline
 90
        2
 70
     0
 43
0.0
 10
6.966257776966981
 20
0.1941465579479078
 10
6.942931747097394
 20
0.1708205280783237
  0
LWPOLYLINE
  5
394
330
18
100
AcDbEntity
  8
ADP1DETAIL
100
AcDbPolyline
 90
        2
 70
     0
 43
0.0
 10
6.942699852801485
 20
0.1692903598299678
 10
6.919544069908307
 20
0.192785403085034
  0
LWPOLYLINE
  5
398
330
18
100
AcDbEntity
  8
ADP1DETAIL
100
AcDbPolyline
 90
        2
 70
     0
 43
0.0
 10
6.896942294977801
 20
0.1665880197084784
 10
6.872459572734073
 20
0.1886969240343355
  0
LWPOLYLINE
  5
39C
330
18
100
AcDbEntity
  8
ADP1DETAIL
100
AcDbPolyline
 90
        2
 70
     0
 43
0.0
 10
6.871932284240231
 20
0.1886527236132354
 10
6.851471963422455
 20
0.1627764292303988
  0
LWPOLYLINE
  5
3A0
330
18
100
AcDbEntity
  8
ADP1DETAIL
100
AcDbPolyline
 90
        2
 70
     0
 43
0.0
 10
6.851419278803871
 20
0.161229686147752
 10
6.825692458991843
 20
0.1818776420105697
  0
LWPOLYLINE
  5
3A4
330
18
100
AcDbEntity
  8
ADP1DETAIL
100
AcDbPolyline
 90
        2
 70
     0
 43
0.0
 10
6.825168632612601
 20
0.1818028572703265
 10
6.806247500129095
 20
0.1547806796287077
  0
LWPOLYLINE
  5
3A8
330
18
100
AcDbEntity
  8
ADP1DETAIL
100
AcDbPolyline
 90
        2
 70
     0
 43
0.0
 10
6.806284839756455
 20
0.1532334900524188
 10
6.779400973790737
 20
0.1723506313055139
  0
LWPOLYLINE
  5
3AC
330
18
100
AcDbEntity
  8
ADP1DETAIL
100
AcDbPolyline
 90
        2
 70
     0
 43
0.0
 10
6.778882381988749
 20
0.1722455152940143
 10
6.761564460962493
 20
0.1441688888890851
  0
LWPOLYLINE
  5
3B0
330
18
100
AcDbEntity
  8
ADP1DETAIL
100
AcDbPolyline
 90
        2
 70
     0
 43
0.0
 10
6.919015103477219
 20
0.1927719365433127
 10
6.89708482557426
 20
0.1681290826085
  0
LWPOLYLINE
  5
3B4
330
18
100
AcDbEntity
  8
ADP1DETAIL
100
AcDbPolyline
 90
        2
 70
     0
 43
0.0
 10
7.124978020902155
 20
0.1534921504075468
 10
7.107864734992086
 20
0.1816939727655731
  0
LWPOLYLINE
  5
3B8
330
18
100
AcDbEntity
  8
ADP1DETAIL
100
AcDbPolyline
 90
        2
 70
     0
 43
0.0
 10
7.153633171945213
 20
0.1722455152940125
 10
7.125556545540282
 20
0.1549275942677619
  0
LWPOLYLINE
  5
3BC
330
18
100
AcDbEntity
  8
ADP1DETAIL
100
AcDbPolyline
 90
        2
 70
     0
 43
0.0
 10
7.199285403544742
 20
0.1600130367042412
 10
7.170249330792808
 20
0.1443569254981347
  0
LWPOLYLINE
  5
3C0
330
18
100
AcDbEntity
  8
ADP1DETAIL
100
AcDbPolyline
 90
        2
 70
     0
 43
0.0
 10
7.451449132725496
 20
0.0333716520613776
 10
7.418809444025265
 20
0.0285906416550268
  0
LWPOLYLINE
  5
3C4
330
18
100
AcDbEntity
  8
ADP1DETAIL
100
AcDbPolyline
 90
        2
 70
     0
 43
0.0
 10
7.417709683115993
 20
0.0275017358853722
 10
7.413166159553166
 20
0.06017532969731
  0
LWPOLYLINE
  5
3C8
330
18
100
AcDbEntity
  8
ADP1DETAIL
100
AcDbPolyline
 90
        2
 70
     0
 43
0.0
 10
7.412733821649512
 20
0.0604804047209147
 10
7.380427345168734
 20
0.0538096539123094
  0
LWPOLYLINE
  5
3CC
330
18
100
AcDbEntity
  8
ADP1DETAIL
100
AcDbPolyline
 90
        2
 70
     0
 43
0.0
 10
7.379392759120536
 20
0.0526586449889623
 10
7.372957121958383
 20
0.0850127778512495
  0
LWPOLYLINE
  5
3D0
330
18
100
AcDbEntity
  8
ADP1DETAIL
100
AcDbPolyline
 90
        2
 70
     0
 43
0.0
 10
7.372507776966983
 20
0.0852921985227608
 10
7.340643827595695
 20
0.0767542790210603
  0
LWPOLYLINE
  5
3D4
330
18
100
AcDbEntity
  8
ADP1DETAIL
100
AcDbPolyline
 90
        2
 70
     0
 43
0.0
 10
7.339677917120266
 20
0.0755450615938744
 10
7.33137194251779
 20
0.1074702573623649
  0
LWPOLYLINE
  5
3D8
330
18
100
AcDbEntity
  8
ADP1DETAIL
100
AcDbPolyline
 90
        2
 70
     0
 43
0.0
 10
7.330907110879858
 20
0.1077230782106766
 10
7.299593506136436
 20
0.0973468796328598
  0
LWPOLYLINE
  5
3DC
330
18
100
AcDbEntity
  8
ADP1DETAIL
100
AcDbPolyline
 90
        2
 70
     0
 43
0.0
 10
7.298699539569076
 20
0.0960835453108406
 10
7.288551332315138
 20
0.1274717792287365
  0
LWPOLYLINE
  5
3E0
330
18
100
AcDbEntity
  8
ADP1DETAIL
100
AcDbPolyline
 90
        2
 70
     0
 43
0.0
 10
7.288072586873798
 20
0.1276971447881268
 10
7.257415282084606
 20
0.1155177769056732
  0
LWPOLYLINE
  5
3E4
330
18
100
AcDbEntity
  8
ADP1DETAIL
100
AcDbPolyline
 90
        2
 70
     0
 43
0.0
 10
7.169588321289141
 20
0.1429575483978462
 10
7.154143778486262
 20
0.1721067068173183
  0
LWPOLYLINE
  5
3E8
330
18
100
AcDbEntity
  8
ADP1DETAIL
100
AcDbPolyline
 90
        2
 70
     0
 43
0.0
 10
7.213510615476907
 20
0.1298469109837748
 10
7.199787075225208
 20
0.159844773939549
  0
LWPOLYLINE
  5
3EC
330
18
100
AcDbEntity
  8
ADP1DETAIL
100
AcDbPolyline
 90
        2
 70
     0
 43
0.0
 10
7.244149143419087
 20
0.1451468123364572
 10
7.214251873199191
 20
0.1312054862749923
  0
LWPOLYLINE
  5
3F0
330
18
100
AcDbEntity
  8
ADP1DETAIL
100
AcDbPolyline
 90
        2
 70
     0
 43
0.0
 10
7.256596284325198
 20
0.1142046004122679
 10
7.244640182740806
 20
0.1449496646317021
  0
LWPOLYLINE
  5
3F4
330
18
100
AcDbEntity
  8
ADP1DETAIL
100
AcDbPolyline
 90
        2
 70
     0
 43
0.0
 10
7.244149143419089
 20
0.1451468123364559
 10
7.214251873199193
 20
0.1312054862749914
  0
LWPOLYLINE
  5
3F8
330
18
100
AcDbEntity
  8
ADP1DETAIL
100
AcDbPolyline
 90
        2
 70
     0
 43
0.0
 10
7.256596284325199
 20
0.1142046004122674
 10
7.244640182740808
 20
0.1449496646317012
  0
LWPOLYLINE
  5
3FC
330
18
100
AcDbEntity
  8
ADP1DETAIL
100
AcDbPolyline
 90
        2
 70
     0
 43
0.0
 10
7.244149143419086
 20
0.1451468123364568
 10
7.214251873199191
 20
0.1312054862749905
  0
LWPOLYLINE
  5
400
330
18
100
AcDbEntity
  8
ADP1DETAIL
100
AcDbPolyline
 90
        2
 70
     0
 43
0.0
 10
7.244149143419086
 20
0.1451468123364568
 10
7.214251873199189
 20
0.1312054862749918
  0
LWPOLYLINE
  5
404
330
18
100
AcDbEntity
  8
ADP1DETAIL
100
AcDbPolyline
 90
        2
 70
     0
 43
0.0
 10
7.256596284325197
 20
0.1142046004122683
 10
7.244640182740805
 20
0.1449496646317026
  0
LWPOLYLINE
  5
408
330
18
100
AcDbEntity
  8
ADP1DETAIL
100
AcDbPolyline
 90
        2
 70
     0
 43
0.0
 10
7.583977321268233
 20
-0.1291088212104685
 10
7.588995565675639
 20
-0.0965047637632584
  0
LWPOLYLINE
  5
40C
330
18
100
AcDbEntity
  8
ADP1DETAIL
100
AcDbPolyline
 90
        2
 70
     0
 43
0.0
 10
7.58866888700115
 20
-0.0960885091817838
 10
7.55580642845618
 20
-0.0932134166035064
  0
LWPOLYLINE
  5
410
330
18
100
AcDbEntity
  8
ADP1DETAIL
100
AcDbPolyline
 90
        2
 70
     0
 43
0.0
 10
7.554485192792323
 20
-0.0940193484575121
 10
7.557599189782382
 20
-0.0611786669527179
  0
LWPOLYLINE
  5
414
330
18
100
AcDbEntity
  8
ADP1DETAIL
100
AcDbPolyline
 90
        2
 70
     0
 43
0.0
 10
7.557248860745084
 20
-0.0607821112837517
 10
7.524274828512722
 20
-0.0598226649367466
  0
LWPOLYLINE
  5
418
330
18
100
AcDbEntity
  8
ADP1DETAIL
100
AcDbPolyline
 90
        2
 70
     0
 43
0.0
 10
7.52300268894026
 20
-0.0607040563032371
 10
7.524201901732866
 20
-0.0277378732115978
  0
LWPOLYLINE
  5
41C
330
18
100
AcDbEntity
  8
ADP1DETAIL
100
AcDbPolyline
 90
        2
 70
     0
 43
0.0
 10
7.523829107735328
 20
-0.0273623582739941
 10
7.490855075502966
 20
-0.0283218046209952
  0
LWPOLYLINE
  5
420
330
18
100
AcDbEntity
  8
ADP1DETAIL
100
AcDbPolyline
 90
        2
 70
     0
 43
0.0
 10
7.488522709837295
 20
0.0040576679820727
 10
7.455660251292324
 20
0.0011825754037993
  0
LWPOLYLINE
  5
424
330
18
100
AcDbEntity
  8
ADP1DETAIL
100
AcDbPolyline
 90
        2
 70
     0
 43
0.0
 10
7.489636336539525
 20
-0.0292756731505843
 10
7.488916707378193
 20
0.0037044643995166
  0
LWPOLYLINE
  5
428
330
18
100
AcDbEntity
  8
ADP1DETAIL
100
AcDbPolyline
 90
        2
 70
     0
 43
0.0
 10
7.488522709837291
 20
0.0040576679820745
 10
7.455660251292322
 20
0.0011825754038002
  0
LWPOLYLINE
  5
42C
330
18
100
AcDbEntity
  8
ADP1DETAIL
100
AcDbPolyline
 90
        2
 70
     0
 43
0.0
 10
7.488522709837293
 20
0.0040576679820759
 10
7.455660251292321
 20
0.0011825754038015
  0
LWPOLYLINE
  5
430
330
18
100
AcDbEntity
  8
ADP1DETAIL
100
AcDbPolyline
 90
        2
 70
     0
 43
0.0
 10
7.489636336539523
 20
-0.0292756731505821
 10
7.48891670737819
 20
0.0037044643995188
  0
LWPOLYLINE
  5
434
330
18
100
AcDbEntity
  8
ADP1DETAIL
100
AcDbPolyline
 90
        2
 70
     0
 43
0.0
 10
7.489636336539526
 20
-0.029275673150583
 10
7.488916707378193
 20
0.0037044643995174
  0
LWPOLYLINE
  5
438
330
18
100
AcDbEntity
  8
ADP1DETAIL
100
AcDbPolyline
 90
        2
 70
     0
 43
0.0
 10
7.488522709837295
 20
0.0040576679820736
 10
7.455660251292324
 20
0.0011825754038002
  0
LWPOLYLINE
  5
43C
330
18
100
AcDbEntity
  8
ADP1DETAIL
100
AcDbPolyline
 90
        2
 70
     0
 43
0.0
 10
7.617982871080452
 20
-0.1331620862935834
 10
7.585343182380225
 20
-0.1283810758872286
  0
LINE
  5
440
330
18
100
AcDbEntity
  8
ADP1DETAIL
100
AcDbLine
 10
8.006033005788451
 20
0.1921883935040524
 30
0.0
 11
7.943533005788451
 21
0.1296883935040524
 31
0.0
  0
LINE
  5
441
330
18
100
AcDbEntity
  8
ADP1DETAIL
100
AcDbLine
 10
12.94353300578845
 20
0.1296883935040524
 30
0.0
 11
12.94353300578845
 21
-1.248630418079863
 31
0.0
  0
LINE
  5
442
330
18
100
AcDbEntity
  8
ADP1DETAIL
100
AcDbLine
 10
12.88103300578845
 20
0.1921883935040524
 30
0.0
 11
12.88103300578845
 21
-1.311130418079863
 31
0.0
  0
LINE
  5
443
330
18
100
AcDbEntity
  8
ADP1DETAIL
100
AcDbLine
 10
12.94353300578845
 20
-1.248630418079863
 30
0.0
 11
12.88103300578845
 21
-1.311130418079863
 31
0.0
  0
LINE
  5
444
330
18
100
AcDbEntity
  8
ADP1DETAIL
100
AcDbLine
 10
12.88103300578845
 20
0.1921883935040524
 30
0.0
 11
12.94353300578845
 21
0.1296883935040524
 31
0.0
  0
LINE
  5
445
330
18
100
AcDbEntity
  8
ADP1DETAIL
100
AcDbLine
 10
12.88103300578845
 20
-1.311130418079863
 30
0.0
 11
8.006033005788452
 21
-1.311130418079863
 31
0.0
  0
TEXT
  5
453
330
18
100
AcDbEntity
  8
ADPDIM
100
AcDbText
 10
3.002017014105932
 20
-2.235209902143326
 30
0.0
 40
0.125
  1
J U L I U S  B L U M  &  C O . ,  I N C .      ( 8 0 0 )  5 2 6 - 6 2 9 3        W W W . J U L I U S B L U M . C O M        P A R T  N o .  7 5 6 3
 41
1.25
  7
ARIAL_WIDE
 72
     1
 11
9.527746038662549
 21
-2.110209902143326
 31
0.0
100
AcDbText
 73
     3
  0
ENDSEC
  0
SECTION
  2
OBJECTS
  0
DICTIONARY
  5
C
330
0
100
AcDbDictionary
  3
ACAD_GROUP
350
D
  3
ACAD_LAYOUT
350
44C
  3
ACAD_MLINESTYLE
350
E
  3
ACAD_PLOTSETTINGS
350
44D
  3
ACAD_PLOTSTYLENAME
350
44A
  3
ACDBHEADERROUNDTRIPXREC
350
597
  3
ACDBVARIABLEDICTIONARY
350
4AD
  0
DICTIONARY
  5
4A7
330
18
100
AcDbDictionary
280
     1
  3
ACAD_LAYOUTSELFREF
360
5B8
  0
DICTIONARY
  5
4A5
330
15
100
AcDbDictionary
280
     1
  3
ACAD_LAYOUTSELFREF
360
5B7
  0
DICTIONARY
  5
D
102
{ACAD_REACTORS
330
C
102
}
330
C
100
AcDbDictionary
  0
DICTIONARY
  5
44C
102
{ACAD_REACTORS
330
C
102
}
330
C
100
AcDbDictionary
  0
DICTIONARY
  5
E
102
{ACAD_REACTORS
330
C
102
}
330
C
100
AcDbDictionary
  3
STANDARD
350
1B
  0
DICTIONARY
  5
44D
102
{ACAD_REACTORS
330
C
102
}
330
C
100
AcDbDictionary
  0
ACDBDICTIONARYWDFLT
  5
44A
102
{ACAD_REACTORS
330
C
102
}
330
C
100
AcDbDictionary
281
     1
  3
Normal
350
44B
100
AcDbDictionaryWithDefault
340
44B
  0
DICTIONARY
  5
597
102
{ACAD_REACTORS
330
C
102
}
330
C
100
AcDbDictionary
  3
CEPSNTYPE
350
5A1
  3
FINGERPRINTGUID
350
5A2
  3
HYPERLINKBASE
350
59A
  3
INSUNITS
350
5A0
  3
LAYOUTDICT
350
59C
  3
LWETCUNION
350
59F
  3
PLOTSETDICT
350
59D
  3
PLOTSTYLNAMDICT
350
59E
  3
PSVPSCALE
350
5A4
  3
PUCSBASE
350
5A7
  3
PUCSORGBACK
350
5AD
  3
PUCSORGBOTTOM
350
5A9
  3
PUCSORGFRONT
350
5AC
  3
PUCSORGLEFT
350
5AA
  3
PUCSORGRIGHT
350
5AB
  3
PUCSORGTOP
350
5A8
  3
PUCSORTHOREF
350
5A5
  3
PUCSORTHOVIEW
350
5A6
  3
STYLESHEET
350
59B
  3
TSTACKALIGN
350
598
  3
TSTACKSIZE
350
599
  3
UCSBASE
350
5B0
  3
UCSORGBACK
350
5B6
  3
UCSORGBOTTOM
350
5B2
  3
UCSORGFRONT
350
5B5
  3
UCSORGLEFT
350
5B3
  3
UCSORGRIGHT
350
5B4
  3
UCSORGTOP
350
5B1
  3
UCSORTHOREF
350
5AE
  3
UCSORTHOVIEW
350
5AF
  3
VERSIONGUID
350
5A3
  0
DICTIONARY
  5
4AD
102
{ACAD_REACTORS
330
C
102
}
330
C
100
AcDbDictionary
  3
DIMASSOC
350
4AE
  0
XRECORD
  5
5B8
102
{ACAD_REACTORS
330
4A7
102
}
330
4A7
100
AcDbXrecord
340
18
  0
XRECORD
  5
5B7
102
{ACAD_REACTORS
330
4A5
102
}
330
4A5
100
AcDbXrecord
340
15
  0
MLINESTYLE
  5
1B
102
{ACAD_REACTORS
330
E
102
}
330
E
100
AcDbMlineStyle
  2
STANDARD
 70
     0
  3

 62
     0
 51
90.0
 52
90.0
 71
     2
 49
0.5
 62
   256
  6
BYLAYER
 49
-0.5
 62
   256
  6
BYLAYER
  0
ACDBPLACEHOLDER
  5
44B
102
{ACAD_REACTORS
330
44A
102
}
330
44A
100
AcDbPlaceHolder
280
     0
  0
XRECORD
  5
5A1
102
{ACAD_REACTORS
330
597
102
}
330
597
100
AcDbXrecord
 90
        0
  0
XRECORD
  5
5A2
102
{ACAD_REACTORS
330
597
102
}
330
597
100
AcDbXrecord
  1
{D2D7B7A7-89DF-4F12-9491-9002D857426E}
  0
XRECORD
  5
59A
102
{ACAD_REACTORS
330
597
102
}
330
597
100
AcDbXrecord
  1

  0
XRECORD
  5
5A0
102
{ACAD_REACTORS
330
597
102
}
330
597
100
AcDbXrecord
 90
        0
  0
XRECORD
  5
59C
102
{ACAD_REACTORS
330
597
102
}
330
597
100
AcDbXrecord
340
44C
  0
XRECORD
  5
59F
102
{ACAD_REACTORS
330
597
102
}
330
597
100
AcDbXrecord
 90
    14877
  0
XRECORD
  5
59D
102
{ACAD_REACTORS
330
597
102
}
330
597
100
AcDbXrecord
340
44D
  0
XRECORD
  5
59E
102
{ACAD_REACTORS
330
597
102
}
330
597
100
AcDbXrecord
340
44A
  0
XRECORD
  5
5A4
102
{ACAD_REACTORS
330
597
102
}
330
597
100
AcDbXrecord
 40
0.0
  0
XRECORD
  5
5A7
102
{ACAD_REACTORS
330
597
102
}
330
597
100
AcDbXrecord
340
0
  0
XRECORD
  5
5AD
102
{ACAD_REACTORS
330
597
102
}
330
597
100
AcDbXrecord
 10
0.0
 20
0.0
 30
0.0
  0
XRECORD
  5
5A9
102
{ACAD_REACTORS
330
597
102
}
330
597
100
AcDbXrecord
 10
0.0
 20
0.0
 30
0.0
  0
XRECORD
  5
5AC
102
{ACAD_REACTORS
330
597
102
}
330
597
100
AcDbXrecord
 10
0.0
 20
0.0
 30
0.0
  0
XRECORD
  5
5AA
102
{ACAD_REACTORS
330
597
102
}
330
597
100
AcDbXrecord
 10
0.0
 20
0.0
 30
0.0
  0
XRECORD
  5
5AB
102
{ACAD_REACTORS
330
597
102
}
330
597
100
AcDbXrecord
 10
0.0
 20
0.0
 30
0.0
  0
XRECORD
  5
5A8
102
{ACAD_REACTORS
330
597
102
}
330
597
100
AcDbXrecord
 10
0.0
 20
0.0
 30
0.0
  0
XRECORD
  5
5A5
102
{ACAD_REACTORS
330
597
102
}
330
597
100
AcDbXrecord
340
0
  0
XRECORD
  5
5A6
102
{ACAD_REACTORS
330
597
102
}
330
597
100
AcDbXrecord
 70
     0
  0
XRECORD
  5
59B
102
{ACAD_REACTORS
330
597
102
}
330
597
100
AcDbXrecord
  1

  0
XRECORD
  5
598
102
{ACAD_REACTORS
330
597
102
}
330
597
100
AcDbXrecord
 90
        1
  0
XRECORD
  5
599
102
{ACAD_REACTORS
330
597
102
}
330
597
100
AcDbXrecord
 90
       70
  0
XRECORD
  5
5B0
102
{ACAD_REACTORS
330
597
102
}
330
597
100
AcDbXrecord
340
0
  0
XRECORD
  5
5B6
102
{ACAD_REACTORS
330
597
102
}
330
597
100
AcDbXrecord
 10
0.0
 20
0.0
 30
0.0
  0
XRECORD
  5
5B2
102
{ACAD_REACTORS
330
597
102
}
330
597
100
AcDbXrecord
 10
0.0
 20
0.0
 30
0.0
  0
XRECORD
  5
5B5
102
{ACAD_REACTORS
330
597
102
}
330
597
100
AcDbXrecord
 10
0.0
 20
0.0
 30
0.0
  0
XRECORD
  5
5B3
102
{ACAD_REACTORS
330
597
102
}
330
597
100
AcDbXrecord
 10
0.0
 20
0.0
 30
0.0
  0
XRECORD
  5
5B4
102
{ACAD_REACTORS
330
597
102
}
330
597
100
AcDbXrecord
 10
0.0
 20
0.0
 30
0.0
  0
XRECORD
  5
5B1
102
{ACAD_REACTORS
330
597
102
}
330
597
100
AcDbXrecord
 10
0.0
 20
0.0
 30
0.0
  0
XRECORD
  5
5AE
102
{ACAD_REACTORS
330
597
102
}
330
597
100
AcDbXrecord
340
0
  0
XRECORD
  5
5AF
102
{ACAD_REACTORS
330
597
102
}
330
597
100
AcDbXrecord
 70
     0
  0
XRECORD
  5
5A3
102
{ACAD_REACTORS
330
597
102
}
330
597
100
AcDbXrecord
  1
{AA46740B-1DC2-471D-9392-51E144217F3A}
  0
DICTIONARYVAR
  5
4AE
102
{ACAD_REACTORS
330
4AD
102
}
330
4AD
100
DictionaryVariables
280
     0
  1
1
  0
ENDSEC
  0
EOF
