  0
SECTION
  2
HEADER
  9
$ACADVER
  1
AC1014
  9
$ACADMAINTVER
 70
     9
  9
$DWGCODEPAGE
  3
ANSI_1252
  9
$INSBASE
 10
1.849978216242575
 20
-18.53151459938381
 30
0.0
  9
$EXTMIN
 10
-12.5273630934212
 20
-21.34077667398361
 30
0.0
  9
$EXTMAX
 10
26.08088213168111
 20
0.5590919535848599
 30
0.0
  9
$LIMMIN
 10
0.0
 20
0.0
  9
$LIMMAX
 10
36.0
 20
36.0
  9
$ORTHOMODE
 70
     1
  9
$REGENMODE
 70
     1
  9
$FILLMODE
 70
     1
  9
$QTEXTMODE
 70
     0
  9
$MIRRTEXT
 70
     1
  9
$DRAGMODE
 70
     0
  9
$LTSCALE
 40
1.0
  9
$OSMODE
 70
    37
  9
$ATTMODE
 70
     1
  9
$TEXTSIZE
 40
0.2
  9
$TRACEWID
 40
0.05
  9
$TEXTSTYLE
  7
STANDARD
  9
$CLAYER
  8
ADPDIM
  9
$CELTYPE
  6
BYLAYER
  9
$CECOLOR
 62
   256
  9
$CELTSCALE
 40
1.0
  9
$DELOBJ
 70
     1
  9
$DISPSILH
 70
     0
  9
$DIMSCALE
 40
1.0
  9
$DIMASZ
 40
0.125
  9
$DIMEXO
 40
0.0625
  9
$DIMDLI
 40
0.38
  9
$DIMRND
 40
0.0
  9
$DIMDLE
 40
0.0
  9
$DIMEXE
 40
0.18
  9
$DIMTP
 40
0.0
  9
$DIMTM
 40
0.0
  9
$DIMTXT
 40
0.125
  9
$DIMCEN
 40
0.1875
  9
$DIMTSZ
 40
0.125
  9
$DIMTOL
 70
     0
  9
$DIMLIM
 70
     0
  9
$DIMTIH
 70
     0
  9
$DIMTOH
 70
     0
  9
$DIMSE1
 70
     0
  9
$DIMSE2
 70
     0
  9
$DIMTAD
 70
     0
  9
$DIMZIN
 70
     3
  9
$DIMBLK
  1

  9
$DIMASO
 70
     1
  9
$DIMSHO
 70
     1
  9
$DIMPOST
  1

  9
$DIMAPOST
  1

  9
$DIMALT
 70
     0
  9
$DIMALTD
 70
     1
  9
$DIMALTF
 40
25.4
  9
$DIMLFAC
 40
1.0
  9
$DIMTOFL
 70
     0
  9
$DIMTVP
 40
0.0
  9
$DIMTIX
 70
     0
  9
$DIMSOXD
 70
     0
  9
$DIMSAH
 70
     0
  9
$DIMBLK1
  1

  9
$DIMBLK2
  1

  9
$DIMSTYLE
  2
ADPDIM
  9
$DIMCLRD
 70
     0
  9
$DIMCLRE
 70
     0
  9
$DIMCLRT
 70
     0
  9
$DIMTFAC
 40
1.0
  9
$DIMGAP
 40
0.125
  9
$DIMJUST
 70
     0
  9
$DIMSD1
 70
     0
  9
$DIMSD2
 70
     0
  9
$DIMTOLJ
 70
     1
  9
$DIMTZIN
 70
     0
  9
$DIMALTZ
 70
     0
  9
$DIMALTTZ
 70
     0
  9
$DIMFIT
 70
     3
  9
$DIMUPT
 70
     0
  9
$DIMUNIT
 70
     2
  9
$DIMDEC
 70
     4
  9
$DIMTDEC
 70
     4
  9
$DIMALTU
 70
     2
  9
$DIMALTTD
 70
     2
  9
$DIMTXSTY
  7
STANDARD
  9
$DIMAUNIT
 70
     0
  9
$LUNITS
 70
     5
  9
$LUPREC
 70
     4
  9
$SKETCHINC
 40
0.1
  9
$FILLETRAD
 40
0.125
  9
$AUNITS
 70
     0
  9
$AUPREC
 70
     0
  9
$MENU
  1
acad
  9
$ELEVATION
 40
0.0
  9
$PELEVATION
 40
0.0
  9
$THICKNESS
 40
0.0
  9
$LIMCHECK
 70
     0
  9
$BLIPMODE
 70
     0
  9
$CHAMFERA
 40
0.0
  9
$CHAMFERB
 40
0.0
  9
$CHAMFERC
 40
0.0
  9
$CHAMFERD
 40
0.0
  9
$SKPOLY
 70
     0
  9
$TDCREATE
 40
2450212.489025462
  9
$TDUPDATE
 40
2452297.075622106
  9
$TDINDWG
 40
0.0117748958
  9
$TDUSRTIMER
 40
0.0117748958
  9
$USRTIMER
 70
     1
  9
$ANGBASE
 50
0.0
  9
$ANGDIR
 70
     0
  9
$PDMODE
 70
     0
  9
$PDSIZE
 40
0.0
  9
$PLINEWID
 40
0.0
  9
$COORDS
 70
     2
  9
$SPLFRAME
 70
     0
  9
$SPLINETYPE
 70
     6
  9
$SPLINESEGS
 70
     8
  9
$ATTDIA
 70
     0
  9
$ATTREQ
 70
     1
  9
$HANDLING
 70
 22529
  9
$HANDSEED
  5
2DC
  9
$SURFTAB1
 70
     6
  9
$SURFTAB2
 70
     6
  9
$SURFTYPE
 70
     6
  9
$SURFU
 70
     6
  9
$SURFV
 70
     6
  9
$UCSNAME
  2

  9
$UCSORG
 10
0.0
 20
0.0
 30
0.0
  9
$UCSXDIR
 10
1.0
 20
0.0
 30
0.0
  9
$UCSYDIR
 10
0.0
 20
1.0
 30
0.0
  9
$PUCSNAME
  2

  9
$PUCSORG
 10
0.0
 20
0.0
 30
0.0
  9
$PUCSXDIR
 10
1.0
 20
0.0
 30
0.0
  9
$PUCSYDIR
 10
0.0
 20
1.0
 30
0.0
  9
$USERI1
 70
     0
  9
$USERI2
 70
     0
  9
$USERI3
 70
     0
  9
$USERI4
 70
     0
  9
$USERI5
 70
     0
  9
$USERR1
 40
0.0
  9
$USERR2
 40
0.0
  9
$USERR3
 40
0.0
  9
$USERR4
 40
0.0
  9
$USERR5
 40
0.0
  9
$WORLDVIEW
 70
     1
  9
$SHADEDGE
 70
     3
  9
$SHADEDIF
 70
    70
  9
$TILEMODE
 70
     1
  9
$MAXACTVP
 70
    15
  9
$PINSBASE
 10
0.0034180227667093
 20
5.001104522511128
 30
0.0
  9
$PLIMCHECK
 70
     0
  9
$PEXTMIN
 10
1.000000000000000E+20
 20
1.000000000000000E+20
 30
1.000000000000000E+20
  9
$PEXTMAX
 10
-1.000000000000000E+20
 20
-1.000000000000000E+20
 30
-1.000000000000000E+20
  9
$PLIMMIN
 10
0.0
 20
0.0
  9
$PLIMMAX
 10
12.0
 20
9.0
  9
$UNITMODE
 70
     0
  9
$VISRETAIN
 70
     0
  9
$PLINEGEN
 70
     0
  9
$PSLTSCALE
 70
     1
  9
$TREEDEPTH
 70
  3020
  9
$PICKSTYLE
 70
     1
  9
$CMLSTYLE
  2
STANDARD
  9
$CMLJUST
 70
     0
  9
$CMLSCALE
 40
1.0
  9
$PROXYGRAPHICS
 70
     1
  9
$MEASUREMENT
 70
     0
  0
ENDSEC
  0
SECTION
  2
CLASSES
  0
CLASS
  1
ACDBDICTIONARYWDFLT
  2
AcDbDictionaryWithDefault
  3
AutoCAD 2000
 90
        0
280
     0
281
     0
  0
CLASS
  1
ACDBPLACEHOLDER
  2
AcDbPlaceHolder
  3
AutoCAD 2000
 90
        0
280
     0
281
     0
  0
CLASS
  1
LAYOUT
  2
AcDbLayout
  3
AutoCAD 2000
 90
        0
280
     0
281
     0
  0
CLASS
  1
DICTIONARYVAR
  2
AcDbDictionaryVar
  3
AutoCAD 2000
 90
        0
280
     0
281
     0
  0
CLASS
  1
LONG_TRANSACTION
  2
AcDbLongTransaction
  3
AutoCAD 2000
 90
        0
280
     0
281
     0
  0
CLASS
  1
LWPOLYLINE
  2
AcDbPolyline
  3
AutoCAD 2000
 90
        0
280
     0
281
     1
  0
CLASS
  1
HATCH
  2
AcDbHatch
  3
AutoCAD 2000
 90
        0
280
     0
281
     1
  0
CLASS
  1
XRECORD
  2
AcDbXrecord
  3
AutoCAD 2000
 90
        0
280
     0
281
     0
  0
CLASS
  1
LONG_TRANSACTION
  2
AcDbLongTransaction
  3
AutoCAD 2000
 90
        0
280
     0
281
     0
  0
CLASS
  1
LWPOLYLINE
  2
AcDbPolyline
  3
AutoCAD 2000
 90
        0
280
     0
281
     1
  0
CLASS
  1
HATCH
  2
AcDbHatch
  3
AutoCAD 2000
 90
        0
280
     0
281
     1
  0
CLASS
  1
XRECORD
  2
AcDbXrecord
  3
AutoCAD 2000
 90
        0
280
     0
281
     0
  0
CLASS
  1
LONG_TRANSACTION
  2
AcDbLongTransaction
  3
AutoCAD 2000
 90
        0
280
     0
281
     0
  0
CLASS
  1
LWPOLYLINE
  2
AcDbPolyline
  3
AutoCAD 2000
 90
        0
280
     0
281
     1
  0
CLASS
  1
HATCH
  2
AcDbHatch
  3
AutoCAD 2000
 90
        0
280
     0
281
     1
  0
CLASS
  1
XRECORD
  2
AcDbXrecord
  3
AutoCAD 2000
 90
        0
280
     0
281
     0
  0
CLASS
  1
LONG_TRANSACTION
  2
AcDbLongTransaction
  3
AutoCAD 2000
 90
        0
280
     0
281
     0
  0
CLASS
  1
LWPOLYLINE
  2
AcDbPolyline
  3
AutoCAD 2000
 90
        0
280
     0
281
     1
  0
CLASS
  1
HATCH
  2
AcDbHatch
  3
AutoCAD 2000
 90
        0
280
     0
281
     1
  0
CLASS
  1
XRECORD
  2
AcDbXrecord
  3
AutoCAD 2000
 90
        0
280
     0
281
     0
  0
CLASS
  1
LONG_TRANSACTION
  2
AcDbLongTransaction
  3
AutoCAD 2000
 90
        0
280
     0
281
     0
  0
CLASS
  1
LWPOLYLINE
  2
AcDbPolyline
  3
AutoCAD 2000
 90
        0
280
     0
281
     1
  0
CLASS
  1
HATCH
  2
AcDbHatch
  3
AutoCAD 2000
 90
        0
280
     0
281
     1
  0
CLASS
  1
XRECORD
  2
AcDbXrecord
  3
AutoCAD 2000
 90
        0
280
     0
281
     0
  0
ENDSEC
  0
SECTION
  2
TABLES
  0
TABLE
  2
VPORT
  5
8
330
0
100
AcDbSymbolTable
 70
     2
  0
VPORT
  5
2B9
330
8
100
AcDbSymbolTableRecord
100
AcDbViewportTableRecord
  2
*ACTIVE
 70
     0
 10
0.0
 20
0.0
 11
1.0
 21
1.0
 12
6.808576147913708
 22
-10.38943641522957
 13
0.0
 23
0.0
 14
0.5740882589684922
 24
0.5740882589684922
 15
0.5
 25
0.5
 16
0.0
 26
0.0
 36
1.0
 17
0.0
 27
0.0
 37
0.0
 40
24.74207122585295
 41
1.570528967254408
 42
50.0
 43
0.0
 44
0.0
 50
0.0
 51
0.0
 71
     0
 72
   100
 73
     1
 74
     0
 75
     0
 76
     0
 77
     0
 78
     0
  0
ENDTAB
  0
TABLE
  2
LTYPE
  5
5
330
0
100
AcDbSymbolTable
 70
     2
  0
LTYPE
  5
12
330
5
100
AcDbSymbolTableRecord
100
AcDbLinetypeTableRecord
  2
BYBLOCK
 70
     0
  3

 72
    65
 73
     0
 40
0.0
  0
LTYPE
  5
13
330
5
100
AcDbSymbolTableRecord
100
AcDbLinetypeTableRecord
  2
BYLAYER
 70
     0
  3

 72
    65
 73
     0
 40
0.0
  0
LTYPE
  5
14
330
5
100
AcDbSymbolTableRecord
100
AcDbLinetypeTableRecord
  2
CONTINUOUS
 70
     0
  3
Solid line
 72
    65
 73
     0
 40
0.0
  0
LTYPE
  5
74
330
5
100
AcDbSymbolTableRecord
100
AcDbLinetypeTableRecord
  2
HIDDEN2
 70
     0
  3
_ _ _ _ _ _ _ _ _ _ _ _ _ _ _ _ _ _ _ _ _ _ _ _
 72
    65
 73
     2
 40
0.1875
 49
0.125
 74
     0
 49
-0.0625
 74
     0
  0
ENDTAB
  0
TABLE
  2
LAYER
  5
2
330
0
100
AcDbSymbolTable
 70
     5
  0
LAYER
  5
F
330
2
100
AcDbSymbolTableRecord
100
AcDbLayerTableRecord
  2
0
 70
     0
 62
     7
  6
CONTINUOUS
  0
LAYER
  5
76
330
2
100
AcDbSymbolTableRecord
100
AcDbLayerTableRecord
  2
ADP2DETAIL
 70
     0
 62
     5
  6
CONTINUOUS
  0
LAYER
  5
77
330
2
100
AcDbSymbolTableRecord
100
AcDbLayerTableRecord
  2
ADPDIM
 70
     0
 62
     3
  6
CONTINUOUS
  0
LAYER
  5
79
330
2
100
AcDbSymbolTableRecord
100
AcDbLayerTableRecord
  2
ADP1DETAIL
 70
     0
 62
     7
  6
CONTINUOUS
  0
LAYER
  5
7B
330
2
100
AcDbSymbolTableRecord
100
AcDbLayerTableRecord
  2
DEFPOINTS
 70
     0
 62
     7
  6
CONTINUOUS
  0
ENDTAB
  0
TABLE
  2
STYLE
  5
3
330
0
100
AcDbSymbolTable
 70
     2
  0
STYLE
  5
10
330
3
100
AcDbSymbolTableRecord
100
AcDbTextStyleTableRecord
  2
STANDARD
 70
     0
 40
0.0
 41
1.0
 50
0.0
 71
     0
 42
0.2
  3
txt
  4

  0
STYLE
  5
166
330
3
100
AcDbSymbolTableRecord
100
AcDbTextStyleTableRecord
  2
ARIAL_WIDE
 70
     0
 40
0.0
 41
1.25
 50
0.0
 71
     0
 42
0.2
  3
ARIAL.TTF
  4

1001
ACAD
1000
Arial
1071
       34
  0
ENDTAB
  0
TABLE
  2
VIEW
  5
6
330
0
100
AcDbSymbolTable
 70
     0
  0
ENDTAB
  0
TABLE
  2
UCS
  5
7
330
0
100
AcDbSymbolTable
 70
     0
  0
ENDTAB
  0
TABLE
  2
APPID
  5
9
330
0
100
AcDbSymbolTable
 70
     1
  0
APPID
  5
11
330
9
100
AcDbSymbolTableRecord
100
AcDbRegAppTableRecord
  2
ACAD
 70
     0
  0
ENDTAB
  0
TABLE
  2
DIMSTYLE
  5
A
330
0
100
AcDbSymbolTable
 70
     1
  0
DIMSTYLE
105
75
102
{ACAD_REACTORS
330
105
330
109
330
10A
330
10B
330
110
330
115
330
126
330
128
330
13E
330
141
330
14C
102
}
330
A
100
AcDbSymbolTableRecord
100
AcDbDimStyleTableRecord
  2
ADPDIM
 70
     0
  3

  4

  5

  6

  7

 40
1.0
 41
0.125
 42
0.0625
 43
0.38
 44
0.18
 45
0.0
 46
0.0
 47
0.0
 48
0.0
140
0.125
141
0.1875
142
0.125
143
25.4
144
1.0
145
0.0
146
1.0
147
0.125
 71
     0
 72
     0
 73
     0
 74
     0
 75
     0
 76
     0
 77
     0
 78
     3
170
     0
171
     1
172
     0
173
     0
174
     0
175
     0
176
     0
177
     0
178
     0
270
     5
271
     4
272
     4
273
     5
274
     1
340
10
275
     0
280
     0
281
     0
282
     0
283
     1
284
     3
285
     3
286
     3
287
     5
288
     0
  0
ENDTAB
  0
TABLE
  2
BLOCK_RECORD
  5
1
330
0
100
AcDbSymbolTable
 70
    11
  0
BLOCK_RECORD
  5
18
102
{ACAD_XDICTIONARY
360
1BE
102
}
330
1
100
AcDbSymbolTableRecord
100
AcDbBlockTableRecord
  2
*MODEL_SPACE
  0
BLOCK_RECORD
  5
15
102
{ACAD_XDICTIONARY
360
1BC
102
}
330
1
100
AcDbSymbolTableRecord
100
AcDbBlockTableRecord
  2
*PAPER_SPACE
  0
BLOCK_RECORD
  5
54
330
1
100
AcDbSymbolTableRecord
100
AcDbBlockTableRecord
  2
*D0
  0
BLOCK_RECORD
  5
55
330
1
100
AcDbSymbolTableRecord
100
AcDbBlockTableRecord
  2
*D1
  0
BLOCK_RECORD
  5
56
330
1
100
AcDbSymbolTableRecord
100
AcDbBlockTableRecord
  2
*D2
  0
BLOCK_RECORD
  5
57
330
1
100
AcDbSymbolTableRecord
100
AcDbBlockTableRecord
  2
*D3
  0
BLOCK_RECORD
  5
58
330
1
100
AcDbSymbolTableRecord
100
AcDbBlockTableRecord
  2
*D4
  0
BLOCK_RECORD
  5
59
330
1
100
AcDbSymbolTableRecord
100
AcDbBlockTableRecord
  2
*D5
  0
BLOCK_RECORD
  5
5B
330
1
100
AcDbSymbolTableRecord
100
AcDbBlockTableRecord
  2
*D6
  0
BLOCK_RECORD
  5
5C
330
1
100
AcDbSymbolTableRecord
100
AcDbBlockTableRecord
  2
*D7
  0
BLOCK_RECORD
  5
5E
330
1
100
AcDbSymbolTableRecord
100
AcDbBlockTableRecord
  2
*D8
  0
BLOCK_RECORD
  5
5F
330
1
100
AcDbSymbolTableRecord
100
AcDbBlockTableRecord
  2
*D9
  0
BLOCK_RECORD
  5
60
330
1
100
AcDbSymbolTableRecord
100
AcDbBlockTableRecord
  2
*D10
  0
ENDTAB
  0
ENDSEC
  0
SECTION
  2
BLOCKS
  0
BLOCK
  5
7E
330
18
100
AcDbEntity
  8
0
100
AcDbBlockBegin
  2
*MODEL_SPACE
 70
     0
 10
0.0
 20
0.0
 30
0.0
  3
*MODEL_SPACE
  1

  0
ENDBLK
  5
7F
330
18
100
AcDbEntity
  8
0
100
AcDbBlockEnd
  0
BLOCK
  5
7C
330
15
100
AcDbEntity
 67
     1
  8
0
100
AcDbBlockBegin
  2
*PAPER_SPACE
 70
     0
 10
0.0
 20
0.0
 30
0.0
  3
*PAPER_SPACE
  1

  0
ENDBLK
  5
7D
330
15
100
AcDbEntity
 67
     1
  8
0
100
AcDbBlockEnd
  0
BLOCK
  5
81
330
54
100
AcDbEntity
  8
0
100
AcDbBlockBegin
  2
*D0
 70
     1
 10
0.0
 20
0.0
 30
0.0
  3
*D0
  1

  0
LINE
  5
82
330
54
100
AcDbEntity
  8
0
  6
BYBLOCK
 62
     0
100
AcDbLine
 10
2.592478216242575
 20
-12.78151459938381
 30
0.0
 11
5.54796893903437
 21
-12.78151459938381
 31
0.0
  0
LINE
  5
83
330
54
100
AcDbEntity
  8
0
  6
BYBLOCK
 62
     0
100
AcDbLine
 10
3.305978216242575
 20
-3.531514599383811
 30
0.0
 11
5.547968939034371
 21
-3.531514599383811
 31
0.0
  0
LINE
  5
84
330
54
100
AcDbEntity
  8
0
  6
BYBLOCK
 62
     0
100
AcDbLine
 10
5.36796893903437
 20
-12.78151459938381
 30
0.0
 11
5.36796893903437
 21
-8.552347932717145
 31
0.0
  0
LINE
  5
85
330
54
100
AcDbEntity
  8
0
  6
BYBLOCK
 62
     0
100
AcDbLine
 10
5.367968939034371
 20
-3.531514599383811
 30
0.0
 11
5.36796893903437
 21
-7.760681266050478
 31
0.0
  0
LINE
  5
86
330
54
100
AcDbEntity
  8
0
  6
BYBLOCK
 62
     0
100
AcDbLine
 10
5.49296893903437
 20
-12.90651459938381
 30
0.0
 11
5.24296893903437
 21
-12.65651459938381
 31
0.0
  0
LINE
  5
87
330
54
100
AcDbEntity
  8
0
  6
BYBLOCK
 62
     0
100
AcDbLine
 10
5.492968939034371
 20
-3.656514599383811
 30
0.0
 11
5.242968939034371
 21
-3.406514599383811
 31
0.0
  0
TEXT
  5
88
330
54
100
AcDbEntity
  8
0
  6
BYBLOCK
 62
     0
100
AcDbText
 10
5.43046893903437
 20
-8.427347932717145
 30
0.0
 40
0.125
  1
9 1/4
 50
90.0
 72
     1
 11
5.36796893903437
 21
-8.156514599383811
 31
0.0
100
AcDbText
 73
     2
  0
POINT
  5
89
330
54
100
AcDbEntity
  8
DEFPOINTS
  6
BYBLOCK
 62
     0
100
AcDbPoint
 10
2.529978216242575
 20
-12.78151459938381
 30
0.0
  0
POINT
  5
8A
330
54
100
AcDbEntity
  8
DEFPOINTS
  6
BYBLOCK
 62
     0
100
AcDbPoint
 10
3.243478216242575
 20
-3.531514599383811
 30
0.0
  0
POINT
  5
8B
330
54
100
AcDbEntity
  8
DEFPOINTS
  6
BYBLOCK
 62
     0
100
AcDbPoint
 10
5.367968939034371
 20
-3.531514599383811
 30
0.0
  0
ENDBLK
  5
8C
330
54
100
AcDbEntity
  8
0
100
AcDbBlockEnd
  0
BLOCK
  5
8D
330
55
100
AcDbEntity
  8
0
100
AcDbBlockBegin
  2
*D1
 70
     1
 10
0.0
 20
0.0
 30
0.0
  3
*D1
  1

  0
LINE
  5
8E
330
55
100
AcDbEntity
  8
0
  6
BYBLOCK
 62
     0
100
AcDbLine
 10
0.7799782162425757
 20
-12.53151459938381
 30
0.0
 11
-0.2715072093204638
 21
-12.53151459938381
 31
0.0
  0
LINE
  5
8F
330
55
100
AcDbEntity
  8
0
  6
BYBLOCK
 62
     0
100
AcDbLine
 10
1.154978216242575
 20
-17.03151459938381
 30
0.0
 11
-0.2715072093204642
 21
-17.03151459938381
 31
0.0
  0
LINE
  5
90
330
55
100
AcDbEntity
  8
0
  6
BYBLOCK
 62
     0
100
AcDbLine
 10
-0.0915072093204639
 20
-12.53151459938381
 30
0.0
 11
-0.091507209320464
 21
-14.38568126605047
 31
0.0
  0
LINE
  5
91
330
55
100
AcDbEntity
  8
0
  6
BYBLOCK
 62
     0
100
AcDbLine
 10
-0.0915072093204642
 20
-17.03151459938381
 30
0.0
 11
-0.091507209320464
 21
-15.17734793271714
 31
0.0
  0
LINE
  5
92
330
55
100
AcDbEntity
  8
0
  6
BYBLOCK
 62
     0
100
AcDbLine
 10
0.0334927906795361
 20
-12.65651459938381
 30
0.0
 11
-0.2165072093204638
 21
-12.40651459938381
 31
0.0
  0
LINE
  5
93
330
55
100
AcDbEntity
  8
0
  6
BYBLOCK
 62
     0
100
AcDbLine
 10
0.0334927906795359
 20
-17.15651459938381
 30
0.0
 11
-0.2165072093204641
 21
-16.90651459938381
 31
0.0
  0
TEXT
  5
94
330
55
100
AcDbEntity
  8
0
  6
BYBLOCK
 62
     0
100
AcDbText
 10
-0.029007209320464
 20
-15.05234793271714
 30
0.0
 40
0.125
  1
4 1/2
 50
90.0
 72
     1
 11
-0.091507209320464
 21
-14.78151459938381
 31
0.0
100
AcDbText
 73
     2
  0
POINT
  5
95
330
55
100
AcDbEntity
  8
DEFPOINTS
  6
BYBLOCK
 62
     0
100
AcDbPoint
 10
0.8424782162425756
 20
-12.53151459938381
 30
0.0
  0
POINT
  5
96
330
55
100
AcDbEntity
  8
DEFPOINTS
  6
BYBLOCK
 62
     0
100
AcDbPoint
 10
1.217478216242575
 20
-17.03151459938381
 30
0.0
  0
POINT
  5
97
330
55
100
AcDbEntity
  8
DEFPOINTS
  6
BYBLOCK
 62
     0
100
AcDbPoint
 10
-0.0915072093204642
 20
-17.03151459938381
 30
0.0
  0
ENDBLK
  5
98
330
55
100
AcDbEntity
  8
0
100
AcDbBlockEnd
  0
BLOCK
  5
99
330
56
100
AcDbEntity
  8
0
100
AcDbBlockBegin
  2
*D2
 70
     1
 10
0.0
 20
0.0
 30
0.0
  3
*D2
  1

  0
LINE
  5
9A
330
56
100
AcDbEntity
  8
0
  6
BYBLOCK
 62
     0
100
AcDbLine
 10
0.8424782162425756
 20
-12.46901459938381
 30
0.0
 11
0.8424782162425756
 21
-11.23277049105827
 31
0.0
  0
LINE
  5
9B
330
56
100
AcDbEntity
  8
0
  6
BYBLOCK
 62
     0
100
AcDbLine
 10
4.217478216242575
 20
-12.46901459938381
 30
0.0
 11
4.217478216242575
 21
-11.23277049105827
 31
0.0
  0
LINE
  5
9C
330
56
100
AcDbEntity
  8
0
  6
BYBLOCK
 62
     0
100
AcDbLine
 10
0.8424782162425756
 20
-11.41277049105827
 30
0.0
 11
2.113311549575909
 21
-11.41277049105827
 31
0.0
  0
LINE
  5
9D
330
56
100
AcDbEntity
  8
0
  6
BYBLOCK
 62
     0
100
AcDbLine
 10
4.217478216242575
 20
-11.41277049105827
 30
0.0
 11
2.946644882909242
 21
-11.41277049105827
 31
0.0
  0
LINE
  5
9E
330
56
100
AcDbEntity
  8
0
  6
BYBLOCK
 62
     0
100
AcDbLine
 10
0.7174782162425757
 20
-11.53777049105827
 30
0.0
 11
0.9674782162425756
 21
-11.28777049105827
 31
0.0
  0
LINE
  5
9F
330
56
100
AcDbEntity
  8
0
  6
BYBLOCK
 62
     0
100
AcDbLine
 10
4.092478216242575
 20
-11.53777049105827
 30
0.0
 11
4.342478216242575
 21
-11.28777049105827
 31
0.0
  0
TEXT
  5
A0
330
56
100
AcDbEntity
  8
0
  6
BYBLOCK
 62
     0
100
AcDbText
 10
2.238311549575909
 20
-11.47527049105826
 30
0.0
 40
0.125
  1
3 3/8
 72
     1
 11
2.529978216242575
 21
-11.41277049105827
 31
0.0
100
AcDbText
 73
     2
  0
POINT
  5
A1
330
56
100
AcDbEntity
  8
DEFPOINTS
  6
BYBLOCK
 62
     0
100
AcDbPoint
 10
0.8424782162425756
 20
-12.53151459938381
 30
0.0
  0
POINT
  5
A2
330
56
100
AcDbEntity
  8
DEFPOINTS
  6
BYBLOCK
 62
     0
100
AcDbPoint
 10
4.217478216242575
 20
-12.53151459938381
 30
0.0
  0
POINT
  5
A3
330
56
100
AcDbEntity
  8
DEFPOINTS
  6
BYBLOCK
 62
     0
100
AcDbPoint
 10
4.217478216242575
 20
-11.41277049105827
 30
0.0
  0
ENDBLK
  5
A4
330
56
100
AcDbEntity
  8
0
100
AcDbBlockEnd
  0
BLOCK
  5
A5
330
57
100
AcDbEntity
  8
0
100
AcDbBlockBegin
  2
*D3
 70
     1
 10
0.0
 20
0.0
 30
0.0
  3
*D3
  1

  0
LINE
  5
A6
330
57
100
AcDbEntity
  8
0
  6
BYBLOCK
 62
     0
100
AcDbLine
 10
0.7704266066577189
 20
-17.72939528436553
 30
0.0
 11
0.7704266066577189
 21
-20.04637245829815
 31
0.0
  0
LINE
  5
A7
330
57
100
AcDbEntity
  8
0
  6
BYBLOCK
 62
     0
100
AcDbLine
 10
4.289529825827432
 20
-17.72939528436553
 30
0.0
 11
4.289529825827432
 21
-20.04637245829815
 31
0.0
  0
LINE
  5
A8
330
57
100
AcDbEntity
  8
0
  6
BYBLOCK
 62
     0
100
AcDbLine
 10
0.7704266066577189
 20
-19.86637245829815
 30
0.0
 11
2.134144882909242
 21
-19.86637245829815
 31
0.0
  0
LINE
  5
A9
330
57
100
AcDbEntity
  8
0
  6
BYBLOCK
 62
     0
100
AcDbLine
 10
4.289529825827432
 20
-19.86637245829815
 30
0.0
 11
2.925811549575909
 21
-19.86637245829815
 31
0.0
  0
LINE
  5
AA
330
57
100
AcDbEntity
  8
0
  6
BYBLOCK
 62
     0
100
AcDbLine
 10
0.6454266066577189
 20
-19.99137245829815
 30
0.0
 11
0.8954266066577188
 21
-19.74137245829815
 31
0.0
  0
LINE
  5
AB
330
57
100
AcDbEntity
  8
0
  6
BYBLOCK
 62
     0
100
AcDbLine
 10
4.164529825827432
 20
-19.99137245829815
 30
0.0
 11
4.414529825827432
 21
-19.74137245829815
 31
0.0
  0
TEXT
  5
AC
330
57
100
AcDbEntity
  8
0
  6
BYBLOCK
 62
     0
100
AcDbText
 10
2.259144882909242
 20
-19.92887245829815
 30
0.0
 40
0.125
  1
3 1/2
 72
     1
 11
2.529978216242575
 21
-19.86637245829815
 31
0.0
100
AcDbText
 73
     2
  0
POINT
  5
AD
330
57
100
AcDbEntity
  8
DEFPOINTS
  6
BYBLOCK
 62
     0
100
AcDbPoint
 10
0.7704266066577189
 20
-17.66689528436553
 30
0.0
  0
POINT
  5
AE
330
57
100
AcDbEntity
  8
DEFPOINTS
  6
BYBLOCK
 62
     0
100
AcDbPoint
 10
4.289529825827432
 20
-17.66689528436553
 30
0.0
  0
POINT
  5
AF
330
57
100
AcDbEntity
  8
DEFPOINTS
  6
BYBLOCK
 62
     0
100
AcDbPoint
 10
4.289529825827432
 20
-19.86637245829815
 30
0.0
  0
ENDBLK
  5
B0
330
57
100
AcDbEntity
  8
0
100
AcDbBlockEnd
  0
BLOCK
  5
B1
330
58
100
AcDbEntity
  8
0
100
AcDbBlockBegin
  2
*D4
 70
     1
 10
0.0
 20
0.0
 30
0.0
  3
*D4
  1

  0
LINE
  5
B2
330
58
100
AcDbEntity
  8
0
  6
BYBLOCK
 62
     0
100
AcDbLine
 10
1.217478216242575
 20
-17.09401459938381
 30
0.0
 11
1.217478216242575
 21
-19.27435405806134
 31
0.0
  0
LINE
  5
B3
330
58
100
AcDbEntity
  8
0
  6
BYBLOCK
 62
     0
100
AcDbLine
 10
3.842478216242575
 20
-17.09401459938381
 30
0.0
 11
3.842478216242575
 21
-19.27435405806134
 31
0.0
  0
LINE
  5
B4
330
58
100
AcDbEntity
  8
0
  6
BYBLOCK
 62
     0
100
AcDbLine
 10
1.217478216242575
 20
-19.09435405806134
 30
0.0
 11
2.113311549575909
 21
-19.09435405806134
 31
0.0
  0
LINE
  5
B5
330
58
100
AcDbEntity
  8
0
  6
BYBLOCK
 62
     0
100
AcDbLine
 10
3.842478216242575
 20
-19.09435405806134
 30
0.0
 11
2.946644882909242
 21
-19.09435405806134
 31
0.0
  0
LINE
  5
B6
330
58
100
AcDbEntity
  8
0
  6
BYBLOCK
 62
     0
100
AcDbLine
 10
1.092478216242575
 20
-19.21935405806134
 30
0.0
 11
1.342478216242575
 21
-18.96935405806134
 31
0.0
  0
LINE
  5
B7
330
58
100
AcDbEntity
  8
0
  6
BYBLOCK
 62
     0
100
AcDbLine
 10
3.717478216242575
 20
-19.21935405806134
 30
0.0
 11
3.967478216242575
 21
-18.96935405806134
 31
0.0
  0
TEXT
  5
B8
330
58
100
AcDbEntity
  8
0
  6
BYBLOCK
 62
     0
100
AcDbText
 10
2.238311549575909
 20
-19.15685405806134
 30
0.0
 40
0.125
  1
2 5/8
 72
     1
 11
2.529978216242575
 21
-19.09435405806134
 31
0.0
100
AcDbText
 73
     2
  0
POINT
  5
B9
330
58
100
AcDbEntity
  8
DEFPOINTS
  6
BYBLOCK
 62
     0
100
AcDbPoint
 10
1.217478216242575
 20
-17.03151459938381
 30
0.0
  0
POINT
  5
BA
330
58
100
AcDbEntity
  8
DEFPOINTS
  6
BYBLOCK
 62
     0
100
AcDbPoint
 10
3.842478216242575
 20
-17.03151459938381
 30
0.0
  0
POINT
  5
BB
330
58
100
AcDbEntity
  8
DEFPOINTS
  6
BYBLOCK
 62
     0
100
AcDbPoint
 10
3.842478216242575
 20
-19.09435405806134
 30
0.0
  0
ENDBLK
  5
BC
330
58
100
AcDbEntity
  8
0
100
AcDbBlockEnd
  0
BLOCK
  5
BD
330
59
100
AcDbEntity
  8
0
100
AcDbBlockBegin
  2
*D5
 70
     1
 10
0.0
 20
0.0
 30
0.0
  3
*D5
  1

  0
LINE
  5
BE
330
59
100
AcDbEntity
  8
0
  6
BYBLOCK
 62
     0
100
AcDbLine
 10
2.592478216242575
 20
-16.78151459938381
 30
0.0
 11
5.547968939034372
 21
-16.78151459938381
 31
0.0
  0
LINE
  5
BF
330
59
100
AcDbEntity
  8
0
  6
BYBLOCK
 62
     0
100
AcDbLine
 10
2.592478216242575
 20
-12.78151459938381
 30
0.0
 11
5.547968939034372
 21
-12.78151459938381
 31
0.0
  0
LINE
  5
C0
330
59
100
AcDbEntity
  8
0
  6
BYBLOCK
 62
     0
100
AcDbLine
 10
5.367968939034371
 20
-16.78151459938381
 30
0.0
 11
5.367968939034371
 21
-14.94818126605047
 31
0.0
  0
LINE
  5
C1
330
59
100
AcDbEntity
  8
0
  6
BYBLOCK
 62
     0
100
AcDbLine
 10
5.367968939034371
 20
-12.78151459938381
 30
0.0
 11
5.367968939034371
 21
-14.61484793271714
 31
0.0
  0
LINE
  5
C2
330
59
100
AcDbEntity
  8
0
  6
BYBLOCK
 62
     0
100
AcDbLine
 10
5.492968939034371
 20
-16.90651459938381
 30
0.0
 11
5.242968939034371
 21
-16.65651459938381
 31
0.0
  0
LINE
  5
C3
330
59
100
AcDbEntity
  8
0
  6
BYBLOCK
 62
     0
100
AcDbLine
 10
5.492968939034371
 20
-12.90651459938381
 30
0.0
 11
5.242968939034371
 21
-12.65651459938381
 31
0.0
  0
TEXT
  5
C4
330
59
100
AcDbEntity
  8
0
  6
BYBLOCK
 62
     0
100
AcDbText
 10
5.430468939034371
 20
-14.82318126605047
 30
0.0
 40
0.125
  1
4
 50
90.0
 72
     1
 11
5.367968939034371
 21
-14.78151459938381
 31
0.0
100
AcDbText
 73
     2
  0
POINT
  5
C5
330
59
100
AcDbEntity
  8
DEFPOINTS
  6
BYBLOCK
 62
     0
100
AcDbPoint
 10
2.529978216242575
 20
-16.78151459938381
 30
0.0
  0
POINT
  5
C6
330
59
100
AcDbEntity
  8
DEFPOINTS
  6
BYBLOCK
 62
     0
100
AcDbPoint
 10
2.529978216242575
 20
-12.78151459938381
 30
0.0
  0
POINT
  5
C7
330
59
100
AcDbEntity
  8
DEFPOINTS
  6
BYBLOCK
 62
     0
100
AcDbPoint
 10
5.367968939034371
 20
-12.78151459938381
 30
0.0
  0
ENDBLK
  5
C8
330
59
100
AcDbEntity
  8
0
100
AcDbBlockEnd
  0
BLOCK
  5
C9
330
5B
100
AcDbEntity
  8
0
100
AcDbBlockBegin
  2
*D6
 70
     1
 10
0.0
 20
0.0
 30
0.0
  3
*D6
  1

  0
LINE
  5
CA
330
5B
100
AcDbEntity
  8
0
  6
BYBLOCK
 62
     0
100
AcDbLine
 10
4.842478216242575
 20
0.579925286918193
 30
0.0
 11
5.26356263584195
 21
0.579925286918193
 31
0.0
  0
LINE
  5
CB
330
5B
100
AcDbEntity
  8
0
  6
BYBLOCK
 62
     0
100
AcDbLine
 10
4.842478216242575
 20
0.892425286918193
 30
0.0
 11
5.26356263584195
 21
0.892425286918193
 31
0.0
  0
LINE
  5
CC
330
5B
100
AcDbEntity
  8
0
  6
BYBLOCK
 62
     0
100
AcDbLine
 10
5.08356263584195
 20
0.579925286918193
 30
0.0
 11
5.08356263584195
 21
0.329925286918193
 31
0.0
  0
LINE
  5
CD
330
5B
100
AcDbEntity
  8
0
  6
BYBLOCK
 62
     0
100
AcDbLine
 10
5.08356263584195
 20
0.892425286918193
 30
0.0
 11
5.08356263584195
 21
1.142425286918193
 31
0.0
  0
LINE
  5
CE
330
5B
100
AcDbEntity
  8
0
  6
BYBLOCK
 62
     0
100
AcDbLine
 10
5.20856263584195
 20
0.454925286918193
 30
0.0
 11
4.95856263584195
 21
0.704925286918193
 31
0.0
  0
LINE
  5
CF
330
5B
100
AcDbEntity
  8
0
  6
BYBLOCK
 62
     0
100
AcDbLine
 10
5.20856263584195
 20
0.767425286918193
 30
0.0
 11
4.95856263584195
 21
1.017425286918193
 31
0.0
  0
TEXT
  5
D0
330
5B
100
AcDbEntity
  8
0
  6
BYBLOCK
 62
     0
100
AcDbText
 10
5.14606263584195
 20
1.267425286918193
 30
0.0
 40
0.125
  1
5/16
 50
90.0
 72
     1
 11
5.08356263584195
 21
1.475758620251526
 31
0.0
100
AcDbText
 73
     2
  0
POINT
  5
D1
330
5B
100
AcDbEntity
  8
DEFPOINTS
  6
BYBLOCK
 62
     0
100
AcDbPoint
 10
4.779978216242575
 20
0.579925286918193
 30
0.0
  0
POINT
  5
D2
330
5B
100
AcDbEntity
  8
DEFPOINTS
  6
BYBLOCK
 62
     0
100
AcDbPoint
 10
4.779978216242575
 20
0.892425286918193
 30
0.0
  0
POINT
  5
D3
330
5B
100
AcDbEntity
  8
DEFPOINTS
  6
BYBLOCK
 62
     0
100
AcDbPoint
 10
5.08356263584195
 20
0.892425286918193
 30
0.0
  0
ENDBLK
  5
D4
330
5B
100
AcDbEntity
  8
0
100
AcDbBlockEnd
  0
BLOCK
  5
D5
330
5C
100
AcDbEntity
  8
0
100
AcDbBlockBegin
  2
*D7
 70
     1
 10
0.0
 20
0.0
 30
0.0
  3
*D7
  1

  0
LINE
  5
D6
330
5C
100
AcDbEntity
  8
0
  6
BYBLOCK
 62
     0
100
AcDbLine
 10
7.955602054005726
 20
-3.531514599383811
 30
0.0
 11
7.413857734510287
 21
-3.531514599383811
 31
0.0
  0
LINE
  5
D7
330
5C
100
AcDbEntity
  8
0
  6
BYBLOCK
 62
     0
100
AcDbLine
 10
7.955602054005727
 20
-18.53151459938381
 30
0.0
 11
7.413857734510286
 21
-18.53151459938381
 31
0.0
  0
LINE
  5
D8
330
5C
100
AcDbEntity
  8
0
  6
BYBLOCK
 62
     0
100
AcDbLine
 10
7.593857734510287
 20
-3.531514599383811
 30
0.0
 11
7.593857734510286
 21
-10.82318126605047
 31
0.0
  0
LINE
  5
D9
330
5C
100
AcDbEntity
  8
0
  6
BYBLOCK
 62
     0
100
AcDbLine
 10
7.593857734510286
 20
-18.53151459938381
 30
0.0
 11
7.593857734510286
 21
-11.23984793271714
 31
0.0
  0
LINE
  5
DA
330
5C
100
AcDbEntity
  8
0
  6
BYBLOCK
 62
     0
100
AcDbLine
 10
7.718857734510287
 20
-3.656514599383811
 30
0.0
 11
7.468857734510287
 21
-3.406514599383811
 31
0.0
  0
LINE
  5
DB
330
5C
100
AcDbEntity
  8
0
  6
BYBLOCK
 62
     0
100
AcDbLine
 10
7.718857734510286
 20
-18.65651459938381
 30
0.0
 11
7.468857734510286
 21
-18.40651459938381
 31
0.0
  0
TEXT
  5
DC
330
5C
100
AcDbEntity
  8
0
  6
BYBLOCK
 62
     0
100
AcDbText
 10
7.656357734510286
 20
-11.11484793271714
 30
0.0
 40
0.125
  1
15
 50
90.0
 72
     1
 11
7.593857734510286
 21
-11.03151459938381
 31
0.0
100
AcDbText
 73
     2
  0
POINT
  5
DD
330
5C
100
AcDbEntity
  8
DEFPOINTS
  6
BYBLOCK
 62
     0
100
AcDbPoint
 10
8.018102054005726
 20
-3.531514599383811
 30
0.0
  0
POINT
  5
DE
330
5C
100
AcDbEntity
  8
DEFPOINTS
  6
BYBLOCK
 62
     0
100
AcDbPoint
 10
8.018102054005726
 20
-18.53151459938381
 30
0.0
  0
POINT
  5
DF
330
5C
100
AcDbEntity
  8
DEFPOINTS
  6
BYBLOCK
 62
     0
100
AcDbPoint
 10
7.593857734510286
 20
-18.53151459938381
 30
0.0
  0
ENDBLK
  5
E0
330
5C
100
AcDbEntity
  8
0
100
AcDbBlockEnd
  0
BLOCK
  5
E1
330
5E
100
AcDbEntity
  8
0
100
AcDbBlockBegin
  2
*D8
 70
     1
 10
0.0
 20
0.0
 30
0.0
  3
*D8
  1

  0
LINE
  5
E2
330
5E
100
AcDbEntity
  8
0
  6
BYBLOCK
 62
     0
100
AcDbLine
 10
11.51162440429363
 20
-11.78151459938381
 30
0.0
 11
11.9884516298823
 21
-11.78151459938381
 31
0.0
  0
LINE
  5
E3
330
5E
100
AcDbEntity
  8
0
  6
BYBLOCK
 62
     0
100
AcDbLine
 10
11.51162440429363
 20
-17.78151459938381
 30
0.0
 11
11.9884516298823
 21
-17.78151459938381
 31
0.0
  0
LINE
  5
E4
330
5E
100
AcDbEntity
  8
0
  6
BYBLOCK
 62
     0
100
AcDbLine
 10
11.8084516298823
 20
-11.78151459938381
 30
0.0
 11
11.8084516298823
 21
-14.61484793271714
 31
0.0
  0
LINE
  5
E5
330
5E
100
AcDbEntity
  8
0
  6
BYBLOCK
 62
     0
100
AcDbLine
 10
11.8084516298823
 20
-17.78151459938381
 30
0.0
 11
11.8084516298823
 21
-14.94818126605047
 31
0.0
  0
LINE
  5
E6
330
5E
100
AcDbEntity
  8
0
  6
BYBLOCK
 62
     0
100
AcDbLine
 10
11.9334516298823
 20
-11.90651459938381
 30
0.0
 11
11.6834516298823
 21
-11.65651459938381
 31
0.0
  0
LINE
  5
E7
330
5E
100
AcDbEntity
  8
0
  6
BYBLOCK
 62
     0
100
AcDbLine
 10
11.9334516298823
 20
-17.90651459938381
 30
0.0
 11
11.6834516298823
 21
-17.65651459938381
 31
0.0
  0
TEXT
  5
E8
330
5E
100
AcDbEntity
  8
0
  6
BYBLOCK
 62
     0
100
AcDbText
 10
11.8709516298823
 20
-14.82318126605047
 30
0.0
 40
0.125
  1
6
 50
90.0
 72
     1
 11
11.8084516298823
 21
-14.78151459938381
 31
0.0
100
AcDbText
 73
     2
  0
POINT
  5
E9
330
5E
100
AcDbEntity
  8
DEFPOINTS
  6
BYBLOCK
 62
     0
100
AcDbPoint
 10
11.44912440429363
 20
-11.78151459938381
 30
0.0
  0
POINT
  5
EA
330
5E
100
AcDbEntity
  8
DEFPOINTS
  6
BYBLOCK
 62
     0
100
AcDbPoint
 10
11.44912440429363
 20
-17.78151459938381
 30
0.0
  0
POINT
  5
EB
330
5E
100
AcDbEntity
  8
DEFPOINTS
  6
BYBLOCK
 62
     0
100
AcDbPoint
 10
11.8084516298823
 20
-17.78151459938381
 30
0.0
  0
ENDBLK
  5
EC
330
5E
100
AcDbEntity
  8
0
100
AcDbBlockEnd
  0
BLOCK
  5
ED
330
5F
100
AcDbEntity
  8
0
100
AcDbBlockBegin
  2
*D9
 70
     1
 10
0.0
 20
0.0
 30
0.0
  3
*D9
  1

  0
LINE
  5
EE
330
5F
100
AcDbEntity
  8
0
  6
BYBLOCK
 62
     0
100
AcDbLine
 10
10.44912440429363
 20
-17.78151459938381
 30
0.0
 11
10.8634516298823
 21
-17.78151459938381
 31
0.0
  0
LINE
  5
EF
330
5F
100
AcDbEntity
  8
0
  6
BYBLOCK
 62
     0
100
AcDbLine
 10
9.507602054005726
 20
-18.53151459938381
 30
0.0
 11
10.8634516298823
 21
-18.53151459938381
 31
0.0
  0
LINE
  5
F0
330
5F
100
AcDbEntity
  8
0
  6
BYBLOCK
 62
     0
100
AcDbLine
 10
10.6834516298823
 20
-17.78151459938381
 30
0.0
 11
10.6834516298823
 21
-17.53151459938381
 31
0.0
  0
LINE
  5
F1
330
5F
100
AcDbEntity
  8
0
  6
BYBLOCK
 62
     0
100
AcDbLine
 10
10.6834516298823
 20
-18.53151459938381
 30
0.0
 11
10.6834516298823
 21
-18.78151459938381
 31
0.0
  0
LINE
  5
F2
330
5F
100
AcDbEntity
  8
0
  6
BYBLOCK
 62
     0
100
AcDbLine
 10
10.8084516298823
 20
-17.90651459938381
 30
0.0
 11
10.5584516298823
 21
-17.65651459938381
 31
0.0
  0
LINE
  5
F3
330
5F
100
AcDbEntity
  8
0
  6
BYBLOCK
 62
     0
100
AcDbLine
 10
10.8084516298823
 20
-18.65651459938381
 30
0.0
 11
10.5584516298823
 21
-18.40651459938381
 31
0.0
  0
TEXT
  5
F4
330
5F
100
AcDbEntity
  8
0
  6
BYBLOCK
 62
     0
100
AcDbText
 10
10.7459516298823
 20
-19.23984793271714
 30
0.0
 40
0.125
  1
3/4
 50
90.0
 72
     1
 11
10.6834516298823
 21
-19.07318126605048
 31
0.0
100
AcDbText
 73
     2
  0
POINT
  5
F5
330
5F
100
AcDbEntity
  8
DEFPOINTS
  6
BYBLOCK
 62
     0
100
AcDbPoint
 10
10.38662440429363
 20
-17.78151459938381
 30
0.0
  0
POINT
  5
F6
330
5F
100
AcDbEntity
  8
DEFPOINTS
  6
BYBLOCK
 62
     0
100
AcDbPoint
 10
9.445102054005726
 20
-18.53151459938381
 30
0.0
  0
POINT
  5
F7
330
5F
100
AcDbEntity
  8
DEFPOINTS
  6
BYBLOCK
 62
     0
100
AcDbPoint
 10
10.6834516298823
 20
-18.53151459938381
 30
0.0
  0
ENDBLK
  5
F8
330
5F
100
AcDbEntity
  8
0
100
AcDbBlockEnd
  0
BLOCK
  5
F9
330
60
100
AcDbEntity
  8
0
100
AcDbBlockBegin
  2
*D10
 70
     1
 10
0.0
 20
0.0
 30
0.0
  3
*D10
  1

  0
LINE
  5
FA
330
60
100
AcDbEntity
  8
0
  6
BYBLOCK
 62
     0
100
AcDbLine
 10
0.2174782162425757
 20
-0.545074713081807
 30
0.0
 11
-0.0660724329685159
 21
-0.545074713081807
 31
0.0
  0
LINE
  5
FB
330
60
100
AcDbEntity
  8
0
  6
BYBLOCK
 62
     0
100
AcDbLine
 10
2.467478216242575
 20
-0.982574713081807
 30
0.0
 11
-0.0660724329685159
 21
-0.9825747130818069
 31
0.0
  0
LINE
  5
FC
330
60
100
AcDbEntity
  8
0
  6
BYBLOCK
 62
     0
100
AcDbLine
 10
0.1139275670314841
 20
-0.545074713081807
 30
0.0
 11
0.1139275670314841
 21
-0.295074713081807
 31
0.0
  0
LINE
  5
FD
330
60
100
AcDbEntity
  8
0
  6
BYBLOCK
 62
     0
100
AcDbLine
 10
0.1139275670314841
 20
-0.9825747130818069
 30
0.0
 11
0.1139275670314841
 21
-1.232574713081806
 31
0.0
  0
LINE
  5
FE
330
60
100
AcDbEntity
  8
0
  6
BYBLOCK
 62
     0
100
AcDbLine
 10
0.2389275670314841
 20
-0.670074713081807
 30
0.0
 11
-0.0110724329685159
 21
-0.420074713081807
 31
0.0
  0
LINE
  5
FF
330
60
100
AcDbEntity
  8
0
  6
BYBLOCK
 62
     0
100
AcDbLine
 10
0.2389275670314841
 20
-1.107574713081806
 30
0.0
 11
-0.0110724329685159
 21
-0.8575747130818069
 31
0.0
  0
TEXT
  5
100
330
60
100
AcDbEntity
  8
0
  6
BYBLOCK
 62
     0
100
AcDbText
 10
0.1764275670314841
 20
-1.774241379748473
 30
0.0
 40
0.125
  1
7/16
 50
90.0
 72
     1
 11
0.1139275670314841
 21
-1.56590804641514
 31
0.0
100
AcDbText
 73
     2
  0
POINT
  5
101
330
60
100
AcDbEntity
  8
DEFPOINTS
  6
BYBLOCK
 62
     0
100
AcDbPoint
 10
0.2799782162425757
 20
-0.545074713081807
 30
0.0
  0
POINT
  5
102
330
60
100
AcDbEntity
  8
DEFPOINTS
  6
BYBLOCK
 62
     0
100
AcDbPoint
 10
2.529978216242575
 20
-0.982574713081807
 30
0.0
  0
POINT
  5
103
330
60
100
AcDbEntity
  8
DEFPOINTS
  6
BYBLOCK
 62
     0
100
AcDbPoint
 10
0.1139275670314841
 20
-0.9825747130818069
 30
0.0
  0
ENDBLK
  5
104
330
60
100
AcDbEntity
  8
0
100
AcDbBlockEnd
  0
ENDSEC
  0
SECTION
  2
ENTITIES
  0
DIMENSION
  5
105
330
18
100
AcDbEntity
  8
ADPDIM
100
AcDbDimension
  2
*D0
 10
5.367968939034371
 20
-3.531514599383811
 30
0.0
 11
5.36796893903437
 21
-8.156514599383811
 31
0.0
  3
ADPDIM
100
AcDbAlignedDimension
 13
2.529978216242575
 23
-12.78151459938381
 33
0.0
 14
3.243478216242575
 24
-3.531514599383811
 34
0.0
 50
90.0
100
AcDbRotatedDimension
  0
LINE
  5
106
330
18
100
AcDbEntity
  8
ADP1DETAIL
100
AcDbLine
 10
3.209978216242575
 20
-3.531514599383811
 30
0.0
 11
3.209978216242575
 21
-18.53151459938381
 31
0.0
  0
LINE
  5
107
330
18
100
AcDbEntity
  8
ADP1DETAIL
100
AcDbLine
 10
1.849978216242575
 20
-18.53151459938381
 30
0.0
 11
1.849978216242575
 21
-3.531514599383811
 31
0.0
  0
LINE
  5
108
330
18
100
AcDbEntity
  8
ADP1DETAIL
100
AcDbLine
 10
0.415828159771662
 20
-11.78151459938381
 30
0.0
 11
1.816478216242575
 21
-11.78151459938381
 31
0.0
  0
DIMENSION
  5
109
330
18
100
AcDbEntity
  8
ADPDIM
100
AcDbDimension
  2
*D3
 10
4.289529825827432
 20
-19.86637245829815
 30
0.0
 11
2.529978216242575
 21
-19.86637245829815
 31
0.0
  3
ADPDIM
100
AcDbAlignedDimension
 13
0.7704266066577189
 23
-17.66689528436553
 33
0.0
 14
4.289529825827432
 24
-17.66689528436553
 34
0.0
100
AcDbRotatedDimension
  0
DIMENSION
  5
10A
330
18
100
AcDbEntity
  8
ADPDIM
100
AcDbDimension
  2
*D2
 10
4.217478216242575
 20
-11.41277049105827
 30
0.0
 11
2.529978216242575
 21
-11.41277049105827
 31
0.0
  3
ADPDIM
100
AcDbAlignedDimension
 13
0.8424782162425756
 23
-12.53151459938381
 33
0.0
 14
4.217478216242575
 24
-12.53151459938381
 34
0.0
100
AcDbRotatedDimension
  0
DIMENSION
  5
10B
330
18
100
AcDbEntity
  8
ADPDIM
100
AcDbDimension
  2
*D1
 10
-0.0915072093204642
 20
-17.03151459938381
 30
0.0
 11
-0.091507209320464
 21
-14.78151459938381
 31
0.0
  3
ADPDIM
100
AcDbAlignedDimension
 13
0.8424782162425756
 23
-12.53151459938381
 33
0.0
 14
1.217478216242575
 24
-17.03151459938381
 34
0.0
 50
90.0
100
AcDbRotatedDimension
  0
ARC
  5
10C
330
18
100
AcDbEntity
  8
ADP1DETAIL
100
AcDbCircle
 10
0.8949948264383287
 20
-17.65651459938381
 30
0.0
 40
0.125
100
AcDbArc
 50
184.7636416907261
 51
270.0
  0
CIRCLE
  5
10D
330
18
100
AcDbEntity
  8
ADP1DETAIL
100
AcDbCircle
 10
0.8424782162425756
 20
-12.53151459938381
 30
0.0
 40
0.21875
  0
LINE
  5
10E
330
18
100
AcDbEntity
  8
ADP1DETAIL
100
AcDbLine
 10
0.7704266066577189
 20
-17.66689528436553
 30
0.0
 11
0.291259939991052
 21
-11.91689528436552
 31
0.0
  0
ARC
  5
10F
330
18
100
AcDbEntity
  8
ADP1DETAIL
100
AcDbCircle
 10
0.415828159771662
 20
-11.90651459938381
 30
0.0
 40
0.125
100
AcDbArc
 50
90.0
 51
184.7636416907261
  0
DIMENSION
  5
110
330
18
100
AcDbEntity
  8
ADPDIM
100
AcDbDimension
  2
*D4
 10
3.842478216242575
 20
-19.09435405806134
 30
0.0
 11
2.529978216242575
 21
-19.09435405806134
 31
0.0
  3
ADPDIM
100
AcDbAlignedDimension
 13
1.217478216242575
 23
-17.03151459938381
 33
0.0
 14
3.842478216242575
 24
-17.03151459938381
 34
0.0
100
AcDbRotatedDimension
  0
LINE
  5
111
330
18
100
AcDbEntity
  8
ADP1DETAIL
100
AcDbLine
 10
3.209978216242575
 20
-18.53151459938381
 30
0.0
 11
1.849978216242575
 21
-18.53151459938381
 31
0.0
  0
CIRCLE
  5
112
330
18
100
AcDbEntity
  8
ADP1DETAIL
100
AcDbCircle
 10
3.842478216242575
 20
-17.03151459938381
 30
0.0
 40
0.21875
  0
LINE
  5
113
330
18
100
AcDbEntity
  8
ADP1DETAIL
100
AcDbLine
 10
4.164961606046822
 20
-17.78151459938381
 30
0.0
 11
3.243478216242575
 21
-17.78151459938381
 31
0.0
  0
LINE
  5
114
330
18
100
AcDbEntity
  8
ADP1DETAIL
100
AcDbLine
 10
3.243478216242575
 20
-11.78151459938381
 30
0.0
 11
4.644128272713489
 21
-11.78151459938381
 31
0.0
  0
DIMENSION
  5
115
330
18
100
AcDbEntity
  8
ADPDIM
100
AcDbDimension
  2
*D5
 10
5.367968939034371
 20
-12.78151459938381
 30
0.0
 11
5.367968939034371
 21
-14.78151459938381
 31
0.0
  3
ADPDIM
100
AcDbAlignedDimension
 13
2.529978216242575
 23
-16.78151459938381
 33
0.0
 14
2.529978216242575
 24
-12.78151459938381
 34
0.0
 50
90.0
100
AcDbRotatedDimension
  0
LINE
  5
116
330
18
100
AcDbEntity
  8
ADP2DETAIL
  6
HIDDEN2
100
AcDbLine
 10
1.816478216242575
 20
-17.78151459938381
 30
0.0
 11
3.243478216242575
 21
-17.78151459938381
 31
0.0
  0
LINE
  5
117
330
18
100
AcDbEntity
  8
ADP1DETAIL
100
AcDbLine
 10
1.816478216242575
 20
-17.78151459938381
 30
0.0
 11
0.8949948264383287
 21
-17.78151459938381
 31
0.0
  0
CIRCLE
  5
118
330
18
100
AcDbEntity
  8
ADP1DETAIL
100
AcDbCircle
 10
1.217478216242575
 20
-17.03151459938381
 30
0.0
 40
0.21875
  0
CIRCLE
  5
119
330
18
100
AcDbEntity
  8
ADP2DETAIL
  6
HIDDEN2
100
AcDbCircle
 10
2.529978216242575
 20
-16.78151459938381
 30
0.0
 40
0.1875
  0
LINE
  5
11A
330
18
100
AcDbEntity
  8
ADP2DETAIL
  6
HIDDEN2
100
AcDbLine
 10
1.816478216242575
 20
-11.78151459938381
 30
0.0
 11
3.243478216242575
 21
-11.78151459938381
 31
0.0
  0
CIRCLE
  5
11B
330
18
100
AcDbEntity
  8
ADP2DETAIL
  6
HIDDEN2
100
AcDbCircle
 10
2.529978216242575
 20
-12.78151459938381
 30
0.0
 40
0.1875
  0
LINE
  5
11C
330
18
100
AcDbEntity
  8
ADP1DETAIL
100
AcDbLine
 10
4.768696492494099
 20
-11.91689528436552
 30
0.0
 11
4.289529825827432
 21
-17.66689528436553
 31
0.0
  0
ARC
  5
11D
330
18
100
AcDbEntity
  8
ADP1DETAIL
100
AcDbCircle
 10
4.164961606046822
 20
-17.65651459938381
 30
0.0
 40
0.125
100
AcDbArc
 50
270.0
 51
355.2363583092738
  0
CIRCLE
  5
11E
330
18
100
AcDbEntity
  8
ADP1DETAIL
100
AcDbCircle
 10
4.217478216242575
 20
-12.53151459938381
 30
0.0
 40
0.21875
  0
ARC
  5
11F
330
18
100
AcDbEntity
  8
ADP1DETAIL
100
AcDbCircle
 10
4.644128272713489
 20
-11.90651459938381
 30
0.0
 40
0.125
100
AcDbArc
 50
355.2363583092738
 51
90.0
  0
LWPOLYLINE
  5
120
330
18
100
AcDbEntity
  8
ADP1DETAIL
100
AcDbPolyline
 90
        4
 70
     1
 43
0.0
 10
0.2799782162425757
 20
-0.545074713081807
 10
0.2799782162425757
 20
-0.232574713081807
 10
4.779978216242575
 20
-0.232574713081807
 10
4.779978216242575
 20
-0.545074713081807
  0
DIMENSION
  5
126
330
18
100
AcDbEntity
  8
ADPDIM
100
AcDbDimension
  2
*D10
 10
0.1139275670314841
 20
-0.9825747130818069
 30
0.0
 11
0.1139275670314841
 21
-1.56590804641514
 31
0.0
  3
ADPDIM
100
AcDbAlignedDimension
 13
0.2799782162425757
 23
-0.545074713081807
 33
0.0
 14
2.529978216242575
 24
-0.982574713081807
 34
0.0
 50
90.0
100
AcDbRotatedDimension
  0
LINE
  5
127
330
18
100
AcDbEntity
  8
ADP2DETAIL
  6
HIDDEN2
100
AcDbLine
 10
0.6332713121277128
 20
-0.232574713081807
 30
0.0
 11
0.6332713121277127
 21
-0.545074713081807
 31
0.0
  0
DIMENSION
  5
128
330
18
100
AcDbEntity
  8
ADPDIM
100
AcDbDimension
  2
*D6
 10
5.08356263584195
 20
-0.232574713081807
 30
0.0
 11
5.08356263584195
 21
1.475758620251526
 31
0.0
 12
0.0
 22
-1.125
 32
0.0
  3
ADPDIM
100
AcDbAlignedDimension
 13
4.779978216242575
 23
-0.545074713081807
 33
0.0
 14
4.779978216242575
 24
-0.232574713081807
 34
0.0
 50
90.0
100
AcDbRotatedDimension
  0
LINE
  5
129
330
18
100
AcDbEntity
  8
ADP1DETAIL
100
AcDbLine
 10
2.029978216242575
 20
-0.545074713081807
 30
0.0
 11
2.029978216242575
 21
-1.150079430079731
 31
0.0
  0
LINE
  5
12A
330
18
100
AcDbEntity
  8
ADP2DETAIL
  6
HIDDEN2
100
AcDbLine
 10
2.343095412608436
 20
-1.003887618028445
 30
0.0
 11
2.343095412608435
 21
-0.3748223764136773
 31
0.0
  0
LINE
  5
12B
330
18
100
AcDbEntity
  8
ADP1DETAIL
100
AcDbLine
 10
3.029978216242575
 20
-0.545074713081807
 30
0.0
 11
3.029978216242575
 21
-1.150079430079731
 31
0.0
  0
LINE
  5
12C
330
18
100
AcDbEntity
  8
ADP2DETAIL
  6
HIDDEN2
100
AcDbLine
 10
2.716861019876716
 20
-1.003887618028446
 30
0.0
 11
2.716861019876716
 21
-0.3748223764136773
 31
0.0
  0
ARC
  5
12D
330
18
100
AcDbEntity
  8
ADP1DETAIL
100
AcDbCircle
 10
2.529978216242575
 20
-1.812574713081806
 30
0.0
 40
0.8299999999999998
100
AcDbArc
 50
52.95732907156288
 51
127.0426709284371
  0
CIRCLE
  5
12E
330
18
100
AcDbEntity
  8
ADP1DETAIL
100
AcDbCircle
 10
2.529978216242575
 20
-1.812574713081806
 30
0.0
 40
0.6799999999999998
  0
LINE
  5
12F
330
18
100
AcDbEntity
  8
ADP1DETAIL
100
AcDbLine
 10
1.849978216242575
 20
-3.531514599383811
 30
0.0
 11
3.209978216242575
 21
-3.531514599383811
 31
0.0
  0
LINE
  5
130
330
18
100
AcDbEntity
  8
ADP2DETAIL
  6
HIDDEN2
100
AcDbLine
 10
2.343095412608437
 20
-1.850745429508471
 30
0.0
 11
2.716861019876714
 21
-1.850745429508471
 31
0.0
  0
LINE
  5
131
330
18
100
AcDbEntity
  8
ADP2DETAIL
  6
HIDDEN2
100
AcDbLine
 10
2.343095412608437
 20
-1.850745429508471
 30
0.0
 11
2.343095412608436
 21
-1.123984074381393
 31
0.0
  0
LINE
  5
132
330
18
100
AcDbEntity
  8
ADP1DETAIL
100
AcDbLine
 10
2.343095412608436
 20
-1.123984074381393
 30
0.0
 11
2.343095412608436
 21
-1.003887618028445
 31
0.0
  0
LINE
  5
133
330
18
100
AcDbEntity
  8
ADP2DETAIL
  6
HIDDEN2
100
AcDbLine
 10
2.716861019876716
 20
-1.850745429508471
 30
0.0
 11
2.716861019876716
 21
-1.123984074381393
 31
0.0
  0
LINE
  5
134
330
18
100
AcDbEntity
  8
ADP1DETAIL
100
AcDbLine
 10
2.716861019876716
 20
-1.003887618028446
 30
0.0
 11
2.716861019876716
 21
-1.123984074381393
 31
0.0
  0
LINE
  5
135
330
18
100
AcDbEntity
  8
ADP2DETAIL
  6
HIDDEN2
100
AcDbLine
 10
2.343095412608435
 20
-0.3748223764136773
 30
0.0
 11
2.218095412608435
 21
-0.2498223764136773
 31
0.0
  0
LINE
  5
136
330
18
100
AcDbEntity
  8
ADP2DETAIL
  6
HIDDEN2
100
AcDbLine
 10
1.06758410160708
 20
-0.232574713081807
 30
0.0
 11
1.06758410160708
 21
-0.545074713081807
 31
0.0
  0
LINE
  5
137
330
18
100
AcDbEntity
  8
ADP2DETAIL
  6
HIDDEN2
100
AcDbLine
 10
1.011543729130428
 20
-0.232574713081807
 30
0.0
 11
1.011543729130428
 21
-0.545074713081807
 31
0.0
  0
LINE
  5
138
330
18
100
AcDbEntity
  8
ADP2DETAIL
  6
HIDDEN2
100
AcDbLine
 10
1.431846425490631
 20
-0.232574713081807
 30
0.0
 11
1.431846425490631
 21
-0.545074713081807
 31
0.0
  0
LINE
  5
139
330
18
100
AcDbEntity
  8
ADP2DETAIL
  6
HIDDEN2
100
AcDbLine
 10
2.843095412608435
 20
-0.2498223764136773
 30
0.0
 11
2.716861019876716
 21
-0.3748223764136773
 31
0.0
  0
LINE
  5
13A
330
18
100
AcDbEntity
  8
ADP2DETAIL
  6
HIDDEN2
100
AcDbLine
 10
3.631430364696434
 20
-0.232574713081807
 30
0.0
 11
3.631430364696433
 21
-0.545074713081807
 31
0.0
  0
LINE
  5
13B
330
18
100
AcDbEntity
  8
ADP2DETAIL
  6
HIDDEN2
100
AcDbLine
 10
4.009702684484472
 20
-0.232574713081807
 30
0.0
 11
4.009702684484472
 21
-0.545074713081807
 31
0.0
  0
LINE
  5
13C
330
18
100
AcDbEntity
  8
ADP2DETAIL
  6
HIDDEN2
100
AcDbLine
 10
4.065743056961124
 20
-0.232574713081807
 30
0.0
 11
4.065743056961123
 21
-0.545074713081807
 31
0.0
  0
LINE
  5
13D
330
18
100
AcDbEntity
  8
ADP2DETAIL
  6
HIDDEN2
100
AcDbLine
 10
4.415995287725513
 20
-0.232574713081807
 30
0.0
 11
4.415995287725513
 21
-0.545074713081807
 31
0.0
  0
DIMENSION
  5
13E
330
18
100
AcDbEntity
  8
ADPDIM
100
AcDbDimension
  2
*D7
 10
7.593857734510286
 20
-18.53151459938381
 30
0.0
 11
7.593857734510286
 21
-11.03151459938381
 31
0.0
  3
ADPDIM
100
AcDbAlignedDimension
 13
8.018102054005726
 23
-3.531514599383811
 33
0.0
 14
8.018102054005726
 24
-18.53151459938381
 34
0.0
 50
90.0
100
AcDbRotatedDimension
  0
LINE
  5
13F
330
18
100
AcDbEntity
  8
ADP1DETAIL
100
AcDbLine
 10
8.051602054005726
 20
-18.53151459938381
 30
0.0
 11
8.051602054005726
 21
-3.531514599383811
 31
0.0
  0
LINE
  5
140
330
18
100
AcDbEntity
  8
ADP1DETAIL
100
AcDbLine
 10
9.411602054005726
 20
-3.531514599383811
 30
0.0
 11
9.411602054005726
 21
-12.28151459938381
 31
0.0
  0
DIMENSION
  5
141
330
18
100
AcDbEntity
  8
ADPDIM
100
AcDbDimension
  2
*D9
 10
10.6834516298823
 20
-18.53151459938381
 30
0.0
 11
10.6834516298823
 21
-19.07318126605048
 31
0.0
  3
ADPDIM
100
AcDbAlignedDimension
 13
10.38662440429363
 23
-17.78151459938381
 33
0.0
 14
9.445102054005726
 24
-18.53151459938381
 34
0.0
 50
90.0
100
AcDbRotatedDimension
  0
LINE
  5
142
330
18
100
AcDbEntity
  8
ADP1DETAIL
100
AcDbLine
 10
9.411602054005726
 20
-17.28151459938381
 30
0.0
 11
9.411602054005726
 21
-18.53151459938381
 31
0.0
  0
LINE
  5
143
330
18
100
AcDbEntity
  8
ADP1DETAIL
100
AcDbLine
 10
9.411602054005726
 20
-18.53151459938381
 30
0.0
 11
8.051602054005726
 21
-18.53151459938381
 31
0.0
  0
LINE
  5
144
330
18
100
AcDbEntity
  8
ADP2DETAIL
  6
HIDDEN2
100
AcDbLine
 10
8.707236187039336
 20
-16.96318759760523
 30
0.0
 11
10.18315924013413
 21
-16.96318759760523
 31
0.0
  0
LINE
  5
145
330
18
100
AcDbEntity
  8
ADP2DETAIL
  6
HIDDEN2
100
AcDbLine
 10
8.707236187039336
 20
-12.97257462298477
 30
0.0
 11
10.18315924013413
 21
-12.97257462298477
 31
0.0
  0
LINE
  5
146
330
18
100
AcDbEntity
  8
ADP2DETAIL
  6
HIDDEN2
100
AcDbLine
 10
8.707236187039336
 20
-16.58942199033695
 30
0.0
 11
10.18315924013413
 21
-16.58942199033695
 31
0.0
  0
LINE
  5
147
330
18
100
AcDbEntity
  8
ADP2DETAIL
  6
HIDDEN2
100
AcDbLine
 10
8.707236187039336
 20
-12.59880901571649
 30
0.0
 11
10.18315924013413
 21
-12.59880901571649
 31
0.0
  0
LINE
  5
148
330
18
100
AcDbEntity
  8
ADP2DETAIL
  6
HIDDEN2
100
AcDbLine
 10
8.707236187039336
 20
-16.58942199033695
 30
0.0
 11
8.707236187039336
 21
-16.96318759760523
 31
0.0
  0
LINE
  5
149
330
18
100
AcDbEntity
  8
ADP2DETAIL
  6
HIDDEN2
100
AcDbLine
 10
8.707236187039336
 20
-12.59880901571649
 30
0.0
 11
8.707236187039336
 21
-12.97257462298477
 31
0.0
  0
LINE
  5
14A
330
18
100
AcDbEntity
  8
ADP1DETAIL
100
AcDbLine
 10
10.32412440429363
 20
-11.78151459938381
 30
0.0
 11
10.32412440429363
 21
-17.78151459938381
 31
0.0
  0
LINE
  5
14B
330
18
100
AcDbEntity
  8
ADP1DETAIL
100
AcDbLine
 10
10.01162440429363
 20
-17.78151459938381
 30
0.0
 11
10.01162440429363
 21
-11.78151459938381
 31
0.0
  0
DIMENSION
  5
14C
330
18
100
AcDbEntity
  8
ADPDIM
100
AcDbDimension
  2
*D8
 10
10.6834516298823
 20
-17.78151459938381
 30
0.0
 11
11.8084516298823
 21
-14.78151459938381
 31
0.0
 12
-1.125
 22
0.0
 32
0.0
  3
ADPDIM
100
AcDbAlignedDimension
 13
10.32412440429363
 23
-11.78151459938381
 33
0.0
 14
10.32412440429363
 24
-17.78151459938381
 34
0.0
 50
90.0
100
AcDbRotatedDimension
  0
LINE
  5
14D
330
18
100
AcDbEntity
  8
ADP1DETAIL
100
AcDbLine
 10
9.406619687295712
 20
-17.28151459938381
 30
0.0
 11
9.406619687295712
 21
-12.28151459938381
 31
0.0
  0
LINE
  5
14E
330
18
100
AcDbEntity
  8
ADP2DETAIL
  6
HIDDEN2
100
AcDbLine
 10
9.445102054005726
 20
-12.28151459938381
 30
0.0
 11
9.445102054005726
 21
-17.28151459938381
 31
0.0
  0
LINE
  5
14F
330
18
100
AcDbEntity
  8
ADP2DETAIL
  6
HIDDEN2
100
AcDbLine
 10
9.554102054005726
 20
-12.28151459938381
 30
0.0
 11
9.554102054005726
 21
-17.28151459938381
 31
0.0
  0
LINE
  5
150
330
18
100
AcDbEntity
  8
ADP1DETAIL
100
AcDbLine
 10
10.32412440429363
 20
-17.78151459938381
 30
0.0
 11
10.01162440429363
 21
-17.78151459938381
 31
0.0
  0
LINE
  5
151
330
18
100
AcDbEntity
  8
ADP2DETAIL
  6
HIDDEN2
100
AcDbLine
 10
10.32412440429363
 20
-17.25706656123608
 30
0.0
 11
10.01162440429363
 21
-17.25706656123608
 31
0.0
  0
LINE
  5
152
330
18
100
AcDbEntity
  8
ADP1DETAIL
100
AcDbLine
 10
10.01162440429363
 20
-17.28151459938381
 30
0.0
 11
9.406619687295712
 21
-17.28151459938381
 31
0.0
  0
LINE
  5
153
330
18
100
AcDbEntity
  8
ADP2DETAIL
  6
HIDDEN2
100
AcDbLine
 10
10.30815924013413
 20
-17.08942199033695
 30
0.0
 11
10.18315924013413
 21
-16.96318759760523
 31
0.0
  0
LINE
  5
154
330
18
100
AcDbEntity
  8
ADP2DETAIL
  6
HIDDEN2
100
AcDbLine
 10
10.18315924013413
 20
-16.58942199033695
 30
0.0
 11
10.30815924013413
 21
-16.46442199033695
 31
0.0
  0
LINE
  5
155
330
18
100
AcDbEntity
  8
ADP1DETAIL
100
AcDbLine
 10
10.01162440429363
 20
-11.78151459938381
 30
0.0
 11
10.32412440429363
 21
-11.78151459938381
 31
0.0
  0
LINE
  5
156
330
18
100
AcDbEntity
  8
ADP2DETAIL
  6
HIDDEN2
100
AcDbLine
 10
10.01162440429363
 20
-12.327941739282
 30
0.0
 11
10.32412440429363
 21
-12.327941739282
 31
0.0
  0
LINE
  5
157
330
18
100
AcDbEntity
  8
ADP1DETAIL
100
AcDbLine
 10
10.01162440429363
 20
-12.28151459938381
 30
0.0
 11
9.406619687295712
 21
-12.28151459938381
 31
0.0
  0
LINE
  5
158
330
18
100
AcDbEntity
  8
ADP2DETAIL
  6
HIDDEN2
100
AcDbLine
 10
10.30815924013413
 20
-13.09880901571649
 30
0.0
 11
10.18315924013413
 21
-12.97257462298477
 31
0.0
  0
LINE
  5
159
330
18
100
AcDbEntity
  8
ADP2DETAIL
  6
HIDDEN2
100
AcDbLine
 10
10.18315924013413
 20
-12.59880901571649
 30
0.0
 11
10.30815924013413
 21
-12.47380901571649
 31
0.0
  0
LINE
  5
15A
330
18
100
AcDbEntity
  8
ADP1DETAIL
100
AcDbLine
 10
8.051602054005726
 20
-3.531514599383811
 30
0.0
 11
9.411602054005726
 21
-3.531514599383811
 31
0.0
  0
TEXT
  5
168
330
18
100
AcDbEntity
  8
ADPDIM
100
AcDbText
 10
-12.5273630934212
 20
-21.22976030290585
 30
0.0
 40
0.375
  1
J U L I U S  B L U M  &  C O . ,  I N C .      ( 8 0 0 )  5 2 6 - 6 2 9 3        W W W . J U L I U S B L U M . C O M        P A R T  N o .  7 5 5
 41
1.25
  7
ARIAL_WIDE
 72
     1
 11
6.776759519129953
 21
-20.85476030290585
 31
0.0
100
AcDbText
 73
     3
  0
ENDSEC
  0
SECTION
  2
OBJECTS
  0
DICTIONARY
  5
C
330
0
100
AcDbDictionary
  3
ACAD_GROUP
350
D
  3
ACAD_LAYOUT
350
160
  3
ACAD_MLINESTYLE
350
E
  3
ACAD_PLOTSETTINGS
350
161
  3
ACAD_PLOTSTYLENAME
350
15E
  3
ACDBHEADERROUNDTRIPXREC
350
2BA
  3
ACDBVARIABLEDICTIONARY
350
1C6
  0
DICTIONARY
  5
1BE
330
18
100
AcDbDictionary
280
     1
  3
ACAD_LAYOUTSELFREF
360
2DB
  0
DICTIONARY
  5
1BC
330
15
100
AcDbDictionary
280
     1
  3
ACAD_LAYOUTSELFREF
360
2DA
  0
DICTIONARY
  5
D
102
{ACAD_REACTORS
330
C
102
}
330
C
100
AcDbDictionary
  0
DICTIONARY
  5
160
102
{ACAD_REACTORS
330
C
102
}
330
C
100
AcDbDictionary
  0
DICTIONARY
  5
E
102
{ACAD_REACTORS
330
C
102
}
330
C
100
AcDbDictionary
  3
STANDARD
350
1B
  0
DICTIONARY
  5
161
102
{ACAD_REACTORS
330
C
102
}
330
C
100
AcDbDictionary
  0
ACDBDICTIONARYWDFLT
  5
15E
102
{ACAD_REACTORS
330
C
102
}
330
C
100
AcDbDictionary
281
     1
  3
Normal
350
15F
100
AcDbDictionaryWithDefault
340
15F
  0
DICTIONARY
  5
2BA
102
{ACAD_REACTORS
330
C
102
}
330
C
100
AcDbDictionary
  3
CEPSNTYPE
350
2C4
  3
FINGERPRINTGUID
350
2C5
  3
HYPERLINKBASE
350
2BD
  3
INSUNITS
350
2C3
  3
LAYOUTDICT
350
2BF
  3
LWETCUNION
350
2C2
  3
PLOTSETDICT
350
2C0
  3
PLOTSTYLNAMDICT
350
2C1
  3
PSVPSCALE
350
2C7
  3
PUCSBASE
350
2CA
  3
PUCSORGBACK
350
2D0
  3
PUCSORGBOTTOM
350
2CC
  3
PUCSORGFRONT
350
2CF
  3
PUCSORGLEFT
350
2CD
  3
PUCSORGRIGHT
350
2CE
  3
PUCSORGTOP
350
2CB
  3
PUCSORTHOREF
350
2C8
  3
PUCSORTHOVIEW
350
2C9
  3
STYLESHEET
350
2BE
  3
TSTACKALIGN
350
2BB
  3
TSTACKSIZE
350
2BC
  3
UCSBASE
350
2D3
  3
UCSORGBACK
350
2D9
  3
UCSORGBOTTOM
350
2D5
  3
UCSORGFRONT
350
2D8
  3
UCSORGLEFT
350
2D6
  3
UCSORGRIGHT
350
2D7
  3
UCSORGTOP
350
2D4
  3
UCSORTHOREF
350
2D1
  3
UCSORTHOVIEW
350
2D2
  3
VERSIONGUID
350
2C6
  0
DICTIONARY
  5
1C6
102
{ACAD_REACTORS
330
C
102
}
330
C
100
AcDbDictionary
  3
DIMASSOC
350
1C7
  0
XRECORD
  5
2DB
102
{ACAD_REACTORS
330
1BE
102
}
330
1BE
100
AcDbXrecord
340
18
  0
XRECORD
  5
2DA
102
{ACAD_REACTORS
330
1BC
102
}
330
1BC
100
AcDbXrecord
340
15
  0
MLINESTYLE
  5
1B
102
{ACAD_REACTORS
330
E
102
}
330
E
100
AcDbMlineStyle
  2
STANDARD
 70
     0
  3

 62
     0
 51
90.0
 52
90.0
 71
     2
 49
0.5
 62
   256
  6
BYLAYER
 49
-0.5
 62
   256
  6
BYLAYER
  0
ACDBPLACEHOLDER
  5
15F
102
{ACAD_REACTORS
330
15E
102
}
330
15E
100
AcDbPlaceHolder
280
     0
  0
XRECORD
  5
2C4
102
{ACAD_REACTORS
330
2BA
102
}
330
2BA
100
AcDbXrecord
 90
        0
  0
XRECORD
  5
2C5
102
{ACAD_REACTORS
330
2BA
102
}
330
2BA
100
AcDbXrecord
  1
{D9D378A8-62A2-438A-8505-B84A0A1C294C}
  0
XRECORD
  5
2BD
102
{ACAD_REACTORS
330
2BA
102
}
330
2BA
100
AcDbXrecord
  1

  0
XRECORD
  5
2C3
102
{ACAD_REACTORS
330
2BA
102
}
330
2BA
100
AcDbXrecord
 90
        0
  0
XRECORD
  5
2BF
102
{ACAD_REACTORS
330
2BA
102
}
330
2BA
100
AcDbXrecord
340
160
  0
XRECORD
  5
2C2
102
{ACAD_REACTORS
330
2BA
102
}
330
2BA
100
AcDbXrecord
 90
    14877
  0
XRECORD
  5
2C0
102
{ACAD_REACTORS
330
2BA
102
}
330
2BA
100
AcDbXrecord
340
161
  0
XRECORD
  5
2C1
102
{ACAD_REACTORS
330
2BA
102
}
330
2BA
100
AcDbXrecord
340
15E
  0
XRECORD
  5
2C7
102
{ACAD_REACTORS
330
2BA
102
}
330
2BA
100
AcDbXrecord
 40
0.0
  0
XRECORD
  5
2CA
102
{ACAD_REACTORS
330
2BA
102
}
330
2BA
100
AcDbXrecord
340
0
  0
XRECORD
  5
2D0
102
{ACAD_REACTORS
330
2BA
102
}
330
2BA
100
AcDbXrecord
 10
0.0
 20
0.0
 30
0.0
  0
XRECORD
  5
2CC
102
{ACAD_REACTORS
330
2BA
102
}
330
2BA
100
AcDbXrecord
 10
0.0
 20
0.0
 30
0.0
  0
XRECORD
  5
2CF
102
{ACAD_REACTORS
330
2BA
102
}
330
2BA
100
AcDbXrecord
 10
0.0
 20
0.0
 30
0.0
  0
XRECORD
  5
2CD
102
{ACAD_REACTORS
330
2BA
102
}
330
2BA
100
AcDbXrecord
 10
0.0
 20
0.0
 30
0.0
  0
XRECORD
  5
2CE
102
{ACAD_REACTORS
330
2BA
102
}
330
2BA
100
AcDbXrecord
 10
0.0
 20
0.0
 30
0.0
  0
XRECORD
  5
2CB
102
{ACAD_REACTORS
330
2BA
102
}
330
2BA
100
AcDbXrecord
 10
0.0
 20
0.0
 30
0.0
  0
XRECORD
  5
2C8
102
{ACAD_REACTORS
330
2BA
102
}
330
2BA
100
AcDbXrecord
340
0
  0
XRECORD
  5
2C9
102
{ACAD_REACTORS
330
2BA
102
}
330
2BA
100
AcDbXrecord
 70
     0
  0
XRECORD
  5
2BE
102
{ACAD_REACTORS
330
2BA
102
}
330
2BA
100
AcDbXrecord
  1

  0
XRECORD
  5
2BB
102
{ACAD_REACTORS
330
2BA
102
}
330
2BA
100
AcDbXrecord
 90
        1
  0
XRECORD
  5
2BC
102
{ACAD_REACTORS
330
2BA
102
}
330
2BA
100
AcDbXrecord
 90
       70
  0
XRECORD
  5
2D3
102
{ACAD_REACTORS
330
2BA
102
}
330
2BA
100
AcDbXrecord
340
0
  0
XRECORD
  5
2D9
102
{ACAD_REACTORS
330
2BA
102
}
330
2BA
100
AcDbXrecord
 10
0.0
 20
0.0
 30
0.0
  0
XRECORD
  5
2D5
102
{ACAD_REACTORS
330
2BA
102
}
330
2BA
100
AcDbXrecord
 10
0.0
 20
0.0
 30
0.0
  0
XRECORD
  5
2D8
102
{ACAD_REACTORS
330
2BA
102
}
330
2BA
100
AcDbXrecord
 10
0.0
 20
0.0
 30
0.0
  0
XRECORD
  5
2D6
102
{ACAD_REACTORS
330
2BA
102
}
330
2BA
100
AcDbXrecord
 10
0.0
 20
0.0
 30
0.0
  0
XRECORD
  5
2D7
102
{ACAD_REACTORS
330
2BA
102
}
330
2BA
100
AcDbXrecord
 10
0.0
 20
0.0
 30
0.0
  0
XRECORD
  5
2D4
102
{ACAD_REACTORS
330
2BA
102
}
330
2BA
100
AcDbXrecord
 10
0.0
 20
0.0
 30
0.0
  0
XRECORD
  5
2D1
102
{ACAD_REACTORS
330
2BA
102
}
330
2BA
100
AcDbXrecord
340
0
  0
XRECORD
  5
2D2
102
{ACAD_REACTORS
330
2BA
102
}
330
2BA
100
AcDbXrecord
 70
     0
  0
XRECORD
  5
2C6
102
{ACAD_REACTORS
330
2BA
102
}
330
2BA
100
AcDbXrecord
  1
{DB9CD8ED-FE78-4A04-A550-FB9783BF6C76}
  0
DICTIONARYVAR
  5
1C7
102
{ACAD_REACTORS
330
1C6
102
}
330
1C6
100
DictionaryVariables
280
     0
  1
1
  0
ENDSEC
  0
EOF
