  0
SECTION
  2
HEADER
  9
$ACADVER
  1
AC1014
  9
$ACADMAINTVER
 70
     9
  9
$DWGCODEPAGE
  3
ANSI_1252
  9
$INSBASE
 10
-151.2225420205859
 20
110.1437733345684
 30
0.0
  9
$EXTMIN
 10
-161.4311011050543
 20
106.7518386157624
 30
0.0
  9
$EXTMAX
 10
-141.8539140313844
 20
116.1481603442102
 30
0.0
  9
$LIMMIN
 10
0.0
 20
0.0
  9
$LIMMAX
 10
36.0
 20
36.0
  9
$ORTHOMODE
 70
     1
  9
$REGENMODE
 70
     1
  9
$FILLMODE
 70
     1
  9
$QTEXTMODE
 70
     0
  9
$MIRRTEXT
 70
     1
  9
$DRAGMODE
 70
     0
  9
$LTSCALE
 40
1.0
  9
$OSMODE
 70
    37
  9
$ATTMODE
 70
     1
  9
$TEXTSIZE
 40
0.2
  9
$TRACEWID
 40
0.05
  9
$TEXTSTYLE
  7
STANDARD
  9
$CLAYER
  8
0
  9
$CELTYPE
  6
BYLAYER
  9
$CECOLOR
 62
   256
  9
$CELTSCALE
 40
1.0
  9
$DELOBJ
 70
     1
  9
$DISPSILH
 70
     0
  9
$DIMSCALE
 40
1.0
  9
$DIMASZ
 40
0.125
  9
$DIMEXO
 40
0.0625
  9
$DIMDLI
 40
0.38
  9
$DIMRND
 40
0.0
  9
$DIMDLE
 40
0.0
  9
$DIMEXE
 40
0.18
  9
$DIMTP
 40
0.0
  9
$DIMTM
 40
0.0
  9
$DIMTXT
 40
0.125
  9
$DIMCEN
 40
0.1875
  9
$DIMTSZ
 40
0.125
  9
$DIMTOL
 70
     0
  9
$DIMLIM
 70
     0
  9
$DIMTIH
 70
     0
  9
$DIMTOH
 70
     0
  9
$DIMSE1
 70
     0
  9
$DIMSE2
 70
     0
  9
$DIMTAD
 70
     0
  9
$DIMZIN
 70
     3
  9
$DIMBLK
  1

  9
$DIMASO
 70
     1
  9
$DIMSHO
 70
     1
  9
$DIMPOST
  1

  9
$DIMAPOST
  1

  9
$DIMALT
 70
     0
  9
$DIMALTD
 70
     1
  9
$DIMALTF
 40
25.4
  9
$DIMLFAC
 40
1.0
  9
$DIMTOFL
 70
     0
  9
$DIMTVP
 40
0.0
  9
$DIMTIX
 70
     0
  9
$DIMSOXD
 70
     0
  9
$DIMSAH
 70
     0
  9
$DIMBLK1
  1

  9
$DIMBLK2
  1

  9
$DIMSTYLE
  2
STANDARD
  9
$DIMCLRD
 70
     0
  9
$DIMCLRE
 70
     0
  9
$DIMCLRT
 70
     0
  9
$DIMTFAC
 40
1.0
  9
$DIMGAP
 40
0.125
  9
$DIMJUST
 70
     0
  9
$DIMSD1
 70
     0
  9
$DIMSD2
 70
     0
  9
$DIMTOLJ
 70
     1
  9
$DIMTZIN
 70
     0
  9
$DIMALTZ
 70
     0
  9
$DIMALTTZ
 70
     0
  9
$DIMFIT
 70
     3
  9
$DIMUPT
 70
     0
  9
$DIMUNIT
 70
     2
  9
$DIMDEC
 70
     4
  9
$DIMTDEC
 70
     4
  9
$DIMALTU
 70
     2
  9
$DIMALTTD
 70
     2
  9
$DIMTXSTY
  7
STANDARD
  9
$DIMAUNIT
 70
     0
  9
$LUNITS
 70
     5
  9
$LUPREC
 70
     4
  9
$SKETCHINC
 40
0.1
  9
$FILLETRAD
 40
0.062
  9
$AUNITS
 70
     0
  9
$AUPREC
 70
     0
  9
$MENU
  1
acad
  9
$ELEVATION
 40
0.0
  9
$PELEVATION
 40
0.0
  9
$THICKNESS
 40
0.0
  9
$LIMCHECK
 70
     0
  9
$BLIPMODE
 70
     0
  9
$CHAMFERA
 40
0.0
  9
$CHAMFERB
 40
0.0
  9
$CHAMFERC
 40
0.0
  9
$CHAMFERD
 40
0.0
  9
$SKPOLY
 70
     0
  9
$TDCREATE
 40
2450387.551006944
  9
$TDUPDATE
 40
2452297.102627674
  9
$TDINDWG
 40
0.0665119213
  9
$TDUSRTIMER
 40
0.0665119213
  9
$USRTIMER
 70
     1
  9
$ANGBASE
 50
0.0
  9
$ANGDIR
 70
     0
  9
$PDMODE
 70
     0
  9
$PDSIZE
 40
0.0
  9
$PLINEWID
 40
0.0
  9
$COORDS
 70
     2
  9
$SPLFRAME
 70
     0
  9
$SPLINETYPE
 70
     6
  9
$SPLINESEGS
 70
     8
  9
$ATTDIA
 70
     0
  9
$ATTREQ
 70
     1
  9
$HANDLING
 70
 22529
  9
$HANDSEED
  5
54F
  9
$SURFTAB1
 70
     6
  9
$SURFTAB2
 70
     6
  9
$SURFTYPE
 70
     6
  9
$SURFU
 70
     6
  9
$SURFV
 70
     6
  9
$UCSNAME
  2

  9
$UCSORG
 10
0.0
 20
0.0
 30
0.0
  9
$UCSXDIR
 10
1.0
 20
0.0
 30
0.0
  9
$UCSYDIR
 10
0.0
 20
1.0
 30
0.0
  9
$PUCSNAME
  2

  9
$PUCSORG
 10
0.0
 20
0.0
 30
0.0
  9
$PUCSXDIR
 10
1.0
 20
0.0
 30
0.0
  9
$PUCSYDIR
 10
0.0
 20
1.0
 30
0.0
  9
$USERI1
 70
     0
  9
$USERI2
 70
     0
  9
$USERI3
 70
     0
  9
$USERI4
 70
     0
  9
$USERI5
 70
     0
  9
$USERR1
 40
0.0
  9
$USERR2
 40
0.0
  9
$USERR3
 40
0.0
  9
$USERR4
 40
0.0
  9
$USERR5
 40
0.0
  9
$WORLDVIEW
 70
     1
  9
$SHADEDGE
 70
     3
  9
$SHADEDIF
 70
    70
  9
$TILEMODE
 70
     1
  9
$MAXACTVP
 70
    15
  9
$PINSBASE
 10
0.0
 20
0.0
 30
0.0
  9
$PLIMCHECK
 70
     0
  9
$PEXTMIN
 10
1.000000000000000E+20
 20
1.000000000000000E+20
 30
1.000000000000000E+20
  9
$PEXTMAX
 10
-1.000000000000000E+20
 20
-1.000000000000000E+20
 30
-1.000000000000000E+20
  9
$PLIMMIN
 10
0.0
 20
0.0
  9
$PLIMMAX
 10
12.0
 20
9.0
  9
$UNITMODE
 70
     0
  9
$VISRETAIN
 70
     0
  9
$PLINEGEN
 70
     0
  9
$PSLTSCALE
 70
     1
  9
$TREEDEPTH
 70
  3020
  9
$PICKSTYLE
 70
     1
  9
$CMLSTYLE
  2
STANDARD
  9
$CMLJUST
 70
     0
  9
$CMLSCALE
 40
1.0
  9
$PROXYGRAPHICS
 70
     1
  9
$MEASUREMENT
 70
     0
  0
ENDSEC
  0
SECTION
  2
CLASSES
  0
CLASS
  1
ACDBDICTIONARYWDFLT
  2
AcDbDictionaryWithDefault
  3
AutoCAD 2000
 90
        0
280
     0
281
     0
  0
CLASS
  1
ACDBPLACEHOLDER
  2
AcDbPlaceHolder
  3
AutoCAD 2000
 90
        0
280
     0
281
     0
  0
CLASS
  1
LAYOUT
  2
AcDbLayout
  3
AutoCAD 2000
 90
        0
280
     0
281
     0
  0
CLASS
  1
DICTIONARYVAR
  2
AcDbDictionaryVar
  3
AutoCAD 2000
 90
        0
280
     0
281
     0
  0
CLASS
  1
LONG_TRANSACTION
  2
AcDbLongTransaction
  3
AutoCAD 2000
 90
        0
280
     0
281
     0
  0
CLASS
  1
LWPOLYLINE
  2
AcDbPolyline
  3
AutoCAD 2000
 90
        0
280
     0
281
     1
  0
CLASS
  1
HATCH
  2
AcDbHatch
  3
AutoCAD 2000
 90
        0
280
     0
281
     1
  0
CLASS
  1
XRECORD
  2
AcDbXrecord
  3
AutoCAD 2000
 90
        0
280
     0
281
     0
  0
CLASS
  1
LONG_TRANSACTION
  2
AcDbLongTransaction
  3
AutoCAD 2000
 90
        0
280
     0
281
     0
  0
CLASS
  1
LWPOLYLINE
  2
AcDbPolyline
  3
AutoCAD 2000
 90
        0
280
     0
281
     1
  0
CLASS
  1
HATCH
  2
AcDbHatch
  3
AutoCAD 2000
 90
        0
280
     0
281
     1
  0
CLASS
  1
XRECORD
  2
AcDbXrecord
  3
AutoCAD 2000
 90
        0
280
     0
281
     0
  0
CLASS
  1
LONG_TRANSACTION
  2
AcDbLongTransaction
  3
AutoCAD 2000
 90
        0
280
     0
281
     0
  0
CLASS
  1
LWPOLYLINE
  2
AcDbPolyline
  3
AutoCAD 2000
 90
        0
280
     0
281
     1
  0
CLASS
  1
HATCH
  2
AcDbHatch
  3
AutoCAD 2000
 90
        0
280
     0
281
     1
  0
CLASS
  1
XRECORD
  2
AcDbXrecord
  3
AutoCAD 2000
 90
        0
280
     0
281
     0
  0
CLASS
  1
LONG_TRANSACTION
  2
AcDbLongTransaction
  3
AutoCAD 2000
 90
        0
280
     0
281
     0
  0
CLASS
  1
LWPOLYLINE
  2
AcDbPolyline
  3
AutoCAD 2000
 90
        0
280
     0
281
     1
  0
CLASS
  1
HATCH
  2
AcDbHatch
  3
AutoCAD 2000
 90
        0
280
     0
281
     1
  0
CLASS
  1
XRECORD
  2
AcDbXrecord
  3
AutoCAD 2000
 90
        0
280
     0
281
     0
  0
CLASS
  1
LONG_TRANSACTION
  2
AcDbLongTransaction
  3
AutoCAD 2000
 90
        0
280
     0
281
     0
  0
CLASS
  1
LWPOLYLINE
  2
AcDbPolyline
  3
AutoCAD 2000
 90
        0
280
     0
281
     1
  0
CLASS
  1
HATCH
  2
AcDbHatch
  3
AutoCAD 2000
 90
        0
280
     0
281
     1
  0
CLASS
  1
XRECORD
  2
AcDbXrecord
  3
AutoCAD 2000
 90
        0
280
     0
281
     0
  0
ENDSEC
  0
SECTION
  2
TABLES
  0
TABLE
  2
VPORT
  5
8
330
0
100
AcDbSymbolTable
 70
     2
  0
VPORT
  5
52C
330
8
100
AcDbSymbolTableRecord
100
AcDbViewportTableRecord
  2
*ACTIVE
 70
     0
 10
0.0
 20
0.0
 11
1.0
 21
1.0
 12
-151.6297356052227
 22
111.4497420484727
 13
0.0
 23
0.0
 14
0.5740882589684922
 24
0.5740882589684922
 15
0.5
 25
0.5
 16
0.0
 26
0.0
 36
1.0
 17
0.0
 27
0.0
 37
0.0
 40
12.55842296872516
 41
1.570528967254408
 42
50.0
 43
0.0
 44
0.0
 50
0.0
 51
0.0
 71
     0
 72
   100
 73
     1
 74
     0
 75
     0
 76
     0
 77
     0
 78
     0
  0
ENDTAB
  0
TABLE
  2
LTYPE
  5
5
330
0
100
AcDbSymbolTable
 70
     2
  0
LTYPE
  5
12
330
5
100
AcDbSymbolTableRecord
100
AcDbLinetypeTableRecord
  2
BYBLOCK
 70
     0
  3

 72
    65
 73
     0
 40
0.0
  0
LTYPE
  5
13
330
5
100
AcDbSymbolTableRecord
100
AcDbLinetypeTableRecord
  2
BYLAYER
 70
     0
  3

 72
    65
 73
     0
 40
0.0
  0
LTYPE
  5
14
330
5
100
AcDbSymbolTableRecord
100
AcDbLinetypeTableRecord
  2
CONTINUOUS
 70
     0
  3
Solid line
 72
    65
 73
     0
 40
0.0
  0
LTYPE
  5
382
330
5
100
AcDbSymbolTableRecord
100
AcDbLinetypeTableRecord
  2
CENTER2
 70
     0
  3
___ _ ___ _ ___ _ ___ _ ___ _ ___ _ ___ _ ___ _
 72
    65
 73
     4
 40
1.125
 49
0.75
 74
     0
 49
-0.125
 74
     0
 49
0.125
 74
     0
 49
-0.125
 74
     0
  0
ENDTAB
  0
TABLE
  2
LAYER
  5
2
330
0
100
AcDbSymbolTable
 70
     5
  0
LAYER
  5
F
330
2
100
AcDbSymbolTableRecord
100
AcDbLayerTableRecord
  2
0
 70
     0
 62
     7
  6
CONTINUOUS
  0
LAYER
  5
383
330
2
100
AcDbSymbolTableRecord
100
AcDbLayerTableRecord
  2
ADP1DETAIL
 70
     0
 62
     7
  6
CONTINUOUS
  0
LAYER
  5
384
330
2
100
AcDbSymbolTableRecord
100
AcDbLayerTableRecord
  2
DEFPOINTS
 70
     0
 62
     7
  6
CONTINUOUS
  0
LAYER
  5
388
330
2
100
AcDbSymbolTableRecord
100
AcDbLayerTableRecord
  2
ADP3DETAIL
 70
     0
 62
     1
  6
CONTINUOUS
  0
LAYER
  5
38D
330
2
100
AcDbSymbolTableRecord
100
AcDbLayerTableRecord
  2
ADPDIM
 70
     0
 62
     3
  6
CONTINUOUS
  0
ENDTAB
  0
TABLE
  2
STYLE
  5
3
330
0
100
AcDbSymbolTable
 70
     2
  0
STYLE
  5
10
330
3
100
AcDbSymbolTableRecord
100
AcDbTextStyleTableRecord
  2
STANDARD
 70
     0
 40
0.0
 41
1.0
 50
0.0
 71
     0
 42
0.2
  3
txt
  4

  0
STYLE
  5
3E8
330
3
100
AcDbSymbolTableRecord
100
AcDbTextStyleTableRecord
  2
ARIAL_WIDE
 70
     0
 40
0.0
 41
1.25
 50
0.0
 71
     0
 42
0.2
  3
ARIAL.TTF
  4

1001
ACAD
1000
Arial
1071
       34
  0
ENDTAB
  0
TABLE
  2
VIEW
  5
6
330
0
100
AcDbSymbolTable
 70
     0
  0
ENDTAB
  0
TABLE
  2
UCS
  5
7
330
0
100
AcDbSymbolTable
 70
     0
  0
ENDTAB
  0
TABLE
  2
APPID
  5
9
330
0
100
AcDbSymbolTable
 70
     1
  0
APPID
  5
11
330
9
100
AcDbSymbolTableRecord
100
AcDbRegAppTableRecord
  2
ACAD
 70
     0
  0
ENDTAB
  0
TABLE
  2
DIMSTYLE
  5
A
330
0
100
AcDbSymbolTable
 70
     1
  0
DIMSTYLE
105
3DC
330
A
100
AcDbSymbolTableRecord
100
AcDbDimStyleTableRecord
  2
STANDARD
 70
     0
  3

  4

  5

  6

  7

 40
1.0
 41
0.18
 42
0.0625
 43
0.38
 44
0.18
 45
0.0
 46
0.0
 47
0.0
 48
0.0
140
0.18
141
0.09
142
0.0
143
25.4
144
1.0
145
0.0
146
1.0
147
0.09
 71
     0
 72
     0
 73
     1
 74
     1
 75
     0
 76
     0
 77
     0
 78
     0
170
     0
171
     2
172
     0
173
     0
174
     0
175
     0
176
     0
177
     0
178
     0
270
     2
271
     4
272
     4
273
     2
274
     2
340
10
275
     0
280
     0
281
     0
282
     0
283
     1
284
     0
285
     0
286
     0
287
     3
288
     0
  0
ENDTAB
  0
TABLE
  2
BLOCK_RECORD
  5
1
330
0
100
AcDbSymbolTable
 70
     5
  0
BLOCK_RECORD
  5
18
102
{ACAD_XDICTIONARY
360
43D
102
}
330
1
100
AcDbSymbolTableRecord
100
AcDbBlockTableRecord
  2
*MODEL_SPACE
  0
BLOCK_RECORD
  5
15
102
{ACAD_XDICTIONARY
360
43B
102
}
330
1
100
AcDbSymbolTableRecord
100
AcDbBlockTableRecord
  2
*PAPER_SPACE
  0
BLOCK_RECORD
  5
33A
330
1
100
AcDbSymbolTableRecord
100
AcDbBlockTableRecord
  2
*D0
  0
BLOCK_RECORD
  5
33B
330
1
100
AcDbSymbolTableRecord
100
AcDbBlockTableRecord
  2
*D1
  0
BLOCK_RECORD
  5
33C
330
1
100
AcDbSymbolTableRecord
100
AcDbBlockTableRecord
  2
*D2
  0
BLOCK_RECORD
  5
33D
330
1
100
AcDbSymbolTableRecord
100
AcDbBlockTableRecord
  2
*D3
  0
BLOCK_RECORD
  5
380
330
1
100
AcDbSymbolTableRecord
100
AcDbBlockTableRecord
  2
*D4
  0
ENDTAB
  0
ENDSEC
  0
SECTION
  2
BLOCKS
  0
BLOCK
  5
390
330
18
100
AcDbEntity
  8
0
100
AcDbBlockBegin
  2
*MODEL_SPACE
 70
     0
 10
0.0
 20
0.0
 30
0.0
  3
*MODEL_SPACE
  1

  0
ENDBLK
  5
391
330
18
100
AcDbEntity
  8
0
100
AcDbBlockEnd
  0
BLOCK
  5
38E
330
15
100
AcDbEntity
 67
     1
  8
0
100
AcDbBlockBegin
  2
*PAPER_SPACE
 70
     0
 10
0.0
 20
0.0
 30
0.0
  3
*PAPER_SPACE
  1

  0
ENDBLK
  5
38F
330
15
100
AcDbEntity
 67
     1
  8
0
100
AcDbBlockEnd
  0
BLOCK
  5
393
330
33A
100
AcDbEntity
  8
0
100
AcDbBlockBegin
  2
*D0
 70
     1
 10
0.0
 20
0.0
 30
0.0
  3
*D0
  1

  0
LINE
  5
394
330
33A
100
AcDbEntity
  8
0
  6
BYBLOCK
 62
     0
100
AcDbLine
 10
-160.6539129513373
 20
87.8059390181772
 30
0.0
 11
-161.1865070224469
 21
87.8059390181772
 31
0.0
  0
LINE
  5
395
330
33A
100
AcDbEntity
  8
0
  6
BYBLOCK
 62
     0
100
AcDbLine
 10
-159.6966381843179
 20
90.80593901817719
 30
0.0
 11
-161.1865070224469
 21
90.80593901817719
 31
0.0
  0
LINE
  5
396
330
33A
100
AcDbEntity
  8
0
  6
BYBLOCK
 62
     0
100
AcDbLine
 10
-161.0065070224469
 20
87.8059390181772
 30
0.0
 11
-161.0065070224469
 21
89.13927235151053
 31
0.0
  0
LINE
  5
397
330
33A
100
AcDbEntity
  8
0
  6
BYBLOCK
 62
     0
100
AcDbLine
 10
-161.0065070224469
 20
90.80593901817719
 30
0.0
 11
-161.0065070224469
 21
89.47260568484386
 31
0.0
  0
LINE
  5
398
330
33A
100
AcDbEntity
  8
0
  6
BYBLOCK
 62
     0
100
AcDbLine
 10
-160.8815070224469
 20
87.68093901817719
 30
0.0
 11
-161.1315070224469
 21
87.93093901817719
 31
0.0
  0
LINE
  5
399
330
33A
100
AcDbEntity
  8
0
  6
BYBLOCK
 62
     0
100
AcDbLine
 10
-160.8815070224469
 20
90.6809390181772
 30
0.0
 11
-161.1315070224469
 21
90.9309390181772
 31
0.0
  0
TEXT
  5
39A
330
33A
100
AcDbEntity
  8
0
  6
BYBLOCK
 62
     0
100
AcDbText
 10
-160.9440070224469
 20
89.26427235151052
 30
0.0
 40
0.125
  1
3
 50
90.0
 72
     1
 11
-161.0065070224469
 21
89.3059390181772
 31
0.0
100
AcDbText
 73
     2
  0
POINT
  5
39B
330
33A
100
AcDbEntity
  8
DEFPOINTS
  6
BYBLOCK
 62
     0
100
AcDbPoint
 10
-160.5914129513373
 20
87.8059390181772
 30
0.0
  0
POINT
  5
39C
330
33A
100
AcDbEntity
  8
DEFPOINTS
  6
BYBLOCK
 62
     0
100
AcDbPoint
 10
-159.6341381843179
 20
90.80593901817719
 30
0.0
  0
POINT
  5
39D
330
33A
100
AcDbEntity
  8
DEFPOINTS
  6
BYBLOCK
 62
     0
100
AcDbPoint
 10
-161.0065070224469
 20
90.80593901817719
 30
0.0
  0
ENDBLK
  5
39E
330
33A
100
AcDbEntity
  8
0
100
AcDbBlockEnd
  0
BLOCK
  5
39F
330
33B
100
AcDbEntity
  8
0
100
AcDbBlockBegin
  2
*D1
 70
     1
 10
0.0
 20
0.0
 30
0.0
  3
*D1
  1

  0
LINE
  5
3A0
330
33B
100
AcDbEntity
  8
0
  6
BYBLOCK
 62
     0
100
AcDbLine
 10
-160.5914129513373
 20
87.7434390181772
 30
0.0
 11
-160.5914129513373
 21
86.97801859390313
 31
0.0
  0
LINE
  5
3A1
330
33B
100
AcDbEntity
  8
0
  6
BYBLOCK
 62
     0
100
AcDbLine
 10
-158.6914129513373
 20
87.7434390181772
 30
0.0
 11
-158.6914129513373
 21
86.97801859390313
 31
0.0
  0
LINE
  5
3A2
330
33B
100
AcDbEntity
  8
0
  6
BYBLOCK
 62
     0
100
AcDbLine
 10
-160.5914129513373
 20
87.15801859390314
 30
0.0
 11
-159.9747462846707
 21
87.15801859390314
 31
0.0
  0
LINE
  5
3A3
330
33B
100
AcDbEntity
  8
0
  6
BYBLOCK
 62
     0
100
AcDbLine
 10
-158.6914129513373
 20
87.15801859390314
 30
0.0
 11
-159.308079618004
 21
87.15801859390314
 31
0.0
  0
LINE
  5
3A4
330
33B
100
AcDbEntity
  8
0
  6
BYBLOCK
 62
     0
100
AcDbLine
 10
-160.7164129513373
 20
87.03301859390313
 30
0.0
 11
-160.4664129513373
 21
87.28301859390313
 31
0.0
  0
LINE
  5
3A5
330
33B
100
AcDbEntity
  8
0
  6
BYBLOCK
 62
     0
100
AcDbLine
 10
-158.8164129513373
 20
87.03301859390313
 30
0.0
 11
-158.5664129513373
 21
87.28301859390313
 31
0.0
  0
TEXT
  5
3A6
330
33B
100
AcDbEntity
  8
0
  6
BYBLOCK
 62
     0
100
AcDbText
 10
-159.8497462846707
 20
87.09551859390314
 30
0.0
 40
0.125
  1
1.900
 72
     1
 11
-159.6414129513373
 21
87.15801859390314
 31
0.0
100
AcDbText
 73
     2
  0
POINT
  5
3A7
330
33B
100
AcDbEntity
  8
DEFPOINTS
  6
BYBLOCK
 62
     0
100
AcDbPoint
 10
-160.5914129513373
 20
87.8059390181772
 30
0.0
  0
POINT
  5
3A8
330
33B
100
AcDbEntity
  8
DEFPOINTS
  6
BYBLOCK
 62
     0
100
AcDbPoint
 10
-158.6914129513373
 20
87.8059390181772
 30
0.0
  0
POINT
  5
3A9
330
33B
100
AcDbEntity
  8
DEFPOINTS
  6
BYBLOCK
 62
     0
100
AcDbPoint
 10
-158.6914129513373
 20
87.15801859390314
 30
0.0
  0
ENDBLK
  5
3AA
330
33B
100
AcDbEntity
  8
0
100
AcDbBlockEnd
  0
BLOCK
  5
3AB
330
33C
100
AcDbEntity
  8
0
100
AcDbBlockBegin
  2
*D2
 70
     1
 10
0.0
 20
0.0
 30
0.0
  3
*D2
  1

  0
LINE
  5
3AC
330
33C
100
AcDbEntity
  8
0
  6
BYBLOCK
 62
     0
100
AcDbLine
 10
-157.220141540342
 20
92.57985017719404
 30
0.0
 11
-158.0630738924748
 21
93.78368233571093
 31
0.0
  0
LINE
  5
3AD
330
33C
100
AcDbEntity
  8
0
  6
BYBLOCK
 62
     0
100
AcDbLine
 10
-159.677597673209
 20
90.85912086814092
 30
0.0
 11
-160.5205300253418
 21
92.06295302665779
 31
0.0
  0
LINE
  5
3AE
330
33C
100
AcDbEntity
  8
0
  6
BYBLOCK
 62
     0
100
AcDbLine
 10
-157.9598301339316
 20
93.6362349677389
 30
0.0
 11
-159.0520328596503
 21
92.87146638593752
 31
0.0
  0
LINE
  5
3AF
330
33C
100
AcDbEntity
  8
0
  6
BYBLOCK
 62
     0
100
AcDbLine
 10
-160.4172862667986
 20
91.91550565868578
 30
0.0
 11
-159.3250835410799
 21
92.68027424048716
 31
0.0
  0
LINE
  5
3B0
330
33C
100
AcDbEntity
  8
0
  6
BYBLOCK
 62
     0
100
AcDbLine
 10
-157.9905270849238
 20
93.4621439076589
 30
0.0
 11
-157.9291331829393
 21
93.81032602781891
 31
0.0
  0
LINE
  5
3B1
330
33C
100
AcDbEntity
  8
0
  6
BYBLOCK
 62
     0
100
AcDbLine
 10
-160.4479832177908
 20
91.74141459860576
 30
0.0
 11
-160.3865893158063
 21
92.08959671876577
 31
0.0
  0
TEXT
  5
3B2
330
33C
100
AcDbEntity
  8
0
  6
BYBLOCK
 62
     0
100
AcDbText
 10
-159.1868410082718
 20
92.70077429226297
 30
0.0
 40
0.125
  1
3
 50
34.99999999999996
 72
     1
 11
-159.1885582003651
 21
92.77587031321234
 31
0.0
100
AcDbText
 73
     2
  0
POINT
  5
3B3
330
33C
100
AcDbEntity
  8
DEFPOINTS
  6
BYBLOCK
 62
     0
100
AcDbPoint
 10
-157.1842930130701
 20
92.52865317442598
 30
0.0
  0
POINT
  5
3B4
330
33C
100
AcDbEntity
  8
DEFPOINTS
  6
BYBLOCK
 62
     0
100
AcDbPoint
 10
-159.641749145937
 20
90.80792386537286
 30
0.0
  0
POINT
  5
3B5
330
33C
100
AcDbEntity
  8
DEFPOINTS
  6
BYBLOCK
 62
     0
100
AcDbPoint
 10
-160.4172862667986
 20
91.91550565868578
 30
0.0
  0
ENDBLK
  5
3B6
330
33C
100
AcDbEntity
  8
0
100
AcDbBlockEnd
  0
BLOCK
  5
3B7
330
33D
100
AcDbEntity
  8
0
100
AcDbBlockBegin
  2
*D3
 70
     1
 10
0.0
 20
0.0
 30
0.0
  3
*D3
  1

  0
LINE
  5
3B8
330
33D
100
AcDbEntity
  8
0
  6
BYBLOCK
 62
     0
100
AcDbLine
 10
-159.3236659310417
 20
90.58890263691878
 30
0.0
 11
-156.6699152064745
 21
89.25948506412671
 31
0.0
  0
LINE
  5
3B9
330
33D
100
AcDbEntity
  8
0
  6
BYBLOCK
 62
     0
100
AcDbLine
 10
-159.4914138053891
 20
90.53312942962415
 30
0.0
 11
-159.1559180566943
 21
90.64467584421343
 31
0.0
  0
TEXT
  5
3BA
330
33D
100
AcDbEntity
  8
0
  6
BYBLOCK
 62
     0
100
AcDbText
 10
-156.5861483324167
 20
89.14761746018982
 30
0.0
 40
0.125
  1
R3
 50
333.3910555936103
 72
     1
 11
-156.465020881636
 21
89.15684161932835
 31
0.0
100
AcDbText
 73
     2
  0
POINT
  5
3BB
330
33D
100
AcDbEntity
  8
DEFPOINTS
  6
BYBLOCK
 62
     0
100
AcDbPoint
 10
-159.3236659310417
 20
90.58890263691878
 30
0.0
  0
POINT
  5
3BC
330
33D
100
AcDbEntity
  8
DEFPOINTS
  6
BYBLOCK
 62
     0
100
AcDbPoint
 10
-156.6414129513373
 20
89.24520663228575
 30
0.0
  0
ENDBLK
  5
3BD
330
33D
100
AcDbEntity
  8
0
100
AcDbBlockEnd
  0
BLOCK
  5
3BE
330
380
100
AcDbEntity
  8
0
100
AcDbBlockBegin
  2
*D4
 70
     1
 10
0.0
 20
0.0
 30
0.0
  3
*D4
  1

  0
LINE
  5
3BF
330
380
100
AcDbEntity
  8
0
  6
BYBLOCK
 62
     0
100
AcDbLine
 10
-151.3690845200336
 20
108.4454361476659
 30
0.0
 11
-151.3690845200336
 21
108.5629361476659
 31
0.0
  0
LINE
  5
3C0
330
380
100
AcDbEntity
  8
0
  6
BYBLOCK
 62
     0
100
AcDbLine
 10
-151.2240845200336
 20
108.4454361476659
 30
0.0
 11
-151.2240845200336
 21
108.5629361476659
 31
0.0
  0
LINE
  5
3C1
330
380
100
AcDbEntity
  8
0
  6
BYBLOCK
 62
     0
100
AcDbLine
 10
-151.3690845200336
 20
108.3829361476659
 30
0.0
 11
-151.6190845200336
 21
108.3829361476659
 31
0.0
  0
LINE
  5
3C2
330
380
100
AcDbEntity
  8
0
  6
BYBLOCK
 62
     0
100
AcDbLine
 10
-151.2240845200336
 20
108.3829361476659
 30
0.0
 11
-150.9740845200336
 21
108.3829361476659
 31
0.0
  0
LINE
  5
3C3
330
380
100
AcDbEntity
  8
0
  6
BYBLOCK
 62
     0
100
AcDbLine
 10
-151.4940845200336
 20
108.2579361476659
 30
0.0
 11
-151.2440845200336
 21
108.5079361476659
 31
0.0
  0
LINE
  5
3C4
330
380
100
AcDbEntity
  8
0
  6
BYBLOCK
 62
     0
100
AcDbLine
 10
-151.3490845200336
 20
108.2579361476659
 30
0.0
 11
-151.0990845200336
 21
108.5079361476659
 31
0.0
  0
TEXT
  5
3C5
330
380
100
AcDbEntity
  8
0
  6
BYBLOCK
 62
     0
100
AcDbText
 10
-150.8490845200336
 20
108.3204361476659
 30
0.0
 40
0.125
  1
0.145
 72
     1
 11
-150.6303345200336
 21
108.3829361476659
 31
0.0
100
AcDbText
 73
     2
  0
POINT
  5
3C6
330
380
100
AcDbEntity
  8
DEFPOINTS
  6
BYBLOCK
 62
     0
100
AcDbPoint
 10
-151.3690845200336
 20
108.3829361476659
 30
0.0
  0
POINT
  5
3C7
330
380
100
AcDbEntity
  8
DEFPOINTS
  6
BYBLOCK
 62
     0
100
AcDbPoint
 10
-151.2240845200336
 20
108.3829361476659
 30
0.0
  0
POINT
  5
3C8
330
380
100
AcDbEntity
  8
DEFPOINTS
  6
BYBLOCK
 62
     0
100
AcDbPoint
 10
-151.2240845200336
 20
108.3829361476659
 30
0.0
  0
ENDBLK
  5
3C9
330
380
100
AcDbEntity
  8
0
100
AcDbBlockEnd
  0
ENDSEC
  0
SECTION
  2
ENTITIES
  0
DIMENSION
  5
3CA
330
18
100
AcDbEntity
  8
ADPDIM
100
AcDbDimension
  2
*D2
 10
-152.9484153360472
 20
114.253339975077
 30
0.0
 11
-151.7196872696137
 21
115.1137046296036
 31
0.0
 12
7.468870930751393
 22
22.33783431639128
 32
0.0
 70
     1
100
AcDbAlignedDimension
 13
-149.7154220823186
 23
114.8664874908172
 33
0.0
 14
-152.1728782151856
 24
113.1457581817641
 34
0.0
  0
LINE
  5
3CB
330
18
100
AcDbEntity
  8
ADP1DETAIL
100
AcDbLine
 10
-150.4252942110848
 20
113.316733721745
 30
0.0
 11
-149.224751970552
 21
114.2435805198411
 31
0.0
  0
ARC
  5
3CC
330
18
100
AcDbEntity
  8
ADP3DETAIL
  6
CENTER2
100
AcDbCircle
 10
-149.1725420205859
 20
111.6815191079221
 30
0.0
 40
3.0
100
AcDbArc
 50
128.0291182612622
 51
180.0
  0
ARC
  5
3CD
330
18
100
AcDbEntity
  8
ADP1DETAIL
100
AcDbCircle
 10
-149.1725420205859
 20
111.6811079060027
 30
0.0
 40
3.95
100
AcDbArc
 50
128.0521026195022
 51
180.0
  0
CIRCLE
  5
3CE
330
18
100
AcDbEntity
  8
0
100
AcDbCircle
 10
-152.1745799881421
 20
108.3546925645614
 30
0.0
 40
0.95
  0
CIRCLE
  5
3CF
330
18
100
AcDbEntity
  8
0
100
AcDbCircle
 10
-152.1745799881421
 20
108.3546925645614
 30
0.0
 40
0.805
  0
DIMENSION
  5
3D0
330
18
100
AcDbEntity
  8
ADPDIM
100
AcDbDimension
  2
*D4
 10
-151.2240845200336
 20
108.3829361476659
 30
0.0
 11
-150.6303345200336
 21
108.3829361476659
 31
0.0
  1
0.145
100
AcDbAlignedDimension
 13
-151.3690845200336
 23
108.3829361476659
 33
0.0
 14
-151.2240845200336
 24
108.3829361476659
 34
0.0
100
AcDbRotatedDimension
  0
DIMENSION
  5
3D1
330
18
100
AcDbEntity
  8
ADPDIM
100
AcDbDimension
  2
*D3
 10
-149.1725420205859
 20
111.583040948677
 30
0.0
 11
-148.9961499508846
 21
111.4946759357196
 31
0.0
 12
7.468870930751393
 22
22.33783431639128
 32
0.0
 70
     4
100
AcDbRadialDimension
 15
-151.8547950002903
 25
112.92673695331
 35
0.0
 40
-2.968121289804252
  0
DIMENSION
  5
3D2
330
18
100
AcDbEntity
  8
ADPDIM
100
AcDbDimension
  2
*D1
 10
-151.2225420205859
 20
109.4958529102944
 30
0.0
 11
-152.1725420205859
 21
109.4958529102944
 31
0.0
 12
7.468870930751393
 22
22.33783431639128
 32
0.0
  1
1.900
100
AcDbAlignedDimension
 13
-153.1225420205859
 23
110.1437733345684
 33
0.0
 14
-151.2225420205859
 24
110.1437733345684
 34
0.0
100
AcDbRotatedDimension
  0
LINE
  5
3D3
330
18
100
AcDbEntity
  8
ADP1DETAIL
100
AcDbLine
 10
-151.2225420205859
 20
110.1437733345684
 30
0.0
 11
-153.1225420205859
 21
110.1437733345684
 31
0.0
  0
DIMENSION
  5
3D4
330
18
100
AcDbEntity
  8
ADPDIM
100
AcDbDimension
  2
*D0
 10
-153.5376360916955
 20
113.1437733345684
 30
0.0
 11
-153.5376360916955
 21
111.6437733345684
 31
0.0
 12
7.468870930751393
 22
22.33783431639128
 32
0.0
100
AcDbAlignedDimension
 13
-153.1225420205859
 23
110.1437733345684
 33
0.0
 14
-152.1652672535665
 24
113.1437733345684
 34
0.0
 50
90.0
100
AcDbRotatedDimension
  0
LINE
  5
3D5
330
18
100
AcDbEntity
  8
ADP3DETAIL
  6
CENTER2
100
AcDbLine
 10
-152.1725420205859
 20
109.7128884935021
 30
0.0
 11
-152.1725420205859
 21
111.6815191079221
 31
0.0
  0
LINE
  5
3D6
330
18
100
AcDbEntity
  8
ADP1DETAIL
100
AcDbLine
 10
-153.1225420205859
 20
110.1437733345684
 30
0.0
 11
-153.1225420205859
 21
111.6811079060027
 31
0.0
  0
LINE
  5
3D7
330
18
100
AcDbEntity
  8
ADP1DETAIL
100
AcDbLine
 10
-151.2225420205859
 20
111.6940470763325
 30
0.0
 11
-151.2225420205859
 21
110.1437733345684
 31
0.0
  0
ARC
  5
3D8
330
18
100
AcDbEntity
  8
ADP1DETAIL
100
AcDbCircle
 10
-149.1725420205859
 20
111.6940470763325
 30
0.0
 40
2.049999999999999
100
AcDbArc
 50
127.6689834922905
 51
180.0
  0
LINE
  5
3D9
330
18
100
AcDbEntity
  8
ADP3DETAIL
  6
CENTER2
100
AcDbLine
 10
-151.0207276317222
 20
114.0446124084054
 30
0.0
 11
-149.3536159337285
 21
115.348467762639
 31
0.0
  0
LINE
  5
3DA
330
18
100
AcDbEntity
  8
ADP1DETAIL
100
AcDbLine
 10
-150.3945082900116
 20
115.7408003326384
 30
0.0
 11
-149.2233904549852
 21
114.2446442523837
 31
0.0
  0
LINE
  5
3DB
330
18
100
AcDbEntity
  8
ADP1DETAIL
100
AcDbLine
 10
-151.6072343618251
 20
114.7915376517953
 30
0.0
 11
-150.3945082900116
 21
115.7408003326384
 31
0.0
  0
TEXT
  5
3E9
330
18
100
AcDbEntity
  8
ADPDIM
100
AcDbText
 10
-161.4311011050543
 20
106.8073468013012
 30
0.0
 40
0.1875
  1
J U L I U S  B L U M  &  C O . ,  I N C .      ( 8 0 0 )  5 2 6 - 6 2 9 3        W W W . J U L I U S B L U M . C O M        P A R T  N o .  7 5 2 5
 41
1.25
  7
ARIAL_WIDE
 72
     1
 11
-151.6425075682193
 21
106.9948468013012
 31
0.0
100
AcDbText
 73
     3
  0
ENDSEC
  0
SECTION
  2
OBJECTS
  0
DICTIONARY
  5
C
330
0
100
AcDbDictionary
  3
ACAD_GROUP
350
D
  3
ACAD_LAYOUT
350
3E2
  3
ACAD_MLINESTYLE
350
E
  3
ACAD_PLOTSETTINGS
350
3E3
  3
ACAD_PLOTSTYLENAME
350
3E0
  3
ACDBHEADERROUNDTRIPXREC
350
52D
  3
ACDBVARIABLEDICTIONARY
350
443
  0
DICTIONARY
  5
43D
330
18
100
AcDbDictionary
280
     1
  3
ACAD_LAYOUTSELFREF
360
54E
  0
DICTIONARY
  5
43B
330
15
100
AcDbDictionary
280
     1
  3
ACAD_LAYOUTSELFREF
360
54D
  0
DICTIONARY
  5
D
102
{ACAD_REACTORS
330
C
102
}
330
C
100
AcDbDictionary
  0
DICTIONARY
  5
3E2
102
{ACAD_REACTORS
330
C
102
}
330
C
100
AcDbDictionary
  0
DICTIONARY
  5
E
102
{ACAD_REACTORS
330
C
102
}
330
C
100
AcDbDictionary
  3
STANDARD
350
1B
  0
DICTIONARY
  5
3E3
102
{ACAD_REACTORS
330
C
102
}
330
C
100
AcDbDictionary
  0
ACDBDICTIONARYWDFLT
  5
3E0
102
{ACAD_REACTORS
330
C
102
}
330
C
100
AcDbDictionary
281
     1
  3
Normal
350
3E1
100
AcDbDictionaryWithDefault
340
3E1
  0
DICTIONARY
  5
52D
102
{ACAD_REACTORS
330
C
102
}
330
C
100
AcDbDictionary
  3
CEPSNTYPE
350
537
  3
FINGERPRINTGUID
350
538
  3
HYPERLINKBASE
350
530
  3
INSUNITS
350
536
  3
LAYOUTDICT
350
532
  3
LWETCUNION
350
535
  3
PLOTSETDICT
350
533
  3
PLOTSTYLNAMDICT
350
534
  3
PSVPSCALE
350
53A
  3
PUCSBASE
350
53D
  3
PUCSORGBACK
350
543
  3
PUCSORGBOTTOM
350
53F
  3
PUCSORGFRONT
350
542
  3
PUCSORGLEFT
350
540
  3
PUCSORGRIGHT
350
541
  3
PUCSORGTOP
350
53E
  3
PUCSORTHOREF
350
53B
  3
PUCSORTHOVIEW
350
53C
  3
STYLESHEET
350
531
  3
TSTACKALIGN
350
52E
  3
TSTACKSIZE
350
52F
  3
UCSBASE
350
546
  3
UCSORGBACK
350
54C
  3
UCSORGBOTTOM
350
548
  3
UCSORGFRONT
350
54B
  3
UCSORGLEFT
350
549
  3
UCSORGRIGHT
350
54A
  3
UCSORGTOP
350
547
  3
UCSORTHOREF
350
544
  3
UCSORTHOVIEW
350
545
  3
VERSIONGUID
350
539
  0
DICTIONARY
  5
443
102
{ACAD_REACTORS
330
C
102
}
330
C
100
AcDbDictionary
  3
DIMASSOC
350
444
  0
XRECORD
  5
54E
102
{ACAD_REACTORS
330
43D
102
}
330
43D
100
AcDbXrecord
340
18
  0
XRECORD
  5
54D
102
{ACAD_REACTORS
330
43B
102
}
330
43B
100
AcDbXrecord
340
15
  0
MLINESTYLE
  5
1B
102
{ACAD_REACTORS
330
E
102
}
330
E
100
AcDbMlineStyle
  2
STANDARD
 70
     0
  3

 62
     0
 51
90.0
 52
90.0
 71
     2
 49
0.5
 62
   256
  6
BYLAYER
 49
-0.5
 62
   256
  6
BYLAYER
  0
ACDBPLACEHOLDER
  5
3E1
102
{ACAD_REACTORS
330
3E0
102
}
330
3E0
100
AcDbPlaceHolder
280
     0
  0
XRECORD
  5
537
102
{ACAD_REACTORS
330
52D
102
}
330
52D
100
AcDbXrecord
 90
        0
  0
XRECORD
  5
538
102
{ACAD_REACTORS
330
52D
102
}
330
52D
100
AcDbXrecord
  1
{E826C36F-0F3D-494C-81A3-4DB5BBAD6663}
  0
XRECORD
  5
530
102
{ACAD_REACTORS
330
52D
102
}
330
52D
100
AcDbXrecord
  1

  0
XRECORD
  5
536
102
{ACAD_REACTORS
330
52D
102
}
330
52D
100
AcDbXrecord
 90
        0
  0
XRECORD
  5
532
102
{ACAD_REACTORS
330
52D
102
}
330
52D
100
AcDbXrecord
340
3E2
  0
XRECORD
  5
535
102
{ACAD_REACTORS
330
52D
102
}
330
52D
100
AcDbXrecord
 90
    14877
  0
XRECORD
  5
533
102
{ACAD_REACTORS
330
52D
102
}
330
52D
100
AcDbXrecord
340
3E3
  0
XRECORD
  5
534
102
{ACAD_REACTORS
330
52D
102
}
330
52D
100
AcDbXrecord
340
3E0
  0
XRECORD
  5
53A
102
{ACAD_REACTORS
330
52D
102
}
330
52D
100
AcDbXrecord
 40
0.0
  0
XRECORD
  5
53D
102
{ACAD_REACTORS
330
52D
102
}
330
52D
100
AcDbXrecord
340
0
  0
XRECORD
  5
543
102
{ACAD_REACTORS
330
52D
102
}
330
52D
100
AcDbXrecord
 10
0.0
 20
0.0
 30
0.0
  0
XRECORD
  5
53F
102
{ACAD_REACTORS
330
52D
102
}
330
52D
100
AcDbXrecord
 10
0.0
 20
0.0
 30
0.0
  0
XRECORD
  5
542
102
{ACAD_REACTORS
330
52D
102
}
330
52D
100
AcDbXrecord
 10
0.0
 20
0.0
 30
0.0
  0
XRECORD
  5
540
102
{ACAD_REACTORS
330
52D
102
}
330
52D
100
AcDbXrecord
 10
0.0
 20
0.0
 30
0.0
  0
XRECORD
  5
541
102
{ACAD_REACTORS
330
52D
102
}
330
52D
100
AcDbXrecord
 10
0.0
 20
0.0
 30
0.0
  0
XRECORD
  5
53E
102
{ACAD_REACTORS
330
52D
102
}
330
52D
100
AcDbXrecord
 10
0.0
 20
0.0
 30
0.0
  0
XRECORD
  5
53B
102
{ACAD_REACTORS
330
52D
102
}
330
52D
100
AcDbXrecord
340
0
  0
XRECORD
  5
53C
102
{ACAD_REACTORS
330
52D
102
}
330
52D
100
AcDbXrecord
 70
     0
  0
XRECORD
  5
531
102
{ACAD_REACTORS
330
52D
102
}
330
52D
100
AcDbXrecord
  1

  0
XRECORD
  5
52E
102
{ACAD_REACTORS
330
52D
102
}
330
52D
100
AcDbXrecord
 90
        1
  0
XRECORD
  5
52F
102
{ACAD_REACTORS
330
52D
102
}
330
52D
100
AcDbXrecord
 90
       70
  0
XRECORD
  5
546
102
{ACAD_REACTORS
330
52D
102
}
330
52D
100
AcDbXrecord
340
0
  0
XRECORD
  5
54C
102
{ACAD_REACTORS
330
52D
102
}
330
52D
100
AcDbXrecord
 10
0.0
 20
0.0
 30
0.0
  0
XRECORD
  5
548
102
{ACAD_REACTORS
330
52D
102
}
330
52D
100
AcDbXrecord
 10
0.0
 20
0.0
 30
0.0
  0
XRECORD
  5
54B
102
{ACAD_REACTORS
330
52D
102
}
330
52D
100
AcDbXrecord
 10
0.0
 20
0.0
 30
0.0
  0
XRECORD
  5
549
102
{ACAD_REACTORS
330
52D
102
}
330
52D
100
AcDbXrecord
 10
0.0
 20
0.0
 30
0.0
  0
XRECORD
  5
54A
102
{ACAD_REACTORS
330
52D
102
}
330
52D
100
AcDbXrecord
 10
0.0
 20
0.0
 30
0.0
  0
XRECORD
  5
547
102
{ACAD_REACTORS
330
52D
102
}
330
52D
100
AcDbXrecord
 10
0.0
 20
0.0
 30
0.0
  0
XRECORD
  5
544
102
{ACAD_REACTORS
330
52D
102
}
330
52D
100
AcDbXrecord
340
0
  0
XRECORD
  5
545
102
{ACAD_REACTORS
330
52D
102
}
330
52D
100
AcDbXrecord
 70
     0
  0
XRECORD
  5
539
102
{ACAD_REACTORS
330
52D
102
}
330
52D
100
AcDbXrecord
  1
{1268CF05-218C-486E-B5B1-9469A853CD2A}
  0
DICTIONARYVAR
  5
444
102
{ACAD_REACTORS
330
443
102
}
330
443
100
DictionaryVariables
280
     0
  1
1
  0
ENDSEC
  0
EOF
