  0
SECTION
  2
HEADER
  9
$ACADVER
  1
AC1014
  9
$ACADMAINTVER
 70
     9
  9
$DWGCODEPAGE
  3
ANSI_1252
  9
$INSBASE
 10
-20.34024750068598
 20
7.192528963325576
 30
0.0
  9
$EXTMIN
 10
-30.04171233972536
 20
3.716187880885823
 30
0.0
  9
$EXTMAX
 10
-10.46452526605551
 20
13.96045580228252
 30
0.0
  9
$LIMMIN
 10
0.0
 20
0.0
  9
$LIMMAX
 10
36.0
 20
36.0
  9
$ORTHOMODE
 70
     1
  9
$REGENMODE
 70
     1
  9
$FILLMODE
 70
     1
  9
$QTEXTMODE
 70
     0
  9
$MIRRTEXT
 70
     1
  9
$DRAGMODE
 70
     0
  9
$LTSCALE
 40
1.0
  9
$OSMODE
 70
    37
  9
$ATTMODE
 70
     1
  9
$TEXTSIZE
 40
0.2
  9
$TRACEWID
 40
0.05
  9
$TEXTSTYLE
  7
STANDARD
  9
$CLAYER
  8
0
  9
$CELTYPE
  6
BYLAYER
  9
$CECOLOR
 62
   256
  9
$CELTSCALE
 40
1.0
  9
$DELOBJ
 70
     1
  9
$DISPSILH
 70
     0
  9
$DIMSCALE
 40
1.0
  9
$DIMASZ
 40
0.125
  9
$DIMEXO
 40
0.0625
  9
$DIMDLI
 40
0.38
  9
$DIMRND
 40
0.0
  9
$DIMDLE
 40
0.0
  9
$DIMEXE
 40
0.18
  9
$DIMTP
 40
0.0
  9
$DIMTM
 40
0.0
  9
$DIMTXT
 40
0.125
  9
$DIMCEN
 40
0.1875
  9
$DIMTSZ
 40
0.125
  9
$DIMTOL
 70
     0
  9
$DIMLIM
 70
     0
  9
$DIMTIH
 70
     0
  9
$DIMTOH
 70
     0
  9
$DIMSE1
 70
     0
  9
$DIMSE2
 70
     0
  9
$DIMTAD
 70
     0
  9
$DIMZIN
 70
     3
  9
$DIMBLK
  1

  9
$DIMASO
 70
     1
  9
$DIMSHO
 70
     1
  9
$DIMPOST
  1

  9
$DIMAPOST
  1

  9
$DIMALT
 70
     0
  9
$DIMALTD
 70
     1
  9
$DIMALTF
 40
25.4
  9
$DIMLFAC
 40
1.0
  9
$DIMTOFL
 70
     0
  9
$DIMTVP
 40
0.0
  9
$DIMTIX
 70
     0
  9
$DIMSOXD
 70
     0
  9
$DIMSAH
 70
     0
  9
$DIMBLK1
  1

  9
$DIMBLK2
  1

  9
$DIMSTYLE
  2
STANDARD
  9
$DIMCLRD
 70
     0
  9
$DIMCLRE
 70
     0
  9
$DIMCLRT
 70
     0
  9
$DIMTFAC
 40
1.0
  9
$DIMGAP
 40
0.125
  9
$DIMJUST
 70
     0
  9
$DIMSD1
 70
     0
  9
$DIMSD2
 70
     0
  9
$DIMTOLJ
 70
     1
  9
$DIMTZIN
 70
     0
  9
$DIMALTZ
 70
     0
  9
$DIMALTTZ
 70
     0
  9
$DIMFIT
 70
     3
  9
$DIMUPT
 70
     0
  9
$DIMUNIT
 70
     2
  9
$DIMDEC
 70
     4
  9
$DIMTDEC
 70
     4
  9
$DIMALTU
 70
     2
  9
$DIMALTTD
 70
     2
  9
$DIMTXSTY
  7
STANDARD
  9
$DIMAUNIT
 70
     0
  9
$LUNITS
 70
     5
  9
$LUPREC
 70
     4
  9
$SKETCHINC
 40
0.1
  9
$FILLETRAD
 40
0.062
  9
$AUNITS
 70
     0
  9
$AUPREC
 70
     0
  9
$MENU
  1
acad
  9
$ELEVATION
 40
0.0
  9
$PELEVATION
 40
0.0
  9
$THICKNESS
 40
0.0
  9
$LIMCHECK
 70
     0
  9
$BLIPMODE
 70
     0
  9
$CHAMFERA
 40
0.0
  9
$CHAMFERB
 40
0.0
  9
$CHAMFERC
 40
0.0
  9
$CHAMFERD
 40
0.0
  9
$SKPOLY
 70
     0
  9
$TDCREATE
 40
2450387.524922835
  9
$TDUPDATE
 40
2452297.102577037
  9
$TDINDWG
 40
0.0679434491
  9
$TDUSRTIMER
 40
0.0679434491
  9
$USRTIMER
 70
     1
  9
$ANGBASE
 50
0.0
  9
$ANGDIR
 70
     0
  9
$PDMODE
 70
     0
  9
$PDSIZE
 40
0.0
  9
$PLINEWID
 40
0.0
  9
$COORDS
 70
     2
  9
$SPLFRAME
 70
     0
  9
$SPLINETYPE
 70
     6
  9
$SPLINESEGS
 70
     8
  9
$ATTDIA
 70
     0
  9
$ATTREQ
 70
     1
  9
$HANDLING
 70
 22529
  9
$HANDSEED
  5
3E7
  9
$SURFTAB1
 70
     6
  9
$SURFTAB2
 70
     6
  9
$SURFTYPE
 70
     6
  9
$SURFU
 70
     6
  9
$SURFV
 70
     6
  9
$UCSNAME
  2

  9
$UCSORG
 10
0.0
 20
0.0
 30
0.0
  9
$UCSXDIR
 10
1.0
 20
0.0
 30
0.0
  9
$UCSYDIR
 10
0.0
 20
1.0
 30
0.0
  9
$PUCSNAME
  2

  9
$PUCSORG
 10
0.0
 20
0.0
 30
0.0
  9
$PUCSXDIR
 10
1.0
 20
0.0
 30
0.0
  9
$PUCSYDIR
 10
0.0
 20
1.0
 30
0.0
  9
$USERI1
 70
     0
  9
$USERI2
 70
     0
  9
$USERI3
 70
     0
  9
$USERI4
 70
     0
  9
$USERI5
 70
     0
  9
$USERR1
 40
0.0
  9
$USERR2
 40
0.0
  9
$USERR3
 40
0.0
  9
$USERR4
 40
0.0
  9
$USERR5
 40
0.0
  9
$WORLDVIEW
 70
     1
  9
$SHADEDGE
 70
     3
  9
$SHADEDIF
 70
    70
  9
$TILEMODE
 70
     1
  9
$MAXACTVP
 70
    15
  9
$PINSBASE
 10
0.0
 20
0.0
 30
0.0
  9
$PLIMCHECK
 70
     0
  9
$PEXTMIN
 10
1.000000000000000E+20
 20
1.000000000000000E+20
 30
1.000000000000000E+20
  9
$PEXTMAX
 10
-1.000000000000000E+20
 20
-1.000000000000000E+20
 30
-1.000000000000000E+20
  9
$PLIMMIN
 10
0.0
 20
0.0
  9
$PLIMMAX
 10
12.0
 20
9.0
  9
$UNITMODE
 70
     0
  9
$VISRETAIN
 70
     0
  9
$PLINEGEN
 70
     0
  9
$PSLTSCALE
 70
     1
  9
$TREEDEPTH
 70
  3020
  9
$PICKSTYLE
 70
     1
  9
$CMLSTYLE
  2
STANDARD
  9
$CMLJUST
 70
     0
  9
$CMLSCALE
 40
1.0
  9
$PROXYGRAPHICS
 70
     1
  9
$MEASUREMENT
 70
     0
  0
ENDSEC
  0
SECTION
  2
CLASSES
  0
CLASS
  1
ACDBDICTIONARYWDFLT
  2
AcDbDictionaryWithDefault
  3
AutoCAD 2000
 90
        0
280
     0
281
     0
  0
CLASS
  1
ACDBPLACEHOLDER
  2
AcDbPlaceHolder
  3
AutoCAD 2000
 90
        0
280
     0
281
     0
  0
CLASS
  1
LAYOUT
  2
AcDbLayout
  3
AutoCAD 2000
 90
        0
280
     0
281
     0
  0
CLASS
  1
DICTIONARYVAR
  2
AcDbDictionaryVar
  3
AutoCAD 2000
 90
        0
280
     0
281
     0
  0
CLASS
  1
LONG_TRANSACTION
  2
AcDbLongTransaction
  3
AutoCAD 2000
 90
        0
280
     0
281
     0
  0
CLASS
  1
LWPOLYLINE
  2
AcDbPolyline
  3
AutoCAD 2000
 90
        0
280
     0
281
     1
  0
CLASS
  1
HATCH
  2
AcDbHatch
  3
AutoCAD 2000
 90
        0
280
     0
281
     1
  0
CLASS
  1
XRECORD
  2
AcDbXrecord
  3
AutoCAD 2000
 90
        0
280
     0
281
     0
  0
CLASS
  1
LONG_TRANSACTION
  2
AcDbLongTransaction
  3
AutoCAD 2000
 90
        0
280
     0
281
     0
  0
CLASS
  1
LWPOLYLINE
  2
AcDbPolyline
  3
AutoCAD 2000
 90
        0
280
     0
281
     1
  0
CLASS
  1
HATCH
  2
AcDbHatch
  3
AutoCAD 2000
 90
        0
280
     0
281
     1
  0
CLASS
  1
XRECORD
  2
AcDbXrecord
  3
AutoCAD 2000
 90
        0
280
     0
281
     0
  0
CLASS
  1
LONG_TRANSACTION
  2
AcDbLongTransaction
  3
AutoCAD 2000
 90
        0
280
     0
281
     0
  0
CLASS
  1
LWPOLYLINE
  2
AcDbPolyline
  3
AutoCAD 2000
 90
        0
280
     0
281
     1
  0
CLASS
  1
HATCH
  2
AcDbHatch
  3
AutoCAD 2000
 90
        0
280
     0
281
     1
  0
CLASS
  1
XRECORD
  2
AcDbXrecord
  3
AutoCAD 2000
 90
        0
280
     0
281
     0
  0
CLASS
  1
LONG_TRANSACTION
  2
AcDbLongTransaction
  3
AutoCAD 2000
 90
        0
280
     0
281
     0
  0
CLASS
  1
LWPOLYLINE
  2
AcDbPolyline
  3
AutoCAD 2000
 90
        0
280
     0
281
     1
  0
CLASS
  1
HATCH
  2
AcDbHatch
  3
AutoCAD 2000
 90
        0
280
     0
281
     1
  0
CLASS
  1
XRECORD
  2
AcDbXrecord
  3
AutoCAD 2000
 90
        0
280
     0
281
     0
  0
CLASS
  1
LONG_TRANSACTION
  2
AcDbLongTransaction
  3
AutoCAD 2000
 90
        0
280
     0
281
     0
  0
CLASS
  1
LWPOLYLINE
  2
AcDbPolyline
  3
AutoCAD 2000
 90
        0
280
     0
281
     1
  0
CLASS
  1
HATCH
  2
AcDbHatch
  3
AutoCAD 2000
 90
        0
280
     0
281
     1
  0
CLASS
  1
XRECORD
  2
AcDbXrecord
  3
AutoCAD 2000
 90
        0
280
     0
281
     0
  0
ENDSEC
  0
SECTION
  2
TABLES
  0
TABLE
  2
VPORT
  5
8
330
0
100
AcDbSymbolTable
 70
     2
  0
VPORT
  5
3C4
330
8
100
AcDbSymbolTableRecord
100
AcDbViewportTableRecord
  2
*ACTIVE
 70
     0
 10
0.0
 20
0.0
 11
1.0
 21
1.0
 12
-20.23741078595856
 22
8.838775707919591
 13
0.0
 23
0.0
 14
0.5740882589684922
 24
0.5740882589684922
 15
0.5
 25
0.5
 16
0.0
 26
0.0
 36
1.0
 17
0.0
 27
0.0
 37
0.0
 40
12.55089461302917
 41
1.570528967254408
 42
50.0
 43
0.0
 44
0.0
 50
0.0
 51
0.0
 71
     0
 72
   100
 73
     1
 74
     0
 75
     0
 76
     0
 77
     0
 78
     0
  0
ENDTAB
  0
TABLE
  2
LTYPE
  5
5
330
0
100
AcDbSymbolTable
 70
     2
  0
LTYPE
  5
12
330
5
100
AcDbSymbolTableRecord
100
AcDbLinetypeTableRecord
  2
BYBLOCK
 70
     0
  3

 72
    65
 73
     0
 40
0.0
  0
LTYPE
  5
13
330
5
100
AcDbSymbolTableRecord
100
AcDbLinetypeTableRecord
  2
BYLAYER
 70
     0
  3

 72
    65
 73
     0
 40
0.0
  0
LTYPE
  5
14
330
5
100
AcDbSymbolTableRecord
100
AcDbLinetypeTableRecord
  2
CONTINUOUS
 70
     0
  3
Solid line
 72
    65
 73
     0
 40
0.0
  0
LTYPE
  5
21E
330
5
100
AcDbSymbolTableRecord
100
AcDbLinetypeTableRecord
  2
CENTER2
 70
     0
  3
___ _ ___ _ ___ _ ___ _ ___ _ ___ _ ___ _ ___ _
 72
    65
 73
     4
 40
1.125
 49
0.75
 74
     0
 49
-0.125
 74
     0
 49
0.125
 74
     0
 49
-0.125
 74
     0
  0
ENDTAB
  0
TABLE
  2
LAYER
  5
2
330
0
100
AcDbSymbolTable
 70
     5
  0
LAYER
  5
F
330
2
100
AcDbSymbolTableRecord
100
AcDbLayerTableRecord
  2
0
 70
     0
 62
     7
  6
CONTINUOUS
  0
LAYER
  5
21F
330
2
100
AcDbSymbolTableRecord
100
AcDbLayerTableRecord
  2
ADP1DETAIL
 70
     0
 62
     7
  6
CONTINUOUS
  0
LAYER
  5
220
330
2
100
AcDbSymbolTableRecord
100
AcDbLayerTableRecord
  2
DEFPOINTS
 70
     0
 62
     7
  6
CONTINUOUS
  0
LAYER
  5
224
330
2
100
AcDbSymbolTableRecord
100
AcDbLayerTableRecord
  2
ADP3DETAIL
 70
     0
 62
     1
  6
CONTINUOUS
  0
LAYER
  5
227
330
2
100
AcDbSymbolTableRecord
100
AcDbLayerTableRecord
  2
ADPDIM
 70
     0
 62
     3
  6
CONTINUOUS
  0
ENDTAB
  0
TABLE
  2
STYLE
  5
3
330
0
100
AcDbSymbolTable
 70
     2
  0
STYLE
  5
10
330
3
100
AcDbSymbolTableRecord
100
AcDbTextStyleTableRecord
  2
STANDARD
 70
     0
 40
0.0
 41
1.0
 50
0.0
 71
     0
 42
0.2
  3
txt
  4

  0
STYLE
  5
280
330
3
100
AcDbSymbolTableRecord
100
AcDbTextStyleTableRecord
  2
ARIAL_WIDE
 70
     0
 40
0.0
 41
1.25
 50
0.0
 71
     0
 42
0.2
  3
ARIAL.TTF
  4

1001
ACAD
1000
Arial
1071
       34
  0
ENDTAB
  0
TABLE
  2
VIEW
  5
6
330
0
100
AcDbSymbolTable
 70
     0
  0
ENDTAB
  0
TABLE
  2
UCS
  5
7
330
0
100
AcDbSymbolTable
 70
     0
  0
ENDTAB
  0
TABLE
  2
APPID
  5
9
330
0
100
AcDbSymbolTable
 70
     1
  0
APPID
  5
11
330
9
100
AcDbSymbolTableRecord
100
AcDbRegAppTableRecord
  2
ACAD
 70
     0
  0
ENDTAB
  0
TABLE
  2
DIMSTYLE
  5
A
330
0
100
AcDbSymbolTable
 70
     1
  0
DIMSTYLE
105
274
330
A
100
AcDbSymbolTableRecord
100
AcDbDimStyleTableRecord
  2
STANDARD
 70
     0
  3

  4

  5

  6

  7

 40
1.0
 41
0.18
 42
0.0625
 43
0.38
 44
0.18
 45
0.0
 46
0.0
 47
0.0
 48
0.0
140
0.18
141
0.09
142
0.0
143
25.4
144
1.0
145
0.0
146
1.0
147
0.09
 71
     0
 72
     0
 73
     1
 74
     1
 75
     0
 76
     0
 77
     0
 78
     0
170
     0
171
     2
172
     0
173
     0
174
     0
175
     0
176
     0
177
     0
178
     0
270
     2
271
     4
272
     4
273
     2
274
     2
340
10
275
     0
280
     0
281
     0
282
     0
283
     1
284
     0
285
     0
286
     0
287
     3
288
     0
  0
ENDTAB
  0
TABLE
  2
BLOCK_RECORD
  5
1
330
0
100
AcDbSymbolTable
 70
     5
  0
BLOCK_RECORD
  5
18
102
{ACAD_XDICTIONARY
360
2D5
102
}
330
1
100
AcDbSymbolTableRecord
100
AcDbBlockTableRecord
  2
*MODEL_SPACE
  0
BLOCK_RECORD
  5
15
102
{ACAD_XDICTIONARY
360
2D3
102
}
330
1
100
AcDbSymbolTableRecord
100
AcDbBlockTableRecord
  2
*PAPER_SPACE
  0
BLOCK_RECORD
  5
217
330
1
100
AcDbSymbolTableRecord
100
AcDbBlockTableRecord
  2
*D0
  0
BLOCK_RECORD
  5
218
330
1
100
AcDbSymbolTableRecord
100
AcDbBlockTableRecord
  2
*D1
  0
BLOCK_RECORD
  5
21A
330
1
100
AcDbSymbolTableRecord
100
AcDbBlockTableRecord
  2
*D2
  0
BLOCK_RECORD
  5
21B
330
1
100
AcDbSymbolTableRecord
100
AcDbBlockTableRecord
  2
*D3
  0
BLOCK_RECORD
  5
21C
330
1
100
AcDbSymbolTableRecord
100
AcDbBlockTableRecord
  2
*D4
  0
ENDTAB
  0
ENDSEC
  0
SECTION
  2
BLOCKS
  0
BLOCK
  5
22A
330
18
100
AcDbEntity
  8
0
100
AcDbBlockBegin
  2
*MODEL_SPACE
 70
     0
 10
0.0
 20
0.0
 30
0.0
  3
*MODEL_SPACE
  1

  0
ENDBLK
  5
22B
330
18
100
AcDbEntity
  8
0
100
AcDbBlockEnd
  0
BLOCK
  5
228
330
15
100
AcDbEntity
 67
     1
  8
0
100
AcDbBlockBegin
  2
*PAPER_SPACE
 70
     0
 10
0.0
 20
0.0
 30
0.0
  3
*PAPER_SPACE
  1

  0
ENDBLK
  5
229
330
15
100
AcDbEntity
 67
     1
  8
0
100
AcDbBlockEnd
  0
BLOCK
  5
22D
330
217
100
AcDbEntity
  8
0
100
AcDbBlockBegin
  2
*D0
 70
     1
 10
0.0
 20
0.0
 30
0.0
  3
*D0
  1

  0
LINE
  5
22E
330
217
100
AcDbEntity
  8
0
  6
BYBLOCK
 62
     0
100
AcDbLine
 10
-18.35281092973051
 20
12.19252896265503
 30
0.0
 11
-22.95567269293377
 21
12.19252896265503
 31
0.0
  0
LINE
  5
22F
330
217
100
AcDbEntity
  8
0
  6
BYBLOCK
 62
     0
100
AcDbLine
 10
-22.30274750068598
 20
7.192528963325576
 30
0.0
 11
-22.95567269293377
 21
7.192528963325576
 31
0.0
  0
LINE
  5
230
330
217
100
AcDbEntity
  8
0
  6
BYBLOCK
 62
     0
100
AcDbLine
 10
-22.77567269293377
 20
12.19252896265503
 30
0.0
 11
-22.77567269293377
 21
9.859195629656973
 31
0.0
  0
LINE
  5
231
330
217
100
AcDbEntity
  8
0
  6
BYBLOCK
 62
     0
100
AcDbLine
 10
-22.77567269293377
 20
7.192528963325576
 30
0.0
 11
-22.77567269293377
 21
9.525862296323641
 31
0.0
  0
LINE
  5
232
330
217
100
AcDbEntity
  8
0
  6
BYBLOCK
 62
     0
100
AcDbLine
 10
-22.65067269293377
 20
12.06752896265503
 30
0.0
 11
-22.90067269293377
 21
12.31752896265503
 31
0.0
  0
LINE
  5
233
330
217
100
AcDbEntity
  8
0
  6
BYBLOCK
 62
     0
100
AcDbLine
 10
-22.65067269293377
 20
7.067528963325576
 30
0.0
 11
-22.90067269293377
 21
7.317528963325576
 31
0.0
  0
TEXT
  5
234
330
217
100
AcDbEntity
  8
0
  6
BYBLOCK
 62
     0
100
AcDbText
 10
-22.71317269293377
 20
9.650862296323641
 30
0.0
 40
0.125
  1
5
 50
90.0
 72
     1
 11
-22.77567269293377
 21
9.692528962990307
 31
0.0
100
AcDbText
 73
     2
  0
POINT
  5
235
330
217
100
AcDbEntity
  8
DEFPOINTS
  6
BYBLOCK
 62
     0
100
AcDbPoint
 10
-18.29031092973051
 20
12.19252896265503
 30
0.0
  0
POINT
  5
236
330
217
100
AcDbEntity
  8
DEFPOINTS
  6
BYBLOCK
 62
     0
100
AcDbPoint
 10
-22.24024750068598
 20
7.192528963325576
 30
0.0
  0
POINT
  5
237
330
217
100
AcDbEntity
  8
DEFPOINTS
  6
BYBLOCK
 62
     0
100
AcDbPoint
 10
-22.77567269293377
 20
7.192528963325576
 30
0.0
  0
ENDBLK
  5
238
330
217
100
AcDbEntity
  8
0
100
AcDbBlockEnd
  0
BLOCK
  5
239
330
218
100
AcDbEntity
  8
0
100
AcDbBlockBegin
  2
*D1
 70
     1
 10
0.0
 20
0.0
 30
0.0
  3
*D1
  1

  0
LINE
  5
23A
330
218
100
AcDbEntity
  8
0
  6
BYBLOCK
 62
     0
100
AcDbLine
 10
-22.24024750068598
 20
7.130028963325576
 30
0.0
 11
-22.24024750068598
 21
6.368292356939392
 31
0.0
  0
LINE
  5
23B
330
218
100
AcDbEntity
  8
0
  6
BYBLOCK
 62
     0
100
AcDbLine
 10
-20.34024750068598
 20
7.130028963325576
 30
0.0
 11
-20.34024750068598
 21
6.368292356939392
 31
0.0
  0
LINE
  5
23C
330
218
100
AcDbEntity
  8
0
  6
BYBLOCK
 62
     0
100
AcDbLine
 10
-22.24024750068598
 20
6.548292356939391
 30
0.0
 11
-21.62358083401931
 21
6.548292356939391
 31
0.0
  0
LINE
  5
23D
330
218
100
AcDbEntity
  8
0
  6
BYBLOCK
 62
     0
100
AcDbLine
 10
-20.34024750068598
 20
6.548292356939391
 30
0.0
 11
-20.95691416735265
 21
6.548292356939391
 31
0.0
  0
LINE
  5
23E
330
218
100
AcDbEntity
  8
0
  6
BYBLOCK
 62
     0
100
AcDbLine
 10
-22.36524750068598
 20
6.423292356939391
 30
0.0
 11
-22.11524750068598
 21
6.673292356939391
 31
0.0
  0
LINE
  5
23F
330
218
100
AcDbEntity
  8
0
  6
BYBLOCK
 62
     0
100
AcDbLine
 10
-20.46524750068598
 20
6.423292356939391
 30
0.0
 11
-20.21524750068598
 21
6.673292356939391
 31
0.0
  0
TEXT
  5
240
330
218
100
AcDbEntity
  8
0
  6
BYBLOCK
 62
     0
100
AcDbText
 10
-21.49858083401932
 20
6.485792356939391
 30
0.0
 40
0.125
  1
1.900
 72
     1
 11
-21.29024750068598
 21
6.548292356939391
 31
0.0
100
AcDbText
 73
     2
  0
POINT
  5
241
330
218
100
AcDbEntity
  8
DEFPOINTS
  6
BYBLOCK
 62
     0
100
AcDbPoint
 10
-22.24024750068598
 20
7.192528963325576
 30
0.0
  0
POINT
  5
242
330
218
100
AcDbEntity
  8
DEFPOINTS
  6
BYBLOCK
 62
     0
100
AcDbPoint
 10
-20.34024750068598
 20
7.192528963325576
 30
0.0
  0
POINT
  5
243
330
218
100
AcDbEntity
  8
DEFPOINTS
  6
BYBLOCK
 62
     0
100
AcDbPoint
 10
-20.34024750068598
 20
6.548292356939391
 30
0.0
  0
ENDBLK
  5
244
330
218
100
AcDbEntity
  8
0
100
AcDbBlockEnd
  0
BLOCK
  5
245
330
21A
100
AcDbEntity
  8
0
100
AcDbBlockBegin
  2
*D2
 70
     1
 10
0.0
 20
0.0
 30
0.0
  3
*D2
  1

  0
LINE
  5
246
330
21A
100
AcDbEntity
  8
0
  6
BYBLOCK
 62
     0
100
AcDbLine
 10
-20.49405036381029
 20
5.296953804350811
 30
0.0
 11
-20.49405036381029
 21
5.165485836618607
 31
0.0
  0
LINE
  5
247
330
21A
100
AcDbEntity
  8
0
  6
BYBLOCK
 62
     0
100
AcDbLine
 10
-20.34905036381029
 20
5.296953804350811
 30
0.0
 11
-20.34905036381029
 21
5.165485836618607
 31
0.0
  0
LINE
  5
248
330
21A
100
AcDbEntity
  8
0
  6
BYBLOCK
 62
     0
100
AcDbLine
 10
-20.49405036381029
 20
5.345485836618607
 30
0.0
 11
-20.74405036381029
 21
5.345485836618607
 31
0.0
  0
LINE
  5
249
330
21A
100
AcDbEntity
  8
0
  6
BYBLOCK
 62
     0
100
AcDbLine
 10
-20.34905036381029
 20
5.345485836618607
 30
0.0
 11
-20.09905036381029
 21
5.345485836618607
 31
0.0
  0
LINE
  5
24A
330
21A
100
AcDbEntity
  8
0
  6
BYBLOCK
 62
     0
100
AcDbLine
 10
-20.61905036381029
 20
5.220485836618607
 30
0.0
 11
-20.36905036381029
 21
5.470485836618607
 31
0.0
  0
LINE
  5
24B
330
21A
100
AcDbEntity
  8
0
  6
BYBLOCK
 62
     0
100
AcDbLine
 10
-20.47405036381029
 20
5.220485836618607
 30
0.0
 11
-20.22405036381029
 21
5.470485836618607
 31
0.0
  0
TEXT
  5
24C
330
21A
100
AcDbEntity
  8
0
  6
BYBLOCK
 62
     0
100
AcDbText
 10
-19.97405036381029
 20
5.282985836618607
 30
0.0
 40
0.125
  1
0.145
 72
     1
 11
-19.75530036381029
 21
5.345485836618607
 31
0.0
100
AcDbText
 73
     2
  0
POINT
  5
24D
330
21A
100
AcDbEntity
  8
DEFPOINTS
  6
BYBLOCK
 62
     0
100
AcDbPoint
 10
-20.49405036381029
 20
5.359453804350811
 30
0.0
  0
POINT
  5
24E
330
21A
100
AcDbEntity
  8
DEFPOINTS
  6
BYBLOCK
 62
     0
100
AcDbPoint
 10
-20.34905036381029
 20
5.359453804350811
 30
0.0
  0
POINT
  5
24F
330
21A
100
AcDbEntity
  8
DEFPOINTS
  6
BYBLOCK
 62
     0
100
AcDbPoint
 10
-20.34905036381029
 20
5.345485836618607
 30
0.0
  0
ENDBLK
  5
250
330
21A
100
AcDbEntity
  8
0
100
AcDbBlockEnd
  0
BLOCK
  5
251
330
21B
100
AcDbEntity
  8
0
100
AcDbBlockBegin
  2
*D3
 70
     1
 10
0.0
 20
0.0
 30
0.0
  3
*D3
  1

  0
LINE
  5
252
330
21B
100
AcDbEntity
  8
0
  6
BYBLOCK
 62
     0
100
AcDbLine
 10
-18.29169221627082
 20
13.20502815818899
 30
0.0
 11
-18.29169221627082
 21
13.61392367923015
 31
0.0
  0
LINE
  5
253
330
21B
100
AcDbEntity
  8
0
  6
BYBLOCK
 62
     0
100
AcDbLine
 10
-21.29024750068599
 20
9.255028963325576
 30
0.0
 11
-21.29024750068599
 21
13.61392367923015
 31
0.0
  0
LINE
  5
254
330
21B
100
AcDbEntity
  8
0
  6
BYBLOCK
 62
     0
100
AcDbLine
 10
-18.29169221627082
 20
13.43392367923015
 30
0.0
 11
-19.62430319181174
 21
13.43392367923015
 31
0.0
  0
LINE
  5
255
330
21B
100
AcDbEntity
  8
0
  6
BYBLOCK
 62
     0
100
AcDbLine
 10
-21.29024750068599
 20
13.43392367923015
 30
0.0
 11
-19.95763652514507
 21
13.43392367923015
 31
0.0
  0
LINE
  5
256
330
21B
100
AcDbEntity
  8
0
  6
BYBLOCK
 62
     0
100
AcDbLine
 10
-18.41669221627082
 20
13.30892367923015
 30
0.0
 11
-18.16669221627082
 21
13.55892367923015
 31
0.0
  0
LINE
  5
257
330
21B
100
AcDbEntity
  8
0
  6
BYBLOCK
 62
     0
100
AcDbLine
 10
-21.41524750068599
 20
13.30892367923015
 30
0.0
 11
-21.16524750068598
 21
13.55892367923015
 31
0.0
  0
TEXT
  5
258
330
21B
100
AcDbEntity
  8
0
  6
BYBLOCK
 62
     0
100
AcDbText
 10
-19.83263652514507
 20
13.37142367923015
 30
0.0
 40
0.125
  1
3
 72
     1
 11
-19.7909698584784
 21
13.43392367923015
 31
0.0
100
AcDbText
 73
     2
  0
POINT
  5
259
330
21B
100
AcDbEntity
  8
DEFPOINTS
  6
BYBLOCK
 62
     0
100
AcDbPoint
 10
-18.29169221627082
 20
13.14252815818899
 30
0.0
  0
POINT
  5
25A
330
21B
100
AcDbEntity
  8
DEFPOINTS
  6
BYBLOCK
 62
     0
100
AcDbPoint
 10
-21.29024750068599
 20
9.192528963325576
 30
0.0
  0
POINT
  5
25B
330
21B
100
AcDbEntity
  8
DEFPOINTS
  6
BYBLOCK
 62
     0
100
AcDbPoint
 10
-21.29024750068599
 20
13.43392367923015
 30
0.0
  0
ENDBLK
  5
25C
330
21B
100
AcDbEntity
  8
0
100
AcDbBlockEnd
  0
BLOCK
  5
25D
330
21C
100
AcDbEntity
  8
0
100
AcDbBlockBegin
  2
*D4
 70
     1
 10
0.0
 20
0.0
 30
0.0
  3
*D4
  1

  0
LINE
  5
25E
330
21C
100
AcDbEntity
  8
0
  6
BYBLOCK
 62
     0
100
AcDbLine
 10
-20.47155913031525
 20
11.2521113419752
 30
0.0
 11
-18.29441043635791
 21
9.196459584167131
 31
0.0
  0
LINE
  5
25F
330
21C
100
AcDbEntity
  8
0
  6
BYBLOCK
 62
     0
100
AcDbLine
 10
-20.64826304732688
 20
11.24703928985105
 30
0.0
 11
-20.29485521330364
 21
11.25718339409936
 31
0.0
  0
TEXT
  5
260
330
21C
100
AcDbEntity
  8
0
  6
BYBLOCK
 62
     0
100
AcDbText
 10
-18.24643041801189
 20
9.065199659439452
 30
0.0
 40
0.125
  1
R3
 50
316.6441480981661
 72
     1
 11
-18.12778246465011
 21
9.03913037468695
 31
0.0
100
AcDbText
 73
     2
  0
POINT
  5
261
330
21C
100
AcDbEntity
  8
DEFPOINTS
  6
BYBLOCK
 62
     0
100
AcDbPoint
 10
-20.47155913031525
 20
11.2521113419752
 30
0.0
  0
POINT
  5
262
330
21C
100
AcDbEntity
  8
DEFPOINTS
  6
BYBLOCK
 62
     0
100
AcDbPoint
 10
-18.29024750068598
 20
9.192528963325573
 30
0.0
  0
ENDBLK
  5
263
330
21C
100
AcDbEntity
  8
0
100
AcDbBlockEnd
  0
ENDSEC
  0
SECTION
  2
ENTITIES
  0
ARC
  5
264
330
18
100
AcDbEntity
  8
ADP1DETAIL
100
AcDbCircle
 10
-18.29024750068598
 20
9.192528963325576
 30
0.0
 40
2.05
100
AcDbArc
 50
89.99208836202253
 51
180.0
  0
LINE
  5
265
330
18
100
AcDbEntity
  8
ADP1DETAIL
100
AcDbLine
 10
-18.29169221627082
 20
13.14252815818899
 30
0.0
 11
-18.28996442821642
 21
11.24252894378166
 31
0.0
  0
DIMENSION
  5
266
330
18
100
AcDbEntity
  8
ADPDIM
100
AcDbDimension
  2
*D3
 10
-21.29024750068599
 20
13.43392367923015
 30
0.0
 11
-19.7909698584784
 21
13.43392367923015
 31
0.0
100
AcDbAlignedDimension
 13
-18.29169221627082
 23
13.14252815818899
 33
0.0
 14
-21.29024750068599
 24
9.192528963325576
 34
0.0
100
AcDbRotatedDimension
  0
ARC
  5
267
330
18
100
AcDbEntity
  8
ADP3DETAIL
  6
CENTER2
100
AcDbCircle
 10
-18.29024750068598
 20
9.192528963325576
 30
0.0
 40
3.0
100
AcDbArc
 50
90.00121140551682
 51
180.0
  0
ARC
  5
268
330
18
100
AcDbEntity
  8
ADP1DETAIL
100
AcDbCircle
 10
-18.29024750068598
 20
9.192528963325576
 30
0.0
 40
3.95
100
AcDbArc
 50
90.00594614939746
 51
180.0
  0
DIMENSION
  5
269
330
18
100
AcDbEntity
  8
ADPDIM
100
AcDbDimension
  2
*D0
 10
-22.77567269293377
 20
7.192528963325576
 30
0.0
 11
-22.77567269293377
 21
9.692528962990307
 31
0.0
100
AcDbAlignedDimension
 13
-18.29031092973051
 23
12.19252896265503
 33
0.0
 14
-22.24024750068598
 24
7.192528963325576
 34
0.0
 50
90.0
100
AcDbRotatedDimension
  0
LINE
  5
26A
330
18
100
AcDbEntity
  8
ADP3DETAIL
  6
CENTER2
100
AcDbLine
 10
-21.29024750068599
 20
6.761644122259218
 30
0.0
 11
-21.29024750068599
 21
9.192528963325576
 31
0.0
  0
LINE
  5
26B
330
18
100
AcDbEntity
  8
ADP1DETAIL
100
AcDbLine
 10
-20.34024750068598
 20
9.192528963325576
 30
0.0
 11
-20.34024750068598
 21
7.192528963325576
 31
0.0
  0
LINE
  5
26C
330
18
100
AcDbEntity
  8
ADP1DETAIL
100
AcDbLine
 10
-22.24024750068598
 20
7.192528963325576
 30
0.0
 11
-22.24024750068598
 21
9.192528963325576
 31
0.0
  0
DIMENSION
  5
26D
330
18
100
AcDbEntity
  8
ADPDIM
100
AcDbDimension
  2
*D1
 10
-20.34024750068598
 20
6.548292356939391
 30
0.0
 11
-21.29024750068598
 21
6.548292356939391
 31
0.0
  1
1.900
100
AcDbAlignedDimension
 13
-22.24024750068598
 23
7.192528963325576
 33
0.0
 14
-20.34024750068598
 24
7.192528963325576
 34
0.0
100
AcDbRotatedDimension
  0
LINE
  5
26E
330
18
100
AcDbEntity
  8
ADP1DETAIL
100
AcDbLine
 10
-20.34024750068598
 20
7.192528963325576
 30
0.0
 11
-22.24024750068598
 21
7.192528963325576
 31
0.0
  0
CIRCLE
  5
26F
330
18
100
AcDbEntity
  8
ADP1DETAIL
100
AcDbCircle
 10
-21.29024750068599
 20
5.359453804350811
 30
0.0
 40
0.95
  0
CIRCLE
  5
270
330
18
100
AcDbEntity
  8
ADP1DETAIL
100
AcDbCircle
 10
-21.29024750068599
 20
5.359453804350811
 30
0.0
 40
0.805
  0
DIMENSION
  5
271
330
18
100
AcDbEntity
  8
ADPDIM
100
AcDbDimension
  2
*D2
 10
-20.34905036381029
 20
5.345485836618607
 30
0.0
 11
-19.75530036381029
 21
5.345485836618607
 31
0.0
  1
0.145
100
AcDbAlignedDimension
 13
-20.49405036381029
 23
5.359453804350811
 33
0.0
 14
-20.34905036381029
 24
5.359453804350811
 34
0.0
100
AcDbRotatedDimension
  0
DIMENSION
  5
272
330
18
100
AcDbEntity
  8
ADPDIM
100
AcDbDimension
  2
*D4
 10
-18.29024750068598
 20
9.192528963325573
 30
0.0
 11
-18.12778246465011
 21
9.03913037468695
 31
0.0
 70
     4
100
AcDbRadialDimension
 15
-20.47155913031525
 25
11.2521113419752
 35
0.0
 40
-2.994274634194338
  0
LINE
  5
273
330
18
100
AcDbEntity
  8
ADP1DETAIL
  6
CENTER2
100
AcDbLine
 10
-18.29111139471318
 20
12.19252896265503
 30
0.0
 11
-17.83018991595296
 21
12.19434768692283
 31
0.0
  0
TEXT
  5
281
330
18
100
AcDbEntity
  8
ADPDIM
100
AcDbText
 10
-30.04171233972536
 20
3.771696066424705
 30
0.0
 40
0.1875
  1
J U L I U S  B L U M  &  C O . ,  I N C .      ( 8 0 0 )  5 2 6 - 6 2 9 3        W W W . J U L I U S B L U M . C O M        P A R T  N o .  7 5 2 0
 41
1.25
  7
ARIAL_WIDE
 72
     1
 11
-20.25311880289044
 21
3.959196066424705
 31
0.0
100
AcDbText
 73
     3
  0
ENDSEC
  0
SECTION
  2
OBJECTS
  0
DICTIONARY
  5
C
330
0
100
AcDbDictionary
  3
ACAD_GROUP
350
D
  3
ACAD_LAYOUT
350
27A
  3
ACAD_MLINESTYLE
350
E
  3
ACAD_PLOTSETTINGS
350
27B
  3
ACAD_PLOTSTYLENAME
350
278
  3
ACDBHEADERROUNDTRIPXREC
350
3C5
  3
ACDBVARIABLEDICTIONARY
350
2DB
  0
DICTIONARY
  5
2D5
330
18
100
AcDbDictionary
280
     1
  3
ACAD_LAYOUTSELFREF
360
3E6
  0
DICTIONARY
  5
2D3
330
15
100
AcDbDictionary
280
     1
  3
ACAD_LAYOUTSELFREF
360
3E5
  0
DICTIONARY
  5
D
102
{ACAD_REACTORS
330
C
102
}
330
C
100
AcDbDictionary
  0
DICTIONARY
  5
27A
102
{ACAD_REACTORS
330
C
102
}
330
C
100
AcDbDictionary
  0
DICTIONARY
  5
E
102
{ACAD_REACTORS
330
C
102
}
330
C
100
AcDbDictionary
  3
STANDARD
350
1B
  0
DICTIONARY
  5
27B
102
{ACAD_REACTORS
330
C
102
}
330
C
100
AcDbDictionary
  0
ACDBDICTIONARYWDFLT
  5
278
102
{ACAD_REACTORS
330
C
102
}
330
C
100
AcDbDictionary
281
     1
  3
Normal
350
279
100
AcDbDictionaryWithDefault
340
279
  0
DICTIONARY
  5
3C5
102
{ACAD_REACTORS
330
C
102
}
330
C
100
AcDbDictionary
  3
CEPSNTYPE
350
3CF
  3
FINGERPRINTGUID
350
3D0
  3
HYPERLINKBASE
350
3C8
  3
INSUNITS
350
3CE
  3
LAYOUTDICT
350
3CA
  3
LWETCUNION
350
3CD
  3
PLOTSETDICT
350
3CB
  3
PLOTSTYLNAMDICT
350
3CC
  3
PSVPSCALE
350
3D2
  3
PUCSBASE
350
3D5
  3
PUCSORGBACK
350
3DB
  3
PUCSORGBOTTOM
350
3D7
  3
PUCSORGFRONT
350
3DA
  3
PUCSORGLEFT
350
3D8
  3
PUCSORGRIGHT
350
3D9
  3
PUCSORGTOP
350
3D6
  3
PUCSORTHOREF
350
3D3
  3
PUCSORTHOVIEW
350
3D4
  3
STYLESHEET
350
3C9
  3
TSTACKALIGN
350
3C6
  3
TSTACKSIZE
350
3C7
  3
UCSBASE
350
3DE
  3
UCSORGBACK
350
3E4
  3
UCSORGBOTTOM
350
3E0
  3
UCSORGFRONT
350
3E3
  3
UCSORGLEFT
350
3E1
  3
UCSORGRIGHT
350
3E2
  3
UCSORGTOP
350
3DF
  3
UCSORTHOREF
350
3DC
  3
UCSORTHOVIEW
350
3DD
  3
VERSIONGUID
350
3D1
  0
DICTIONARY
  5
2DB
102
{ACAD_REACTORS
330
C
102
}
330
C
100
AcDbDictionary
  3
DIMASSOC
350
2DC
  0
XRECORD
  5
3E6
102
{ACAD_REACTORS
330
2D5
102
}
330
2D5
100
AcDbXrecord
340
18
  0
XRECORD
  5
3E5
102
{ACAD_REACTORS
330
2D3
102
}
330
2D3
100
AcDbXrecord
340
15
  0
MLINESTYLE
  5
1B
102
{ACAD_REACTORS
330
E
102
}
330
E
100
AcDbMlineStyle
  2
STANDARD
 70
     0
  3

 62
     0
 51
90.0
 52
90.0
 71
     2
 49
0.5
 62
   256
  6
BYLAYER
 49
-0.5
 62
   256
  6
BYLAYER
  0
ACDBPLACEHOLDER
  5
279
102
{ACAD_REACTORS
330
278
102
}
330
278
100
AcDbPlaceHolder
280
     0
  0
XRECORD
  5
3CF
102
{ACAD_REACTORS
330
3C5
102
}
330
3C5
100
AcDbXrecord
 90
        0
  0
XRECORD
  5
3D0
102
{ACAD_REACTORS
330
3C5
102
}
330
3C5
100
AcDbXrecord
  1
{EDAAF0DE-71A2-4400-8829-9F62EC2EB056}
  0
XRECORD
  5
3C8
102
{ACAD_REACTORS
330
3C5
102
}
330
3C5
100
AcDbXrecord
  1

  0
XRECORD
  5
3CE
102
{ACAD_REACTORS
330
3C5
102
}
330
3C5
100
AcDbXrecord
 90
        0
  0
XRECORD
  5
3CA
102
{ACAD_REACTORS
330
3C5
102
}
330
3C5
100
AcDbXrecord
340
27A
  0
XRECORD
  5
3CD
102
{ACAD_REACTORS
330
3C5
102
}
330
3C5
100
AcDbXrecord
 90
    14877
  0
XRECORD
  5
3CB
102
{ACAD_REACTORS
330
3C5
102
}
330
3C5
100
AcDbXrecord
340
27B
  0
XRECORD
  5
3CC
102
{ACAD_REACTORS
330
3C5
102
}
330
3C5
100
AcDbXrecord
340
278
  0
XRECORD
  5
3D2
102
{ACAD_REACTORS
330
3C5
102
}
330
3C5
100
AcDbXrecord
 40
0.0
  0
XRECORD
  5
3D5
102
{ACAD_REACTORS
330
3C5
102
}
330
3C5
100
AcDbXrecord
340
0
  0
XRECORD
  5
3DB
102
{ACAD_REACTORS
330
3C5
102
}
330
3C5
100
AcDbXrecord
 10
0.0
 20
0.0
 30
0.0
  0
XRECORD
  5
3D7
102
{ACAD_REACTORS
330
3C5
102
}
330
3C5
100
AcDbXrecord
 10
0.0
 20
0.0
 30
0.0
  0
XRECORD
  5
3DA
102
{ACAD_REACTORS
330
3C5
102
}
330
3C5
100
AcDbXrecord
 10
0.0
 20
0.0
 30
0.0
  0
XRECORD
  5
3D8
102
{ACAD_REACTORS
330
3C5
102
}
330
3C5
100
AcDbXrecord
 10
0.0
 20
0.0
 30
0.0
  0
XRECORD
  5
3D9
102
{ACAD_REACTORS
330
3C5
102
}
330
3C5
100
AcDbXrecord
 10
0.0
 20
0.0
 30
0.0
  0
XRECORD
  5
3D6
102
{ACAD_REACTORS
330
3C5
102
}
330
3C5
100
AcDbXrecord
 10
0.0
 20
0.0
 30
0.0
  0
XRECORD
  5
3D3
102
{ACAD_REACTORS
330
3C5
102
}
330
3C5
100
AcDbXrecord
340
0
  0
XRECORD
  5
3D4
102
{ACAD_REACTORS
330
3C5
102
}
330
3C5
100
AcDbXrecord
 70
     0
  0
XRECORD
  5
3C9
102
{ACAD_REACTORS
330
3C5
102
}
330
3C5
100
AcDbXrecord
  1

  0
XRECORD
  5
3C6
102
{ACAD_REACTORS
330
3C5
102
}
330
3C5
100
AcDbXrecord
 90
        1
  0
XRECORD
  5
3C7
102
{ACAD_REACTORS
330
3C5
102
}
330
3C5
100
AcDbXrecord
 90
       70
  0
XRECORD
  5
3DE
102
{ACAD_REACTORS
330
3C5
102
}
330
3C5
100
AcDbXrecord
340
0
  0
XRECORD
  5
3E4
102
{ACAD_REACTORS
330
3C5
102
}
330
3C5
100
AcDbXrecord
 10
0.0
 20
0.0
 30
0.0
  0
XRECORD
  5
3E0
102
{ACAD_REACTORS
330
3C5
102
}
330
3C5
100
AcDbXrecord
 10
0.0
 20
0.0
 30
0.0
  0
XRECORD
  5
3E3
102
{ACAD_REACTORS
330
3C5
102
}
330
3C5
100
AcDbXrecord
 10
0.0
 20
0.0
 30
0.0
  0
XRECORD
  5
3E1
102
{ACAD_REACTORS
330
3C5
102
}
330
3C5
100
AcDbXrecord
 10
0.0
 20
0.0
 30
0.0
  0
XRECORD
  5
3E2
102
{ACAD_REACTORS
330
3C5
102
}
330
3C5
100
AcDbXrecord
 10
0.0
 20
0.0
 30
0.0
  0
XRECORD
  5
3DF
102
{ACAD_REACTORS
330
3C5
102
}
330
3C5
100
AcDbXrecord
 10
0.0
 20
0.0
 30
0.0
  0
XRECORD
  5
3DC
102
{ACAD_REACTORS
330
3C5
102
}
330
3C5
100
AcDbXrecord
340
0
  0
XRECORD
  5
3DD
102
{ACAD_REACTORS
330
3C5
102
}
330
3C5
100
AcDbXrecord
 70
     0
  0
XRECORD
  5
3D1
102
{ACAD_REACTORS
330
3C5
102
}
330
3C5
100
AcDbXrecord
  1
{D42ED1BE-693D-469C-A68D-1DBB8DABEB86}
  0
DICTIONARYVAR
  5
2DC
102
{ACAD_REACTORS
330
2DB
102
}
330
2DB
100
DictionaryVariables
280
     0
  1
1
  0
ENDSEC
  0
EOF
