  0
SECTION
  2
HEADER
  9
$ACADVER
  1
AC1014
  9
$ACADMAINTVER
 70
     9
  9
$DWGCODEPAGE
  3
ANSI_1252
  9
$INSBASE
 10
7.627261729495754
 20
3.352423155473692
 30
0.0
  9
$EXTMIN
 10
-5.577697611171716
 20
0.1088759892045541
 30
0.0
  9
$EXTMAX
 10
13.99948946249813
 20
6.065429103372412
 30
0.0
  9
$LIMMIN
 10
0.0
 20
0.0
  9
$LIMMAX
 10
36.0
 20
36.0
  9
$ORTHOMODE
 70
     1
  9
$REGENMODE
 70
     1
  9
$FILLMODE
 70
     1
  9
$QTEXTMODE
 70
     0
  9
$MIRRTEXT
 70
     1
  9
$DRAGMODE
 70
     0
  9
$LTSCALE
 40
1.0
  9
$OSMODE
 70
    37
  9
$ATTMODE
 70
     1
  9
$TEXTSIZE
 40
0.2
  9
$TRACEWID
 40
0.05
  9
$TEXTSTYLE
  7
STANDARD
  9
$CLAYER
  8
0
  9
$CELTYPE
  6
BYLAYER
  9
$CECOLOR
 62
   256
  9
$CELTSCALE
 40
1.0
  9
$DELOBJ
 70
     1
  9
$DISPSILH
 70
     0
  9
$DIMSCALE
 40
1.0
  9
$DIMASZ
 40
0.125
  9
$DIMEXO
 40
0.0625
  9
$DIMDLI
 40
0.38
  9
$DIMRND
 40
0.0
  9
$DIMDLE
 40
0.0
  9
$DIMEXE
 40
0.18
  9
$DIMTP
 40
0.0
  9
$DIMTM
 40
0.0
  9
$DIMTXT
 40
0.125
  9
$DIMCEN
 40
0.1875
  9
$DIMTSZ
 40
0.125
  9
$DIMTOL
 70
     0
  9
$DIMLIM
 70
     0
  9
$DIMTIH
 70
     0
  9
$DIMTOH
 70
     0
  9
$DIMSE1
 70
     0
  9
$DIMSE2
 70
     0
  9
$DIMTAD
 70
     0
  9
$DIMZIN
 70
     3
  9
$DIMBLK
  1

  9
$DIMASO
 70
     1
  9
$DIMSHO
 70
     1
  9
$DIMPOST
  1

  9
$DIMAPOST
  1

  9
$DIMALT
 70
     0
  9
$DIMALTD
 70
     1
  9
$DIMALTF
 40
25.4
  9
$DIMLFAC
 40
1.0
  9
$DIMTOFL
 70
     0
  9
$DIMTVP
 40
0.0
  9
$DIMTIX
 70
     0
  9
$DIMSOXD
 70
     0
  9
$DIMSAH
 70
     0
  9
$DIMBLK1
  1

  9
$DIMBLK2
  1

  9
$DIMSTYLE
  2
STANDARD
  9
$DIMCLRD
 70
     0
  9
$DIMCLRE
 70
     0
  9
$DIMCLRT
 70
     0
  9
$DIMTFAC
 40
1.0
  9
$DIMGAP
 40
0.125
  9
$DIMJUST
 70
     0
  9
$DIMSD1
 70
     0
  9
$DIMSD2
 70
     0
  9
$DIMTOLJ
 70
     1
  9
$DIMTZIN
 70
     0
  9
$DIMALTZ
 70
     0
  9
$DIMALTTZ
 70
     0
  9
$DIMFIT
 70
     3
  9
$DIMUPT
 70
     0
  9
$DIMUNIT
 70
     2
  9
$DIMDEC
 70
     4
  9
$DIMTDEC
 70
     4
  9
$DIMALTU
 70
     2
  9
$DIMALTTD
 70
     2
  9
$DIMTXSTY
  7
STANDARD
  9
$DIMAUNIT
 70
     0
  9
$LUNITS
 70
     5
  9
$LUPREC
 70
     4
  9
$SKETCHINC
 40
0.1
  9
$FILLETRAD
 40
0.062
  9
$AUNITS
 70
     0
  9
$AUPREC
 70
     0
  9
$MENU
  1
acad
  9
$ELEVATION
 40
0.0
  9
$PELEVATION
 40
0.0
  9
$THICKNESS
 40
0.0
  9
$LIMCHECK
 70
     0
  9
$BLIPMODE
 70
     0
  9
$CHAMFERA
 40
0.0
  9
$CHAMFERB
 40
0.0
  9
$CHAMFERC
 40
0.0
  9
$CHAMFERD
 40
0.0
  9
$SKPOLY
 70
     0
  9
$TDCREATE
 40
2450387.530461227
  9
$TDUPDATE
 40
2452297.102526400
  9
$TDINDWG
 40
0.0690589468
  9
$TDUSRTIMER
 40
0.0690589468
  9
$USRTIMER
 70
     1
  9
$ANGBASE
 50
0.0
  9
$ANGDIR
 70
     0
  9
$PDMODE
 70
     0
  9
$PDSIZE
 40
0.0
  9
$PLINEWID
 40
0.0
  9
$COORDS
 70
     2
  9
$SPLFRAME
 70
     0
  9
$SPLINETYPE
 70
     6
  9
$SPLINESEGS
 70
     8
  9
$ATTDIA
 70
     0
  9
$ATTREQ
 70
     1
  9
$HANDLING
 70
 22529
  9
$HANDSEED
  5
3F4
  9
$SURFTAB1
 70
     6
  9
$SURFTAB2
 70
     6
  9
$SURFTYPE
 70
     6
  9
$SURFU
 70
     6
  9
$SURFV
 70
     6
  9
$UCSNAME
  2

  9
$UCSORG
 10
0.0
 20
0.0
 30
0.0
  9
$UCSXDIR
 10
1.0
 20
0.0
 30
0.0
  9
$UCSYDIR
 10
0.0
 20
1.0
 30
0.0
  9
$PUCSNAME
  2

  9
$PUCSORG
 10
0.0
 20
0.0
 30
0.0
  9
$PUCSXDIR
 10
1.0
 20
0.0
 30
0.0
  9
$PUCSYDIR
 10
0.0
 20
1.0
 30
0.0
  9
$USERI1
 70
     0
  9
$USERI2
 70
     0
  9
$USERI3
 70
     0
  9
$USERI4
 70
     0
  9
$USERI5
 70
     0
  9
$USERR1
 40
0.0
  9
$USERR2
 40
0.0
  9
$USERR3
 40
0.0
  9
$USERR4
 40
0.0
  9
$USERR5
 40
0.0
  9
$WORLDVIEW
 70
     1
  9
$SHADEDGE
 70
     3
  9
$SHADEDIF
 70
    70
  9
$TILEMODE
 70
     1
  9
$MAXACTVP
 70
    15
  9
$PINSBASE
 10
0.0
 20
0.0
 30
0.0
  9
$PLIMCHECK
 70
     0
  9
$PEXTMIN
 10
1.000000000000000E+20
 20
1.000000000000000E+20
 30
1.000000000000000E+20
  9
$PEXTMAX
 10
-1.000000000000000E+20
 20
-1.000000000000000E+20
 30
-1.000000000000000E+20
  9
$PLIMMIN
 10
0.0
 20
0.0
  9
$PLIMMAX
 10
12.0
 20
9.0
  9
$UNITMODE
 70
     0
  9
$VISRETAIN
 70
     0
  9
$PLINEGEN
 70
     0
  9
$PSLTSCALE
 70
     1
  9
$TREEDEPTH
 70
  3020
  9
$PICKSTYLE
 70
     1
  9
$CMLSTYLE
  2
STANDARD
  9
$CMLJUST
 70
     0
  9
$CMLSCALE
 40
1.0
  9
$PROXYGRAPHICS
 70
     1
  9
$MEASUREMENT
 70
     0
  0
ENDSEC
  0
SECTION
  2
CLASSES
  0
CLASS
  1
ACDBDICTIONARYWDFLT
  2
AcDbDictionaryWithDefault
  3
AutoCAD 2000
 90
        0
280
     0
281
     0
  0
CLASS
  1
ACDBPLACEHOLDER
  2
AcDbPlaceHolder
  3
AutoCAD 2000
 90
        0
280
     0
281
     0
  0
CLASS
  1
LAYOUT
  2
AcDbLayout
  3
AutoCAD 2000
 90
        0
280
     0
281
     0
  0
CLASS
  1
DICTIONARYVAR
  2
AcDbDictionaryVar
  3
AutoCAD 2000
 90
        0
280
     0
281
     0
  0
CLASS
  1
LONG_TRANSACTION
  2
AcDbLongTransaction
  3
AutoCAD 2000
 90
        0
280
     0
281
     0
  0
CLASS
  1
LWPOLYLINE
  2
AcDbPolyline
  3
AutoCAD 2000
 90
        0
280
     0
281
     1
  0
CLASS
  1
HATCH
  2
AcDbHatch
  3
AutoCAD 2000
 90
        0
280
     0
281
     1
  0
CLASS
  1
XRECORD
  2
AcDbXrecord
  3
AutoCAD 2000
 90
        0
280
     0
281
     0
  0
CLASS
  1
LONG_TRANSACTION
  2
AcDbLongTransaction
  3
AutoCAD 2000
 90
        0
280
     0
281
     0
  0
CLASS
  1
LWPOLYLINE
  2
AcDbPolyline
  3
AutoCAD 2000
 90
        0
280
     0
281
     1
  0
CLASS
  1
HATCH
  2
AcDbHatch
  3
AutoCAD 2000
 90
        0
280
     0
281
     1
  0
CLASS
  1
XRECORD
  2
AcDbXrecord
  3
AutoCAD 2000
 90
        0
280
     0
281
     0
  0
CLASS
  1
LONG_TRANSACTION
  2
AcDbLongTransaction
  3
AutoCAD 2000
 90
        0
280
     0
281
     0
  0
CLASS
  1
LWPOLYLINE
  2
AcDbPolyline
  3
AutoCAD 2000
 90
        0
280
     0
281
     1
  0
CLASS
  1
HATCH
  2
AcDbHatch
  3
AutoCAD 2000
 90
        0
280
     0
281
     1
  0
CLASS
  1
XRECORD
  2
AcDbXrecord
  3
AutoCAD 2000
 90
        0
280
     0
281
     0
  0
CLASS
  1
LONG_TRANSACTION
  2
AcDbLongTransaction
  3
AutoCAD 2000
 90
        0
280
     0
281
     0
  0
CLASS
  1
LWPOLYLINE
  2
AcDbPolyline
  3
AutoCAD 2000
 90
        0
280
     0
281
     1
  0
CLASS
  1
HATCH
  2
AcDbHatch
  3
AutoCAD 2000
 90
        0
280
     0
281
     1
  0
CLASS
  1
XRECORD
  2
AcDbXrecord
  3
AutoCAD 2000
 90
        0
280
     0
281
     0
  0
CLASS
  1
LONG_TRANSACTION
  2
AcDbLongTransaction
  3
AutoCAD 2000
 90
        0
280
     0
281
     0
  0
CLASS
  1
LWPOLYLINE
  2
AcDbPolyline
  3
AutoCAD 2000
 90
        0
280
     0
281
     1
  0
CLASS
  1
HATCH
  2
AcDbHatch
  3
AutoCAD 2000
 90
        0
280
     0
281
     1
  0
CLASS
  1
XRECORD
  2
AcDbXrecord
  3
AutoCAD 2000
 90
        0
280
     0
281
     0
  0
ENDSEC
  0
SECTION
  2
TABLES
  0
TABLE
  2
VPORT
  5
8
330
0
100
AcDbSymbolTable
 70
     2
  0
VPORT
  5
3D1
330
8
100
AcDbSymbolTableRecord
100
AcDbViewportTableRecord
  2
*ACTIVE
 70
     0
 10
0.0
 20
0.0
 11
1.0
 21
1.0
 12
4.227018830064126
 22
3.086659170792978
 13
0.0
 23
0.0
 14
0.5740882589684922
 24
0.5740882589684922
 15
0.5
 25
0.5
 16
0.0
 26
0.0
 36
1.0
 17
0.0
 27
0.0
 37
0.0
 40
12.54848523598044
 41
1.570528967254408
 42
50.0
 43
0.0
 44
0.0
 50
0.0
 51
0.0
 71
     0
 72
   100
 73
     1
 74
     0
 75
     0
 76
     0
 77
     0
 78
     0
  0
ENDTAB
  0
TABLE
  2
LTYPE
  5
5
330
0
100
AcDbSymbolTable
 70
     2
  0
LTYPE
  5
12
330
5
100
AcDbSymbolTableRecord
100
AcDbLinetypeTableRecord
  2
BYBLOCK
 70
     0
  3

 72
    65
 73
     0
 40
0.0
  0
LTYPE
  5
13
330
5
100
AcDbSymbolTableRecord
100
AcDbLinetypeTableRecord
  2
BYLAYER
 70
     0
  3

 72
    65
 73
     0
 40
0.0
  0
LTYPE
  5
14
330
5
100
AcDbSymbolTableRecord
100
AcDbLinetypeTableRecord
  2
CONTINUOUS
 70
     0
  3
Solid line
 72
    65
 73
     0
 40
0.0
  0
LTYPE
  5
229
330
5
100
AcDbSymbolTableRecord
100
AcDbLinetypeTableRecord
  2
CENTER2
 70
     0
  3
___ _ ___ _ ___ _ ___ _ ___ _ ___ _ ___ _ ___ _
 72
    65
 73
     4
 40
1.125
 49
0.75
 74
     0
 49
-0.125
 74
     0
 49
0.125
 74
     0
 49
-0.125
 74
     0
  0
ENDTAB
  0
TABLE
  2
LAYER
  5
2
330
0
100
AcDbSymbolTable
 70
     5
  0
LAYER
  5
F
330
2
100
AcDbSymbolTableRecord
100
AcDbLayerTableRecord
  2
0
 70
     0
 62
     7
  6
CONTINUOUS
  0
LAYER
  5
22A
330
2
100
AcDbSymbolTableRecord
100
AcDbLayerTableRecord
  2
ADP1DETAIL
 70
     0
 62
     7
  6
CONTINUOUS
  0
LAYER
  5
22B
330
2
100
AcDbSymbolTableRecord
100
AcDbLayerTableRecord
  2
DEFPOINTS
 70
     0
 62
     7
  6
CONTINUOUS
  0
LAYER
  5
22F
330
2
100
AcDbSymbolTableRecord
100
AcDbLayerTableRecord
  2
ADP3DETAIL
 70
     0
 62
     1
  6
CONTINUOUS
  0
LAYER
  5
232
330
2
100
AcDbSymbolTableRecord
100
AcDbLayerTableRecord
  2
ADPDIM
 70
     0
 62
     3
  6
CONTINUOUS
  0
ENDTAB
  0
TABLE
  2
STYLE
  5
3
330
0
100
AcDbSymbolTable
 70
     2
  0
STYLE
  5
10
330
3
100
AcDbSymbolTableRecord
100
AcDbTextStyleTableRecord
  2
STANDARD
 70
     0
 40
0.0
 41
1.0
 50
0.0
 71
     0
 42
0.2
  3
txt
  4

  0
STYLE
  5
28D
330
3
100
AcDbSymbolTableRecord
100
AcDbTextStyleTableRecord
  2
ARIAL_WIDE
 70
     0
 40
0.0
 41
1.25
 50
0.0
 71
     0
 42
0.2
  3
ARIAL.TTF
  4

1001
ACAD
1000
Arial
1071
       34
  0
ENDTAB
  0
TABLE
  2
VIEW
  5
6
330
0
100
AcDbSymbolTable
 70
     0
  0
ENDTAB
  0
TABLE
  2
UCS
  5
7
330
0
100
AcDbSymbolTable
 70
     0
  0
ENDTAB
  0
TABLE
  2
APPID
  5
9
330
0
100
AcDbSymbolTable
 70
     1
  0
APPID
  5
11
330
9
100
AcDbSymbolTableRecord
100
AcDbRegAppTableRecord
  2
ACAD
 70
     0
  0
ENDTAB
  0
TABLE
  2
DIMSTYLE
  5
A
330
0
100
AcDbSymbolTable
 70
     1
  0
DIMSTYLE
105
281
330
A
100
AcDbSymbolTableRecord
100
AcDbDimStyleTableRecord
  2
STANDARD
 70
     0
  3

  4

  5

  6

  7

 40
1.0
 41
0.18
 42
0.0625
 43
0.38
 44
0.18
 45
0.0
 46
0.0
 47
0.0
 48
0.0
140
0.18
141
0.09
142
0.0
143
25.4
144
1.0
145
0.0
146
1.0
147
0.09
 71
     0
 72
     0
 73
     1
 74
     1
 75
     0
 76
     0
 77
     0
 78
     0
170
     0
171
     2
172
     0
173
     0
174
     0
175
     0
176
     0
177
     0
178
     0
270
     2
271
     4
272
     4
273
     2
274
     2
340
10
275
     0
280
     0
281
     0
282
     0
283
     1
284
     0
285
     0
286
     0
287
     3
288
     0
  0
ENDTAB
  0
TABLE
  2
BLOCK_RECORD
  5
1
330
0
100
AcDbSymbolTable
 70
     5
  0
BLOCK_RECORD
  5
18
102
{ACAD_XDICTIONARY
360
2E2
102
}
330
1
100
AcDbSymbolTableRecord
100
AcDbBlockTableRecord
  2
*MODEL_SPACE
  0
BLOCK_RECORD
  5
15
102
{ACAD_XDICTIONARY
360
2E0
102
}
330
1
100
AcDbSymbolTableRecord
100
AcDbBlockTableRecord
  2
*PAPER_SPACE
  0
BLOCK_RECORD
  5
223
330
1
100
AcDbSymbolTableRecord
100
AcDbBlockTableRecord
  2
*D0
  0
BLOCK_RECORD
  5
224
330
1
100
AcDbSymbolTableRecord
100
AcDbBlockTableRecord
  2
*D1
  0
BLOCK_RECORD
  5
225
330
1
100
AcDbSymbolTableRecord
100
AcDbBlockTableRecord
  2
*D2
  0
BLOCK_RECORD
  5
226
330
1
100
AcDbSymbolTableRecord
100
AcDbBlockTableRecord
  2
*D3
  0
BLOCK_RECORD
  5
227
330
1
100
AcDbSymbolTableRecord
100
AcDbBlockTableRecord
  2
*D4
  0
ENDTAB
  0
ENDSEC
  0
SECTION
  2
BLOCKS
  0
BLOCK
  5
235
330
18
100
AcDbEntity
  8
0
100
AcDbBlockBegin
  2
*MODEL_SPACE
 70
     0
 10
0.0
 20
0.0
 30
0.0
  3
*MODEL_SPACE
  1

  0
ENDBLK
  5
236
330
18
100
AcDbEntity
  8
0
100
AcDbBlockEnd
  0
BLOCK
  5
233
330
15
100
AcDbEntity
 67
     1
  8
0
100
AcDbBlockBegin
  2
*PAPER_SPACE
 70
     0
 10
0.0
 20
0.0
 30
0.0
  3
*PAPER_SPACE
  1

  0
ENDBLK
  5
234
330
15
100
AcDbEntity
 67
     1
  8
0
100
AcDbBlockEnd
  0
BLOCK
  5
238
330
223
100
AcDbEntity
  8
0
100
AcDbBlockBegin
  2
*D0
 70
     1
 10
0.0
 20
0.0
 30
0.0
  3
*D0
  1

  0
LINE
  5
239
330
223
100
AcDbEntity
  8
0
  6
BYBLOCK
 62
     0
100
AcDbLine
 10
7.625533941441351
 20
5.314922369881015
 30
0.0
 11
7.625533941441351
 21
5.908915836107485
 31
0.0
  0
LINE
  5
23A
330
223
100
AcDbEntity
  8
0
  6
BYBLOCK
 62
     0
100
AcDbLine
 10
0.6261925797818721
 20
4.709974340641428
 30
0.0
 11
0.6261925797818721
 21
5.908915836107485
 31
0.0
  0
LINE
  5
23B
330
223
100
AcDbEntity
  8
0
  6
BYBLOCK
 62
     0
100
AcDbLine
 10
7.625533941441351
 20
5.728915836107486
 30
0.0
 11
4.292529927278279
 21
5.728915836107486
 31
0.0
  0
LINE
  5
23C
330
223
100
AcDbEntity
  8
0
  6
BYBLOCK
 62
     0
100
AcDbLine
 10
0.6261925797818721
 20
5.728915836107486
 30
0.0
 11
3.959196593944945
 21
5.728915836107486
 31
0.0
  0
LINE
  5
23D
330
223
100
AcDbEntity
  8
0
  6
BYBLOCK
 62
     0
100
AcDbLine
 10
7.500533941441351
 20
5.603915836107486
 30
0.0
 11
7.750533941441351
 21
5.853915836107486
 31
0.0
  0
LINE
  5
23E
330
223
100
AcDbEntity
  8
0
  6
BYBLOCK
 62
     0
100
AcDbLine
 10
0.5011925797818721
 20
5.603915836107486
 30
0.0
 11
0.7511925797818721
 21
5.853915836107486
 31
0.0
  0
TEXT
  5
23F
330
223
100
AcDbEntity
  8
0
  6
BYBLOCK
 62
     0
100
AcDbText
 10
4.084196593944945
 20
5.666415836107486
 30
0.0
 40
0.125
  1
7
 72
     1
 11
4.125863260611612
 21
5.728915836107486
 31
0.0
100
AcDbText
 73
     2
  0
POINT
  5
240
330
223
100
AcDbEntity
  8
DEFPOINTS
  6
BYBLOCK
 62
     0
100
AcDbPoint
 10
7.625533941441351
 20
5.252422369881015
 30
0.0
  0
POINT
  5
241
330
223
100
AcDbEntity
  8
DEFPOINTS
  6
BYBLOCK
 62
     0
100
AcDbPoint
 10
0.6261925797818721
 20
4.647474340641428
 30
0.0
  0
POINT
  5
242
330
223
100
AcDbEntity
  8
DEFPOINTS
  6
BYBLOCK
 62
     0
100
AcDbPoint
 10
0.6261925797818721
 20
5.728915836107486
 30
0.0
  0
ENDBLK
  5
243
330
223
100
AcDbEntity
  8
0
100
AcDbBlockEnd
  0
BLOCK
  5
244
330
224
100
AcDbEntity
  8
0
100
AcDbBlockBegin
  2
*D1
 70
     1
 10
0.0
 20
0.0
 30
0.0
  3
*D1
  1

  0
LINE
  5
245
330
224
100
AcDbEntity
  8
0
  6
BYBLOCK
 62
     0
100
AcDbLine
 10
-1.775248546592606
 20
2.502870283862467
 30
0.0
 11
-2.681312230548518
 21
3.662578914375871
 31
0.0
  0
LINE
  5
246
330
224
100
AcDbEntity
  8
0
  6
BYBLOCK
 62
     0
100
AcDbLine
 10
0.5887837142275596
 20
4.349854709839442
 30
0.0
 11
-0.3172799697283524
 21
5.509563340352846
 31
0.0
  0
LINE
  5
247
330
224
100
AcDbEntity
  8
0
  6
BYBLOCK
 62
     0
100
AcDbLine
 10
-2.5704931649899
 20
3.520736978726662
 30
0.0
 11
-1.519812160180937
 21
4.341618945827539
 31
0.0
  0
LINE
  5
248
330
224
100
AcDbEntity
  8
0
  6
BYBLOCK
 62
     0
100
AcDbLine
 10
-0.2064609041697341
 20
5.367721404703636
 30
0.0
 11
-1.257141908978696
 21
4.546839437602758
 31
0.0
  0
LINE
  5
249
330
224
100
AcDbEntity
  8
0
  6
BYBLOCK
 62
     0
100
AcDbLine
 10
-2.592036824775032
 20
3.345277950110114
 30
0.0
 11
-2.548949505204767
 21
3.696196007343209
 31
0.0
  0
LINE
  5
24A
330
224
100
AcDbEntity
  8
0
  6
BYBLOCK
 62
     0
100
AcDbLine
 10
-0.2280045639548671
 20
5.192262376087088
 30
0.0
 11
-0.1849172443846011
 21
5.543180433320183
 31
0.0
  0
TEXT
  5
24B
330
224
100
AcDbEntity
  8
0
  6
BYBLOCK
 62
     0
100
AcDbText
 10
-1.382831973772243
 20
4.369325958142826
 30
0.0
 40
0.125
  1
3
 50
37.99999999999999
 72
     1
 11
-1.388477034579817
 21
4.444229191715149
 31
0.0
100
AcDbText
 73
     2
  0
POINT
  5
24C
330
224
100
AcDbEntity
  8
DEFPOINTS
  6
BYBLOCK
 62
     0
100
AcDbPoint
 10
-1.736769704384752
 20
2.453619611762047
 30
0.0
  0
POINT
  5
24D
330
224
100
AcDbEntity
  8
DEFPOINTS
  6
BYBLOCK
 62
     0
100
AcDbPoint
 10
0.6272625564354132
 20
4.300604037739022
 30
0.0
  0
POINT
  5
24E
330
224
100
AcDbEntity
  8
DEFPOINTS
  6
BYBLOCK
 62
     0
100
AcDbPoint
 10
-0.2064609041697341
 20
5.367721404703636
 30
0.0
  0
ENDBLK
  5
24F
330
224
100
AcDbEntity
  8
0
100
AcDbBlockEnd
  0
BLOCK
  5
250
330
225
100
AcDbEntity
  8
0
100
AcDbBlockBegin
  2
*D2
 70
     1
 10
0.0
 20
0.0
 30
0.0
  3
*D2
  1

  0
LINE
  5
251
330
225
100
AcDbEntity
  8
0
  6
BYBLOCK
 62
     0
100
AcDbLine
 10
0.8859797647872419
 20
4.199130948414889
 30
0.0
 11
1.659616014648405
 21
1.304394059758498
 31
0.0
  0
LINE
  5
252
330
225
100
AcDbEntity
  8
0
  6
BYBLOCK
 62
     0
100
AcDbLine
 10
0.7329438508226441
 20
4.287618286701337
 30
0.0
 11
1.039015678751839
 21
4.110643610128442
 31
0.0
  0
TEXT
  5
253
330
225
100
AcDbEntity
  8
0
  6
BYBLOCK
 62
     0
100
AcDbText
 10
1.631509489424719
 20
1.167495289713438
 30
0.0
 40
0.125
  1
R3
 50
284.9629453912935
 72
     1
 11
1.718785542353377
 21
1.08299774519504
 31
0.0
100
AcDbText
 73
     2
  0
POINT
  5
254
330
225
100
AcDbEntity
  8
DEFPOINTS
  6
BYBLOCK
 62
     0
100
AcDbPoint
 10
0.8859797647872419
 20
4.199130948414889
 30
0.0
  0
POINT
  5
255
330
225
100
AcDbEntity
  8
DEFPOINTS
  6
BYBLOCK
 62
     0
100
AcDbPoint
 10
1.660562672925047
 20
1.300851921402346
 30
0.0
  0
ENDBLK
  5
256
330
225
100
AcDbEntity
  8
0
100
AcDbBlockEnd
  0
BLOCK
  5
257
330
226
100
AcDbEntity
  8
0
100
AcDbBlockBegin
  2
*D3
 70
     1
 10
0.0
 20
0.0
 30
0.0
  3
*D3
  1

  0
LINE
  5
258
330
226
100
AcDbEntity
  8
0
  6
BYBLOCK
 62
     0
100
AcDbLine
 10
7.688033941441351
 20
5.252422369881015
 30
0.0
 11
8.502496862334199
 21
5.252422369881015
 31
0.0
  0
LINE
  5
259
330
226
100
AcDbEntity
  8
0
  6
BYBLOCK
 62
     0
100
AcDbLine
 10
7.688033941441351
 20
3.352423155473692
 30
0.0
 11
8.502496862334199
 21
3.352423155473692
 31
0.0
  0
LINE
  5
25A
330
226
100
AcDbEntity
  8
0
  6
BYBLOCK
 62
     0
100
AcDbLine
 10
8.322496862334199
 20
5.252422369881015
 30
0.0
 11
8.322496862334199
 21
4.635756096010687
 31
0.0
  0
LINE
  5
25B
330
226
100
AcDbEntity
  8
0
  6
BYBLOCK
 62
     0
100
AcDbLine
 10
8.322496862334199
 20
3.352423155473692
 30
0.0
 11
8.322496862334199
 21
3.969089429344021
 31
0.0
  0
LINE
  5
25C
330
226
100
AcDbEntity
  8
0
  6
BYBLOCK
 62
     0
100
AcDbLine
 10
8.447496862334199
 20
5.127422369881015
 30
0.0
 11
8.197496862334199
 21
5.377422369881015
 31
0.0
  0
LINE
  5
25D
330
226
100
AcDbEntity
  8
0
  6
BYBLOCK
 62
     0
100
AcDbLine
 10
8.447496862334199
 20
3.227423155473692
 30
0.0
 11
8.197496862334199
 21
3.477423155473692
 31
0.0
  0
TEXT
  5
25E
330
226
100
AcDbEntity
  8
0
  6
BYBLOCK
 62
     0
100
AcDbText
 10
8.384996862334199
 20
4.094089429344021
 30
0.0
 40
0.125
  1
1.900
 50
90.0
 72
     1
 11
8.322496862334199
 21
4.302422762677354
 31
0.0
100
AcDbText
 73
     2
  0
POINT
  5
25F
330
226
100
AcDbEntity
  8
DEFPOINTS
  6
BYBLOCK
 62
     0
100
AcDbPoint
 10
7.625533941441351
 20
5.252422369881015
 30
0.0
  0
POINT
  5
260
330
226
100
AcDbEntity
  8
DEFPOINTS
  6
BYBLOCK
 62
     0
100
AcDbPoint
 10
7.625533941441351
 20
3.352423155473692
 30
0.0
  0
POINT
  5
261
330
226
100
AcDbEntity
  8
DEFPOINTS
  6
BYBLOCK
 62
     0
100
AcDbPoint
 10
8.322496862334199
 20
3.352423155473692
 30
0.0
  0
ENDBLK
  5
262
330
226
100
AcDbEntity
  8
0
100
AcDbBlockEnd
  0
BLOCK
  5
263
330
227
100
AcDbEntity
  8
0
100
AcDbBlockBegin
  2
*D4
 70
     1
 10
0.0
 20
0.0
 30
0.0
  3
*D4
  1

  0
LINE
  5
264
330
227
100
AcDbEntity
  8
0
  6
BYBLOCK
 62
     0
100
AcDbLine
 10
10.13778920161126
 20
5.107947340226528
 30
0.0
 11
10.25528915831777
 21
5.108048206315029
 31
0.0
  0
LINE
  5
265
330
227
100
AcDbEntity
  8
0
  6
BYBLOCK
 62
     0
100
AcDbLine
 10
10.13766472856588
 20
5.252947286800521
 30
0.0
 11
10.25516468527239
 21
5.253048152889022
 31
0.0
  0
LINE
  5
266
330
227
100
AcDbEntity
  8
0
  6
BYBLOCK
 62
     0
100
AcDbLine
 10
10.07528922463971
 20
5.107893688051793
 30
0.0
 11
10.07550383333865
 21
4.857893780165596
 31
0.0
  0
LINE
  5
267
330
227
100
AcDbEntity
  8
0
  6
BYBLOCK
 62
     0
100
AcDbLine
 10
10.07516475159433
 20
5.252893634625786
 30
0.0
 11
10.07495014289539
 21
5.502893542511982
 31
0.0
  0
LINE
  5
268
330
227
100
AcDbEntity
  8
0
  6
BYBLOCK
 62
     0
100
AcDbLine
 10
9.950181966347148
 20
5.23278633764542
 30
0.0
 11
10.20039648293228
 21
4.983001038458164
 31
0.0
  0
LINE
  5
269
330
227
100
AcDbEntity
  8
0
  6
BYBLOCK
 62
     0
100
AcDbLine
 10
9.950057493301764
 20
5.377786284219415
 30
0.0
 11
10.2002720098869
 21
5.128000985032159
 31
0.0
  0
TEXT
  5
26A
330
227
100
AcDbEntity
  8
0
  6
BYBLOCK
 62
     0
100
AcDbText
 10
10.01196729635122
 20
6.065339683081187
 30
0.0
 40
0.125
  1
0.145
 50
270.0491846968248
 72
     1
 11
10.07465505593435
 21
5.846643415855501
 31
0.0
100
AcDbText
 73
     2
  0
POINT
  5
26B
330
227
100
AcDbEntity
  8
DEFPOINTS
  6
BYBLOCK
 62
     0
100
AcDbPoint
 10
10.07528922463971
 20
5.107893688051793
 30
0.0
  0
POINT
  5
26C
330
227
100
AcDbEntity
  8
DEFPOINTS
  6
BYBLOCK
 62
     0
100
AcDbPoint
 10
10.07516475159433
 20
5.252893634625786
 30
0.0
  0
POINT
  5
26D
330
227
100
AcDbEntity
  8
DEFPOINTS
  6
BYBLOCK
 62
     0
100
AcDbPoint
 10
10.07516475159433
 20
5.252893634625786
 30
0.0
  0
ENDBLK
  5
26E
330
227
100
AcDbEntity
  8
0
100
AcDbBlockEnd
  0
ENDSEC
  0
SECTION
  2
ENTITIES
  0
DIMENSION
  5
26F
330
18
100
AcDbEntity
  8
ADPDIM
100
AcDbDimension
  2
*D0
 10
0.6261925797818721
 20
5.728915836107486
 30
0.0
 11
4.125863260611612
 21
5.728915836107486
 31
0.0
100
AcDbAlignedDimension
 13
7.625533941441351
 23
5.252422369881015
 33
0.0
 14
0.6261925797818721
 24
4.647474340641428
 34
0.0
100
AcDbRotatedDimension
  0
LINE
  5
270
330
18
100
AcDbEntity
  8
ADP3DETAIL
  6
CENTER2
100
AcDbLine
 10
1.659842736760573
 20
4.300851835017665
 30
0.0
 11
7.791717291797481
 21
4.300596623134785
 31
0.0
  0
LINE
  5
271
330
18
100
AcDbEntity
  8
ADP1DETAIL
100
AcDbLine
 10
1.332109963589819
 20
5.250514178737004
 30
0.0
 11
7.627261729495754
 21
5.252422369881013
 31
0.0
  0
LINE
  5
272
330
18
100
AcDbEntity
  8
ADP1DETAIL
100
AcDbLine
 10
1.681406601881205
 20
3.364011533495022
 30
0.0
 11
7.627261729495754
 21
3.352423155473692
 31
0.0
  0
ARC
  5
273
330
18
100
AcDbEntity
  8
ADP1DETAIL
100
AcDbCircle
 10
1.677411191748499
 20
1.314015426987044
 30
0.0
 40
2.049999999999999
100
AcDbArc
 50
89.88833156929045
 51
127.9999999999999
  0
LINE
  5
274
330
18
100
AcDbEntity
  8
ADP3DETAIL
  6
CENTER2
100
AcDbLine
 10
-2.076311592711163
 20
2.188340414815668
 30
0.0
 11
-0.186421753051927
 21
3.664884182222511
 31
0.0
  0
DIMENSION
  5
275
330
18
100
AcDbEntity
  8
ADPDIM
100
AcDbDimension
  2
*D1
 10
-0.2064609041697341
 20
5.367721404703636
 30
0.0
 11
-1.388477034579817
 21
4.444229191715149
 31
0.0
 70
     1
100
AcDbAlignedDimension
 13
-1.736769704384752
 23
2.453619611762047
 33
0.0
 14
0.6272625564354133
 24
4.300604037739022
 34
0.0
  0
LINE
  5
276
330
18
100
AcDbEntity
  8
ADP1DETAIL
100
AcDbLine
 10
-2.321648105944126
 20
3.202229827688432
 30
0.0
 11
-0.5139651001697054
 21
4.614546577380448
 31
0.0
  0
DIMENSION
  5
277
330
18
100
AcDbEntity
  8
ADPDIM
100
AcDbDimension
  2
*D2
 10
1.660562672925047
 20
1.300851921402346
 30
0.0
 11
1.718785542353377
 21
1.08299774519504
 31
0.0
 70
     4
100
AcDbRadialDimension
 15
0.8859797647872419
 25
4.199130948414889
 35
0.0
 40
-2.996333543123551
  0
LINE
  5
278
330
18
100
AcDbEntity
  8
ADP1DETAIL
100
AcDbLine
 10
0.4153051673309019
 20
2.929437471880824
 30
0.0
 11
-1.151891302825377
 21
1.705009395835662
 31
0.0
  0
LINE
  5
279
330
18
100
AcDbEntity
  8
ADP1DETAIL
100
AcDbLine
 10
-1.151891302825377
 20
1.705009395835662
 30
0.0
 11
-2.321648105944126
 21
3.202229827688432
 31
0.0
  0
ARC
  5
27A
330
18
100
AcDbEntity
  8
ADP3DETAIL
  6
CENTER2
100
AcDbCircle
 10
1.660562672925048
 20
1.300851921402346
 30
0.0
 40
3.0
100
AcDbArc
 50
90.01374976804639
 51
127.9999999999999
  0
ARC
  5
27B
330
18
100
AcDbEntity
  8
ADP1DETAIL
100
AcDbCircle
 10
1.33301932580727
 20
2.250514316560281
 30
0.0
 40
3.0
100
AcDbArc
 50
90.01736753930215
 51
127.9999999999999
  0
CIRCLE
  5
27C
330
18
100
AcDbEntity
  8
ADP1DETAIL
100
AcDbCircle
 10
10.10422426267537
 20
4.302422762006813
 30
0.0
 40
0.95
  0
LINE
  5
27D
330
18
100
AcDbEntity
  8
ADP1DETAIL
100
AcDbLine
 10
7.625533941441351
 20
5.252422369881015
 30
0.0
 11
7.627261729495754
 21
3.352423155473692
 31
0.0
  0
DIMENSION
  5
27E
330
18
100
AcDbEntity
  8
ADPDIM
100
AcDbDimension
  2
*D3
 10
8.322496862334199
 20
3.352423155473692
 30
0.0
 11
8.322496862334199
 21
4.302422762677354
 31
0.0
  1
1.900
100
AcDbAlignedDimension
 13
7.625533941441351
 23
5.252422369881015
 33
0.0
 14
7.625533941441351
 24
3.352423155473692
 34
0.0
 50
90.0
100
AcDbRotatedDimension
  0
DIMENSION
  5
27F
330
18
100
AcDbEntity
  8
ADPDIM
100
AcDbDimension
  2
*D4
 10
10.07516475159433
 20
5.252893634625786
 30
0.0
 11
10.07465505593435
 21
5.846643415855501
 31
0.0
  1
0.145
100
AcDbAlignedDimension
 13
10.07528922463971
 23
5.107893688051792
 33
0.0
 14
10.07516475159433
 24
5.252893634625786
 34
0.0
 50
90.04918469682484
100
AcDbRotatedDimension
  0
CIRCLE
  5
280
330
18
100
AcDbEntity
  8
ADP1DETAIL
100
AcDbCircle
 10
10.10422426267537
 20
4.302422762006813
 30
0.0
 40
0.805
  0
TEXT
  5
28E
330
18
100
AcDbEntity
  8
ADPDIM
100
AcDbText
 10
-5.577697611171716
 20
0.1643841747434354
 30
0.0
 40
0.1875
  1
J U L I U S  B L U M  &  C O . ,  I N C .      ( 8 0 0 )  5 2 6 - 6 2 9 3        W W W . J U L I U S B L U M . C O M        P A R T  N o .  7 5 1 8
 41
1.25
  7
ARIAL_WIDE
 72
     1
 11
4.210895925663209
 21
0.3518841747434354
 31
0.0
100
AcDbText
 73
     3
  0
ENDSEC
  0
SECTION
  2
OBJECTS
  0
DICTIONARY
  5
C
330
0
100
AcDbDictionary
  3
ACAD_GROUP
350
D
  3
ACAD_LAYOUT
350
287
  3
ACAD_MLINESTYLE
350
E
  3
ACAD_PLOTSETTINGS
350
288
  3
ACAD_PLOTSTYLENAME
350
285
  3
ACDBHEADERROUNDTRIPXREC
350
3D2
  3
ACDBVARIABLEDICTIONARY
350
2E8
  0
DICTIONARY
  5
2E2
330
18
100
AcDbDictionary
280
     1
  3
ACAD_LAYOUTSELFREF
360
3F3
  0
DICTIONARY
  5
2E0
330
15
100
AcDbDictionary
280
     1
  3
ACAD_LAYOUTSELFREF
360
3F2
  0
DICTIONARY
  5
D
102
{ACAD_REACTORS
330
C
102
}
330
C
100
AcDbDictionary
  0
DICTIONARY
  5
287
102
{ACAD_REACTORS
330
C
102
}
330
C
100
AcDbDictionary
  0
DICTIONARY
  5
E
102
{ACAD_REACTORS
330
C
102
}
330
C
100
AcDbDictionary
  3
STANDARD
350
1B
  0
DICTIONARY
  5
288
102
{ACAD_REACTORS
330
C
102
}
330
C
100
AcDbDictionary
  0
ACDBDICTIONARYWDFLT
  5
285
102
{ACAD_REACTORS
330
C
102
}
330
C
100
AcDbDictionary
281
     1
  3
Normal
350
286
100
AcDbDictionaryWithDefault
340
286
  0
DICTIONARY
  5
3D2
102
{ACAD_REACTORS
330
C
102
}
330
C
100
AcDbDictionary
  3
CEPSNTYPE
350
3DC
  3
FINGERPRINTGUID
350
3DD
  3
HYPERLINKBASE
350
3D5
  3
INSUNITS
350
3DB
  3
LAYOUTDICT
350
3D7
  3
LWETCUNION
350
3DA
  3
PLOTSETDICT
350
3D8
  3
PLOTSTYLNAMDICT
350
3D9
  3
PSVPSCALE
350
3DF
  3
PUCSBASE
350
3E2
  3
PUCSORGBACK
350
3E8
  3
PUCSORGBOTTOM
350
3E4
  3
PUCSORGFRONT
350
3E7
  3
PUCSORGLEFT
350
3E5
  3
PUCSORGRIGHT
350
3E6
  3
PUCSORGTOP
350
3E3
  3
PUCSORTHOREF
350
3E0
  3
PUCSORTHOVIEW
350
3E1
  3
STYLESHEET
350
3D6
  3
TSTACKALIGN
350
3D3
  3
TSTACKSIZE
350
3D4
  3
UCSBASE
350
3EB
  3
UCSORGBACK
350
3F1
  3
UCSORGBOTTOM
350
3ED
  3
UCSORGFRONT
350
3F0
  3
UCSORGLEFT
350
3EE
  3
UCSORGRIGHT
350
3EF
  3
UCSORGTOP
350
3EC
  3
UCSORTHOREF
350
3E9
  3
UCSORTHOVIEW
350
3EA
  3
VERSIONGUID
350
3DE
  0
DICTIONARY
  5
2E8
102
{ACAD_REACTORS
330
C
102
}
330
C
100
AcDbDictionary
  3
DIMASSOC
350
2E9
  0
XRECORD
  5
3F3
102
{ACAD_REACTORS
330
2E2
102
}
330
2E2
100
AcDbXrecord
340
18
  0
XRECORD
  5
3F2
102
{ACAD_REACTORS
330
2E0
102
}
330
2E0
100
AcDbXrecord
340
15
  0
MLINESTYLE
  5
1B
102
{ACAD_REACTORS
330
E
102
}
330
E
100
AcDbMlineStyle
  2
STANDARD
 70
     0
  3

 62
     0
 51
90.0
 52
90.0
 71
     2
 49
0.5
 62
   256
  6
BYLAYER
 49
-0.5
 62
   256
  6
BYLAYER
  0
ACDBPLACEHOLDER
  5
286
102
{ACAD_REACTORS
330
285
102
}
330
285
100
AcDbPlaceHolder
280
     0
  0
XRECORD
  5
3DC
102
{ACAD_REACTORS
330
3D2
102
}
330
3D2
100
AcDbXrecord
 90
        0
  0
XRECORD
  5
3DD
102
{ACAD_REACTORS
330
3D2
102
}
330
3D2
100
AcDbXrecord
  1
{F2544CDA-3A38-46A8-8DE2-ABC633EFD931}
  0
XRECORD
  5
3D5
102
{ACAD_REACTORS
330
3D2
102
}
330
3D2
100
AcDbXrecord
  1

  0
XRECORD
  5
3DB
102
{ACAD_REACTORS
330
3D2
102
}
330
3D2
100
AcDbXrecord
 90
        0
  0
XRECORD
  5
3D7
102
{ACAD_REACTORS
330
3D2
102
}
330
3D2
100
AcDbXrecord
340
287
  0
XRECORD
  5
3DA
102
{ACAD_REACTORS
330
3D2
102
}
330
3D2
100
AcDbXrecord
 90
    14877
  0
XRECORD
  5
3D8
102
{ACAD_REACTORS
330
3D2
102
}
330
3D2
100
AcDbXrecord
340
288
  0
XRECORD
  5
3D9
102
{ACAD_REACTORS
330
3D2
102
}
330
3D2
100
AcDbXrecord
340
285
  0
XRECORD
  5
3DF
102
{ACAD_REACTORS
330
3D2
102
}
330
3D2
100
AcDbXrecord
 40
0.0
  0
XRECORD
  5
3E2
102
{ACAD_REACTORS
330
3D2
102
}
330
3D2
100
AcDbXrecord
340
0
  0
XRECORD
  5
3E8
102
{ACAD_REACTORS
330
3D2
102
}
330
3D2
100
AcDbXrecord
 10
0.0
 20
0.0
 30
0.0
  0
XRECORD
  5
3E4
102
{ACAD_REACTORS
330
3D2
102
}
330
3D2
100
AcDbXrecord
 10
0.0
 20
0.0
 30
0.0
  0
XRECORD
  5
3E7
102
{ACAD_REACTORS
330
3D2
102
}
330
3D2
100
AcDbXrecord
 10
0.0
 20
0.0
 30
0.0
  0
XRECORD
  5
3E5
102
{ACAD_REACTORS
330
3D2
102
}
330
3D2
100
AcDbXrecord
 10
0.0
 20
0.0
 30
0.0
  0
XRECORD
  5
3E6
102
{ACAD_REACTORS
330
3D2
102
}
330
3D2
100
AcDbXrecord
 10
0.0
 20
0.0
 30
0.0
  0
XRECORD
  5
3E3
102
{ACAD_REACTORS
330
3D2
102
}
330
3D2
100
AcDbXrecord
 10
0.0
 20
0.0
 30
0.0
  0
XRECORD
  5
3E0
102
{ACAD_REACTORS
330
3D2
102
}
330
3D2
100
AcDbXrecord
340
0
  0
XRECORD
  5
3E1
102
{ACAD_REACTORS
330
3D2
102
}
330
3D2
100
AcDbXrecord
 70
     0
  0
XRECORD
  5
3D6
102
{ACAD_REACTORS
330
3D2
102
}
330
3D2
100
AcDbXrecord
  1

  0
XRECORD
  5
3D3
102
{ACAD_REACTORS
330
3D2
102
}
330
3D2
100
AcDbXrecord
 90
        1
  0
XRECORD
  5
3D4
102
{ACAD_REACTORS
330
3D2
102
}
330
3D2
100
AcDbXrecord
 90
       70
  0
XRECORD
  5
3EB
102
{ACAD_REACTORS
330
3D2
102
}
330
3D2
100
AcDbXrecord
340
0
  0
XRECORD
  5
3F1
102
{ACAD_REACTORS
330
3D2
102
}
330
3D2
100
AcDbXrecord
 10
0.0
 20
0.0
 30
0.0
  0
XRECORD
  5
3ED
102
{ACAD_REACTORS
330
3D2
102
}
330
3D2
100
AcDbXrecord
 10
0.0
 20
0.0
 30
0.0
  0
XRECORD
  5
3F0
102
{ACAD_REACTORS
330
3D2
102
}
330
3D2
100
AcDbXrecord
 10
0.0
 20
0.0
 30
0.0
  0
XRECORD
  5
3EE
102
{ACAD_REACTORS
330
3D2
102
}
330
3D2
100
AcDbXrecord
 10
0.0
 20
0.0
 30
0.0
  0
XRECORD
  5
3EF
102
{ACAD_REACTORS
330
3D2
102
}
330
3D2
100
AcDbXrecord
 10
0.0
 20
0.0
 30
0.0
  0
XRECORD
  5
3EC
102
{ACAD_REACTORS
330
3D2
102
}
330
3D2
100
AcDbXrecord
 10
0.0
 20
0.0
 30
0.0
  0
XRECORD
  5
3E9
102
{ACAD_REACTORS
330
3D2
102
}
330
3D2
100
AcDbXrecord
340
0
  0
XRECORD
  5
3EA
102
{ACAD_REACTORS
330
3D2
102
}
330
3D2
100
AcDbXrecord
 70
     0
  0
XRECORD
  5
3DE
102
{ACAD_REACTORS
330
3D2
102
}
330
3D2
100
AcDbXrecord
  1
{7FE4DFE0-42AE-4DBA-967D-0A2AF954875B}
  0
DICTIONARYVAR
  5
2E9
102
{ACAD_REACTORS
330
2E8
102
}
330
2E8
100
DictionaryVariables
280
     0
  1
1
  0
ENDSEC
  0
EOF
