  0
SECTION
  2
HEADER
  9
$ACADVER
  1
AC1014
  9
$ACADMAINTVER
 70
     9
  9
$DWGCODEPAGE
  3
ANSI_1252
  9
$INSBASE
 10
6.894021683083902
 20
24.05056311379675
 30
0.0
  9
$EXTMIN
 10
-6.036246899440131
 20
20.78383421491384
 30
0.0
  9
$EXTMAX
 10
13.54094017422972
 20
26.76356906169548
 30
0.0
  9
$LIMMIN
 10
0.0
 20
0.0
  9
$LIMMAX
 10
36.0
 20
36.0
  9
$ORTHOMODE
 70
     1
  9
$REGENMODE
 70
     1
  9
$FILLMODE
 70
     1
  9
$QTEXTMODE
 70
     0
  9
$MIRRTEXT
 70
     1
  9
$DRAGMODE
 70
     0
  9
$LTSCALE
 40
1.0
  9
$OSMODE
 70
    37
  9
$ATTMODE
 70
     1
  9
$TEXTSIZE
 40
0.2
  9
$TRACEWID
 40
0.05
  9
$TEXTSTYLE
  7
STANDARD
  9
$CLAYER
  8
0
  9
$CELTYPE
  6
BYLAYER
  9
$CECOLOR
 62
   256
  9
$CELTSCALE
 40
1.0
  9
$DELOBJ
 70
     1
  9
$DISPSILH
 70
     0
  9
$DIMSCALE
 40
1.0
  9
$DIMASZ
 40
0.125
  9
$DIMEXO
 40
0.0625
  9
$DIMDLI
 40
0.38
  9
$DIMRND
 40
0.0
  9
$DIMDLE
 40
0.0
  9
$DIMEXE
 40
0.18
  9
$DIMTP
 40
0.0
  9
$DIMTM
 40
0.0
  9
$DIMTXT
 40
0.125
  9
$DIMCEN
 40
0.1875
  9
$DIMTSZ
 40
0.125
  9
$DIMTOL
 70
     0
  9
$DIMLIM
 70
     0
  9
$DIMTIH
 70
     0
  9
$DIMTOH
 70
     0
  9
$DIMSE1
 70
     0
  9
$DIMSE2
 70
     0
  9
$DIMTAD
 70
     0
  9
$DIMZIN
 70
     3
  9
$DIMBLK
  1

  9
$DIMASO
 70
     1
  9
$DIMSHO
 70
     1
  9
$DIMPOST
  1

  9
$DIMAPOST
  1

  9
$DIMALT
 70
     0
  9
$DIMALTD
 70
     1
  9
$DIMALTF
 40
25.4
  9
$DIMLFAC
 40
1.0
  9
$DIMTOFL
 70
     0
  9
$DIMTVP
 40
0.0
  9
$DIMTIX
 70
     0
  9
$DIMSOXD
 70
     0
  9
$DIMSAH
 70
     0
  9
$DIMBLK1
  1

  9
$DIMBLK2
  1

  9
$DIMSTYLE
  2
STANDARD
  9
$DIMCLRD
 70
     0
  9
$DIMCLRE
 70
     0
  9
$DIMCLRT
 70
     0
  9
$DIMTFAC
 40
1.0
  9
$DIMGAP
 40
0.125
  9
$DIMJUST
 70
     0
  9
$DIMSD1
 70
     0
  9
$DIMSD2
 70
     0
  9
$DIMTOLJ
 70
     1
  9
$DIMTZIN
 70
     0
  9
$DIMALTZ
 70
     0
  9
$DIMALTTZ
 70
     0
  9
$DIMFIT
 70
     3
  9
$DIMUPT
 70
     0
  9
$DIMUNIT
 70
     2
  9
$DIMDEC
 70
     4
  9
$DIMTDEC
 70
     4
  9
$DIMALTU
 70
     2
  9
$DIMALTTD
 70
     2
  9
$DIMTXSTY
  7
STANDARD
  9
$DIMAUNIT
 70
     0
  9
$LUNITS
 70
     5
  9
$LUPREC
 70
     4
  9
$SKETCHINC
 40
0.1
  9
$FILLETRAD
 40
0.062
  9
$AUNITS
 70
     0
  9
$AUPREC
 70
     0
  9
$MENU
  1
acad
  9
$ELEVATION
 40
0.0
  9
$PELEVATION
 40
0.0
  9
$THICKNESS
 40
0.0
  9
$LIMCHECK
 70
     0
  9
$BLIPMODE
 70
     0
  9
$CHAMFERA
 40
0.0
  9
$CHAMFERB
 40
0.0
  9
$CHAMFERC
 40
0.0
  9
$CHAMFERD
 40
0.0
  9
$SKPOLY
 70
     0
  9
$TDCREATE
 40
2450387.528292627
  9
$TDUPDATE
 40
2452297.102472141
  9
$TDINDWG
 40
0.0700461806
  9
$TDUSRTIMER
 40
0.0700461806
  9
$USRTIMER
 70
     1
  9
$ANGBASE
 50
0.0
  9
$ANGDIR
 70
     0
  9
$PDMODE
 70
     0
  9
$PDSIZE
 40
0.0
  9
$PLINEWID
 40
0.0
  9
$COORDS
 70
     2
  9
$SPLFRAME
 70
     0
  9
$SPLINETYPE
 70
     6
  9
$SPLINESEGS
 70
     8
  9
$ATTDIA
 70
     0
  9
$ATTREQ
 70
     1
  9
$HANDLING
 70
 22529
  9
$HANDSEED
  5
402
  9
$SURFTAB1
 70
     6
  9
$SURFTAB2
 70
     6
  9
$SURFTYPE
 70
     6
  9
$SURFU
 70
     6
  9
$SURFV
 70
     6
  9
$UCSNAME
  2

  9
$UCSORG
 10
0.0
 20
0.0
 30
0.0
  9
$UCSXDIR
 10
1.0
 20
0.0
 30
0.0
  9
$UCSYDIR
 10
0.0
 20
1.0
 30
0.0
  9
$PUCSNAME
  2

  9
$PUCSORG
 10
0.0
 20
0.0
 30
0.0
  9
$PUCSXDIR
 10
1.0
 20
0.0
 30
0.0
  9
$PUCSYDIR
 10
0.0
 20
1.0
 30
0.0
  9
$USERI1
 70
     0
  9
$USERI2
 70
     0
  9
$USERI3
 70
     0
  9
$USERI4
 70
     0
  9
$USERI5
 70
     0
  9
$USERR1
 40
0.0
  9
$USERR2
 40
0.0
  9
$USERR3
 40
0.0
  9
$USERR4
 40
0.0
  9
$USERR5
 40
0.0
  9
$WORLDVIEW
 70
     1
  9
$SHADEDGE
 70
     3
  9
$SHADEDIF
 70
    70
  9
$TILEMODE
 70
     1
  9
$MAXACTVP
 70
    15
  9
$PINSBASE
 10
0.0
 20
0.0
 30
0.0
  9
$PLIMCHECK
 70
     0
  9
$PEXTMIN
 10
1.000000000000000E+20
 20
1.000000000000000E+20
 30
1.000000000000000E+20
  9
$PEXTMAX
 10
-1.000000000000000E+20
 20
-1.000000000000000E+20
 30
-1.000000000000000E+20
  9
$PLIMMIN
 10
0.0
 20
0.0
  9
$PLIMMAX
 10
12.0
 20
9.0
  9
$UNITMODE
 70
     0
  9
$VISRETAIN
 70
     0
  9
$PLINEGEN
 70
     0
  9
$PSLTSCALE
 70
     1
  9
$TREEDEPTH
 70
  3020
  9
$PICKSTYLE
 70
     1
  9
$CMLSTYLE
  2
STANDARD
  9
$CMLJUST
 70
     0
  9
$CMLSCALE
 40
1.0
  9
$PROXYGRAPHICS
 70
     1
  9
$MEASUREMENT
 70
     0
  0
ENDSEC
  0
SECTION
  2
CLASSES
  0
CLASS
  1
ACDBDICTIONARYWDFLT
  2
AcDbDictionaryWithDefault
  3
AutoCAD 2000
 90
        0
280
     0
281
     0
  0
CLASS
  1
ACDBPLACEHOLDER
  2
AcDbPlaceHolder
  3
AutoCAD 2000
 90
        0
280
     0
281
     0
  0
CLASS
  1
LAYOUT
  2
AcDbLayout
  3
AutoCAD 2000
 90
        0
280
     0
281
     0
  0
CLASS
  1
DICTIONARYVAR
  2
AcDbDictionaryVar
  3
AutoCAD 2000
 90
        0
280
     0
281
     0
  0
CLASS
  1
LONG_TRANSACTION
  2
AcDbLongTransaction
  3
AutoCAD 2000
 90
        0
280
     0
281
     0
  0
CLASS
  1
LWPOLYLINE
  2
AcDbPolyline
  3
AutoCAD 2000
 90
        0
280
     0
281
     1
  0
CLASS
  1
HATCH
  2
AcDbHatch
  3
AutoCAD 2000
 90
        0
280
     0
281
     1
  0
CLASS
  1
XRECORD
  2
AcDbXrecord
  3
AutoCAD 2000
 90
        0
280
     0
281
     0
  0
CLASS
  1
LONG_TRANSACTION
  2
AcDbLongTransaction
  3
AutoCAD 2000
 90
        0
280
     0
281
     0
  0
CLASS
  1
LWPOLYLINE
  2
AcDbPolyline
  3
AutoCAD 2000
 90
        0
280
     0
281
     1
  0
CLASS
  1
HATCH
  2
AcDbHatch
  3
AutoCAD 2000
 90
        0
280
     0
281
     1
  0
CLASS
  1
XRECORD
  2
AcDbXrecord
  3
AutoCAD 2000
 90
        0
280
     0
281
     0
  0
CLASS
  1
LONG_TRANSACTION
  2
AcDbLongTransaction
  3
AutoCAD 2000
 90
        0
280
     0
281
     0
  0
CLASS
  1
LWPOLYLINE
  2
AcDbPolyline
  3
AutoCAD 2000
 90
        0
280
     0
281
     1
  0
CLASS
  1
HATCH
  2
AcDbHatch
  3
AutoCAD 2000
 90
        0
280
     0
281
     1
  0
CLASS
  1
XRECORD
  2
AcDbXrecord
  3
AutoCAD 2000
 90
        0
280
     0
281
     0
  0
CLASS
  1
LONG_TRANSACTION
  2
AcDbLongTransaction
  3
AutoCAD 2000
 90
        0
280
     0
281
     0
  0
CLASS
  1
LWPOLYLINE
  2
AcDbPolyline
  3
AutoCAD 2000
 90
        0
280
     0
281
     1
  0
CLASS
  1
HATCH
  2
AcDbHatch
  3
AutoCAD 2000
 90
        0
280
     0
281
     1
  0
CLASS
  1
XRECORD
  2
AcDbXrecord
  3
AutoCAD 2000
 90
        0
280
     0
281
     0
  0
CLASS
  1
LONG_TRANSACTION
  2
AcDbLongTransaction
  3
AutoCAD 2000
 90
        0
280
     0
281
     0
  0
CLASS
  1
LWPOLYLINE
  2
AcDbPolyline
  3
AutoCAD 2000
 90
        0
280
     0
281
     1
  0
CLASS
  1
HATCH
  2
AcDbHatch
  3
AutoCAD 2000
 90
        0
280
     0
281
     1
  0
CLASS
  1
XRECORD
  2
AcDbXrecord
  3
AutoCAD 2000
 90
        0
280
     0
281
     0
  0
ENDSEC
  0
SECTION
  2
TABLES
  0
TABLE
  2
VPORT
  5
8
330
0
100
AcDbSymbolTable
 70
     2
  0
VPORT
  5
3DF
330
8
100
AcDbSymbolTableRecord
100
AcDbViewportTableRecord
  2
*ACTIVE
 70
     0
 10
0.0
 20
0.0
 11
1.0
 21
1.0
 12
3.766913863044204
 22
23.77331552022755
 13
0.0
 23
0.0
 14
0.5740882589684922
 24
0.5740882589684922
 15
0.5
 25
0.5
 16
0.0
 26
0.0
 36
1.0
 17
0.0
 27
0.0
 37
0.0
 40
12.54730683723453
 41
1.570528967254408
 42
50.0
 43
0.0
 44
0.0
 50
0.0
 51
0.0
 71
     0
 72
   100
 73
     1
 74
     0
 75
     0
 76
     0
 77
     0
 78
     0
  0
ENDTAB
  0
TABLE
  2
LTYPE
  5
5
330
0
100
AcDbSymbolTable
 70
     2
  0
LTYPE
  5
12
330
5
100
AcDbSymbolTableRecord
100
AcDbLinetypeTableRecord
  2
BYBLOCK
 70
     0
  3

 72
    65
 73
     0
 40
0.0
  0
LTYPE
  5
13
330
5
100
AcDbSymbolTableRecord
100
AcDbLinetypeTableRecord
  2
BYLAYER
 70
     0
  3

 72
    65
 73
     0
 40
0.0
  0
LTYPE
  5
14
330
5
100
AcDbSymbolTableRecord
100
AcDbLinetypeTableRecord
  2
CONTINUOUS
 70
     0
  3
Solid line
 72
    65
 73
     0
 40
0.0
  0
LTYPE
  5
237
330
5
100
AcDbSymbolTableRecord
100
AcDbLinetypeTableRecord
  2
CENTER2
 70
     0
  3
___ _ ___ _ ___ _ ___ _ ___ _ ___ _ ___ _ ___ _
 72
    65
 73
     4
 40
1.125
 49
0.75
 74
     0
 49
-0.125
 74
     0
 49
0.125
 74
     0
 49
-0.125
 74
     0
  0
ENDTAB
  0
TABLE
  2
LAYER
  5
2
330
0
100
AcDbSymbolTable
 70
     5
  0
LAYER
  5
F
330
2
100
AcDbSymbolTableRecord
100
AcDbLayerTableRecord
  2
0
 70
     0
 62
     7
  6
CONTINUOUS
  0
LAYER
  5
238
330
2
100
AcDbSymbolTableRecord
100
AcDbLayerTableRecord
  2
ADP1DETAIL
 70
     0
 62
     7
  6
CONTINUOUS
  0
LAYER
  5
239
330
2
100
AcDbSymbolTableRecord
100
AcDbLayerTableRecord
  2
DEFPOINTS
 70
     0
 62
     7
  6
CONTINUOUS
  0
LAYER
  5
23D
330
2
100
AcDbSymbolTableRecord
100
AcDbLayerTableRecord
  2
ADP3DETAIL
 70
     0
 62
     1
  6
CONTINUOUS
  0
LAYER
  5
240
330
2
100
AcDbSymbolTableRecord
100
AcDbLayerTableRecord
  2
ADPDIM
 70
     0
 62
     3
  6
CONTINUOUS
  0
ENDTAB
  0
TABLE
  2
STYLE
  5
3
330
0
100
AcDbSymbolTable
 70
     2
  0
STYLE
  5
10
330
3
100
AcDbSymbolTableRecord
100
AcDbTextStyleTableRecord
  2
STANDARD
 70
     0
 40
0.0
 41
1.0
 50
0.0
 71
     0
 42
0.2
  3
txt
  4

  0
STYLE
  5
29B
330
3
100
AcDbSymbolTableRecord
100
AcDbTextStyleTableRecord
  2
ARIAL_WIDE
 70
     0
 40
0.0
 41
1.25
 50
0.0
 71
     0
 42
0.2
  3
ARIAL.TTF
  4

1001
ACAD
1000
Arial
1071
       34
  0
ENDTAB
  0
TABLE
  2
VIEW
  5
6
330
0
100
AcDbSymbolTable
 70
     0
  0
ENDTAB
  0
TABLE
  2
UCS
  5
7
330
0
100
AcDbSymbolTable
 70
     0
  0
ENDTAB
  0
TABLE
  2
APPID
  5
9
330
0
100
AcDbSymbolTable
 70
     1
  0
APPID
  5
11
330
9
100
AcDbSymbolTableRecord
100
AcDbRegAppTableRecord
  2
ACAD
 70
     0
  0
ENDTAB
  0
TABLE
  2
DIMSTYLE
  5
A
330
0
100
AcDbSymbolTable
 70
     1
  0
DIMSTYLE
105
28F
330
A
100
AcDbSymbolTableRecord
100
AcDbDimStyleTableRecord
  2
STANDARD
 70
     0
  3

  4

  5

  6

  7

 40
1.0
 41
0.18
 42
0.0625
 43
0.38
 44
0.18
 45
0.0
 46
0.0
 47
0.0
 48
0.0
140
0.18
141
0.09
142
0.0
143
25.4
144
1.0
145
0.0
146
1.0
147
0.09
 71
     0
 72
     0
 73
     1
 74
     1
 75
     0
 76
     0
 77
     0
 78
     0
170
     0
171
     2
172
     0
173
     0
174
     0
175
     0
176
     0
177
     0
178
     0
270
     2
271
     4
272
     4
273
     2
274
     2
340
10
275
     0
280
     0
281
     0
282
     0
283
     1
284
     0
285
     0
286
     0
287
     3
288
     0
  0
ENDTAB
  0
TABLE
  2
BLOCK_RECORD
  5
1
330
0
100
AcDbSymbolTable
 70
     5
  0
BLOCK_RECORD
  5
18
102
{ACAD_XDICTIONARY
360
2F0
102
}
330
1
100
AcDbSymbolTableRecord
100
AcDbBlockTableRecord
  2
*MODEL_SPACE
  0
BLOCK_RECORD
  5
15
102
{ACAD_XDICTIONARY
360
2EE
102
}
330
1
100
AcDbSymbolTableRecord
100
AcDbBlockTableRecord
  2
*PAPER_SPACE
  0
BLOCK_RECORD
  5
231
330
1
100
AcDbSymbolTableRecord
100
AcDbBlockTableRecord
  2
*D0
  0
BLOCK_RECORD
  5
232
330
1
100
AcDbSymbolTableRecord
100
AcDbBlockTableRecord
  2
*D1
  0
BLOCK_RECORD
  5
233
330
1
100
AcDbSymbolTableRecord
100
AcDbBlockTableRecord
  2
*D2
  0
BLOCK_RECORD
  5
234
330
1
100
AcDbSymbolTableRecord
100
AcDbBlockTableRecord
  2
*D3
  0
BLOCK_RECORD
  5
235
330
1
100
AcDbSymbolTableRecord
100
AcDbBlockTableRecord
  2
*D4
  0
ENDTAB
  0
ENDSEC
  0
SECTION
  2
BLOCKS
  0
BLOCK
  5
243
330
18
100
AcDbEntity
  8
0
100
AcDbBlockBegin
  2
*MODEL_SPACE
 70
     0
 10
0.0
 20
0.0
 30
0.0
  3
*MODEL_SPACE
  1

  0
ENDBLK
  5
244
330
18
100
AcDbEntity
  8
0
100
AcDbBlockEnd
  0
BLOCK
  5
241
330
15
100
AcDbEntity
 67
     1
  8
0
100
AcDbBlockBegin
  2
*PAPER_SPACE
 70
     0
 10
0.0
 20
0.0
 30
0.0
  3
*PAPER_SPACE
  1

  0
ENDBLK
  5
242
330
15
100
AcDbEntity
 67
     1
  8
0
100
AcDbBlockEnd
  0
BLOCK
  5
246
330
231
100
AcDbEntity
  8
0
100
AcDbBlockBegin
  2
*D0
 70
     1
 10
0.0
 20
0.0
 30
0.0
  3
*D0
  1

  0
LINE
  5
247
330
231
100
AcDbEntity
  8
0
  6
BYBLOCK
 62
     0
100
AcDbLine
 10
6.894021683083902
 20
26.01306232820407
 30
0.0
 11
6.894021683083902
 21
26.60705579443055
 31
0.0
  0
LINE
  5
248
330
231
100
AcDbEntity
  8
0
  6
BYBLOCK
 62
     0
100
AcDbLine
 10
-0.1053196785755763
 20
25.40811429896449
 30
0.0
 11
-0.1053196785755763
 21
26.60705579443055
 31
0.0
  0
LINE
  5
249
330
231
100
AcDbEntity
  8
0
  6
BYBLOCK
 62
     0
100
AcDbLine
 10
6.894021683083902
 20
26.42705579443055
 30
0.0
 11
3.561017668920829
 21
26.42705579443055
 31
0.0
  0
LINE
  5
24A
330
231
100
AcDbEntity
  8
0
  6
BYBLOCK
 62
     0
100
AcDbLine
 10
-0.1053196785755763
 20
26.42705579443055
 30
0.0
 11
3.227684335587496
 21
26.42705579443055
 31
0.0
  0
LINE
  5
24B
330
231
100
AcDbEntity
  8
0
  6
BYBLOCK
 62
     0
100
AcDbLine
 10
6.769021683083902
 20
26.30205579443055
 30
0.0
 11
7.019021683083902
 21
26.55205579443055
 31
0.0
  0
LINE
  5
24C
330
231
100
AcDbEntity
  8
0
  6
BYBLOCK
 62
     0
100
AcDbLine
 10
-0.2303196785755763
 20
26.30205579443055
 30
0.0
 11
0.0196803214244237
 21
26.55205579443055
 31
0.0
  0
TEXT
  5
24D
330
231
100
AcDbEntity
  8
0
  6
BYBLOCK
 62
     0
100
AcDbText
 10
3.352684335587496
 20
26.36455579443055
 30
0.0
 40
0.125
  1
7
 72
     1
 11
3.394351002254163
 21
26.42705579443055
 31
0.0
100
AcDbText
 73
     2
  0
POINT
  5
24E
330
231
100
AcDbEntity
  8
DEFPOINTS
  6
BYBLOCK
 62
     0
100
AcDbPoint
 10
6.894021683083902
 20
25.95056232820407
 30
0.0
  0
POINT
  5
24F
330
231
100
AcDbEntity
  8
DEFPOINTS
  6
BYBLOCK
 62
     0
100
AcDbPoint
 10
-0.1053196785755763
 20
25.34561429896449
 30
0.0
  0
POINT
  5
250
330
231
100
AcDbEntity
  8
DEFPOINTS
  6
BYBLOCK
 62
     0
100
AcDbPoint
 10
-0.1053196785755763
 20
26.42705579443055
 30
0.0
  0
ENDBLK
  5
251
330
231
100
AcDbEntity
  8
0
100
AcDbBlockEnd
  0
BLOCK
  5
252
330
232
100
AcDbEntity
  8
0
100
AcDbBlockBegin
  2
*D1
 70
     1
 10
0.0
 20
0.0
 30
0.0
  3
*D1
  1

  0
LINE
  5
253
330
232
100
AcDbEntity
  8
0
  6
BYBLOCK
 62
     0
100
AcDbLine
 10
-2.599282150115351
 20
23.32921168977701
 30
0.0
 11
-3.427390145496361
 21
24.5118724727476
 31
0.0
  0
LINE
  5
254
330
232
100
AcDbEntity
  8
0
  6
BYBLOCK
 62
     0
100
AcDbLine
 10
-0.1418260172483777
 20
25.04994099883015
 30
0.0
 11
-0.9699340126293877
 21
26.23260178180074
 31
0.0
  0
LINE
  5
255
330
232
100
AcDbEntity
  8
0
  6
BYBLOCK
 62
     0
100
AcDbLine
 10
-3.324146386953173
 20
24.36442510477558
 30
0.0
 11
-2.231943661234518
 21
25.12919368657698
 31
0.0
  0
LINE
  5
256
330
232
100
AcDbEntity
  8
0
  6
BYBLOCK
 62
     0
100
AcDbLine
 10
-0.8666902540861993
 20
26.08515441382873
 30
0.0
 11
-1.958892979804855
 21
25.32038583202733
 31
0.0
  0
LINE
  5
257
330
232
100
AcDbEntity
  8
0
  6
BYBLOCK
 62
     0
100
AcDbLine
 10
-3.354843337945416
 20
24.19033404469558
 30
0.0
 11
-3.29344943596093
 21
24.53851616485559
 31
0.0
  0
LINE
  5
258
330
232
100
AcDbEntity
  8
0
  6
BYBLOCK
 62
     0
100
AcDbLine
 10
-0.8973872050784425
 20
25.91106335374872
 30
0.0
 11
-0.8359933030939563
 21
26.25924547390873
 31
0.0
  0
TEXT
  5
259
330
232
100
AcDbEntity
  8
0
  6
BYBLOCK
 62
     0
100
AcDbText
 10
-2.093701128426453
 20
25.1496937383528
 30
0.0
 40
0.125
  1
3
 50
35.00000000000004
 72
     1
 11
-2.095418320519686
 21
25.22478975930216
 31
0.0
100
AcDbText
 73
     2
  0
POINT
  5
25A
330
232
100
AcDbEntity
  8
DEFPOINTS
  6
BYBLOCK
 62
     0
100
AcDbPoint
 10
-2.563433622843411
 20
23.27801468700894
 30
0.0
  0
POINT
  5
25B
330
232
100
AcDbEntity
  8
DEFPOINTS
  6
BYBLOCK
 62
     0
100
AcDbPoint
 10
-0.1059774899764372
 20
24.99874399606209
 30
0.0
  0
POINT
  5
25C
330
232
100
AcDbEntity
  8
DEFPOINTS
  6
BYBLOCK
 62
     0
100
AcDbPoint
 10
-0.8666902540861993
 20
26.08515441382873
 30
0.0
  0
ENDBLK
  5
25D
330
232
100
AcDbEntity
  8
0
100
AcDbBlockEnd
  0
BLOCK
  5
25E
330
233
100
AcDbEntity
  8
0
100
AcDbBlockBegin
  2
*D2
 70
     1
 10
0.0
 20
0.0
 30
0.0
  3
*D2
  1

  0
LINE
  5
25F
330
233
100
AcDbEntity
  8
0
  6
BYBLOCK
 62
     0
100
AcDbLine
 10
-0.0585440475006043
 20
24.86116974549506
 30
0.0
 11
0.8368259179722318
 21
22.00985287223172
 31
0.0
  0
LINE
  5
260
330
233
100
AcDbEntity
  8
0
  6
BYBLOCK
 62
     0
100
AcDbLine
 10
-0.2152517915579335
 20
24.94297856502244
 30
0.0
 11
0.0981636965567249
 21
24.77936092596769
 31
0.0
  0
TEXT
  5
261
330
233
100
AcDbEntity
  8
0
  6
BYBLOCK
 62
     0
100
AcDbText
 10
0.8146462393410333
 20
21.87186985930688
 30
0.0
 40
0.125
  1
R3
 50
287.4333214415422
 72
     1
 11
0.9054832654580234
 21
21.79121268894574
 31
0.0
100
AcDbText
 73
     2
  0
POINT
  5
262
330
233
100
AcDbEntity
  8
DEFPOINTS
  6
BYBLOCK
 62
     0
100
AcDbPoint
 10
-0.0585440475006043
 20
24.86116974549506
 30
0.0
  0
POINT
  5
263
330
233
100
AcDbEntity
  8
DEFPOINTS
  6
BYBLOCK
 62
     0
100
AcDbPoint
 10
0.8402430468588454
 20
21.99897098247861
 30
0.0
  0
ENDBLK
  5
264
330
233
100
AcDbEntity
  8
0
100
AcDbBlockEnd
  0
BLOCK
  5
265
330
234
100
AcDbEntity
  8
0
100
AcDbBlockBegin
  2
*D3
 70
     1
 10
0.0
 20
0.0
 30
0.0
  3
*D3
  1

  0
LINE
  5
266
330
234
100
AcDbEntity
  8
0
  6
BYBLOCK
 62
     0
100
AcDbLine
 10
6.956521683083902
 20
25.95056232820407
 30
0.0
 11
7.770984603976751
 21
25.95056232820407
 31
0.0
  0
LINE
  5
267
330
234
100
AcDbEntity
  8
0
  6
BYBLOCK
 62
     0
100
AcDbLine
 10
6.956521683083902
 20
24.05056311379675
 30
0.0
 11
7.770984603976751
 21
24.05056311379675
 31
0.0
  0
LINE
  5
268
330
234
100
AcDbEntity
  8
0
  6
BYBLOCK
 62
     0
100
AcDbLine
 10
7.590984603976751
 20
25.95056232820407
 30
0.0
 11
7.590984603976751
 21
25.33389605433375
 31
0.0
  0
LINE
  5
269
330
234
100
AcDbEntity
  8
0
  6
BYBLOCK
 62
     0
100
AcDbLine
 10
7.590984603976751
 20
24.05056311379675
 30
0.0
 11
7.590984603976751
 21
24.66722938766708
 31
0.0
  0
LINE
  5
26A
330
234
100
AcDbEntity
  8
0
  6
BYBLOCK
 62
     0
100
AcDbLine
 10
7.715984603976751
 20
25.82556232820408
 30
0.0
 11
7.465984603976751
 21
26.07556232820408
 31
0.0
  0
LINE
  5
26B
330
234
100
AcDbEntity
  8
0
  6
BYBLOCK
 62
     0
100
AcDbLine
 10
7.715984603976751
 20
23.92556311379675
 30
0.0
 11
7.465984603976751
 21
24.17556311379675
 31
0.0
  0
TEXT
  5
26C
330
234
100
AcDbEntity
  8
0
  6
BYBLOCK
 62
     0
100
AcDbText
 10
7.653484603976751
 20
24.79222938766708
 30
0.0
 40
0.125
  1
1.900
 50
90.0
 72
     1
 11
7.590984603976751
 21
25.00056272100041
 31
0.0
100
AcDbText
 73
     2
  0
POINT
  5
26D
330
234
100
AcDbEntity
  8
DEFPOINTS
  6
BYBLOCK
 62
     0
100
AcDbPoint
 10
6.894021683083902
 20
25.95056232820407
 30
0.0
  0
POINT
  5
26E
330
234
100
AcDbEntity
  8
DEFPOINTS
  6
BYBLOCK
 62
     0
100
AcDbPoint
 10
6.894021683083902
 20
24.05056311379675
 30
0.0
  0
POINT
  5
26F
330
234
100
AcDbEntity
  8
DEFPOINTS
  6
BYBLOCK
 62
     0
100
AcDbPoint
 10
7.590984603976751
 20
24.05056311379675
 30
0.0
  0
ENDBLK
  5
270
330
234
100
AcDbEntity
  8
0
100
AcDbBlockEnd
  0
BLOCK
  5
271
330
235
100
AcDbEntity
  8
0
100
AcDbBlockBegin
  2
*D4
 70
     1
 10
0.0
 20
0.0
 30
0.0
  3
*D4
  1

  0
LINE
  5
272
330
235
100
AcDbEntity
  8
0
  6
BYBLOCK
 62
     0
100
AcDbLine
 10
9.40627694325382
 20
25.80608729854959
 30
0.0
 11
9.523776899960331
 21
25.80618816463809
 31
0.0
  0
LINE
  5
273
330
235
100
AcDbEntity
  8
0
  6
BYBLOCK
 62
     0
100
AcDbLine
 10
9.406152470208434
 20
25.95108724512359
 30
0.0
 11
9.523652426914946
 21
25.95118811121209
 31
0.0
  0
LINE
  5
274
330
235
100
AcDbEntity
  8
0
  6
BYBLOCK
 62
     0
100
AcDbLine
 10
9.34377696628227
 20
25.80603364637486
 30
0.0
 11
9.34399157498121
 21
25.55603373848866
 31
0.0
  0
LINE
  5
275
330
235
100
AcDbEntity
  8
0
  6
BYBLOCK
 62
     0
100
AcDbLine
 10
9.343652493236886
 20
25.95103359294885
 30
0.0
 11
9.343437884537946
 21
26.20103350083505
 31
0.0
  0
LINE
  5
276
330
235
100
AcDbEntity
  8
0
  6
BYBLOCK
 62
     0
100
AcDbLine
 10
9.218669707989702
 20
25.93092629596849
 30
0.0
 11
9.468884224574837
 21
25.68114099678123
 31
0.0
  0
LINE
  5
277
330
235
100
AcDbEntity
  8
0
  6
BYBLOCK
 62
     0
100
AcDbLine
 10
9.218545234944318
 20
26.07592624254248
 30
0.0
 11
9.468759751529454
 21
25.82614094335522
 31
0.0
  0
TEXT
  5
278
330
235
100
AcDbEntity
  8
0
  6
BYBLOCK
 62
     0
100
AcDbText
 10
9.280455037993784
 20
26.76347964140425
 30
0.0
 40
0.125
  1
0.145
 50
270.0491846968248
 72
     1
 11
9.343142797576906
 21
26.54478337417856
 31
0.0
100
AcDbText
 73
     2
  0
POINT
  5
279
330
235
100
AcDbEntity
  8
DEFPOINTS
  6
BYBLOCK
 62
     0
100
AcDbPoint
 10
9.34377696628227
 20
25.80603364637486
 30
0.0
  0
POINT
  5
27A
330
235
100
AcDbEntity
  8
DEFPOINTS
  6
BYBLOCK
 62
     0
100
AcDbPoint
 10
9.343652493236886
 20
25.95103359294885
 30
0.0
  0
POINT
  5
27B
330
235
100
AcDbEntity
  8
DEFPOINTS
  6
BYBLOCK
 62
     0
100
AcDbPoint
 10
9.343652493236886
 20
25.95103359294885
 30
0.0
  0
ENDBLK
  5
27C
330
235
100
AcDbEntity
  8
0
100
AcDbBlockEnd
  0
ENDSEC
  0
SECTION
  2
ENTITIES
  0
DIMENSION
  5
27D
330
18
100
AcDbEntity
  8
ADPDIM
100
AcDbDimension
  2
*D0
 10
-0.1053196785755763
 20
26.42705579443055
 30
0.0
 11
3.394351002254163
 21
26.42705579443055
 31
0.0
100
AcDbAlignedDimension
 13
6.894021683083902
 23
25.95056232820407
 33
0.0
 14
-0.1053196785755763
 24
25.34561429896449
 34
0.0
100
AcDbRotatedDimension
  0
LINE
  5
27E
330
18
100
AcDbEntity
  8
ADP3DETAIL
  6
CENTER2
100
AcDbLine
 10
0.8395231106943704
 20
24.99897089609393
 30
0.0
 11
7.060205033440034
 21
24.99873658145784
 31
0.0
  0
LINE
  5
27F
330
18
100
AcDbEntity
  8
ADP1DETAIL
100
AcDbLine
 10
0.8633039454271074
 20
24.06231688770883
 30
0.0
 11
6.894021683083902
 21
24.05056311379675
 31
0.0
  0
LINE
  5
280
330
18
100
AcDbEntity
  8
ADP1DETAIL
100
AcDbLine
 10
0.5393217514071154
 20
25.94863608677521
 30
0.0
 11
6.894021683083902
 21
25.95056232820407
 31
0.0
  0
DIMENSION
  5
281
330
18
100
AcDbEntity
  8
ADPDIM
100
AcDbDimension
  2
*D1
 10
-0.8666902540861993
 20
26.08515441382873
 30
0.0
 11
-2.095418320519686
 21
25.22478975930216
 31
0.0
 70
     1
100
AcDbAlignedDimension
 13
-2.563433622843412
 23
23.27801468700894
 33
0.0
 14
-0.105977489976437
 24
24.99874399606209
 34
0.0
  0
LINE
  5
282
330
18
100
AcDbEntity
  8
ADP1DETAIL
100
AcDbLine
 10
-3.108331237376905
 20
24.05620912908349
 30
0.0
 11
-1.180498195428572
 21
25.40609235746547
 31
0.0
  0
LINE
  5
283
330
18
100
AcDbEntity
  8
ADP3DETAIL
  6
CENTER2
100
AcDbLine
 10
-2.916393821256056
 20
23.03086929539241
 30
0.0
 11
-0.8804862621942923
 21
24.45642711534559
 31
0.0
  0
LINE
  5
284
330
18
100
AcDbEntity
  8
ADP1DETAIL
100
AcDbLine
 10
-2.018536008309919
 20
22.4998202449344
 30
0.0
 11
-3.108331237376905
 21
24.05620912908349
 31
0.0
  0
ARC
  5
285
330
18
100
AcDbEntity
  8
ADP1DETAIL
100
AcDbCircle
 10
0.8593085352944012
 20
22.01232078120085
 30
0.0
 40
2.049999999999999
100
AcDbArc
 50
89.88833156929045
 51
124.9999999999999
  0
DIMENSION
  5
286
330
18
100
AcDbEntity
  8
ADPDIM
100
AcDbDimension
  2
*D2
 10
0.8402430468588454
 20
21.99897098247861
 30
0.0
 11
0.9054832654580234
 21
21.79121268894574
 31
0.0
 70
     4
100
AcDbRadialDimension
 15
-0.0585440475006043
 25
24.86116974549506
 35
0.0
 40
-2.988594199088776
  0
LINE
  5
287
330
18
100
AcDbEntity
  8
ADP1DETAIL
100
AcDbLine
 10
-0.3165231592252429
 20
23.69158247199328
 30
0.0
 11
-2.018536008309919
 21
22.4998202449344
 31
0.0
  0
ARC
  5
288
330
18
100
AcDbEntity
  8
ADP3DETAIL
  6
CENTER2
100
AcDbCircle
 10
0.8402430468588448
 20
21.99897098247861
 30
0.0
 40
3.0
100
AcDbArc
 50
90.01374976804639
 51
125.0
  0
ARC
  5
289
330
18
100
AcDbEntity
  8
ADP1DETAIL
100
AcDbCircle
 10
0.5402311136245661
 20
22.94863622459849
 30
0.0
 40
3.0
100
AcDbArc
 50
90.01736753930215
 51
124.9999999999999
  0
DIMENSION
  5
28A
330
18
100
AcDbEntity
  8
ADPDIM
100
AcDbDimension
  2
*D3
 10
7.590984603976751
 20
24.05056311379675
 30
0.0
 11
7.590984603976751
 21
25.00056272100041
 31
0.0
  1
1.900
100
AcDbAlignedDimension
 13
6.894021683083902
 23
25.95056232820407
 33
0.0
 14
6.894021683083902
 24
24.05056311379675
 34
0.0
 50
90.0
100
AcDbRotatedDimension
  0
LINE
  5
28B
330
18
100
AcDbEntity
  8
ADP1DETAIL
100
AcDbLine
 10
6.894021683083902
 20
25.95056232820407
 30
0.0
 11
6.895749471138305
 21
24.05056311379675
 31
0.0
  0
DIMENSION
  5
28C
330
18
100
AcDbEntity
  8
ADPDIM
100
AcDbDimension
  2
*D4
 10
9.343652493236886
 20
25.95103359294885
 30
0.0
 11
9.343142797576906
 21
26.54478337417856
 31
0.0
  1
0.145
100
AcDbAlignedDimension
 13
9.34377696628227
 23
25.80603364637485
 33
0.0
 14
9.343652493236884
 24
25.95103359294885
 34
0.0
 50
90.04918469682484
100
AcDbRotatedDimension
  0
CIRCLE
  5
28D
330
18
100
AcDbEntity
  8
ADP1DETAIL
100
AcDbCircle
 10
9.372712004317925
 20
25.00056272032987
 30
0.0
 40
0.805
  0
CIRCLE
  5
28E
330
18
100
AcDbEntity
  8
ADP1DETAIL
100
AcDbCircle
 10
9.372712004317925
 20
25.00056272032987
 30
0.0
 40
0.95
  0
TEXT
  5
29C
330
18
100
AcDbEntity
  8
ADPDIM
100
AcDbText
 10
-6.036246899440131
 20
20.83934240045271
 30
0.0
 40
0.1875
  1
J U L I U S  B L U M  &  C O . ,  I N C .      ( 8 0 0 )  5 2 6 - 6 2 9 3        W W W . J U L I U S B L U M . C O M        P A R T  N o .  7 5 1 5
 41
1.25
  7
ARIAL_WIDE
 72
     1
 11
3.752346637394794
 21
21.02684240045272
 31
0.0
100
AcDbText
 73
     3
  0
ENDSEC
  0
SECTION
  2
OBJECTS
  0
DICTIONARY
  5
C
330
0
100
AcDbDictionary
  3
ACAD_GROUP
350
D
  3
ACAD_LAYOUT
350
295
  3
ACAD_MLINESTYLE
350
E
  3
ACAD_PLOTSETTINGS
350
296
  3
ACAD_PLOTSTYLENAME
350
293
  3
ACDBHEADERROUNDTRIPXREC
350
3E0
  3
ACDBVARIABLEDICTIONARY
350
2F6
  0
DICTIONARY
  5
2F0
330
18
100
AcDbDictionary
280
     1
  3
ACAD_LAYOUTSELFREF
360
401
  0
DICTIONARY
  5
2EE
330
15
100
AcDbDictionary
280
     1
  3
ACAD_LAYOUTSELFREF
360
400
  0
DICTIONARY
  5
D
102
{ACAD_REACTORS
330
C
102
}
330
C
100
AcDbDictionary
  0
DICTIONARY
  5
295
102
{ACAD_REACTORS
330
C
102
}
330
C
100
AcDbDictionary
  0
DICTIONARY
  5
E
102
{ACAD_REACTORS
330
C
102
}
330
C
100
AcDbDictionary
  3
STANDARD
350
1B
  0
DICTIONARY
  5
296
102
{ACAD_REACTORS
330
C
102
}
330
C
100
AcDbDictionary
  0
ACDBDICTIONARYWDFLT
  5
293
102
{ACAD_REACTORS
330
C
102
}
330
C
100
AcDbDictionary
281
     1
  3
Normal
350
294
100
AcDbDictionaryWithDefault
340
294
  0
DICTIONARY
  5
3E0
102
{ACAD_REACTORS
330
C
102
}
330
C
100
AcDbDictionary
  3
CEPSNTYPE
350
3EA
  3
FINGERPRINTGUID
350
3EB
  3
HYPERLINKBASE
350
3E3
  3
INSUNITS
350
3E9
  3
LAYOUTDICT
350
3E5
  3
LWETCUNION
350
3E8
  3
PLOTSETDICT
350
3E6
  3
PLOTSTYLNAMDICT
350
3E7
  3
PSVPSCALE
350
3ED
  3
PUCSBASE
350
3F0
  3
PUCSORGBACK
350
3F6
  3
PUCSORGBOTTOM
350
3F2
  3
PUCSORGFRONT
350
3F5
  3
PUCSORGLEFT
350
3F3
  3
PUCSORGRIGHT
350
3F4
  3
PUCSORGTOP
350
3F1
  3
PUCSORTHOREF
350
3EE
  3
PUCSORTHOVIEW
350
3EF
  3
STYLESHEET
350
3E4
  3
TSTACKALIGN
350
3E1
  3
TSTACKSIZE
350
3E2
  3
UCSBASE
350
3F9
  3
UCSORGBACK
350
3FF
  3
UCSORGBOTTOM
350
3FB
  3
UCSORGFRONT
350
3FE
  3
UCSORGLEFT
350
3FC
  3
UCSORGRIGHT
350
3FD
  3
UCSORGTOP
350
3FA
  3
UCSORTHOREF
350
3F7
  3
UCSORTHOVIEW
350
3F8
  3
VERSIONGUID
350
3EC
  0
DICTIONARY
  5
2F6
102
{ACAD_REACTORS
330
C
102
}
330
C
100
AcDbDictionary
  3
DIMASSOC
350
2F7
  0
XRECORD
  5
401
102
{ACAD_REACTORS
330
2F0
102
}
330
2F0
100
AcDbXrecord
340
18
  0
XRECORD
  5
400
102
{ACAD_REACTORS
330
2EE
102
}
330
2EE
100
AcDbXrecord
340
15
  0
MLINESTYLE
  5
1B
102
{ACAD_REACTORS
330
E
102
}
330
E
100
AcDbMlineStyle
  2
STANDARD
 70
     0
  3

 62
     0
 51
90.0
 52
90.0
 71
     2
 49
0.5
 62
   256
  6
BYLAYER
 49
-0.5
 62
   256
  6
BYLAYER
  0
ACDBPLACEHOLDER
  5
294
102
{ACAD_REACTORS
330
293
102
}
330
293
100
AcDbPlaceHolder
280
     0
  0
XRECORD
  5
3EA
102
{ACAD_REACTORS
330
3E0
102
}
330
3E0
100
AcDbXrecord
 90
        0
  0
XRECORD
  5
3EB
102
{ACAD_REACTORS
330
3E0
102
}
330
3E0
100
AcDbXrecord
  1
{4A8B5CD9-BC55-4072-853C-039424415895}
  0
XRECORD
  5
3E3
102
{ACAD_REACTORS
330
3E0
102
}
330
3E0
100
AcDbXrecord
  1

  0
XRECORD
  5
3E9
102
{ACAD_REACTORS
330
3E0
102
}
330
3E0
100
AcDbXrecord
 90
        0
  0
XRECORD
  5
3E5
102
{ACAD_REACTORS
330
3E0
102
}
330
3E0
100
AcDbXrecord
340
295
  0
XRECORD
  5
3E8
102
{ACAD_REACTORS
330
3E0
102
}
330
3E0
100
AcDbXrecord
 90
    14877
  0
XRECORD
  5
3E6
102
{ACAD_REACTORS
330
3E0
102
}
330
3E0
100
AcDbXrecord
340
296
  0
XRECORD
  5
3E7
102
{ACAD_REACTORS
330
3E0
102
}
330
3E0
100
AcDbXrecord
340
293
  0
XRECORD
  5
3ED
102
{ACAD_REACTORS
330
3E0
102
}
330
3E0
100
AcDbXrecord
 40
0.0
  0
XRECORD
  5
3F0
102
{ACAD_REACTORS
330
3E0
102
}
330
3E0
100
AcDbXrecord
340
0
  0
XRECORD
  5
3F6
102
{ACAD_REACTORS
330
3E0
102
}
330
3E0
100
AcDbXrecord
 10
0.0
 20
0.0
 30
0.0
  0
XRECORD
  5
3F2
102
{ACAD_REACTORS
330
3E0
102
}
330
3E0
100
AcDbXrecord
 10
0.0
 20
0.0
 30
0.0
  0
XRECORD
  5
3F5
102
{ACAD_REACTORS
330
3E0
102
}
330
3E0
100
AcDbXrecord
 10
0.0
 20
0.0
 30
0.0
  0
XRECORD
  5
3F3
102
{ACAD_REACTORS
330
3E0
102
}
330
3E0
100
AcDbXrecord
 10
0.0
 20
0.0
 30
0.0
  0
XRECORD
  5
3F4
102
{ACAD_REACTORS
330
3E0
102
}
330
3E0
100
AcDbXrecord
 10
0.0
 20
0.0
 30
0.0
  0
XRECORD
  5
3F1
102
{ACAD_REACTORS
330
3E0
102
}
330
3E0
100
AcDbXrecord
 10
0.0
 20
0.0
 30
0.0
  0
XRECORD
  5
3EE
102
{ACAD_REACTORS
330
3E0
102
}
330
3E0
100
AcDbXrecord
340
0
  0
XRECORD
  5
3EF
102
{ACAD_REACTORS
330
3E0
102
}
330
3E0
100
AcDbXrecord
 70
     0
  0
XRECORD
  5
3E4
102
{ACAD_REACTORS
330
3E0
102
}
330
3E0
100
AcDbXrecord
  1

  0
XRECORD
  5
3E1
102
{ACAD_REACTORS
330
3E0
102
}
330
3E0
100
AcDbXrecord
 90
        1
  0
XRECORD
  5
3E2
102
{ACAD_REACTORS
330
3E0
102
}
330
3E0
100
AcDbXrecord
 90
       70
  0
XRECORD
  5
3F9
102
{ACAD_REACTORS
330
3E0
102
}
330
3E0
100
AcDbXrecord
340
0
  0
XRECORD
  5
3FF
102
{ACAD_REACTORS
330
3E0
102
}
330
3E0
100
AcDbXrecord
 10
0.0
 20
0.0
 30
0.0
  0
XRECORD
  5
3FB
102
{ACAD_REACTORS
330
3E0
102
}
330
3E0
100
AcDbXrecord
 10
0.0
 20
0.0
 30
0.0
  0
XRECORD
  5
3FE
102
{ACAD_REACTORS
330
3E0
102
}
330
3E0
100
AcDbXrecord
 10
0.0
 20
0.0
 30
0.0
  0
XRECORD
  5
3FC
102
{ACAD_REACTORS
330
3E0
102
}
330
3E0
100
AcDbXrecord
 10
0.0
 20
0.0
 30
0.0
  0
XRECORD
  5
3FD
102
{ACAD_REACTORS
330
3E0
102
}
330
3E0
100
AcDbXrecord
 10
0.0
 20
0.0
 30
0.0
  0
XRECORD
  5
3FA
102
{ACAD_REACTORS
330
3E0
102
}
330
3E0
100
AcDbXrecord
 10
0.0
 20
0.0
 30
0.0
  0
XRECORD
  5
3F7
102
{ACAD_REACTORS
330
3E0
102
}
330
3E0
100
AcDbXrecord
340
0
  0
XRECORD
  5
3F8
102
{ACAD_REACTORS
330
3E0
102
}
330
3E0
100
AcDbXrecord
 70
     0
  0
XRECORD
  5
3EC
102
{ACAD_REACTORS
330
3E0
102
}
330
3E0
100
AcDbXrecord
  1
{E50435CF-8FB0-4EBF-93D4-553BD0B3D6E2}
  0
DICTIONARYVAR
  5
2F7
102
{ACAD_REACTORS
330
2F6
102
}
330
2F6
100
DictionaryVariables
280
     0
  1
1
  0
ENDSEC
  0
EOF
