  0
SECTION
  2
HEADER
  9
$ACADVER
  1
AC1014
  9
$ACADMAINTVER
 70
     9
  9
$DWGCODEPAGE
  3
ANSI_1252
  9
$INSBASE
 10
-47.1214901272808
 20
66.97761000842745
 30
0.0
  9
$EXTMIN
 10
-58.76592418709389
 20
62.49083765770712
 30
0.0
  9
$EXTMAX
 10
-39.46180157454272
 20
70.24457571132977
 30
0.0
  9
$LIMMIN
 10
0.0
 20
0.0
  9
$LIMMAX
 10
36.0
 20
36.0
  9
$ORTHOMODE
 70
     1
  9
$REGENMODE
 70
     1
  9
$FILLMODE
 70
     1
  9
$QTEXTMODE
 70
     0
  9
$MIRRTEXT
 70
     1
  9
$DRAGMODE
 70
     0
  9
$LTSCALE
 40
1.0
  9
$OSMODE
 70
    37
  9
$ATTMODE
 70
     1
  9
$TEXTSIZE
 40
0.2
  9
$TRACEWID
 40
0.05
  9
$TEXTSTYLE
  7
STANDARD
  9
$CLAYER
  8
0
  9
$CELTYPE
  6
BYLAYER
  9
$CECOLOR
 62
   256
  9
$CELTSCALE
 40
1.0
  9
$DELOBJ
 70
     1
  9
$DISPSILH
 70
     0
  9
$DIMSCALE
 40
1.0
  9
$DIMASZ
 40
0.125
  9
$DIMEXO
 40
0.0625
  9
$DIMDLI
 40
0.38
  9
$DIMRND
 40
0.0
  9
$DIMDLE
 40
0.0
  9
$DIMEXE
 40
0.18
  9
$DIMTP
 40
0.0
  9
$DIMTM
 40
0.0
  9
$DIMTXT
 40
0.125
  9
$DIMCEN
 40
0.1875
  9
$DIMTSZ
 40
0.125
  9
$DIMTOL
 70
     0
  9
$DIMLIM
 70
     0
  9
$DIMTIH
 70
     0
  9
$DIMTOH
 70
     0
  9
$DIMSE1
 70
     0
  9
$DIMSE2
 70
     0
  9
$DIMTAD
 70
     0
  9
$DIMZIN
 70
     3
  9
$DIMBLK
  1

  9
$DIMASO
 70
     1
  9
$DIMSHO
 70
     1
  9
$DIMPOST
  1

  9
$DIMAPOST
  1

  9
$DIMALT
 70
     0
  9
$DIMALTD
 70
     1
  9
$DIMALTF
 40
25.4
  9
$DIMLFAC
 40
1.0
  9
$DIMTOFL
 70
     0
  9
$DIMTVP
 40
0.0
  9
$DIMTIX
 70
     0
  9
$DIMSOXD
 70
     0
  9
$DIMSAH
 70
     0
  9
$DIMBLK1
  1

  9
$DIMBLK2
  1

  9
$DIMSTYLE
  2
STANDARD
  9
$DIMCLRD
 70
     0
  9
$DIMCLRE
 70
     0
  9
$DIMCLRT
 70
     0
  9
$DIMTFAC
 40
1.0
  9
$DIMGAP
 40
0.125
  9
$DIMJUST
 70
     0
  9
$DIMSD1
 70
     0
  9
$DIMSD2
 70
     0
  9
$DIMTOLJ
 70
     1
  9
$DIMTZIN
 70
     0
  9
$DIMALTZ
 70
     0
  9
$DIMALTTZ
 70
     0
  9
$DIMFIT
 70
     3
  9
$DIMUPT
 70
     0
  9
$DIMUNIT
 70
     2
  9
$DIMDEC
 70
     4
  9
$DIMTDEC
 70
     4
  9
$DIMALTU
 70
     2
  9
$DIMALTTD
 70
     2
  9
$DIMTXSTY
  7
STANDARD
  9
$DIMAUNIT
 70
     0
  9
$LUNITS
 70
     5
  9
$LUPREC
 70
     4
  9
$SKETCHINC
 40
0.1
  9
$FILLETRAD
 40
0.062
  9
$AUNITS
 70
     0
  9
$AUPREC
 70
     0
  9
$MENU
  1
acad
  9
$ELEVATION
 40
0.0
  9
$PELEVATION
 40
0.0
  9
$THICKNESS
 40
0.0
  9
$LIMCHECK
 70
     0
  9
$BLIPMODE
 70
     0
  9
$CHAMFERA
 40
0.0
  9
$CHAMFERB
 40
0.0
  9
$CHAMFERC
 40
0.0
  9
$CHAMFERD
 40
0.0
  9
$SKPOLY
 70
     0
  9
$TDCREATE
 40
2450387.514515428
  9
$TDUPDATE
 40
2452297.075485197
  9
$TDINDWG
 40
0.0125060185
  9
$TDUSRTIMER
 40
0.0125060185
  9
$USRTIMER
 70
     1
  9
$ANGBASE
 50
0.0
  9
$ANGDIR
 70
     0
  9
$PDMODE
 70
     0
  9
$PDSIZE
 40
0.0
  9
$PLINEWID
 40
0.0
  9
$COORDS
 70
     2
  9
$SPLFRAME
 70
     0
  9
$SPLINETYPE
 70
     6
  9
$SPLINESEGS
 70
     8
  9
$ATTDIA
 70
     0
  9
$ATTREQ
 70
     1
  9
$HANDLING
 70
 22529
  9
$HANDSEED
  5
492
  9
$SURFTAB1
 70
     6
  9
$SURFTAB2
 70
     6
  9
$SURFTYPE
 70
     6
  9
$SURFU
 70
     6
  9
$SURFV
 70
     6
  9
$UCSNAME
  2

  9
$UCSORG
 10
0.0
 20
0.0
 30
0.0
  9
$UCSXDIR
 10
1.0
 20
0.0
 30
0.0
  9
$UCSYDIR
 10
0.0
 20
1.0
 30
0.0
  9
$PUCSNAME
  2

  9
$PUCSORG
 10
0.0
 20
0.0
 30
0.0
  9
$PUCSXDIR
 10
1.0
 20
0.0
 30
0.0
  9
$PUCSYDIR
 10
0.0
 20
1.0
 30
0.0
  9
$USERI1
 70
     0
  9
$USERI2
 70
     0
  9
$USERI3
 70
     0
  9
$USERI4
 70
     0
  9
$USERI5
 70
     0
  9
$USERR1
 40
0.0
  9
$USERR2
 40
0.0
  9
$USERR3
 40
0.0
  9
$USERR4
 40
0.0
  9
$USERR5
 40
0.0
  9
$WORLDVIEW
 70
     1
  9
$SHADEDGE
 70
     3
  9
$SHADEDIF
 70
    70
  9
$TILEMODE
 70
     1
  9
$MAXACTVP
 70
    15
  9
$PINSBASE
 10
0.0
 20
0.0
 30
0.0
  9
$PLIMCHECK
 70
     0
  9
$PEXTMIN
 10
1.000000000000000E+20
 20
1.000000000000000E+20
 30
1.000000000000000E+20
  9
$PEXTMAX
 10
-1.000000000000000E+20
 20
-1.000000000000000E+20
 30
-1.000000000000000E+20
  9
$PLIMMIN
 10
0.0
 20
0.0
  9
$PLIMMAX
 10
12.0
 20
9.0
  9
$UNITMODE
 70
     0
  9
$VISRETAIN
 70
     0
  9
$PLINEGEN
 70
     0
  9
$PSLTSCALE
 70
     1
  9
$TREEDEPTH
 70
  3020
  9
$PICKSTYLE
 70
     1
  9
$CMLSTYLE
  2
STANDARD
  9
$CMLJUST
 70
     0
  9
$CMLSCALE
 40
1.0
  9
$PROXYGRAPHICS
 70
     1
  9
$MEASUREMENT
 70
     0
  0
ENDSEC
  0
SECTION
  2
CLASSES
  0
CLASS
  1
ACDBDICTIONARYWDFLT
  2
AcDbDictionaryWithDefault
  3
AutoCAD 2000
 90
        0
280
     0
281
     0
  0
CLASS
  1
ACDBPLACEHOLDER
  2
AcDbPlaceHolder
  3
AutoCAD 2000
 90
        0
280
     0
281
     0
  0
CLASS
  1
LAYOUT
  2
AcDbLayout
  3
AutoCAD 2000
 90
        0
280
     0
281
     0
  0
CLASS
  1
DICTIONARYVAR
  2
AcDbDictionaryVar
  3
AutoCAD 2000
 90
        0
280
     0
281
     0
  0
CLASS
  1
LONG_TRANSACTION
  2
AcDbLongTransaction
  3
AutoCAD 2000
 90
        0
280
     0
281
     0
  0
CLASS
  1
LWPOLYLINE
  2
AcDbPolyline
  3
AutoCAD 2000
 90
        0
280
     0
281
     1
  0
CLASS
  1
HATCH
  2
AcDbHatch
  3
AutoCAD 2000
 90
        0
280
     0
281
     1
  0
CLASS
  1
XRECORD
  2
AcDbXrecord
  3
AutoCAD 2000
 90
        0
280
     0
281
     0
  0
CLASS
  1
LONG_TRANSACTION
  2
AcDbLongTransaction
  3
AutoCAD 2000
 90
        0
280
     0
281
     0
  0
CLASS
  1
LWPOLYLINE
  2
AcDbPolyline
  3
AutoCAD 2000
 90
        0
280
     0
281
     1
  0
CLASS
  1
HATCH
  2
AcDbHatch
  3
AutoCAD 2000
 90
        0
280
     0
281
     1
  0
CLASS
  1
XRECORD
  2
AcDbXrecord
  3
AutoCAD 2000
 90
        0
280
     0
281
     0
  0
CLASS
  1
LONG_TRANSACTION
  2
AcDbLongTransaction
  3
AutoCAD 2000
 90
        0
280
     0
281
     0
  0
CLASS
  1
LWPOLYLINE
  2
AcDbPolyline
  3
AutoCAD 2000
 90
        0
280
     0
281
     1
  0
CLASS
  1
HATCH
  2
AcDbHatch
  3
AutoCAD 2000
 90
        0
280
     0
281
     1
  0
CLASS
  1
XRECORD
  2
AcDbXrecord
  3
AutoCAD 2000
 90
        0
280
     0
281
     0
  0
CLASS
  1
LONG_TRANSACTION
  2
AcDbLongTransaction
  3
AutoCAD 2000
 90
        0
280
     0
281
     0
  0
CLASS
  1
LWPOLYLINE
  2
AcDbPolyline
  3
AutoCAD 2000
 90
        0
280
     0
281
     1
  0
CLASS
  1
HATCH
  2
AcDbHatch
  3
AutoCAD 2000
 90
        0
280
     0
281
     1
  0
CLASS
  1
XRECORD
  2
AcDbXrecord
  3
AutoCAD 2000
 90
        0
280
     0
281
     0
  0
CLASS
  1
LONG_TRANSACTION
  2
AcDbLongTransaction
  3
AutoCAD 2000
 90
        0
280
     0
281
     0
  0
CLASS
  1
LWPOLYLINE
  2
AcDbPolyline
  3
AutoCAD 2000
 90
        0
280
     0
281
     1
  0
CLASS
  1
HATCH
  2
AcDbHatch
  3
AutoCAD 2000
 90
        0
280
     0
281
     1
  0
CLASS
  1
XRECORD
  2
AcDbXrecord
  3
AutoCAD 2000
 90
        0
280
     0
281
     0
  0
ENDSEC
  0
SECTION
  2
TABLES
  0
TABLE
  2
VPORT
  5
8
330
0
100
AcDbSymbolTable
 70
     2
  0
VPORT
  5
46F
330
8
100
AcDbSymbolTableRecord
100
AcDbViewportTableRecord
  2
*ACTIVE
 70
     0
 10
0.0
 20
0.0
 11
1.0
 21
1.0
 12
-49.09562215280171
 22
66.36869738927327
 13
0.0
 23
0.0
 14
0.5740882589684922
 24
0.5740882589684922
 15
0.5
 25
0.5
 16
0.0
 26
0.0
 36
1.0
 17
0.0
 27
0.0
 37
0.0
 40
12.37599390617959
 41
1.570528967254408
 42
50.0
 43
0.0
 44
0.0
 50
0.0
 51
0.0
 71
     0
 72
   100
 73
     1
 74
     0
 75
     0
 76
     0
 77
     0
 78
     0
  0
ENDTAB
  0
TABLE
  2
LTYPE
  5
5
330
0
100
AcDbSymbolTable
 70
     2
  0
LTYPE
  5
12
330
5
100
AcDbSymbolTableRecord
100
AcDbLinetypeTableRecord
  2
BYBLOCK
 70
     0
  3

 72
    65
 73
     0
 40
0.0
  0
LTYPE
  5
13
330
5
100
AcDbSymbolTableRecord
100
AcDbLinetypeTableRecord
  2
BYLAYER
 70
     0
  3

 72
    65
 73
     0
 40
0.0
  0
LTYPE
  5
14
330
5
100
AcDbSymbolTableRecord
100
AcDbLinetypeTableRecord
  2
CONTINUOUS
 70
     0
  3
Solid line
 72
    65
 73
     0
 40
0.0
  0
LTYPE
  5
271
330
5
100
AcDbSymbolTableRecord
100
AcDbLinetypeTableRecord
  2
HIDDEN2
 70
     0
  3
_ _ _ _ _ _ _ _ _ _ _ _ _ _ _ _ _ _ _ _ _ _ _ _
 72
    65
 73
     2
 40
0.1875
 49
0.125
 74
     0
 49
-0.0625
 74
     0
  0
ENDTAB
  0
TABLE
  2
LAYER
  5
2
330
0
100
AcDbSymbolTable
 70
     5
  0
LAYER
  5
F
330
2
100
AcDbSymbolTableRecord
100
AcDbLayerTableRecord
  2
0
 70
     0
 62
     7
  6
CONTINUOUS
  0
LAYER
  5
272
330
2
100
AcDbSymbolTableRecord
100
AcDbLayerTableRecord
  2
ADP1DETAIL
 70
     0
 62
     7
  6
CONTINUOUS
  0
LAYER
  5
273
330
2
100
AcDbSymbolTableRecord
100
AcDbLayerTableRecord
  2
DEFPOINTS
 70
     0
 62
     7
  6
CONTINUOUS
  0
LAYER
  5
279
330
2
100
AcDbSymbolTableRecord
100
AcDbLayerTableRecord
  2
ADP2DETAIL
 70
     0
 62
     5
  6
CONTINUOUS
  0
LAYER
  5
27A
330
2
100
AcDbSymbolTableRecord
100
AcDbLayerTableRecord
  2
ADPDIM
 70
     0
 62
     3
  6
CONTINUOUS
  0
ENDTAB
  0
TABLE
  2
STYLE
  5
3
330
0
100
AcDbSymbolTable
 70
     2
  0
STYLE
  5
10
330
3
100
AcDbSymbolTableRecord
100
AcDbTextStyleTableRecord
  2
STANDARD
 70
     0
 40
0.0
 41
1.0
 50
0.0
 71
     0
 42
0.2
  3
txt
  4

  0
STYLE
  5
32B
330
3
100
AcDbSymbolTableRecord
100
AcDbTextStyleTableRecord
  2
ARIAL_WIDE
 70
     0
 40
0.0
 41
1.25
 50
0.0
 71
     0
 42
0.2
  3
ARIAL.TTF
  4

1001
ACAD
1000
Arial
1071
       34
  0
ENDTAB
  0
TABLE
  2
VIEW
  5
6
330
0
100
AcDbSymbolTable
 70
     0
  0
ENDTAB
  0
TABLE
  2
UCS
  5
7
330
0
100
AcDbSymbolTable
 70
     0
  0
ENDTAB
  0
TABLE
  2
APPID
  5
9
330
0
100
AcDbSymbolTable
 70
     1
  0
APPID
  5
11
330
9
100
AcDbSymbolTableRecord
100
AcDbRegAppTableRecord
  2
ACAD
 70
     0
  0
ENDTAB
  0
TABLE
  2
DIMSTYLE
  5
A
330
0
100
AcDbSymbolTable
 70
     1
  0
DIMSTYLE
105
31F
330
A
100
AcDbSymbolTableRecord
100
AcDbDimStyleTableRecord
  2
STANDARD
 70
     0
  3

  4

  5

  6

  7

 40
1.0
 41
0.18
 42
0.0625
 43
0.38
 44
0.18
 45
0.0
 46
0.0
 47
0.0
 48
0.0
140
0.18
141
0.09
142
0.0
143
25.4
144
1.0
145
0.0
146
1.0
147
0.09
 71
     0
 72
     0
 73
     1
 74
     1
 75
     0
 76
     0
 77
     0
 78
     0
170
     0
171
     2
172
     0
173
     0
174
     0
175
     0
176
     0
177
     0
178
     0
270
     2
271
     4
272
     4
273
     2
274
     2
340
10
275
     0
280
     0
281
     0
282
     0
283
     1
284
     0
285
     0
286
     0
287
     3
288
     0
  0
ENDTAB
  0
TABLE
  2
BLOCK_RECORD
  5
1
330
0
100
AcDbSymbolTable
 70
     6
  0
BLOCK_RECORD
  5
18
102
{ACAD_XDICTIONARY
360
380
102
}
330
1
100
AcDbSymbolTableRecord
100
AcDbBlockTableRecord
  2
*MODEL_SPACE
  0
BLOCK_RECORD
  5
15
102
{ACAD_XDICTIONARY
360
37E
102
}
330
1
100
AcDbSymbolTableRecord
100
AcDbBlockTableRecord
  2
*PAPER_SPACE
  0
BLOCK_RECORD
  5
26B
330
1
100
AcDbSymbolTableRecord
100
AcDbBlockTableRecord
  2
*D0
  0
BLOCK_RECORD
  5
26C
330
1
100
AcDbSymbolTableRecord
100
AcDbBlockTableRecord
  2
*D1
  0
BLOCK_RECORD
  5
26D
330
1
100
AcDbSymbolTableRecord
100
AcDbBlockTableRecord
  2
*D2
  0
BLOCK_RECORD
  5
26E
330
1
100
AcDbSymbolTableRecord
100
AcDbBlockTableRecord
  2
*D3
  0
BLOCK_RECORD
  5
26F
330
1
100
AcDbSymbolTableRecord
100
AcDbBlockTableRecord
  2
*D4
  0
BLOCK_RECORD
  5
270
330
1
100
AcDbSymbolTableRecord
100
AcDbBlockTableRecord
  2
*D5
  0
ENDTAB
  0
ENDSEC
  0
SECTION
  2
BLOCKS
  0
BLOCK
  5
27D
330
18
100
AcDbEntity
  8
0
100
AcDbBlockBegin
  2
*MODEL_SPACE
 70
     0
 10
0.0
 20
0.0
 30
0.0
  3
*MODEL_SPACE
  1

  0
ENDBLK
  5
27E
330
18
100
AcDbEntity
  8
0
100
AcDbBlockEnd
  0
BLOCK
  5
27B
330
15
100
AcDbEntity
 67
     1
  8
0
100
AcDbBlockBegin
  2
*PAPER_SPACE
 70
     0
 10
0.0
 20
0.0
 30
0.0
  3
*PAPER_SPACE
  1

  0
ENDBLK
  5
27C
330
15
100
AcDbEntity
 67
     1
  8
0
100
AcDbBlockEnd
  0
BLOCK
  5
280
330
26B
100
AcDbEntity
  8
0
100
AcDbBlockBegin
  2
*D0
 70
     1
 10
0.0
 20
0.0
 30
0.0
  3
*D0
  1

  0
LINE
  5
281
330
26B
100
AcDbEntity
  8
0
  6
BYBLOCK
 62
     0
100
AcDbLine
 10
-48.47873563435579
 20
69.47761000842745
 30
0.0
 11
-46.80810457904753
 21
69.47761000842745
 31
0.0
  0
LINE
  5
282
330
26B
100
AcDbEntity
  8
0
  6
BYBLOCK
 62
     0
100
AcDbLine
 10
-47.04373563435579
 20
66.97761000842745
 30
0.0
 11
-46.80810457904753
 21
66.97761000842745
 31
0.0
  0
LINE
  5
283
330
26B
100
AcDbEntity
  8
0
  6
BYBLOCK
 62
     0
100
AcDbLine
 10
-46.98810457904753
 20
69.47761000842745
 30
0.0
 11
-46.98810457904753
 21
68.62344334176078
 31
0.0
  0
LINE
  5
284
330
26B
100
AcDbEntity
  8
0
  6
BYBLOCK
 62
     0
100
AcDbLine
 10
-46.98810457904753
 20
66.97761000842745
 30
0.0
 11
-46.98810457904753
 21
67.83177667509412
 31
0.0
  0
LINE
  5
285
330
26B
100
AcDbEntity
  8
0
  6
BYBLOCK
 62
     0
100
AcDbLine
 10
-46.86310457904752
 20
69.35261000842745
 30
0.0
 11
-47.11310457904753
 21
69.60261000842745
 31
0.0
  0
LINE
  5
286
330
26B
100
AcDbEntity
  8
0
  6
BYBLOCK
 62
     0
100
AcDbLine
 10
-46.86310457904752
 20
66.85261000842745
 30
0.0
 11
-47.11310457904753
 21
67.10261000842745
 31
0.0
  0
TEXT
  5
287
330
26B
100
AcDbEntity
  8
0
  6
BYBLOCK
 62
     0
100
AcDbText
 10
-46.92560457904753
 20
67.95677667509412
 30
0.0
 40
0.125
  1
2 1/2
 50
90.0
 72
     1
 11
-46.98810457904753
 21
68.22761000842745
 31
0.0
100
AcDbText
 73
     2
  0
POINT
  5
288
330
26B
100
AcDbEntity
  8
DEFPOINTS
  6
BYBLOCK
 62
     0
100
AcDbPoint
 10
-48.54123563435579
 20
69.47761000842745
 30
0.0
  0
POINT
  5
289
330
26B
100
AcDbEntity
  8
DEFPOINTS
  6
BYBLOCK
 62
     0
100
AcDbPoint
 10
-47.10623563435579
 20
66.97761000842745
 30
0.0
  0
POINT
  5
28A
330
26B
100
AcDbEntity
  8
DEFPOINTS
  6
BYBLOCK
 62
     0
100
AcDbPoint
 10
-46.98810457904753
 20
66.97761000842745
 30
0.0
  0
ENDBLK
  5
28B
330
26B
100
AcDbEntity
  8
0
100
AcDbBlockEnd
  0
BLOCK
  5
28C
330
26C
100
AcDbEntity
  8
0
100
AcDbBlockBegin
  2
*D1
 70
     1
 10
0.0
 20
0.0
 30
0.0
  3
*D1
  1

  0
LINE
  5
28D
330
26C
100
AcDbEntity
  8
0
  6
BYBLOCK
 62
     0
100
AcDbLine
 10
-49.99873563435579
 20
67.54011000842744
 30
0.0
 11
-51.51792317517138
 21
67.54011000842744
 31
0.0
  0
LINE
  5
28E
330
26C
100
AcDbEntity
  8
0
  6
BYBLOCK
 62
     0
100
AcDbLine
 10
-51.16873563435579
 20
66.97761000842745
 30
0.0
 11
-51.51792317517138
 21
66.97761000842745
 31
0.0
  0
LINE
  5
28F
330
26C
100
AcDbEntity
  8
0
  6
BYBLOCK
 62
     0
100
AcDbLine
 10
-51.33792317517137
 20
67.54011000842744
 30
0.0
 11
-51.33792317517137
 21
67.79011000842745
 31
0.0
  0
LINE
  5
290
330
26C
100
AcDbEntity
  8
0
  6
BYBLOCK
 62
     0
100
AcDbLine
 10
-51.33792317517137
 20
66.97761000842745
 30
0.0
 11
-51.33792317517137
 21
66.72761000842744
 31
0.0
  0
LINE
  5
291
330
26C
100
AcDbEntity
  8
0
  6
BYBLOCK
 62
     0
100
AcDbLine
 10
-51.21292317517138
 20
67.41511000842745
 30
0.0
 11
-51.46292317517137
 21
67.66511000842744
 31
0.0
  0
LINE
  5
292
330
26C
100
AcDbEntity
  8
0
  6
BYBLOCK
 62
     0
100
AcDbLine
 10
-51.21292317517138
 20
66.85261000842745
 30
0.0
 11
-51.46292317517137
 21
67.10261000842745
 31
0.0
  0
TEXT
  5
293
330
26C
100
AcDbEntity
  8
0
  6
BYBLOCK
 62
     0
100
AcDbText
 10
-51.27542317517137
 20
66.18594334176079
 30
0.0
 40
0.125
  1
9/16
 50
90.0
 72
     1
 11
-51.33792317517137
 21
66.39427667509412
 31
0.0
100
AcDbText
 73
     2
  0
POINT
  5
294
330
26C
100
AcDbEntity
  8
DEFPOINTS
  6
BYBLOCK
 62
     0
100
AcDbPoint
 10
-49.93623563435579
 20
67.54011000842744
 30
0.0
  0
POINT
  5
295
330
26C
100
AcDbEntity
  8
DEFPOINTS
  6
BYBLOCK
 62
     0
100
AcDbPoint
 10
-51.10623563435579
 20
66.97761000842745
 30
0.0
  0
POINT
  5
296
330
26C
100
AcDbEntity
  8
DEFPOINTS
  6
BYBLOCK
 62
     0
100
AcDbPoint
 10
-51.33792317517137
 20
66.97761000842745
 30
0.0
  0
ENDBLK
  5
297
330
26C
100
AcDbEntity
  8
0
100
AcDbBlockEnd
  0
BLOCK
  5
298
330
26D
100
AcDbEntity
  8
0
100
AcDbBlockBegin
  2
*D2
 70
     1
 10
0.0
 20
0.0
 30
0.0
  3
*D2
  1

  0
LINE
  5
299
330
26D
100
AcDbEntity
  8
0
  6
BYBLOCK
 62
     0
100
AcDbLine
 10
-51.10623563435579
 20
66.91511000842744
 30
0.0
 11
-51.10623563435579
 21
66.45163170784527
 31
0.0
  0
LINE
  5
29A
330
26D
100
AcDbEntity
  8
0
  6
BYBLOCK
 62
     0
100
AcDbLine
 10
-47.1214901272808
 20
66.91511000842744
 30
0.0
 11
-47.1214901272808
 21
66.45163170784527
 31
0.0
  0
LINE
  5
29B
330
26D
100
AcDbEntity
  8
0
  6
BYBLOCK
 62
     0
100
AcDbLine
 10
-51.10623563435579
 20
66.63163170784527
 30
0.0
 11
-49.28052954748497
 21
66.63163170784527
 31
0.0
  0
LINE
  5
29C
330
26D
100
AcDbEntity
  8
0
  6
BYBLOCK
 62
     0
100
AcDbLine
 10
-47.1214901272808
 20
66.63163170784527
 30
0.0
 11
-48.94719621415164
 21
66.63163170784527
 31
0.0
  0
LINE
  5
29D
330
26D
100
AcDbEntity
  8
0
  6
BYBLOCK
 62
     0
100
AcDbLine
 10
-51.23123563435579
 20
66.50663170784527
 30
0.0
 11
-50.98123563435579
 21
66.75663170784527
 31
0.0
  0
LINE
  5
29E
330
26D
100
AcDbEntity
  8
0
  6
BYBLOCK
 62
     0
100
AcDbLine
 10
-47.24649012728081
 20
66.50663170784527
 30
0.0
 11
-46.9964901272808
 21
66.75663170784527
 31
0.0
  0
TEXT
  5
29F
330
26D
100
AcDbEntity
  8
0
  6
BYBLOCK
 62
     0
100
AcDbText
 10
-49.15552954748497
 20
66.56913170784527
 30
0.0
 40
0.125
  1
4
 72
     1
 11
-49.1138628808183
 21
66.63163170784527
 31
0.0
100
AcDbText
 73
     2
  0
POINT
  5
2A0
330
26D
100
AcDbEntity
  8
DEFPOINTS
  6
BYBLOCK
 62
     0
100
AcDbPoint
 10
-51.10623563435579
 20
66.97761000842745
 30
0.0
  0
POINT
  5
2A1
330
26D
100
AcDbEntity
  8
DEFPOINTS
  6
BYBLOCK
 62
     0
100
AcDbPoint
 10
-47.1214901272808
 20
66.97761000842745
 30
0.0
  0
POINT
  5
2A2
330
26D
100
AcDbEntity
  8
DEFPOINTS
  6
BYBLOCK
 62
     0
100
AcDbPoint
 10
-47.1214901272808
 20
66.63163170784527
 30
0.0
  0
ENDBLK
  5
2A3
330
26D
100
AcDbEntity
  8
0
100
AcDbBlockEnd
  0
BLOCK
  5
2A4
330
26E
100
AcDbEntity
  8
0
100
AcDbBlockBegin
  2
*D3
 70
     1
 10
0.0
 20
0.0
 30
0.0
  3
*D3
  1

  0
LINE
  5
2A5
330
26E
100
AcDbEntity
  8
0
  6
BYBLOCK
 62
     0
100
AcDbLine
 10
-49.79623563435579
 20
69.41511000842744
 30
0.0
 11
-49.79623563435579
 21
69.86792043181449
 31
0.0
  0
LINE
  5
2A6
330
26E
100
AcDbEntity
  8
0
  6
BYBLOCK
 62
     0
100
AcDbLine
 10
-48.41623563435579
 20
69.41511000842744
 30
0.0
 11
-48.41623563435579
 21
69.86792043181449
 31
0.0
  0
LINE
  5
2A7
330
26E
100
AcDbEntity
  8
0
  6
BYBLOCK
 62
     0
100
AcDbLine
 10
-49.79623563435579
 20
69.68792043181449
 30
0.0
 11
-49.50206896768913
 21
69.68792043181449
 31
0.0
  0
LINE
  5
2A8
330
26E
100
AcDbEntity
  8
0
  6
BYBLOCK
 62
     0
100
AcDbLine
 10
-48.41623563435579
 20
69.68792043181449
 30
0.0
 11
-48.71040230102245
 21
69.68792043181449
 31
0.0
  0
LINE
  5
2A9
330
26E
100
AcDbEntity
  8
0
  6
BYBLOCK
 62
     0
100
AcDbLine
 10
-49.92123563435579
 20
69.56292043181449
 30
0.0
 11
-49.67123563435579
 21
69.81292043181449
 31
0.0
  0
LINE
  5
2AA
330
26E
100
AcDbEntity
  8
0
  6
BYBLOCK
 62
     0
100
AcDbLine
 10
-48.54123563435579
 20
69.56292043181449
 30
0.0
 11
-48.2912356343558
 21
69.81292043181449
 31
0.0
  0
TEXT
  5
2AB
330
26E
100
AcDbEntity
  8
0
  6
BYBLOCK
 62
     0
100
AcDbText
 10
-49.37706896768912
 20
69.62542043181449
 30
0.0
 40
0.125
  1
1 3/8
 72
     1
 11
-49.10623563435579
 21
69.68792043181449
 31
0.0
100
AcDbText
 73
     2
  0
POINT
  5
2AC
330
26E
100
AcDbEntity
  8
DEFPOINTS
  6
BYBLOCK
 62
     0
100
AcDbPoint
 10
-49.79623563435579
 20
69.35261000842745
 30
0.0
  0
POINT
  5
2AD
330
26E
100
AcDbEntity
  8
DEFPOINTS
  6
BYBLOCK
 62
     0
100
AcDbPoint
 10
-48.41623563435579
 20
69.35261000842745
 30
0.0
  0
POINT
  5
2AE
330
26E
100
AcDbEntity
  8
DEFPOINTS
  6
BYBLOCK
 62
     0
100
AcDbPoint
 10
-48.41623563435579
 20
69.68792043181449
 30
0.0
  0
ENDBLK
  5
2AF
330
26E
100
AcDbEntity
  8
0
100
AcDbBlockEnd
  0
BLOCK
  5
2B0
330
26F
100
AcDbEntity
  8
0
100
AcDbBlockBegin
  2
*D4
 70
     1
 10
0.0
 20
0.0
 30
0.0
  3
*D4
  1

  0
LINE
  5
2B1
330
26F
100
AcDbEntity
  8
0
  6
BYBLOCK
 62
     0
100
AcDbLine
 10
-49.93623563435579
 20
67.60261000842745
 30
0.0
 11
-49.93623563435579
 21
70.24457571132977
 31
0.0
  0
LINE
  5
2B2
330
26F
100
AcDbEntity
  8
0
  6
BYBLOCK
 62
     0
100
AcDbLine
 10
-48.27623563435579
 20
67.60261000842745
 30
0.0
 11
-48.27623563435579
 21
70.24457571132977
 31
0.0
  0
LINE
  5
2B3
330
26F
100
AcDbEntity
  8
0
  6
BYBLOCK
 62
     0
100
AcDbLine
 10
-49.93623563435579
 20
70.06457571132976
 30
0.0
 11
-49.56456896768912
 21
70.06457571132976
 31
0.0
  0
LINE
  5
2B4
330
26F
100
AcDbEntity
  8
0
  6
BYBLOCK
 62
     0
100
AcDbLine
 10
-48.27623563435579
 20
70.06457571132976
 30
0.0
 11
-48.64790230102245
 21
70.06457571132976
 31
0.0
  0
LINE
  5
2B5
330
26F
100
AcDbEntity
  8
0
  6
BYBLOCK
 62
     0
100
AcDbLine
 10
-50.06123563435579
 20
69.93957571132977
 30
0.0
 11
-49.81123563435579
 21
70.18957571132976
 31
0.0
  0
LINE
  5
2B6
330
26F
100
AcDbEntity
  8
0
  6
BYBLOCK
 62
     0
100
AcDbLine
 10
-48.40123563435579
 20
69.93957571132977
 30
0.0
 11
-48.15123563435579
 21
70.18957571132976
 31
0.0
  0
TEXT
  5
2B7
330
26F
100
AcDbEntity
  8
0
  6
BYBLOCK
 62
     0
100
AcDbText
 10
-49.43956896768913
 20
70.00207571132976
 30
0.0
 40
0.125
  1
1 11/16
 72
     1
 11
-49.10623563435579
 21
70.06457571132976
 31
0.0
100
AcDbText
 73
     2
  0
POINT
  5
2B8
330
26F
100
AcDbEntity
  8
DEFPOINTS
  6
BYBLOCK
 62
     0
100
AcDbPoint
 10
-49.93623563435579
 20
67.54011000842744
 30
0.0
  0
POINT
  5
2B9
330
26F
100
AcDbEntity
  8
DEFPOINTS
  6
BYBLOCK
 62
     0
100
AcDbPoint
 10
-48.27623563435579
 20
67.54011000842744
 30
0.0
  0
POINT
  5
2BA
330
26F
100
AcDbEntity
  8
DEFPOINTS
  6
BYBLOCK
 62
     0
100
AcDbPoint
 10
-48.27623563435579
 20
70.06457571132976
 30
0.0
  0
ENDBLK
  5
2BB
330
26F
100
AcDbEntity
  8
0
100
AcDbBlockEnd
  0
BLOCK
  5
2BC
330
270
100
AcDbEntity
  8
0
100
AcDbBlockBegin
  2
*D5
 70
     1
 10
0.0
 20
0.0
 30
0.0
  3
*D5
  1

  0
LINE
  5
2BD
330
270
100
AcDbEntity
  8
0
  6
BYBLOCK
 62
     0
100
AcDbLine
 10
-49.0513628808183
 20
65.33249268228836
 30
0.0
 11
-46.48509829519549
 21
65.33249268228836
 31
0.0
  0
LINE
  5
2BE
330
270
100
AcDbEntity
  8
0
  6
BYBLOCK
 62
     0
100
AcDbLine
 10
-49.0513628808183
 20
63.67249268228836
 30
0.0
 11
-46.48509829519549
 21
63.67249268228836
 31
0.0
  0
LINE
  5
2BF
330
270
100
AcDbEntity
  8
0
  6
BYBLOCK
 62
     0
100
AcDbLine
 10
-46.66509829519549
 20
65.33249268228836
 30
0.0
 11
-46.66509829519549
 21
64.96082601562169
 31
0.0
  0
LINE
  5
2C0
330
270
100
AcDbEntity
  8
0
  6
BYBLOCK
 62
     0
100
AcDbLine
 10
-46.66509829519549
 20
63.67249268228836
 30
0.0
 11
-46.66509829519549
 21
64.04415934895503
 31
0.0
  0
LINE
  5
2C1
330
270
100
AcDbEntity
  8
0
  6
BYBLOCK
 62
     0
100
AcDbLine
 10
-46.54009829519549
 20
65.20749268228836
 30
0.0
 11
-46.79009829519549
 21
65.45749268228836
 31
0.0
  0
LINE
  5
2C2
330
270
100
AcDbEntity
  8
0
  6
BYBLOCK
 62
     0
100
AcDbLine
 10
-46.54009829519549
 20
63.54749268228836
 30
0.0
 11
-46.79009829519549
 21
63.79749268228836
 31
0.0
  0
TEXT
  5
2C3
330
270
100
AcDbEntity
  8
0
  6
BYBLOCK
 62
     0
100
AcDbText
 10
-46.60259829519548
 20
64.16915934895503
 30
0.0
 40
0.125
  1
1 11/16
 50
90.0
 72
     1
 11
-46.66509829519549
 21
64.50249268228836
 31
0.0
100
AcDbText
 73
     2
  0
POINT
  5
2C4
330
270
100
AcDbEntity
  8
DEFPOINTS
  6
BYBLOCK
 62
     0
100
AcDbPoint
 10
-49.1138628808183
 20
65.33249268228836
 30
0.0
  0
POINT
  5
2C5
330
270
100
AcDbEntity
  8
DEFPOINTS
  6
BYBLOCK
 62
     0
100
AcDbPoint
 10
-49.1138628808183
 20
63.67249268228836
 30
0.0
  0
POINT
  5
2C6
330
270
100
AcDbEntity
  8
DEFPOINTS
  6
BYBLOCK
 62
     0
100
AcDbPoint
 10
-46.66509829519549
 20
63.67249268228836
 30
0.0
  0
ENDBLK
  5
2C7
330
270
100
AcDbEntity
  8
0
100
AcDbBlockEnd
  0
ENDSEC
  0
SECTION
  2
ENTITIES
  0
DIMENSION
  5
2C8
330
18
100
AcDbEntity
  8
ADPDIM
100
AcDbDimension
  2
*D2
 10
-47.1214901272808
 20
66.63163170784527
 30
0.0
 11
-49.1138628808183
 21
66.63163170784527
 31
0.0
100
AcDbAlignedDimension
 13
-51.10623563435579
 23
66.97761000842745
 33
0.0
 14
-47.1214901272808
 24
66.97761000842745
 34
0.0
100
AcDbRotatedDimension
  0
DIMENSION
  5
2C9
330
18
100
AcDbEntity
  8
ADPDIM
100
AcDbDimension
  2
*D1
 10
-51.33792317517137
 20
66.97761000842745
 30
0.0
 11
-51.33792317517137
 21
66.39427667509412
 31
0.0
100
AcDbAlignedDimension
 13
-49.93623563435579
 23
67.54011000842744
 33
0.0
 14
-51.10623563435579
 24
66.97761000842745
 34
0.0
 50
90.0
100
AcDbRotatedDimension
  0
CIRCLE
  5
2CA
330
18
100
AcDbEntity
  8
ADP1DETAIL
100
AcDbCircle
 10
-49.1138628808183
 20
64.50249268228836
 30
0.0
 40
0.265625
  0
CIRCLE
  5
2CB
330
18
100
AcDbEntity
  8
ADP1DETAIL
100
AcDbCircle
 10
-49.1138628808183
 20
64.50249268228836
 30
0.0
 40
0.5659610629268098
  0
CIRCLE
  5
2CC
330
18
100
AcDbEntity
  8
ADP1DETAIL
100
AcDbCircle
 10
-49.1138628808183
 20
64.50249268228836
 30
0.0
 40
0.69
  0
ARC
  5
2CD
330
18
100
AcDbEntity
  8
ADP1DETAIL
100
AcDbCircle
 10
-49.17270084465475
 20
61.56240935346368
 30
0.0
 40
3.770542429448343
100
AcDbArc
 50
89.10588359713122
 51
117.0140435153221
  0
ARC
  5
2CE
330
18
100
AcDbEntity
  8
ADP1DETAIL
100
AcDbCircle
 10
-49.17270084465475
 20
67.44257601111304
 30
0.0
 40
3.770542429448343
100
AcDbArc
 50
242.9859564846778
 51
270.8941164028688
  0
CIRCLE
  5
2CF
330
18
100
AcDbEntity
  8
ADP1DETAIL
100
AcDbCircle
 10
-49.1138628808183
 20
64.50249268228836
 30
0.0
 40
0.8299999999999998
  0
ARC
  5
2D0
330
18
100
AcDbEntity
  8
ADP1DETAIL
100
AcDbCircle
 10
-50.61559928610719
 20
64.50249268228836
 30
0.0
 40
0.4983675083039579
100
AcDbArc
 50
122.7652157208544
 51
237.2347842791454
  0
DIMENSION
  5
2D1
330
18
100
AcDbEntity
  8
ADPDIM
100
AcDbDimension
  2
*D5
 10
-46.66509829519549
 20
63.67249268228836
 30
0.0
 11
-46.66509829519549
 21
64.50249268228836
 31
0.0
100
AcDbAlignedDimension
 13
-49.1138628808183
 23
65.33249268228836
 33
0.0
 14
-49.1138628808183
 24
63.67249268228836
 34
0.0
 50
90.0
100
AcDbRotatedDimension
  0
ARC
  5
2D2
330
18
100
AcDbEntity
  8
ADP1DETAIL
100
AcDbCircle
 10
-49.05502491698184
 20
61.56240935346368
 30
0.0
 40
3.770542429448343
100
AcDbArc
 50
62.98595648467785
 51
90.89411640286881
  0
ARC
  5
2D3
330
18
100
AcDbEntity
  8
ADP1DETAIL
100
AcDbCircle
 10
-49.05502491698184
 20
67.44257601111304
 30
0.0
 40
3.770542429448343
100
AcDbArc
 50
269.1058835971312
 51
297.0140435153221
  0
ARC
  5
2D4
330
18
100
AcDbEntity
  8
ADP1DETAIL
100
AcDbCircle
 10
-47.61972722502549
 20
64.50249268228836
 30
0.0
 40
0.5025216643201066
100
AcDbArc
 50
303.4939646126215
 51
56.50603538737843
  0
DIMENSION
  5
2D5
330
18
100
AcDbEntity
  8
ADPDIM
100
AcDbDimension
  2
*D3
 10
-48.41623563435579
 20
69.68792043181449
 30
0.0
 11
-49.10623563435579
 21
69.68792043181449
 31
0.0
100
AcDbAlignedDimension
 13
-49.79623563435579
 23
69.35261000842745
 33
0.0
 14
-48.41623563435579
 24
69.35261000842745
 34
0.0
100
AcDbRotatedDimension
  0
DIMENSION
  5
2D6
330
18
100
AcDbEntity
  8
ADPDIM
100
AcDbDimension
  2
*D4
 10
-48.27623563435579
 20
70.06457571132976
 30
0.0
 11
-49.10623563435579
 21
70.06457571132976
 31
0.0
100
AcDbAlignedDimension
 13
-49.93623563435579
 23
67.54011000842744
 33
0.0
 14
-48.27623563435579
 24
67.54011000842744
 34
0.0
100
AcDbRotatedDimension
  0
LINE
  5
2D7
330
18
100
AcDbEntity
  8
ADP1DETAIL
100
AcDbLine
 10
-48.41623563435579
 20
69.35261000842745
 30
0.0
 11
-49.79623563435579
 21
69.35261000842745
 31
0.0
  0
LINE
  5
2D8
330
18
100
AcDbEntity
  8
ADP1DETAIL
100
AcDbLine
 10
-48.57083560689806
 20
69.47761000842745
 30
0.0
 11
-49.67123563435579
 21
69.47761000842745
 31
0.0
  0
LINE
  5
2D9
330
18
100
AcDbEntity
  8
ADP1DETAIL
100
AcDbLine
 10
-49.10623563435579
 20
67.54011000842744
 30
0.0
 11
-49.93623563435579
 21
67.54011000842744
 31
0.0
  0
LINE
  5
2DA
330
18
100
AcDbEntity
  8
ADP1DETAIL
100
AcDbLine
 10
-50.02998563435578
 20
67.22761000842744
 30
0.0
 11
-49.10623563435579
 21
67.22761000842744
 31
0.0
  0
LINE
  5
2DB
330
18
100
AcDbEntity
  8
ADP1DETAIL
100
AcDbLine
 10
-47.1214901272808
 20
66.97761000842745
 30
0.0
 11
-51.10623563435579
 21
66.97761000842745
 31
0.0
  0
LINE
  5
2DC
330
18
100
AcDbEntity
  8
ADP2DETAIL
  6
HIDDEN2
100
AcDbLine
 10
-49.37186063435579
 20
69.47761000842745
 30
0.0
 11
-49.37186063435579
 21
66.97761000842745
 31
0.0
  0
LINE
  5
2DD
330
18
100
AcDbEntity
  8
ADP1DETAIL
100
AcDbLine
 10
-49.79623563435579
 20
69.35261000842745
 30
0.0
 11
-49.79623563435579
 21
67.54011000842744
 31
0.0
  0
LINE
  5
2DE
330
18
100
AcDbEntity
  8
ADP1DETAIL
100
AcDbLine
 10
-50.98123563435579
 20
67.22761000842744
 30
0.0
 11
-50.02998563435578
 21
67.22761000842744
 31
0.0
  0
ARC
  5
2DF
330
18
100
AcDbEntity
  8
ADP1DETAIL
100
AcDbCircle
 10
-50.98123563435579
 20
67.10261000842745
 30
0.0
 40
0.125
100
AcDbArc
 50
90.0
 51
180.0
  0
LINE
  5
2E0
330
18
100
AcDbEntity
  8
ADP1DETAIL
100
AcDbLine
 10
-51.10623563435579
 20
66.97761000842745
 30
0.0
 11
-51.10623563435579
 21
67.10261000842745
 31
0.0
  0
LINE
  5
2E1
330
18
100
AcDbEntity
  8
ADP1DETAIL
100
AcDbLine
 10
-49.35873563435579
 20
68.22619352071915
 30
0.0
 11
-49.35873563435579
 21
68.41369352071914
 31
0.0
  0
LINE
  5
2E2
330
18
100
AcDbEntity
  8
ADP1DETAIL
100
AcDbLine
 10
-49.48373563435579
 20
68.22619352071915
 30
0.0
 11
-49.48373563435579
 21
68.41369352071914
 31
0.0
  0
LINE
  5
2E3
330
18
100
AcDbEntity
  8
ADP1DETAIL
100
AcDbLine
 10
-49.54623563435578
 20
68.22619352071915
 30
0.0
 11
-49.54623563435578
 21
68.41369352071914
 31
0.0
  0
LINE
  5
2E4
330
18
100
AcDbEntity
  8
ADP1DETAIL
100
AcDbLine
 10
-49.60873563435579
 20
68.22619352071915
 30
0.0
 11
-49.60873563435579
 21
68.41369352071914
 31
0.0
  0
LINE
  5
2E5
330
18
100
AcDbEntity
  8
ADP1DETAIL
100
AcDbLine
 10
-49.73373563435579
 20
68.22619352071915
 30
0.0
 11
-49.73373563435579
 21
68.41369352071914
 31
0.0
  0
LINE
  5
2E6
330
18
100
AcDbEntity
  8
ADP1DETAIL
100
AcDbLine
 10
-49.67123563435579
 20
68.22619352071915
 30
0.0
 11
-49.67123563435579
 21
68.41369352071914
 31
0.0
  0
LINE
  5
2E7
330
18
100
AcDbEntity
  8
ADP1DETAIL
100
AcDbLine
 10
-49.42123563435579
 20
68.22619352071915
 30
0.0
 11
-49.42123563435579
 21
68.41369352071914
 31
0.0
  0
ARC
  5
2E8
330
18
100
AcDbEntity
  8
ADP1DETAIL
100
AcDbCircle
 10
-50.02998563435578
 20
67.32136000842745
 30
0.0
 40
0.09375
100
AcDbArc
 50
270.0
 51
0.000000000000007
  0
LINE
  5
2E9
330
18
100
AcDbEntity
  8
ADP1DETAIL
100
AcDbLine
 10
-49.93623563435579
 20
67.54011000842744
 30
0.0
 11
-49.93623563435579
 21
67.32136000842745
 31
0.0
  0
LWPOLYLINE
  5
2EA
330
18
100
AcDbEntity
  8
ADP1DETAIL
100
AcDbPolyline
 90
        2
 70
     0
 43
0.0
 10
-49.79623563435579
 20
69.35261000842745
 10
-49.67123563435579
 20
69.47761000842745
  0
LINE
  5
2EE
330
18
100
AcDbEntity
  8
ADP1DETAIL
100
AcDbLine
 10
-49.67123563435579
 20
68.97619352071915
 30
0.0
 11
-49.67123563435579
 21
69.16369352071915
 31
0.0
  0
LINE
  5
2EF
330
18
100
AcDbEntity
  8
ADP1DETAIL
100
AcDbLine
 10
-49.73373563435579
 20
68.97619352071915
 30
0.0
 11
-49.73373563435579
 21
69.16369352071915
 31
0.0
  0
LINE
  5
2F0
330
18
100
AcDbEntity
  8
ADP1DETAIL
100
AcDbLine
 10
-49.60873563435579
 20
68.97619352071915
 30
0.0
 11
-49.60873563435579
 21
69.16369352071915
 31
0.0
  0
LINE
  5
2F1
330
18
100
AcDbEntity
  8
ADP1DETAIL
100
AcDbLine
 10
-49.42123563435579
 20
68.97619352071915
 30
0.0
 11
-49.42123563435579
 21
69.16369352071915
 31
0.0
  0
LINE
  5
2F2
330
18
100
AcDbEntity
  8
ADP1DETAIL
100
AcDbLine
 10
-49.35873563435579
 20
68.97619352071915
 30
0.0
 11
-49.35873563435579
 21
69.16369352071915
 31
0.0
  0
LINE
  5
2F3
330
18
100
AcDbEntity
  8
ADP1DETAIL
100
AcDbLine
 10
-49.54623563435578
 20
68.97619352071915
 30
0.0
 11
-49.54623563435578
 21
69.16369352071915
 31
0.0
  0
LINE
  5
2F4
330
18
100
AcDbEntity
  8
ADP1DETAIL
100
AcDbLine
 10
-49.48373563435579
 20
68.97619352071915
 30
0.0
 11
-49.48373563435579
 21
69.16369352071915
 31
0.0
  0
DIMENSION
  5
2F5
330
18
100
AcDbEntity
  8
ADPDIM
100
AcDbDimension
  2
*D0
 10
-46.98810457904753
 20
66.97761000842745
 30
0.0
 11
-46.98810457904753
 21
68.22761000842745
 31
0.0
100
AcDbAlignedDimension
 13
-48.54123563435579
 23
69.47761000842745
 33
0.0
 14
-47.10623563435579
 24
66.97761000842745
 34
0.0
 50
90.0
100
AcDbRotatedDimension
  0
LINE
  5
2F6
330
18
100
AcDbEntity
  8
ADP1DETAIL
100
AcDbLine
 10
-47.23123563435579
 20
67.22761000842744
 30
0.0
 11
-48.18248563435579
 21
67.22761000842744
 31
0.0
  0
LINE
  5
2F7
330
18
100
AcDbEntity
  8
ADP2DETAIL
  6
HIDDEN2
100
AcDbLine
 10
-48.84061063435579
 20
69.47761000842745
 30
0.0
 11
-48.84061063435579
 21
66.97761000842745
 31
0.0
  0
LINE
  5
2F8
330
18
100
AcDbEntity
  8
ADP1DETAIL
100
AcDbLine
 10
-48.41623563435579
 20
69.35261000842745
 30
0.0
 11
-48.41623563435579
 21
67.54011000842744
 31
0.0
  0
LINE
  5
2F9
330
18
100
AcDbEntity
  8
ADP1DETAIL
100
AcDbLine
 10
-49.10623563435579
 20
67.54011000842744
 30
0.0
 11
-48.27623563435579
 21
67.54011000842744
 31
0.0
  0
LINE
  5
2FA
330
18
100
AcDbEntity
  8
ADP1DETAIL
100
AcDbLine
 10
-48.18248563435579
 20
67.22761000842744
 30
0.0
 11
-49.10623563435579
 21
67.22761000842744
 31
0.0
  0
LINE
  5
2FB
330
18
100
AcDbEntity
  8
ADP1DETAIL
100
AcDbLine
 10
-49.10623563435579
 20
68.22761000842745
 30
0.0
 11
-49.10623563435579
 21
68.41511000842745
 31
0.0
  0
LINE
  5
2FC
330
18
100
AcDbEntity
  8
ADP1DETAIL
100
AcDbLine
 10
-49.04373563435579
 20
68.22761000842745
 30
0.0
 11
-49.04373563435579
 21
68.41511000842745
 31
0.0
  0
LINE
  5
2FD
330
18
100
AcDbEntity
  8
ADP1DETAIL
100
AcDbLine
 10
-48.98123563435579
 20
68.22761000842745
 30
0.0
 11
-48.98123563435579
 21
68.41511000842745
 31
0.0
  0
LINE
  5
2FE
330
18
100
AcDbEntity
  8
ADP1DETAIL
100
AcDbLine
 10
-48.91873563435579
 20
68.22761000842745
 30
0.0
 11
-48.91873563435579
 21
68.41511000842745
 31
0.0
  0
LINE
  5
2FF
330
18
100
AcDbEntity
  8
ADP1DETAIL
100
AcDbLine
 10
-48.85623563435579
 20
68.22761000842745
 30
0.0
 11
-48.85623563435579
 21
68.41511000842745
 31
0.0
  0
LINE
  5
300
330
18
100
AcDbEntity
  8
ADP1DETAIL
100
AcDbLine
 10
-48.79373563435579
 20
68.22761000842745
 30
0.0
 11
-48.79373563435579
 21
68.41511000842745
 31
0.0
  0
LINE
  5
301
330
18
100
AcDbEntity
  8
ADP1DETAIL
100
AcDbLine
 10
-48.73123563435579
 20
68.22761000842745
 30
0.0
 11
-48.73123563435579
 21
68.41511000842745
 31
0.0
  0
LINE
  5
302
330
18
100
AcDbEntity
  8
ADP1DETAIL
100
AcDbLine
 10
-48.66873563435579
 20
68.22761000842745
 30
0.0
 11
-48.66873563435579
 21
68.41511000842745
 31
0.0
  0
LINE
  5
303
330
18
100
AcDbEntity
  8
ADP1DETAIL
100
AcDbLine
 10
-48.60623563435579
 20
68.22761000842745
 30
0.0
 11
-48.60623563435579
 21
68.41511000842745
 31
0.0
  0
LINE
  5
304
330
18
100
AcDbEntity
  8
ADP1DETAIL
100
AcDbLine
 10
-48.54373563435579
 20
68.22761000842745
 30
0.0
 11
-48.54373563435579
 21
68.41511000842745
 31
0.0
  0
LINE
  5
305
330
18
100
AcDbEntity
  8
ADP1DETAIL
100
AcDbLine
 10
-48.47873563435579
 20
68.22902649613574
 30
0.0
 11
-48.47873563435579
 21
68.41652649613575
 31
0.0
  0
LINE
  5
306
330
18
100
AcDbEntity
  8
ADP1DETAIL
100
AcDbLine
 10
-49.17123563435579
 20
68.22619352071915
 30
0.0
 11
-49.17123563435579
 21
68.41369352071914
 31
0.0
  0
LINE
  5
307
330
18
100
AcDbEntity
  8
ADP1DETAIL
100
AcDbLine
 10
-49.23373563435578
 20
68.22619352071915
 30
0.0
 11
-49.23373563435578
 21
68.41369352071914
 31
0.0
  0
LINE
  5
308
330
18
100
AcDbEntity
  8
ADP1DETAIL
100
AcDbLine
 10
-49.29623563435579
 20
68.22619352071915
 30
0.0
 11
-49.29623563435579
 21
68.41369352071914
 31
0.0
  0
LINE
  5
309
330
18
100
AcDbEntity
  8
ADP1DETAIL
100
AcDbLine
 10
-48.27623563435579
 20
67.54011000842744
 30
0.0
 11
-48.27623563435579
 21
67.32136000842745
 31
0.0
  0
ARC
  5
30A
330
18
100
AcDbEntity
  8
ADP1DETAIL
100
AcDbCircle
 10
-48.18248563435579
 20
67.32136000842745
 30
0.0
 40
0.09375
100
AcDbArc
 50
180.0
 51
270.0
  0
LWPOLYLINE
  5
30B
330
18
100
AcDbEntity
  8
ADP1DETAIL
100
AcDbPolyline
 90
        2
 70
     0
 43
0.0
 10
-48.41623563435579
 20
69.35261000842745
 10
-48.54123563435579
 20
69.47761000842745
  0
LINE
  5
30F
330
18
100
AcDbEntity
  8
ADP1DETAIL
100
AcDbLine
 10
-49.29623563435579
 20
68.97619352071915
 30
0.0
 11
-49.29623563435579
 21
69.16369352071915
 31
0.0
  0
LINE
  5
310
330
18
100
AcDbEntity
  8
ADP1DETAIL
100
AcDbLine
 10
-49.23373563435578
 20
68.97619352071915
 30
0.0
 11
-49.23373563435578
 21
69.16369352071915
 31
0.0
  0
LINE
  5
311
330
18
100
AcDbEntity
  8
ADP1DETAIL
100
AcDbLine
 10
-49.17123563435579
 20
68.97619352071915
 30
0.0
 11
-49.17123563435579
 21
69.16369352071915
 31
0.0
  0
LINE
  5
312
330
18
100
AcDbEntity
  8
ADP1DETAIL
100
AcDbLine
 10
-48.85623563435579
 20
68.97761000842745
 30
0.0
 11
-48.85623563435579
 21
69.16511000842745
 31
0.0
  0
LINE
  5
313
330
18
100
AcDbEntity
  8
ADP1DETAIL
100
AcDbLine
 10
-48.91873563435579
 20
68.97761000842745
 30
0.0
 11
-48.91873563435579
 21
69.16511000842745
 31
0.0
  0
LINE
  5
314
330
18
100
AcDbEntity
  8
ADP1DETAIL
100
AcDbLine
 10
-48.98123563435579
 20
68.97761000842745
 30
0.0
 11
-48.98123563435579
 21
69.16511000842745
 31
0.0
  0
LINE
  5
315
330
18
100
AcDbEntity
  8
ADP1DETAIL
100
AcDbLine
 10
-49.10623563435579
 20
68.97761000842745
 30
0.0
 11
-49.10623563435579
 21
69.16511000842745
 31
0.0
  0
LINE
  5
316
330
18
100
AcDbEntity
  8
ADP1DETAIL
100
AcDbLine
 10
-49.04373563435579
 20
68.97761000842745
 30
0.0
 11
-49.04373563435579
 21
69.16511000842745
 31
0.0
  0
LINE
  5
317
330
18
100
AcDbEntity
  8
ADP1DETAIL
100
AcDbLine
 10
-48.47873563435579
 20
68.97902649613574
 30
0.0
 11
-48.47873563435579
 21
69.16652649613574
 31
0.0
  0
LINE
  5
318
330
18
100
AcDbEntity
  8
ADP1DETAIL
100
AcDbLine
 10
-48.54373563435579
 20
68.97761000842745
 30
0.0
 11
-48.54373563435579
 21
69.16511000842745
 31
0.0
  0
LINE
  5
319
330
18
100
AcDbEntity
  8
ADP1DETAIL
100
AcDbLine
 10
-48.60623563435579
 20
68.97761000842745
 30
0.0
 11
-48.60623563435579
 21
69.16511000842745
 31
0.0
  0
LINE
  5
31A
330
18
100
AcDbEntity
  8
ADP1DETAIL
100
AcDbLine
 10
-48.66873563435579
 20
68.97761000842745
 30
0.0
 11
-48.66873563435579
 21
69.16511000842745
 31
0.0
  0
LINE
  5
31B
330
18
100
AcDbEntity
  8
ADP1DETAIL
100
AcDbLine
 10
-48.73123563435579
 20
68.97761000842745
 30
0.0
 11
-48.73123563435579
 21
69.16511000842745
 31
0.0
  0
LINE
  5
31C
330
18
100
AcDbEntity
  8
ADP1DETAIL
100
AcDbLine
 10
-48.79373563435579
 20
68.97761000842745
 30
0.0
 11
-48.79373563435579
 21
69.16511000842745
 31
0.0
  0
LINE
  5
31D
330
18
100
AcDbEntity
  8
ADP1DETAIL
100
AcDbLine
 10
-47.10623563435579
 20
66.97761000842745
 30
0.0
 11
-47.10623563435579
 21
67.10261000842745
 31
0.0
  0
ARC
  5
31E
330
18
100
AcDbEntity
  8
ADP1DETAIL
100
AcDbCircle
 10
-47.23123563435579
 20
67.10261000842745
 30
0.0
 40
0.125
100
AcDbArc
 50
0.0
 51
90.0
  0
TEXT
  5
32C
330
18
100
AcDbEntity
  8
ADPDIM
100
AcDbText
 10
-58.76592418709389
 20
62.546345843246
 30
0.0
 40
0.1875
  1
J U L I U S  B L U M  &  C O . ,  I N C .      ( 8 0 0 )  5 2 6 - 6 2 9 3        W W W . J U L I U S B L U M . C O M        P A R T  N o .  7 4 9
 41
1.25
  7
ARIAL_WIDE
 72
     1
 11
-49.1138628808183
 21
62.733845843246
 31
0.0
100
AcDbText
 73
     3
  0
ENDSEC
  0
SECTION
  2
OBJECTS
  0
DICTIONARY
  5
C
330
0
100
AcDbDictionary
  3
ACAD_GROUP
350
D
  3
ACAD_LAYOUT
350
325
  3
ACAD_MLINESTYLE
350
E
  3
ACAD_PLOTSETTINGS
350
326
  3
ACAD_PLOTSTYLENAME
350
323
  3
ACDBHEADERROUNDTRIPXREC
350
470
  3
ACDBVARIABLEDICTIONARY
350
386
  0
DICTIONARY
  5
380
330
18
100
AcDbDictionary
280
     1
  3
ACAD_LAYOUTSELFREF
360
491
  0
DICTIONARY
  5
37E
330
15
100
AcDbDictionary
280
     1
  3
ACAD_LAYOUTSELFREF
360
490
  0
DICTIONARY
  5
D
102
{ACAD_REACTORS
330
C
102
}
330
C
100
AcDbDictionary
  0
DICTIONARY
  5
325
102
{ACAD_REACTORS
330
C
102
}
330
C
100
AcDbDictionary
  0
DICTIONARY
  5
E
102
{ACAD_REACTORS
330
C
102
}
330
C
100
AcDbDictionary
  3
STANDARD
350
1B
  0
DICTIONARY
  5
326
102
{ACAD_REACTORS
330
C
102
}
330
C
100
AcDbDictionary
  0
ACDBDICTIONARYWDFLT
  5
323
102
{ACAD_REACTORS
330
C
102
}
330
C
100
AcDbDictionary
281
     1
  3
Normal
350
324
100
AcDbDictionaryWithDefault
340
324
  0
DICTIONARY
  5
470
102
{ACAD_REACTORS
330
C
102
}
330
C
100
AcDbDictionary
  3
CEPSNTYPE
350
47A
  3
FINGERPRINTGUID
350
47B
  3
HYPERLINKBASE
350
473
  3
INSUNITS
350
479
  3
LAYOUTDICT
350
475
  3
LWETCUNION
350
478
  3
PLOTSETDICT
350
476
  3
PLOTSTYLNAMDICT
350
477
  3
PSVPSCALE
350
47D
  3
PUCSBASE
350
480
  3
PUCSORGBACK
350
486
  3
PUCSORGBOTTOM
350
482
  3
PUCSORGFRONT
350
485
  3
PUCSORGLEFT
350
483
  3
PUCSORGRIGHT
350
484
  3
PUCSORGTOP
350
481
  3
PUCSORTHOREF
350
47E
  3
PUCSORTHOVIEW
350
47F
  3
STYLESHEET
350
474
  3
TSTACKALIGN
350
471
  3
TSTACKSIZE
350
472
  3
UCSBASE
350
489
  3
UCSORGBACK
350
48F
  3
UCSORGBOTTOM
350
48B
  3
UCSORGFRONT
350
48E
  3
UCSORGLEFT
350
48C
  3
UCSORGRIGHT
350
48D
  3
UCSORGTOP
350
48A
  3
UCSORTHOREF
350
487
  3
UCSORTHOVIEW
350
488
  3
VERSIONGUID
350
47C
  0
DICTIONARY
  5
386
102
{ACAD_REACTORS
330
C
102
}
330
C
100
AcDbDictionary
  3
DIMASSOC
350
387
  0
XRECORD
  5
491
102
{ACAD_REACTORS
330
380
102
}
330
380
100
AcDbXrecord
340
18
  0
XRECORD
  5
490
102
{ACAD_REACTORS
330
37E
102
}
330
37E
100
AcDbXrecord
340
15
  0
MLINESTYLE
  5
1B
102
{ACAD_REACTORS
330
E
102
}
330
E
100
AcDbMlineStyle
  2
STANDARD
 70
     0
  3

 62
     0
 51
90.0
 52
90.0
 71
     2
 49
0.5
 62
   256
  6
BYLAYER
 49
-0.5
 62
   256
  6
BYLAYER
  0
ACDBPLACEHOLDER
  5
324
102
{ACAD_REACTORS
330
323
102
}
330
323
100
AcDbPlaceHolder
280
     0
  0
XRECORD
  5
47A
102
{ACAD_REACTORS
330
470
102
}
330
470
100
AcDbXrecord
 90
        0
  0
XRECORD
  5
47B
102
{ACAD_REACTORS
330
470
102
}
330
470
100
AcDbXrecord
  1
{96F15534-793D-4D98-B74B-5C3153D0ACE1}
  0
XRECORD
  5
473
102
{ACAD_REACTORS
330
470
102
}
330
470
100
AcDbXrecord
  1

  0
XRECORD
  5
479
102
{ACAD_REACTORS
330
470
102
}
330
470
100
AcDbXrecord
 90
        0
  0
XRECORD
  5
475
102
{ACAD_REACTORS
330
470
102
}
330
470
100
AcDbXrecord
340
325
  0
XRECORD
  5
478
102
{ACAD_REACTORS
330
470
102
}
330
470
100
AcDbXrecord
 90
    14877
  0
XRECORD
  5
476
102
{ACAD_REACTORS
330
470
102
}
330
470
100
AcDbXrecord
340
326
  0
XRECORD
  5
477
102
{ACAD_REACTORS
330
470
102
}
330
470
100
AcDbXrecord
340
323
  0
XRECORD
  5
47D
102
{ACAD_REACTORS
330
470
102
}
330
470
100
AcDbXrecord
 40
0.0
  0
XRECORD
  5
480
102
{ACAD_REACTORS
330
470
102
}
330
470
100
AcDbXrecord
340
0
  0
XRECORD
  5
486
102
{ACAD_REACTORS
330
470
102
}
330
470
100
AcDbXrecord
 10
0.0
 20
0.0
 30
0.0
  0
XRECORD
  5
482
102
{ACAD_REACTORS
330
470
102
}
330
470
100
AcDbXrecord
 10
0.0
 20
0.0
 30
0.0
  0
XRECORD
  5
485
102
{ACAD_REACTORS
330
470
102
}
330
470
100
AcDbXrecord
 10
0.0
 20
0.0
 30
0.0
  0
XRECORD
  5
483
102
{ACAD_REACTORS
330
470
102
}
330
470
100
AcDbXrecord
 10
0.0
 20
0.0
 30
0.0
  0
XRECORD
  5
484
102
{ACAD_REACTORS
330
470
102
}
330
470
100
AcDbXrecord
 10
0.0
 20
0.0
 30
0.0
  0
XRECORD
  5
481
102
{ACAD_REACTORS
330
470
102
}
330
470
100
AcDbXrecord
 10
0.0
 20
0.0
 30
0.0
  0
XRECORD
  5
47E
102
{ACAD_REACTORS
330
470
102
}
330
470
100
AcDbXrecord
340
0
  0
XRECORD
  5
47F
102
{ACAD_REACTORS
330
470
102
}
330
470
100
AcDbXrecord
 70
     0
  0
XRECORD
  5
474
102
{ACAD_REACTORS
330
470
102
}
330
470
100
AcDbXrecord
  1

  0
XRECORD
  5
471
102
{ACAD_REACTORS
330
470
102
}
330
470
100
AcDbXrecord
 90
        1
  0
XRECORD
  5
472
102
{ACAD_REACTORS
330
470
102
}
330
470
100
AcDbXrecord
 90
       70
  0
XRECORD
  5
489
102
{ACAD_REACTORS
330
470
102
}
330
470
100
AcDbXrecord
340
0
  0
XRECORD
  5
48F
102
{ACAD_REACTORS
330
470
102
}
330
470
100
AcDbXrecord
 10
0.0
 20
0.0
 30
0.0
  0
XRECORD
  5
48B
102
{ACAD_REACTORS
330
470
102
}
330
470
100
AcDbXrecord
 10
0.0
 20
0.0
 30
0.0
  0
XRECORD
  5
48E
102
{ACAD_REACTORS
330
470
102
}
330
470
100
AcDbXrecord
 10
0.0
 20
0.0
 30
0.0
  0
XRECORD
  5
48C
102
{ACAD_REACTORS
330
470
102
}
330
470
100
AcDbXrecord
 10
0.0
 20
0.0
 30
0.0
  0
XRECORD
  5
48D
102
{ACAD_REACTORS
330
470
102
}
330
470
100
AcDbXrecord
 10
0.0
 20
0.0
 30
0.0
  0
XRECORD
  5
48A
102
{ACAD_REACTORS
330
470
102
}
330
470
100
AcDbXrecord
 10
0.0
 20
0.0
 30
0.0
  0
XRECORD
  5
487
102
{ACAD_REACTORS
330
470
102
}
330
470
100
AcDbXrecord
340
0
  0
XRECORD
  5
488
102
{ACAD_REACTORS
330
470
102
}
330
470
100
AcDbXrecord
 70
     0
  0
XRECORD
  5
47C
102
{ACAD_REACTORS
330
470
102
}
330
470
100
AcDbXrecord
  1
{9D8C87AC-2E76-459E-92E6-912353ABB25C}
  0
DICTIONARYVAR
  5
387
102
{ACAD_REACTORS
330
386
102
}
330
386
100
DictionaryVariables
280
     0
  1
1
  0
ENDSEC
  0
EOF
