  0
SECTION
  2
HEADER
  9
$ACADVER
  1
AC1014
  9
$ACADMAINTVER
 70
     9
  9
$DWGCODEPAGE
  3
ANSI_1252
  9
$INSBASE
 10
23.82548391426846
 20
5.807383498574019
 30
0.0
  9
$EXTMIN
 10
10.51079208336969
 20
2.495135821138816
 30
0.0
  9
$EXTMAX
 10
30.08797915703954
 20
15.11274210920917
 30
0.0
  9
$LIMMIN
 10
0.0
 20
0.0
  9
$LIMMAX
 10
36.0
 20
36.0
  9
$ORTHOMODE
 70
     1
  9
$REGENMODE
 70
     1
  9
$FILLMODE
 70
     1
  9
$QTEXTMODE
 70
     0
  9
$MIRRTEXT
 70
     1
  9
$DRAGMODE
 70
     0
  9
$LTSCALE
 40
1.0
  9
$OSMODE
 70
    37
  9
$ATTMODE
 70
     1
  9
$TEXTSIZE
 40
0.2
  9
$TRACEWID
 40
0.05
  9
$TEXTSTYLE
  7
STANDARD
  9
$CLAYER
  8
0
  9
$CELTYPE
  6
BYLAYER
  9
$CECOLOR
 62
   256
  9
$CELTSCALE
 40
1.0
  9
$DELOBJ
 70
     1
  9
$DISPSILH
 70
     0
  9
$DIMSCALE
 40
1.0
  9
$DIMASZ
 40
0.125
  9
$DIMEXO
 40
0.0625
  9
$DIMDLI
 40
0.38
  9
$DIMRND
 40
0.0
  9
$DIMDLE
 40
0.0
  9
$DIMEXE
 40
0.18
  9
$DIMTP
 40
0.0
  9
$DIMTM
 40
0.0
  9
$DIMTXT
 40
0.125
  9
$DIMCEN
 40
0.1875
  9
$DIMTSZ
 40
0.125
  9
$DIMTOL
 70
     0
  9
$DIMLIM
 70
     0
  9
$DIMTIH
 70
     0
  9
$DIMTOH
 70
     0
  9
$DIMSE1
 70
     0
  9
$DIMSE2
 70
     0
  9
$DIMTAD
 70
     0
  9
$DIMZIN
 70
     3
  9
$DIMBLK
  1

  9
$DIMASO
 70
     1
  9
$DIMSHO
 70
     1
  9
$DIMPOST
  1

  9
$DIMAPOST
  1

  9
$DIMALT
 70
     0
  9
$DIMALTD
 70
     1
  9
$DIMALTF
 40
25.4
  9
$DIMLFAC
 40
1.0
  9
$DIMTOFL
 70
     0
  9
$DIMTVP
 40
0.0
  9
$DIMTIX
 70
     0
  9
$DIMSOXD
 70
     0
  9
$DIMSAH
 70
     0
  9
$DIMBLK1
  1

  9
$DIMBLK2
  1

  9
$DIMSTYLE
  2
STANDARD
  9
$DIMCLRD
 70
     0
  9
$DIMCLRE
 70
     0
  9
$DIMCLRT
 70
     0
  9
$DIMTFAC
 40
1.0
  9
$DIMGAP
 40
0.125
  9
$DIMJUST
 70
     0
  9
$DIMSD1
 70
     0
  9
$DIMSD2
 70
     0
  9
$DIMTOLJ
 70
     1
  9
$DIMTZIN
 70
     0
  9
$DIMALTZ
 70
     0
  9
$DIMALTTZ
 70
     0
  9
$DIMFIT
 70
     3
  9
$DIMUPT
 70
     0
  9
$DIMUNIT
 70
     2
  9
$DIMDEC
 70
     4
  9
$DIMTDEC
 70
     4
  9
$DIMALTU
 70
     2
  9
$DIMALTTD
 70
     2
  9
$DIMTXSTY
  7
STANDARD
  9
$DIMAUNIT
 70
     0
  9
$LUNITS
 70
     5
  9
$LUPREC
 70
     4
  9
$SKETCHINC
 40
0.1
  9
$FILLETRAD
 40
0.062
  9
$AUNITS
 70
     0
  9
$AUPREC
 70
     0
  9
$MENU
  1
acad
  9
$ELEVATION
 40
0.0
  9
$PELEVATION
 40
0.0
  9
$THICKNESS
 40
0.0
  9
$LIMCHECK
 70
     0
  9
$BLIPMODE
 70
     0
  9
$CHAMFERA
 40
0.0
  9
$CHAMFERB
 40
0.0
  9
$CHAMFERC
 40
0.0
  9
$CHAMFERD
 40
0.0
  9
$SKPOLY
 70
     0
  9
$TDCREATE
 40
2450387.504434988
  9
$TDUPDATE
 40
2452297.101959270
  9
$TDINDWG
 40
0.0321593750
  9
$TDUSRTIMER
 40
0.0321593750
  9
$USRTIMER
 70
     1
  9
$ANGBASE
 50
0.0
  9
$ANGDIR
 70
     0
  9
$PDMODE
 70
     0
  9
$PDSIZE
 40
0.0
  9
$PLINEWID
 40
0.0
  9
$COORDS
 70
     2
  9
$SPLFRAME
 70
     0
  9
$SPLINETYPE
 70
     6
  9
$SPLINESEGS
 70
     8
  9
$ATTDIA
 70
     0
  9
$ATTREQ
 70
     1
  9
$HANDLING
 70
 22529
  9
$HANDSEED
  5
33D
  9
$SURFTAB1
 70
     6
  9
$SURFTAB2
 70
     6
  9
$SURFTYPE
 70
     6
  9
$SURFU
 70
     6
  9
$SURFV
 70
     6
  9
$UCSNAME
  2

  9
$UCSORG
 10
0.0
 20
0.0
 30
0.0
  9
$UCSXDIR
 10
1.0
 20
0.0
 30
0.0
  9
$UCSYDIR
 10
0.0
 20
1.0
 30
0.0
  9
$PUCSNAME
  2

  9
$PUCSORG
 10
0.0
 20
0.0
 30
0.0
  9
$PUCSXDIR
 10
1.0
 20
0.0
 30
0.0
  9
$PUCSYDIR
 10
0.0
 20
1.0
 30
0.0
  9
$USERI1
 70
     0
  9
$USERI2
 70
     0
  9
$USERI3
 70
     0
  9
$USERI4
 70
     0
  9
$USERI5
 70
     0
  9
$USERR1
 40
0.0
  9
$USERR2
 40
0.0
  9
$USERR3
 40
0.0
  9
$USERR4
 40
0.0
  9
$USERR5
 40
0.0
  9
$WORLDVIEW
 70
     1
  9
$SHADEDGE
 70
     3
  9
$SHADEDIF
 70
    70
  9
$TILEMODE
 70
     1
  9
$MAXACTVP
 70
    15
  9
$PINSBASE
 10
0.0
 20
0.0
 30
0.0
  9
$PLIMCHECK
 70
     0
  9
$PEXTMIN
 10
1.000000000000000E+20
 20
1.000000000000000E+20
 30
1.000000000000000E+20
  9
$PEXTMAX
 10
-1.000000000000000E+20
 20
-1.000000000000000E+20
 30
-1.000000000000000E+20
  9
$PLIMMIN
 10
0.0
 20
0.0
  9
$PLIMMAX
 10
12.0
 20
9.0
  9
$UNITMODE
 70
     0
  9
$VISRETAIN
 70
     0
  9
$PLINEGEN
 70
     0
  9
$PSLTSCALE
 70
     1
  9
$TREEDEPTH
 70
  3020
  9
$PICKSTYLE
 70
     1
  9
$CMLSTYLE
  2
STANDARD
  9
$CMLJUST
 70
     0
  9
$CMLSCALE
 40
1.0
  9
$PROXYGRAPHICS
 70
     1
  9
$MEASUREMENT
 70
     0
  0
ENDSEC
  0
SECTION
  2
CLASSES
  0
CLASS
  1
ACDBDICTIONARYWDFLT
  2
AcDbDictionaryWithDefault
  3
AutoCAD 2000
 90
        0
280
     0
281
     0
  0
CLASS
  1
ACDBPLACEHOLDER
  2
AcDbPlaceHolder
  3
AutoCAD 2000
 90
        0
280
     0
281
     0
  0
CLASS
  1
LAYOUT
  2
AcDbLayout
  3
AutoCAD 2000
 90
        0
280
     0
281
     0
  0
CLASS
  1
DICTIONARYVAR
  2
AcDbDictionaryVar
  3
AutoCAD 2000
 90
        0
280
     0
281
     0
  0
CLASS
  1
LONG_TRANSACTION
  2
AcDbLongTransaction
  3
AutoCAD 2000
 90
        0
280
     0
281
     0
  0
CLASS
  1
LWPOLYLINE
  2
AcDbPolyline
  3
AutoCAD 2000
 90
        0
280
     0
281
     1
  0
CLASS
  1
HATCH
  2
AcDbHatch
  3
AutoCAD 2000
 90
        0
280
     0
281
     1
  0
CLASS
  1
XRECORD
  2
AcDbXrecord
  3
AutoCAD 2000
 90
        0
280
     0
281
     0
  0
CLASS
  1
LONG_TRANSACTION
  2
AcDbLongTransaction
  3
AutoCAD 2000
 90
        0
280
     0
281
     0
  0
CLASS
  1
LWPOLYLINE
  2
AcDbPolyline
  3
AutoCAD 2000
 90
        0
280
     0
281
     1
  0
CLASS
  1
HATCH
  2
AcDbHatch
  3
AutoCAD 2000
 90
        0
280
     0
281
     1
  0
CLASS
  1
XRECORD
  2
AcDbXrecord
  3
AutoCAD 2000
 90
        0
280
     0
281
     0
  0
CLASS
  1
LONG_TRANSACTION
  2
AcDbLongTransaction
  3
AutoCAD 2000
 90
        0
280
     0
281
     0
  0
CLASS
  1
LWPOLYLINE
  2
AcDbPolyline
  3
AutoCAD 2000
 90
        0
280
     0
281
     1
  0
CLASS
  1
HATCH
  2
AcDbHatch
  3
AutoCAD 2000
 90
        0
280
     0
281
     1
  0
CLASS
  1
XRECORD
  2
AcDbXrecord
  3
AutoCAD 2000
 90
        0
280
     0
281
     0
  0
CLASS
  1
LONG_TRANSACTION
  2
AcDbLongTransaction
  3
AutoCAD 2000
 90
        0
280
     0
281
     0
  0
CLASS
  1
LWPOLYLINE
  2
AcDbPolyline
  3
AutoCAD 2000
 90
        0
280
     0
281
     1
  0
CLASS
  1
HATCH
  2
AcDbHatch
  3
AutoCAD 2000
 90
        0
280
     0
281
     1
  0
CLASS
  1
XRECORD
  2
AcDbXrecord
  3
AutoCAD 2000
 90
        0
280
     0
281
     0
  0
CLASS
  1
LONG_TRANSACTION
  2
AcDbLongTransaction
  3
AutoCAD 2000
 90
        0
280
     0
281
     0
  0
CLASS
  1
LWPOLYLINE
  2
AcDbPolyline
  3
AutoCAD 2000
 90
        0
280
     0
281
     1
  0
CLASS
  1
HATCH
  2
AcDbHatch
  3
AutoCAD 2000
 90
        0
280
     0
281
     1
  0
CLASS
  1
XRECORD
  2
AcDbXrecord
  3
AutoCAD 2000
 90
        0
280
     0
281
     0
  0
ENDSEC
  0
SECTION
  2
TABLES
  0
TABLE
  2
VPORT
  5
8
330
0
100
AcDbSymbolTable
 70
     2
  0
VPORT
  5
31A
330
8
100
AcDbSymbolTableRecord
100
AcDbViewportTableRecord
  2
*ACTIVE
 70
     0
 10
0.0
 20
0.0
 11
1.0
 21
1.0
 12
20.31627739131879
 22
8.803070141471776
 13
0.0
 23
0.0
 14
0.5740882589684922
 24
0.5740882589684922
 15
0.5
 25
0.5
 16
0.0
 26
0.0
 36
1.0
 17
0.0
 27
0.0
 37
0.0
 40
12.71579379812272
 41
1.570528967254408
 42
50.0
 43
0.0
 44
0.0
 50
0.0
 51
0.0
 71
     0
 72
   100
 73
     1
 74
     0
 75
     0
 76
     0
 77
     0
 78
     0
  0
ENDTAB
  0
TABLE
  2
LTYPE
  5
5
330
0
100
AcDbSymbolTable
 70
     2
  0
LTYPE
  5
12
330
5
100
AcDbSymbolTableRecord
100
AcDbLinetypeTableRecord
  2
BYBLOCK
 70
     0
  3

 72
    65
 73
     0
 40
0.0
  0
LTYPE
  5
13
330
5
100
AcDbSymbolTableRecord
100
AcDbLinetypeTableRecord
  2
BYLAYER
 70
     0
  3

 72
    65
 73
     0
 40
0.0
  0
LTYPE
  5
14
330
5
100
AcDbSymbolTableRecord
100
AcDbLinetypeTableRecord
  2
CONTINUOUS
 70
     0
  3
Solid line
 72
    65
 73
     0
 40
0.0
  0
LTYPE
  5
174
330
5
100
AcDbSymbolTableRecord
100
AcDbLinetypeTableRecord
  2
CENTER2
 70
     0
  3
___ _ ___ _ ___ _ ___ _ ___ _ ___ _ ___ _ ___ _
 72
    65
 73
     4
 40
1.125
 49
0.75
 74
     0
 49
-0.125
 74
     0
 49
0.125
 74
     0
 49
-0.125
 74
     0
  0
ENDTAB
  0
TABLE
  2
LAYER
  5
2
330
0
100
AcDbSymbolTable
 70
     5
  0
LAYER
  5
F
330
2
100
AcDbSymbolTableRecord
100
AcDbLayerTableRecord
  2
0
 70
     0
 62
     7
  6
CONTINUOUS
  0
LAYER
  5
175
330
2
100
AcDbSymbolTableRecord
100
AcDbLayerTableRecord
  2
ADP1DETAIL
 70
     0
 62
     7
  6
CONTINUOUS
  0
LAYER
  5
176
330
2
100
AcDbSymbolTableRecord
100
AcDbLayerTableRecord
  2
DEFPOINTS
 70
     0
 62
     7
  6
CONTINUOUS
  0
LAYER
  5
17A
330
2
100
AcDbSymbolTableRecord
100
AcDbLayerTableRecord
  2
ADP3DETAIL
 70
     0
 62
     1
  6
CONTINUOUS
  0
LAYER
  5
17B
330
2
100
AcDbSymbolTableRecord
100
AcDbLayerTableRecord
  2
ADPDIM
 70
     0
 62
     3
  6
CONTINUOUS
  0
ENDTAB
  0
TABLE
  2
STYLE
  5
3
330
0
100
AcDbSymbolTable
 70
     2
  0
STYLE
  5
10
330
3
100
AcDbSymbolTableRecord
100
AcDbTextStyleTableRecord
  2
STANDARD
 70
     0
 40
0.0
 41
1.0
 50
0.0
 71
     0
 42
0.2
  3
txt
  4

  0
STYLE
  5
1D6
330
3
100
AcDbSymbolTableRecord
100
AcDbTextStyleTableRecord
  2
ARIAL_WIDE
 70
     0
 40
0.0
 41
1.25
 50
0.0
 71
     0
 42
0.2
  3
ARIAL.TTF
  4

1001
ACAD
1000
Arial
1071
       34
  0
ENDTAB
  0
TABLE
  2
VIEW
  5
6
330
0
100
AcDbSymbolTable
 70
     0
  0
ENDTAB
  0
TABLE
  2
UCS
  5
7
330
0
100
AcDbSymbolTable
 70
     0
  0
ENDTAB
  0
TABLE
  2
APPID
  5
9
330
0
100
AcDbSymbolTable
 70
     1
  0
APPID
  5
11
330
9
100
AcDbSymbolTableRecord
100
AcDbRegAppTableRecord
  2
ACAD
 70
     0
  0
ENDTAB
  0
TABLE
  2
DIMSTYLE
  5
A
330
0
100
AcDbSymbolTable
 70
     1
  0
DIMSTYLE
105
1CA
330
A
100
AcDbSymbolTableRecord
100
AcDbDimStyleTableRecord
  2
STANDARD
 70
     0
  3

  4

  5

  6

  7

 40
1.0
 41
0.18
 42
0.0625
 43
0.38
 44
0.18
 45
0.0
 46
0.0
 47
0.0
 48
0.0
140
0.18
141
0.09
142
0.0
143
25.4
144
1.0
145
0.0
146
1.0
147
0.09
 71
     0
 72
     0
 73
     1
 74
     1
 75
     0
 76
     0
 77
     0
 78
     0
170
     0
171
     2
172
     0
173
     0
174
     0
175
     0
176
     0
177
     0
178
     0
270
     2
271
     4
272
     4
273
     2
274
     2
340
10
275
     0
280
     0
281
     0
282
     0
283
     1
284
     0
285
     0
286
     0
287
     3
288
     0
  0
ENDTAB
  0
TABLE
  2
BLOCK_RECORD
  5
1
330
0
100
AcDbSymbolTable
 70
     5
  0
BLOCK_RECORD
  5
18
102
{ACAD_XDICTIONARY
360
22B
102
}
330
1
100
AcDbSymbolTableRecord
100
AcDbBlockTableRecord
  2
*MODEL_SPACE
  0
BLOCK_RECORD
  5
15
102
{ACAD_XDICTIONARY
360
229
102
}
330
1
100
AcDbSymbolTableRecord
100
AcDbBlockTableRecord
  2
*PAPER_SPACE
  0
BLOCK_RECORD
  5
16D
330
1
100
AcDbSymbolTableRecord
100
AcDbBlockTableRecord
  2
*D0
  0
BLOCK_RECORD
  5
16E
330
1
100
AcDbSymbolTableRecord
100
AcDbBlockTableRecord
  2
*D1
  0
BLOCK_RECORD
  5
16F
330
1
100
AcDbSymbolTableRecord
100
AcDbBlockTableRecord
  2
*D2
  0
BLOCK_RECORD
  5
171
330
1
100
AcDbSymbolTableRecord
100
AcDbBlockTableRecord
  2
*D3
  0
BLOCK_RECORD
  5
172
330
1
100
AcDbSymbolTableRecord
100
AcDbBlockTableRecord
  2
*D4
  0
ENDTAB
  0
ENDSEC
  0
SECTION
  2
BLOCKS
  0
BLOCK
  5
17E
330
18
100
AcDbEntity
  8
0
100
AcDbBlockBegin
  2
*MODEL_SPACE
 70
     0
 10
0.0
 20
0.0
 30
0.0
  3
*MODEL_SPACE
  1

  0
ENDBLK
  5
17F
330
18
100
AcDbEntity
  8
0
100
AcDbBlockEnd
  0
BLOCK
  5
17C
330
15
100
AcDbEntity
 67
     1
  8
0
100
AcDbBlockBegin
  2
*PAPER_SPACE
 70
     0
 10
0.0
 20
0.0
 30
0.0
  3
*PAPER_SPACE
  1

  0
ENDBLK
  5
17D
330
15
100
AcDbEntity
 67
     1
  8
0
100
AcDbBlockEnd
  0
BLOCK
  5
181
330
16D
100
AcDbEntity
  8
0
100
AcDbBlockBegin
  2
*D0
 70
     1
 10
0.0
 20
0.0
 30
0.0
  3
*D0
  1

  0
LINE
  5
182
330
16D
100
AcDbEntity
  8
0
  6
BYBLOCK
 62
     0
100
AcDbLine
 10
16.17797919100248
 20
9.621032390718156
 30
0.0
 11
15.40766628484808
 21
10.85379073260299
 31
0.0
  0
LINE
  5
183
330
16D
100
AcDbEntity
  8
0
  6
BYBLOCK
 62
     0
100
AcDbLine
 10
22.96236396025389
 20
13.86038650458379
 30
0.0
 11
22.19205105409949
 21
15.09314484646863
 31
0.0
  0
LINE
  5
184
330
16D
100
AcDbEntity
  8
0
  6
BYBLOCK
 62
     0
100
AcDbLine
 10
15.50305175241006
 20
10.70114207529483
 30
0.0
 11
18.75390278767636
 21
12.73249925485545
 31
0.0
  0
LINE
  5
185
330
16D
100
AcDbEntity
  8
0
  6
BYBLOCK
 62
     0
100
AcDbLine
 10
22.28743652166147
 20
14.94049618916047
 30
0.0
 11
19.03658548639517
 21
12.90913900959985
 31
0.0
  0
LINE
  5
186
330
16D
100
AcDbEntity
  8
0
  6
BYBLOCK
 62
     0
100
AcDbLine
 10
15.46328564841966
 20
10.52889615524613
 30
0.0
 11
15.54281785640046
 21
10.87338799534353
 31
0.0
  0
LINE
  5
187
330
16D
100
AcDbEntity
  8
0
  6
BYBLOCK
 62
     0
100
AcDbLine
 10
22.24767041767107
 20
14.76825026911177
 30
0.0
 11
22.32720262565187
 21
15.11274210920917
 31
0.0
  0
TEXT
  5
188
330
16D
100
AcDbEntity
  8
0
  6
BYBLOCK
 62
     0
100
AcDbText
 10
18.89302875371049
 20
12.74573615687482
 30
0.0
 40
0.125
  1
8
 50
31.99999999999999
 72
     1
 11
18.89524413703577
 21
12.82081913222765
 31
0.0
100
AcDbText
 73
     2
  0
POINT
  5
189
330
16D
100
AcDbEntity
  8
DEFPOINTS
  6
BYBLOCK
 62
     0
100
AcDbPoint
 10
16.21109914501706
 20
9.568029384708379
 30
0.0
  0
POINT
  5
18A
330
16D
100
AcDbEntity
  8
DEFPOINTS
  6
BYBLOCK
 62
     0
100
AcDbPoint
 10
22.99548391426846
 20
13.80738349857401
 30
0.0
  0
POINT
  5
18B
330
16D
100
AcDbEntity
  8
DEFPOINTS
  6
BYBLOCK
 62
     0
100
AcDbPoint
 10
22.28743652166147
 20
14.94049618916047
 30
0.0
  0
ENDBLK
  5
18C
330
16D
100
AcDbEntity
  8
0
100
AcDbBlockEnd
  0
BLOCK
  5
18D
330
16E
100
AcDbEntity
  8
0
100
AcDbBlockBegin
  2
*D1
 70
     1
 10
0.0
 20
0.0
 30
0.0
  3
*D1
  1

  0
LINE
  5
18E
330
16E
100
AcDbEntity
  8
0
  6
BYBLOCK
 62
     0
100
AcDbLine
 10
23.88798391426846
 20
5.807383498574019
 30
0.0
 11
24.44715492941726
 21
5.807383498574019
 31
0.0
  0
LINE
  5
18F
330
16E
100
AcDbEntity
  8
0
  6
BYBLOCK
 62
     0
100
AcDbLine
 10
23.1930369586408
 20
13.80738349857401
 30
0.0
 11
24.44715492941726
 21
13.80738349857401
 31
0.0
  0
LINE
  5
190
330
16E
100
AcDbEntity
  8
0
  6
BYBLOCK
 62
     0
100
AcDbLine
 10
24.26715492941726
 20
5.807383498574019
 30
0.0
 11
24.26715492941726
 21
9.640716831907353
 31
0.0
  0
LINE
  5
191
330
16E
100
AcDbEntity
  8
0
  6
BYBLOCK
 62
     0
100
AcDbLine
 10
24.26715492941726
 20
13.80738349857401
 30
0.0
 11
24.26715492941726
 21
9.974050165240685
 31
0.0
  0
LINE
  5
192
330
16E
100
AcDbEntity
  8
0
  6
BYBLOCK
 62
     0
100
AcDbLine
 10
24.39215492941726
 20
5.682383498574019
 30
0.0
 11
24.14215492941726
 21
5.932383498574019
 31
0.0
  0
LINE
  5
193
330
16E
100
AcDbEntity
  8
0
  6
BYBLOCK
 62
     0
100
AcDbLine
 10
24.39215492941726
 20
13.68238349857402
 30
0.0
 11
24.14215492941726
 21
13.93238349857401
 31
0.0
  0
TEXT
  5
194
330
16E
100
AcDbEntity
  8
0
  6
BYBLOCK
 62
     0
100
AcDbText
 10
24.32965492941726
 20
9.765716831907353
 30
0.0
 40
0.125
  1
8
 50
90.0
 72
     1
 11
24.26715492941726
 21
9.807383498574019
 31
0.0
100
AcDbText
 73
     2
  0
POINT
  5
195
330
16E
100
AcDbEntity
  8
DEFPOINTS
  6
BYBLOCK
 62
     0
100
AcDbPoint
 10
23.82548391426846
 20
5.807383498574019
 30
0.0
  0
POINT
  5
196
330
16E
100
AcDbEntity
  8
DEFPOINTS
  6
BYBLOCK
 62
     0
100
AcDbPoint
 10
23.1305369586408
 20
13.80738349857401
 30
0.0
  0
POINT
  5
197
330
16E
100
AcDbEntity
  8
DEFPOINTS
  6
BYBLOCK
 62
     0
100
AcDbPoint
 10
24.26715492941726
 20
13.80738349857401
 30
0.0
  0
ENDBLK
  5
198
330
16E
100
AcDbEntity
  8
0
100
AcDbBlockEnd
  0
BLOCK
  5
199
330
16F
100
AcDbEntity
  8
0
100
AcDbBlockBegin
  2
*D2
 70
     1
 10
0.0
 20
0.0
 30
0.0
  3
*D2
  1

  0
LINE
  5
19A
330
16F
100
AcDbEntity
  8
0
  6
BYBLOCK
 62
     0
100
AcDbLine
 10
23.67321885666296
 20
3.775441237494115
 30
0.0
 11
23.67321885666296
 21
3.892941237494115
 31
0.0
  0
LINE
  5
19B
330
16F
100
AcDbEntity
  8
0
  6
BYBLOCK
 62
     0
100
AcDbLine
 10
23.81821885666296
 20
3.775441237494115
 30
0.0
 11
23.81821885666296
 21
3.892941237494115
 31
0.0
  0
LINE
  5
19C
330
16F
100
AcDbEntity
  8
0
  6
BYBLOCK
 62
     0
100
AcDbLine
 10
23.67321885666296
 20
3.712941237494115
 30
0.0
 11
23.42321885666296
 21
3.712941237494115
 31
0.0
  0
LINE
  5
19D
330
16F
100
AcDbEntity
  8
0
  6
BYBLOCK
 62
     0
100
AcDbLine
 10
23.81821885666296
 20
3.712941237494115
 30
0.0
 11
24.06821885666296
 21
3.712941237494115
 31
0.0
  0
LINE
  5
19E
330
16F
100
AcDbEntity
  8
0
  6
BYBLOCK
 62
     0
100
AcDbLine
 10
23.54821885666296
 20
3.587941237494115
 30
0.0
 11
23.79821885666296
 21
3.837941237494115
 31
0.0
  0
LINE
  5
19F
330
16F
100
AcDbEntity
  8
0
  6
BYBLOCK
 62
     0
100
AcDbLine
 10
23.69321885666296
 20
3.587941237494115
 30
0.0
 11
23.94321885666296
 21
3.837941237494115
 31
0.0
  0
TEXT
  5
1A0
330
16F
100
AcDbEntity
  8
0
  6
BYBLOCK
 62
     0
100
AcDbText
 10
24.19321885666296
 20
3.650441237494115
 30
0.0
 40
0.125
  1
0.145
 72
     1
 11
24.41196885666296
 21
3.712941237494115
 31
0.0
100
AcDbText
 73
     2
  0
POINT
  5
1A1
330
16F
100
AcDbEntity
  8
DEFPOINTS
  6
BYBLOCK
 62
     0
100
AcDbPoint
 10
23.67321885666296
 20
3.712941237494115
 30
0.0
  0
POINT
  5
1A2
330
16F
100
AcDbEntity
  8
DEFPOINTS
  6
BYBLOCK
 62
     0
100
AcDbPoint
 10
23.81821885666296
 20
3.712941237494115
 30
0.0
  0
POINT
  5
1A3
330
16F
100
AcDbEntity
  8
DEFPOINTS
  6
BYBLOCK
 62
     0
100
AcDbPoint
 10
23.81821885666296
 20
3.712941237494115
 30
0.0
  0
ENDBLK
  5
1A4
330
16F
100
AcDbEntity
  8
0
100
AcDbBlockEnd
  0
BLOCK
  5
1A5
330
171
100
AcDbEntity
  8
0
100
AcDbBlockBegin
  2
*D3
 70
     1
 10
0.0
 20
0.0
 30
0.0
  3
*D3
  1

  0
LINE
  5
1A6
330
171
100
AcDbEntity
  8
0
  6
BYBLOCK
 62
     0
100
AcDbLine
 10
22.16548391426846
 20
5.744883498574019
 30
0.0
 11
22.16548391426846
 21
4.705675429588731
 31
0.0
  0
LINE
  5
1A7
330
171
100
AcDbEntity
  8
0
  6
BYBLOCK
 62
     0
100
AcDbLine
 10
23.82548391426846
 20
5.744883498574019
 30
0.0
 11
23.82548391426846
 21
4.705675429588731
 31
0.0
  0
LINE
  5
1A8
330
171
100
AcDbEntity
  8
0
  6
BYBLOCK
 62
     0
100
AcDbLine
 10
22.16548391426846
 20
4.885675429588731
 30
0.0
 11
22.65173391426846
 21
4.885675429588731
 31
0.0
  0
LINE
  5
1A9
330
171
100
AcDbEntity
  8
0
  6
BYBLOCK
 62
     0
100
AcDbLine
 10
23.82548391426846
 20
4.885675429588731
 30
0.0
 11
23.33923391426846
 21
4.885675429588731
 31
0.0
  0
LINE
  5
1AA
330
171
100
AcDbEntity
  8
0
  6
BYBLOCK
 62
     0
100
AcDbLine
 10
22.04048391426846
 20
4.760675429588731
 30
0.0
 11
22.29048391426846
 21
5.010675429588731
 31
0.0
  0
LINE
  5
1AB
330
171
100
AcDbEntity
  8
0
  6
BYBLOCK
 62
     0
100
AcDbLine
 10
23.70048391426846
 20
4.760675429588731
 30
0.0
 11
23.95048391426846
 21
5.010675429588731
 31
0.0
  0
TEXT
  5
1AC
330
171
100
AcDbEntity
  8
0
  6
BYBLOCK
 62
     0
100
AcDbText
 10
22.77673391426846
 20
4.823175429588731
 30
0.0
 40
0.125
  1
1.660
 72
     1
 11
22.99548391426846
 21
4.885675429588731
 31
0.0
100
AcDbText
 73
     2
  0
POINT
  5
1AD
330
171
100
AcDbEntity
  8
DEFPOINTS
  6
BYBLOCK
 62
     0
100
AcDbPoint
 10
22.16548391426846
 20
5.807383498574019
 30
0.0
  0
POINT
  5
1AE
330
171
100
AcDbEntity
  8
DEFPOINTS
  6
BYBLOCK
 62
     0
100
AcDbPoint
 10
23.82548391426846
 20
5.807383498574019
 30
0.0
  0
POINT
  5
1AF
330
171
100
AcDbEntity
  8
DEFPOINTS
  6
BYBLOCK
 62
     0
100
AcDbPoint
 10
23.82548391426846
 20
4.885675429588731
 30
0.0
  0
ENDBLK
  5
1B0
330
171
100
AcDbEntity
  8
0
100
AcDbBlockEnd
  0
BLOCK
  5
1B1
330
172
100
AcDbEntity
  8
0
100
AcDbBlockBegin
  2
*D4
 70
     1
 10
0.0
 20
0.0
 30
0.0
  3
*D4
  1

  0
LINE
  5
1B2
330
172
100
AcDbEntity
  8
0
  6
BYBLOCK
 62
     0
100
AcDbLine
 10
22.21941926413028
 20
11.10780185081868
 30
0.0
 11
20.52435035571241
 21
9.327580665868483
 31
0.0
  0
LINE
  5
1B3
330
172
100
AcDbEntity
  8
0
  6
BYBLOCK
 62
     0
100
AcDbLine
 10
22.22374938365835
 20
10.93107819630443
 30
0.0
 11
22.2150891446022
 21
11.28452550533293
 31
0.0
  0
TEXT
  5
1B4
330
172
100
AcDbEntity
  8
0
  6
BYBLOCK
 62
     0
100
AcDbText
 10
20.02370093843341
 20
8.711145330987918
 30
0.0
 40
0.125
  1
R2 1/2
 50
46.4035921969339
 72
     1
 11
20.20829554157108
 21
8.995648746790893
 31
0.0
100
AcDbText
 73
     2
  0
POINT
  5
1B5
330
172
100
AcDbEntity
  8
DEFPOINTS
  6
BYBLOCK
 62
     0
100
AcDbPoint
 10
22.21941926413028
 20
11.10780185081868
 30
0.0
  0
POINT
  5
1B6
330
172
100
AcDbEntity
  8
DEFPOINTS
  6
BYBLOCK
 62
     0
100
AcDbPoint
 10
20.49548391426846
 20
9.297264110395467
 30
0.0
  0
ENDBLK
  5
1B7
330
172
100
AcDbEntity
  8
0
100
AcDbBlockEnd
  0
ENDSEC
  0
SECTION
  2
ENTITIES
  0
DIMENSION
  5
1B8
330
18
100
AcDbEntity
  8
ADPDIM
100
AcDbDimension
  2
*D0
 10
22.28743652166147
 20
14.94049618916047
 30
0.0
 11
18.89524413703577
 21
12.82081913222765
 31
0.0
 70
     1
100
AcDbAlignedDimension
 13
16.21109914501705
 23
9.568029384708378
 33
0.0
 14
22.99548391426846
 24
13.80738349857401
 34
0.0
  0
DIMENSION
  5
1B9
330
18
100
AcDbEntity
  8
ADPDIM
100
AcDbDimension
  2
*D3
 10
23.82548391426846
 20
4.885675429588731
 30
0.0
 11
22.99548391426846
 21
4.885675429588731
 31
0.0
  1
1.660
100
AcDbAlignedDimension
 13
22.16548391426846
 23
5.807383498574019
 33
0.0
 14
23.82548391426846
 24
5.807383498574019
 34
0.0
100
AcDbRotatedDimension
  0
DIMENSION
  5
1BA
330
18
100
AcDbEntity
  8
ADPDIM
100
AcDbDimension
  2
*D4
 10
20.49548391426846
 20
9.297264110395467
 30
0.0
 11
20.20829554157108
 21
8.995648746790893
 31
0.0
 70
     4
100
AcDbRadialDimension
 15
22.21941926413028
 25
11.10780185081868
 35
0.0
 40
-2.458138741330614
  0
ARC
  5
1BB
330
18
100
AcDbEntity
  8
ADP3DETAIL
  6
CENTER2
100
AcDbCircle
 10
20.49548391426846
 20
9.297264110395467
 30
0.0
 40
2.5
100
AcDbArc
 50
0.0000000000000891
 51
122.0
  0
ARC
  5
1BC
330
18
100
AcDbEntity
  8
ADP1DETAIL
100
AcDbCircle
 10
20.52548391426846
 20
9.351385543053591
 30
0.0
 40
3.299999999999999
100
AcDbArc
 50
0.0
 51
121.9999999999999
  0
ARC
  5
1BD
330
18
100
AcDbEntity
  8
ADP1DETAIL
100
AcDbCircle
 10
20.46548391426846
 20
9.243142677737312
 30
0.0
 40
1.7
100
AcDbArc
 50
0.0
 51
121.9999999999999
  0
LINE
  5
1BE
330
18
100
AcDbEntity
  8
ADP3DETAIL
  6
CENTER2
100
AcDbLine
 10
15.69251429747194
 20
9.243981607112868
 30
0.0
 11
19.17068575368545
 21
11.41738435078653
 31
0.0
  0
LINE
  5
1BF
330
18
100
AcDbEntity
  8
ADP1DETAIL
100
AcDbLine
 10
18.77675034229889
 20
12.1499442603698
 30
0.0
 11
15.77126615570349
 21
10.27190930451821
 31
0.0
  0
LINE
  5
1C0
330
18
100
AcDbEntity
  8
ADP1DETAIL
100
AcDbLine
 10
19.56462116507201
 20
10.68482444120323
 30
0.0
 11
16.65093213433061
 21
8.864149464898545
 31
0.0
  0
LINE
  5
1C1
330
18
100
AcDbEntity
  8
ADP1DETAIL
100
AcDbLine
 10
15.77126615570349
 20
10.27190930451821
 30
0.0
 11
16.65093213433061
 21
8.864149464898545
 31
0.0
  0
DIMENSION
  5
1C2
330
18
100
AcDbEntity
  8
ADPDIM
100
AcDbDimension
  2
*D1
 10
24.26715492941726
 20
13.80738349857401
 30
0.0
 11
24.26715492941726
 21
9.807383498574019
 31
0.0
100
AcDbAlignedDimension
 13
23.82548391426846
 23
5.807383498574019
 33
0.0
 14
23.1305369586408
 24
13.80738349857401
 34
0.0
 50
90.0
100
AcDbRotatedDimension
  0
LINE
  5
1C3
330
18
100
AcDbEntity
  8
ADP3DETAIL
  6
CENTER2
100
AcDbLine
 10
22.99548391426846
 20
9.29726411039547
 30
0.0
 11
22.99548391426847
 21
5.05370025811699
 31
0.0
  0
LINE
  5
1C4
330
18
100
AcDbEntity
  8
ADP1DETAIL
100
AcDbLine
 10
22.16548391426846
 20
5.807383498574019
 30
0.0
 11
22.16548391426846
 21
9.243142677737312
 31
0.0
  0
LINE
  5
1C5
330
18
100
AcDbEntity
  8
ADP1DETAIL
100
AcDbLine
 10
23.82548391426846
 20
9.351385543053591
 30
0.0
 11
23.82548391426846
 21
5.807383498574019
 31
0.0
  0
DIMENSION
  5
1C6
330
18
100
AcDbEntity
  8
ADPDIM
100
AcDbDimension
  2
*D2
 10
23.81821885666296
 20
3.712941237494115
 30
0.0
 11
24.41196885666296
 21
3.712941237494115
 31
0.0
  1
0.145
100
AcDbAlignedDimension
 13
23.67321885666296
 23
3.712941237494115
 33
0.0
 14
23.81821885666296
 24
3.712941237494115
 34
0.0
100
AcDbRotatedDimension
  0
CIRCLE
  5
1C7
330
18
100
AcDbEntity
  8
ADP1DETAIL
100
AcDbCircle
 10
22.99548391426846
 20
3.712941237494115
 30
0.0
 40
0.8299999999999998
  0
CIRCLE
  5
1C8
330
18
100
AcDbEntity
  8
ADP1DETAIL
100
AcDbCircle
 10
22.99548391426846
 20
3.712941237494115
 30
0.0
 40
0.6899999999999978
  0
LINE
  5
1C9
330
18
100
AcDbEntity
  8
ADP1DETAIL
100
AcDbLine
 10
23.82548391426846
 20
5.807383498574019
 30
0.0
 11
22.16548391426846
 21
5.807383498574019
 31
0.0
  0
TEXT
  5
1D7
330
18
100
AcDbEntity
  8
ADPDIM
100
AcDbText
 10
10.51079208336969
 20
2.550644006677697
 30
0.0
 40
0.1875
  1
J U L I U S  B L U M  &  C O . ,  I N C .      ( 8 0 0 )  5 2 6 - 6 2 9 3        W W W . J U L I U S B L U M . C O M        P A R T  N o .  7 4 8 2
 41
1.25
  7
ARIAL_WIDE
 72
     1
 11
20.29938562020461
 21
2.738144006677697
 31
0.0
100
AcDbText
 73
     3
  0
ENDSEC
  0
SECTION
  2
OBJECTS
  0
DICTIONARY
  5
C
330
0
100
AcDbDictionary
  3
ACAD_GROUP
350
D
  3
ACAD_LAYOUT
350
1D0
  3
ACAD_MLINESTYLE
350
E
  3
ACAD_PLOTSETTINGS
350
1D1
  3
ACAD_PLOTSTYLENAME
350
1CE
  3
ACDBHEADERROUNDTRIPXREC
350
31B
  3
ACDBVARIABLEDICTIONARY
350
231
  0
DICTIONARY
  5
22B
330
18
100
AcDbDictionary
280
     1
  3
ACAD_LAYOUTSELFREF
360
33C
  0
DICTIONARY
  5
229
330
15
100
AcDbDictionary
280
     1
  3
ACAD_LAYOUTSELFREF
360
33B
  0
DICTIONARY
  5
D
102
{ACAD_REACTORS
330
C
102
}
330
C
100
AcDbDictionary
  0
DICTIONARY
  5
1D0
102
{ACAD_REACTORS
330
C
102
}
330
C
100
AcDbDictionary
  0
DICTIONARY
  5
E
102
{ACAD_REACTORS
330
C
102
}
330
C
100
AcDbDictionary
  3
STANDARD
350
1B
  0
DICTIONARY
  5
1D1
102
{ACAD_REACTORS
330
C
102
}
330
C
100
AcDbDictionary
  0
ACDBDICTIONARYWDFLT
  5
1CE
102
{ACAD_REACTORS
330
C
102
}
330
C
100
AcDbDictionary
281
     1
  3
Normal
350
1CF
100
AcDbDictionaryWithDefault
340
1CF
  0
DICTIONARY
  5
31B
102
{ACAD_REACTORS
330
C
102
}
330
C
100
AcDbDictionary
  3
CEPSNTYPE
350
325
  3
FINGERPRINTGUID
350
326
  3
HYPERLINKBASE
350
31E
  3
INSUNITS
350
324
  3
LAYOUTDICT
350
320
  3
LWETCUNION
350
323
  3
PLOTSETDICT
350
321
  3
PLOTSTYLNAMDICT
350
322
  3
PSVPSCALE
350
328
  3
PUCSBASE
350
32B
  3
PUCSORGBACK
350
331
  3
PUCSORGBOTTOM
350
32D
  3
PUCSORGFRONT
350
330
  3
PUCSORGLEFT
350
32E
  3
PUCSORGRIGHT
350
32F
  3
PUCSORGTOP
350
32C
  3
PUCSORTHOREF
350
329
  3
PUCSORTHOVIEW
350
32A
  3
STYLESHEET
350
31F
  3
TSTACKALIGN
350
31C
  3
TSTACKSIZE
350
31D
  3
UCSBASE
350
334
  3
UCSORGBACK
350
33A
  3
UCSORGBOTTOM
350
336
  3
UCSORGFRONT
350
339
  3
UCSORGLEFT
350
337
  3
UCSORGRIGHT
350
338
  3
UCSORGTOP
350
335
  3
UCSORTHOREF
350
332
  3
UCSORTHOVIEW
350
333
  3
VERSIONGUID
350
327
  0
DICTIONARY
  5
231
102
{ACAD_REACTORS
330
C
102
}
330
C
100
AcDbDictionary
  3
DIMASSOC
350
232
  0
XRECORD
  5
33C
102
{ACAD_REACTORS
330
22B
102
}
330
22B
100
AcDbXrecord
340
18
  0
XRECORD
  5
33B
102
{ACAD_REACTORS
330
229
102
}
330
229
100
AcDbXrecord
340
15
  0
MLINESTYLE
  5
1B
102
{ACAD_REACTORS
330
E
102
}
330
E
100
AcDbMlineStyle
  2
STANDARD
 70
     0
  3

 62
     0
 51
90.0
 52
90.0
 71
     2
 49
0.5
 62
   256
  6
BYLAYER
 49
-0.5
 62
   256
  6
BYLAYER
  0
ACDBPLACEHOLDER
  5
1CF
102
{ACAD_REACTORS
330
1CE
102
}
330
1CE
100
AcDbPlaceHolder
280
     0
  0
XRECORD
  5
325
102
{ACAD_REACTORS
330
31B
102
}
330
31B
100
AcDbXrecord
 90
        0
  0
XRECORD
  5
326
102
{ACAD_REACTORS
330
31B
102
}
330
31B
100
AcDbXrecord
  1
{AFE7C738-A978-427C-AA88-2CBA1061715E}
  0
XRECORD
  5
31E
102
{ACAD_REACTORS
330
31B
102
}
330
31B
100
AcDbXrecord
  1

  0
XRECORD
  5
324
102
{ACAD_REACTORS
330
31B
102
}
330
31B
100
AcDbXrecord
 90
        0
  0
XRECORD
  5
320
102
{ACAD_REACTORS
330
31B
102
}
330
31B
100
AcDbXrecord
340
1D0
  0
XRECORD
  5
323
102
{ACAD_REACTORS
330
31B
102
}
330
31B
100
AcDbXrecord
 90
    14877
  0
XRECORD
  5
321
102
{ACAD_REACTORS
330
31B
102
}
330
31B
100
AcDbXrecord
340
1D1
  0
XRECORD
  5
322
102
{ACAD_REACTORS
330
31B
102
}
330
31B
100
AcDbXrecord
340
1CE
  0
XRECORD
  5
328
102
{ACAD_REACTORS
330
31B
102
}
330
31B
100
AcDbXrecord
 40
0.0
  0
XRECORD
  5
32B
102
{ACAD_REACTORS
330
31B
102
}
330
31B
100
AcDbXrecord
340
0
  0
XRECORD
  5
331
102
{ACAD_REACTORS
330
31B
102
}
330
31B
100
AcDbXrecord
 10
0.0
 20
0.0
 30
0.0
  0
XRECORD
  5
32D
102
{ACAD_REACTORS
330
31B
102
}
330
31B
100
AcDbXrecord
 10
0.0
 20
0.0
 30
0.0
  0
XRECORD
  5
330
102
{ACAD_REACTORS
330
31B
102
}
330
31B
100
AcDbXrecord
 10
0.0
 20
0.0
 30
0.0
  0
XRECORD
  5
32E
102
{ACAD_REACTORS
330
31B
102
}
330
31B
100
AcDbXrecord
 10
0.0
 20
0.0
 30
0.0
  0
XRECORD
  5
32F
102
{ACAD_REACTORS
330
31B
102
}
330
31B
100
AcDbXrecord
 10
0.0
 20
0.0
 30
0.0
  0
XRECORD
  5
32C
102
{ACAD_REACTORS
330
31B
102
}
330
31B
100
AcDbXrecord
 10
0.0
 20
0.0
 30
0.0
  0
XRECORD
  5
329
102
{ACAD_REACTORS
330
31B
102
}
330
31B
100
AcDbXrecord
340
0
  0
XRECORD
  5
32A
102
{ACAD_REACTORS
330
31B
102
}
330
31B
100
AcDbXrecord
 70
     0
  0
XRECORD
  5
31F
102
{ACAD_REACTORS
330
31B
102
}
330
31B
100
AcDbXrecord
  1

  0
XRECORD
  5
31C
102
{ACAD_REACTORS
330
31B
102
}
330
31B
100
AcDbXrecord
 90
        1
  0
XRECORD
  5
31D
102
{ACAD_REACTORS
330
31B
102
}
330
31B
100
AcDbXrecord
 90
       70
  0
XRECORD
  5
334
102
{ACAD_REACTORS
330
31B
102
}
330
31B
100
AcDbXrecord
340
0
  0
XRECORD
  5
33A
102
{ACAD_REACTORS
330
31B
102
}
330
31B
100
AcDbXrecord
 10
0.0
 20
0.0
 30
0.0
  0
XRECORD
  5
336
102
{ACAD_REACTORS
330
31B
102
}
330
31B
100
AcDbXrecord
 10
0.0
 20
0.0
 30
0.0
  0
XRECORD
  5
339
102
{ACAD_REACTORS
330
31B
102
}
330
31B
100
AcDbXrecord
 10
0.0
 20
0.0
 30
0.0
  0
XRECORD
  5
337
102
{ACAD_REACTORS
330
31B
102
}
330
31B
100
AcDbXrecord
 10
0.0
 20
0.0
 30
0.0
  0
XRECORD
  5
338
102
{ACAD_REACTORS
330
31B
102
}
330
31B
100
AcDbXrecord
 10
0.0
 20
0.0
 30
0.0
  0
XRECORD
  5
335
102
{ACAD_REACTORS
330
31B
102
}
330
31B
100
AcDbXrecord
 10
0.0
 20
0.0
 30
0.0
  0
XRECORD
  5
332
102
{ACAD_REACTORS
330
31B
102
}
330
31B
100
AcDbXrecord
340
0
  0
XRECORD
  5
333
102
{ACAD_REACTORS
330
31B
102
}
330
31B
100
AcDbXrecord
 70
     0
  0
XRECORD
  5
327
102
{ACAD_REACTORS
330
31B
102
}
330
31B
100
AcDbXrecord
  1
{F8D26D41-E472-41D7-8292-0C121701FB14}
  0
DICTIONARYVAR
  5
232
102
{ACAD_REACTORS
330
231
102
}
330
231
100
DictionaryVariables
280
     0
  1
1
  0
ENDSEC
  0
EOF
