  0
SECTION
  2
HEADER
  9
$ACADVER
  1
AC1014
  9
$ACADMAINTVER
 70
     9
  9
$DWGCODEPAGE
  3
ANSI_1252
  9
$INSBASE
 10
-2.039811215060183
 20
3.221532834883616
 30
0.0
  9
$EXTMIN
 10
-12.40922629009429
 20
-4.176496715467067
 30
0.0
  9
$EXTMAX
 10
13.32960385997392
 20
9.346532834883614
 30
0.0
  9
$LIMMIN
 10
0.0
 20
0.0
  9
$LIMMAX
 10
36.0
 20
36.0
  9
$ORTHOMODE
 70
     1
  9
$REGENMODE
 70
     1
  9
$FILLMODE
 70
     1
  9
$QTEXTMODE
 70
     0
  9
$MIRRTEXT
 70
     1
  9
$DRAGMODE
 70
     0
  9
$LTSCALE
 40
1.0
  9
$OSMODE
 70
    37
  9
$ATTMODE
 70
     1
  9
$TEXTSIZE
 40
0.2
  9
$TRACEWID
 40
0.05
  9
$TEXTSTYLE
  7
STANDARD
  9
$CLAYER
  8
ADPDIM
  9
$CELTYPE
  6
BYLAYER
  9
$CECOLOR
 62
   256
  9
$CELTSCALE
 40
1.0
  9
$DELOBJ
 70
     1
  9
$DISPSILH
 70
     0
  9
$DIMSCALE
 40
1.0
  9
$DIMASZ
 40
0.125
  9
$DIMEXO
 40
0.0625
  9
$DIMDLI
 40
0.38
  9
$DIMRND
 40
0.0
  9
$DIMDLE
 40
0.0
  9
$DIMEXE
 40
0.18
  9
$DIMTP
 40
0.0
  9
$DIMTM
 40
0.0
  9
$DIMTXT
 40
0.125
  9
$DIMCEN
 40
0.1875
  9
$DIMTSZ
 40
0.125
  9
$DIMTOL
 70
     0
  9
$DIMLIM
 70
     0
  9
$DIMTIH
 70
     0
  9
$DIMTOH
 70
     0
  9
$DIMSE1
 70
     0
  9
$DIMSE2
 70
     0
  9
$DIMTAD
 70
     0
  9
$DIMZIN
 70
     3
  9
$DIMBLK
  1

  9
$DIMASO
 70
     1
  9
$DIMSHO
 70
     1
  9
$DIMPOST
  1

  9
$DIMAPOST
  1

  9
$DIMALT
 70
     0
  9
$DIMALTD
 70
     1
  9
$DIMALTF
 40
25.4
  9
$DIMLFAC
 40
1.0
  9
$DIMTOFL
 70
     0
  9
$DIMTVP
 40
0.0
  9
$DIMTIX
 70
     0
  9
$DIMSOXD
 70
     0
  9
$DIMSAH
 70
     0
  9
$DIMBLK1
  1

  9
$DIMBLK2
  1

  9
$DIMSTYLE
  2
STANDARD
  9
$DIMCLRD
 70
     0
  9
$DIMCLRE
 70
     0
  9
$DIMCLRT
 70
     0
  9
$DIMTFAC
 40
1.0
  9
$DIMGAP
 40
0.125
  9
$DIMJUST
 70
     0
  9
$DIMSD1
 70
     0
  9
$DIMSD2
 70
     0
  9
$DIMTOLJ
 70
     1
  9
$DIMTZIN
 70
     0
  9
$DIMALTZ
 70
     0
  9
$DIMALTTZ
 70
     0
  9
$DIMFIT
 70
     3
  9
$DIMUPT
 70
     0
  9
$DIMUNIT
 70
     2
  9
$DIMDEC
 70
     4
  9
$DIMTDEC
 70
     4
  9
$DIMALTU
 70
     2
  9
$DIMALTTD
 70
     2
  9
$DIMTXSTY
  7
STANDARD
  9
$DIMAUNIT
 70
     0
  9
$LUNITS
 70
     5
  9
$LUPREC
 70
     4
  9
$SKETCHINC
 40
0.1
  9
$FILLETRAD
 40
0.25
  9
$AUNITS
 70
     0
  9
$AUPREC
 70
     0
  9
$MENU
  1
acad
  9
$ELEVATION
 40
0.0
  9
$PELEVATION
 40
0.0
  9
$THICKNESS
 40
0.0
  9
$LIMCHECK
 70
     0
  9
$BLIPMODE
 70
     0
  9
$CHAMFERA
 40
0.0
  9
$CHAMFERB
 40
0.0
  9
$CHAMFERC
 40
0.0
  9
$CHAMFERD
 40
0.0
  9
$SKPOLY
 70
     0
  9
$TDCREATE
 40
2450217.644400648
  9
$TDUPDATE
 40
2452297.075462048
  9
$TDINDWG
 40
0.0097684838
  9
$TDUSRTIMER
 40
0.0097684838
  9
$USRTIMER
 70
     1
  9
$ANGBASE
 50
0.0
  9
$ANGDIR
 70
     0
  9
$PDMODE
 70
     0
  9
$PDSIZE
 40
0.0
  9
$PLINEWID
 40
0.0
  9
$COORDS
 70
     2
  9
$SPLFRAME
 70
     0
  9
$SPLINETYPE
 70
     6
  9
$SPLINESEGS
 70
     8
  9
$ATTDIA
 70
     0
  9
$ATTREQ
 70
     1
  9
$HANDLING
 70
 22529
  9
$HANDSEED
  5
286
  9
$SURFTAB1
 70
     6
  9
$SURFTAB2
 70
     6
  9
$SURFTYPE
 70
     6
  9
$SURFU
 70
     6
  9
$SURFV
 70
     6
  9
$UCSNAME
  2

  9
$UCSORG
 10
0.0
 20
0.0
 30
0.0
  9
$UCSXDIR
 10
1.0
 20
0.0
 30
0.0
  9
$UCSYDIR
 10
0.0
 20
1.0
 30
0.0
  9
$PUCSNAME
  2

  9
$PUCSORG
 10
0.0
 20
0.0
 30
0.0
  9
$PUCSXDIR
 10
1.0
 20
0.0
 30
0.0
  9
$PUCSYDIR
 10
0.0
 20
1.0
 30
0.0
  9
$USERI1
 70
     0
  9
$USERI2
 70
     0
  9
$USERI3
 70
     0
  9
$USERI4
 70
     0
  9
$USERI5
 70
     0
  9
$USERR1
 40
0.0
  9
$USERR2
 40
0.0
  9
$USERR3
 40
0.0
  9
$USERR4
 40
0.0
  9
$USERR5
 40
0.0
  9
$WORLDVIEW
 70
     1
  9
$SHADEDGE
 70
     3
  9
$SHADEDIF
 70
    70
  9
$TILEMODE
 70
     1
  9
$MAXACTVP
 70
    15
  9
$PINSBASE
 10
0.0008545056916773
 20
1.250276130627782
 30
0.0
  9
$PLIMCHECK
 70
     0
  9
$PEXTMIN
 10
1.000000000000000E+20
 20
1.000000000000000E+20
 30
1.000000000000000E+20
  9
$PEXTMAX
 10
-1.000000000000000E+20
 20
-1.000000000000000E+20
 30
-1.000000000000000E+20
  9
$PLIMMIN
 10
0.0
 20
0.0
  9
$PLIMMAX
 10
12.0
 20
9.0
  9
$UNITMODE
 70
     0
  9
$VISRETAIN
 70
     0
  9
$PLINEGEN
 70
     0
  9
$PSLTSCALE
 70
     1
  9
$TREEDEPTH
 70
  3020
  9
$PICKSTYLE
 70
     1
  9
$CMLSTYLE
  2
STANDARD
  9
$CMLJUST
 70
     0
  9
$CMLSCALE
 40
1.0
  9
$PROXYGRAPHICS
 70
     1
  9
$MEASUREMENT
 70
     0
  0
ENDSEC
  0
SECTION
  2
CLASSES
  0
CLASS
  1
ACDBDICTIONARYWDFLT
  2
AcDbDictionaryWithDefault
  3
AutoCAD 2000
 90
        0
280
     0
281
     0
  0
CLASS
  1
ACDBPLACEHOLDER
  2
AcDbPlaceHolder
  3
AutoCAD 2000
 90
        0
280
     0
281
     0
  0
CLASS
  1
LAYOUT
  2
AcDbLayout
  3
AutoCAD 2000
 90
        0
280
     0
281
     0
  0
CLASS
  1
DICTIONARYVAR
  2
AcDbDictionaryVar
  3
AutoCAD 2000
 90
        0
280
     0
281
     0
  0
CLASS
  1
LONG_TRANSACTION
  2
AcDbLongTransaction
  3
AutoCAD 2000
 90
        0
280
     0
281
     0
  0
CLASS
  1
LWPOLYLINE
  2
AcDbPolyline
  3
AutoCAD 2000
 90
        0
280
     0
281
     1
  0
CLASS
  1
HATCH
  2
AcDbHatch
  3
AutoCAD 2000
 90
        0
280
     0
281
     1
  0
CLASS
  1
XRECORD
  2
AcDbXrecord
  3
AutoCAD 2000
 90
        0
280
     0
281
     0
  0
CLASS
  1
LONG_TRANSACTION
  2
AcDbLongTransaction
  3
AutoCAD 2000
 90
        0
280
     0
281
     0
  0
CLASS
  1
LWPOLYLINE
  2
AcDbPolyline
  3
AutoCAD 2000
 90
        0
280
     0
281
     1
  0
CLASS
  1
HATCH
  2
AcDbHatch
  3
AutoCAD 2000
 90
        0
280
     0
281
     1
  0
CLASS
  1
XRECORD
  2
AcDbXrecord
  3
AutoCAD 2000
 90
        0
280
     0
281
     0
  0
CLASS
  1
LONG_TRANSACTION
  2
AcDbLongTransaction
  3
AutoCAD 2000
 90
        0
280
     0
281
     0
  0
CLASS
  1
LWPOLYLINE
  2
AcDbPolyline
  3
AutoCAD 2000
 90
        0
280
     0
281
     1
  0
CLASS
  1
HATCH
  2
AcDbHatch
  3
AutoCAD 2000
 90
        0
280
     0
281
     1
  0
CLASS
  1
XRECORD
  2
AcDbXrecord
  3
AutoCAD 2000
 90
        0
280
     0
281
     0
  0
CLASS
  1
LONG_TRANSACTION
  2
AcDbLongTransaction
  3
AutoCAD 2000
 90
        0
280
     0
281
     0
  0
CLASS
  1
LWPOLYLINE
  2
AcDbPolyline
  3
AutoCAD 2000
 90
        0
280
     0
281
     1
  0
CLASS
  1
HATCH
  2
AcDbHatch
  3
AutoCAD 2000
 90
        0
280
     0
281
     1
  0
CLASS
  1
XRECORD
  2
AcDbXrecord
  3
AutoCAD 2000
 90
        0
280
     0
281
     0
  0
CLASS
  1
LONG_TRANSACTION
  2
AcDbLongTransaction
  3
AutoCAD 2000
 90
        0
280
     0
281
     0
  0
CLASS
  1
LWPOLYLINE
  2
AcDbPolyline
  3
AutoCAD 2000
 90
        0
280
     0
281
     1
  0
CLASS
  1
HATCH
  2
AcDbHatch
  3
AutoCAD 2000
 90
        0
280
     0
281
     1
  0
CLASS
  1
XRECORD
  2
AcDbXrecord
  3
AutoCAD 2000
 90
        0
280
     0
281
     0
  0
ENDSEC
  0
SECTION
  2
TABLES
  0
TABLE
  2
VPORT
  5
8
330
0
100
AcDbSymbolTable
 70
     2
  0
VPORT
  5
263
330
8
100
AcDbSymbolTableRecord
100
AcDbViewportTableRecord
  2
*ACTIVE
 70
     0
 10
0.0
 20
0.0
 11
1.0
 21
1.0
 12
0.4807947627676939
 22
2.585403903761632
 13
0.0
 23
0.0
 14
0.5740882589684922
 24
0.5740882589684922
 15
0.5
 25
0.5
 16
0.0
 26
0.0
 36
1.0
 17
0.0
 27
0.0
 37
0.0
 40
16.4965845004697
 41
1.570528967254408
 42
50.0
 43
0.0
 44
0.0
 50
0.0
 51
0.0
 71
     0
 72
   100
 73
     1
 74
     0
 75
     0
 76
     0
 77
     0
 78
     0
  0
ENDTAB
  0
TABLE
  2
LTYPE
  5
5
330
0
100
AcDbSymbolTable
 70
     3
  0
LTYPE
  5
12
330
5
100
AcDbSymbolTableRecord
100
AcDbLinetypeTableRecord
  2
BYBLOCK
 70
     0
  3

 72
    65
 73
     0
 40
0.0
  0
LTYPE
  5
13
330
5
100
AcDbSymbolTableRecord
100
AcDbLinetypeTableRecord
  2
BYLAYER
 70
     0
  3

 72
    65
 73
     0
 40
0.0
  0
LTYPE
  5
14
330
5
100
AcDbSymbolTableRecord
100
AcDbLinetypeTableRecord
  2
CONTINUOUS
 70
     0
  3
Solid line
 72
    65
 73
     0
 40
0.0
  0
LTYPE
  5
74
330
5
100
AcDbSymbolTableRecord
100
AcDbLinetypeTableRecord
  2
HIDDEN2
 70
     0
  3
_ _ _ _ _ _ _ _ _ _ _ _ _ _ _ _ _ _ _ _ _ _ _ _
 72
    65
 73
     2
 40
0.1875
 49
0.125
 74
     0
 49
-0.0625
 74
     0
  0
LTYPE
  5
75
330
5
100
AcDbSymbolTableRecord
100
AcDbLinetypeTableRecord
  2
HIDDENX2
 70
     0
  3
____ ____ ____ ____ ____ ____ ____ ____ ____ __
 72
    65
 73
     2
 40
0.75
 49
0.5
 74
     0
 49
-0.25
 74
     0
  0
ENDTAB
  0
TABLE
  2
LAYER
  5
2
330
0
100
AcDbSymbolTable
 70
     5
  0
LAYER
  5
F
330
2
100
AcDbSymbolTableRecord
100
AcDbLayerTableRecord
  2
0
 70
     0
 62
     7
  6
CONTINUOUS
  0
LAYER
  5
76
330
2
100
AcDbSymbolTableRecord
100
AcDbLayerTableRecord
  2
ADP2DETAIL
 70
     0
 62
     5
  6
CONTINUOUS
  0
LAYER
  5
77
330
2
100
AcDbSymbolTableRecord
100
AcDbLayerTableRecord
  2
ADPDIM
 70
     0
 62
     3
  6
CONTINUOUS
  0
LAYER
  5
79
330
2
100
AcDbSymbolTableRecord
100
AcDbLayerTableRecord
  2
ADP1DETAIL
 70
     0
 62
     7
  6
CONTINUOUS
  0
LAYER
  5
7B
330
2
100
AcDbSymbolTableRecord
100
AcDbLayerTableRecord
  2
DEFPOINTS
 70
     0
 62
     7
  6
CONTINUOUS
  0
ENDTAB
  0
TABLE
  2
STYLE
  5
3
330
0
100
AcDbSymbolTable
 70
     2
  0
STYLE
  5
10
330
3
100
AcDbSymbolTableRecord
100
AcDbTextStyleTableRecord
  2
STANDARD
 70
     0
 40
0.0
 41
1.0
 50
0.0
 71
     0
 42
0.2
  3
txt
  4

  0
STYLE
  5
11F
330
3
100
AcDbSymbolTableRecord
100
AcDbTextStyleTableRecord
  2
ARIAL_WIDE
 70
     0
 40
0.0
 41
1.25
 50
0.0
 71
     0
 42
0.2
  3
ARIAL.TTF
  4

1001
ACAD
1000
Arial
1071
       34
  0
ENDTAB
  0
TABLE
  2
VIEW
  5
6
330
0
100
AcDbSymbolTable
 70
     0
  0
ENDTAB
  0
TABLE
  2
UCS
  5
7
330
0
100
AcDbSymbolTable
 70
     0
  0
ENDTAB
  0
TABLE
  2
APPID
  5
9
330
0
100
AcDbSymbolTable
 70
     1
  0
APPID
  5
11
330
9
100
AcDbSymbolTableRecord
100
AcDbRegAppTableRecord
  2
ACAD
 70
     0
  0
ENDTAB
  0
TABLE
  2
DIMSTYLE
  5
A
330
0
100
AcDbSymbolTable
 70
     1
  0
DIMSTYLE
105
113
330
A
100
AcDbSymbolTableRecord
100
AcDbDimStyleTableRecord
  2
STANDARD
 70
     0
  3

  4

  5

  6

  7

 40
1.0
 41
0.18
 42
0.0625
 43
0.38
 44
0.18
 45
0.0
 46
0.0
 47
0.0
 48
0.0
140
0.18
141
0.09
142
0.0
143
25.4
144
1.0
145
0.0
146
1.0
147
0.09
 71
     0
 72
     0
 73
     1
 74
     1
 75
     0
 76
     0
 77
     0
 78
     0
170
     0
171
     2
172
     0
173
     0
174
     0
175
     0
176
     0
177
     0
178
     0
270
     2
271
     4
272
     4
273
     2
274
     2
340
10
275
     0
280
     0
281
     0
282
     0
283
     1
284
     0
285
     0
286
     0
287
     3
288
     0
  0
ENDTAB
  0
TABLE
  2
BLOCK_RECORD
  5
1
330
0
100
AcDbSymbolTable
 70
     8
  0
BLOCK_RECORD
  5
18
102
{ACAD_XDICTIONARY
360
174
102
}
330
1
100
AcDbSymbolTableRecord
100
AcDbBlockTableRecord
  2
*MODEL_SPACE
  0
BLOCK_RECORD
  5
15
102
{ACAD_XDICTIONARY
360
172
102
}
330
1
100
AcDbSymbolTableRecord
100
AcDbBlockTableRecord
  2
*PAPER_SPACE
  0
BLOCK_RECORD
  5
56
330
1
100
AcDbSymbolTableRecord
100
AcDbBlockTableRecord
  2
*D0
  0
BLOCK_RECORD
  5
58
330
1
100
AcDbSymbolTableRecord
100
AcDbBlockTableRecord
  2
*D1
  0
BLOCK_RECORD
  5
59
330
1
100
AcDbSymbolTableRecord
100
AcDbBlockTableRecord
  2
*D2
  0
BLOCK_RECORD
  5
5A
330
1
100
AcDbSymbolTableRecord
100
AcDbBlockTableRecord
  2
*D3
  0
BLOCK_RECORD
  5
5B
330
1
100
AcDbSymbolTableRecord
100
AcDbBlockTableRecord
  2
*D4
  0
BLOCK_RECORD
  5
5C
330
1
100
AcDbSymbolTableRecord
100
AcDbBlockTableRecord
  2
*D5
  0
BLOCK_RECORD
  5
5D
330
1
100
AcDbSymbolTableRecord
100
AcDbBlockTableRecord
  2
*D6
  0
BLOCK_RECORD
  5
60
330
1
100
AcDbSymbolTableRecord
100
AcDbBlockTableRecord
  2
*D7
  0
ENDTAB
  0
ENDSEC
  0
SECTION
  2
BLOCKS
  0
BLOCK
  5
7E
330
18
100
AcDbEntity
  8
0
100
AcDbBlockBegin
  2
*MODEL_SPACE
 70
     0
 10
0.0
 20
0.0
 30
0.0
  3
*MODEL_SPACE
  1

  0
ENDBLK
  5
7F
330
18
100
AcDbEntity
  8
0
100
AcDbBlockEnd
  0
BLOCK
  5
7C
330
15
100
AcDbEntity
 67
     1
  8
0
100
AcDbBlockBegin
  2
*PAPER_SPACE
 70
     0
 10
0.0
 20
0.0
 30
0.0
  3
*PAPER_SPACE
  1

  0
ENDBLK
  5
7D
330
15
100
AcDbEntity
 67
     1
  8
0
100
AcDbBlockEnd
  0
BLOCK
  5
81
330
56
100
AcDbEntity
  8
0
100
AcDbBlockBegin
  2
*D0
 70
     1
 10
0.0
 20
0.0
 30
0.0
  3
*D0
  1

  0
LINE
  5
82
330
56
100
AcDbEntity
  8
0
  6
BYBLOCK
 62
     0
100
AcDbLine
 10
-2.039811215060183
 20
1.499100735422279
 30
0.0
 11
-2.039811215060183
 21
1.820229247432894
 31
0.0
  0
LINE
  5
83
330
56
100
AcDbEntity
  8
0
  6
BYBLOCK
 62
     0
100
AcDbLine
 10
0.4601887849398168
 20
1.499100735422279
 30
0.0
 11
0.4601887849398168
 21
1.820229247432894
 31
0.0
  0
LINE
  5
84
330
56
100
AcDbEntity
  8
0
  6
BYBLOCK
 62
     0
100
AcDbLine
 10
-2.039811215060183
 20
1.640229247432894
 30
0.0
 11
-1.185644548393516
 21
1.640229247432894
 31
0.0
  0
LINE
  5
85
330
56
100
AcDbEntity
  8
0
  6
BYBLOCK
 62
     0
100
AcDbLine
 10
0.4601887849398168
 20
1.640229247432894
 30
0.0
 11
-0.39397788172685
 21
1.640229247432894
 31
0.0
  0
LINE
  5
86
330
56
100
AcDbEntity
  8
0
  6
BYBLOCK
 62
     0
100
AcDbLine
 10
-2.164811215060183
 20
1.515229247432894
 30
0.0
 11
-1.914811215060183
 21
1.765229247432894
 31
0.0
  0
LINE
  5
87
330
56
100
AcDbEntity
  8
0
  6
BYBLOCK
 62
     0
100
AcDbLine
 10
0.3351887849398167
 20
1.515229247432894
 30
0.0
 11
0.5851887849398168
 21
1.765229247432894
 31
0.0
  0
TEXT
  5
88
330
56
100
AcDbEntity
  8
0
  6
BYBLOCK
 62
     0
100
AcDbText
 10
-1.060644548393516
 20
1.577729247432894
 30
0.0
 40
0.125
  1
2 1/2
 72
     1
 11
-0.7898112150601833
 21
1.640229247432894
 31
0.0
100
AcDbText
 73
     2
  0
POINT
  5
89
330
56
100
AcDbEntity
  8
DEFPOINTS
  6
BYBLOCK
 62
     0
100
AcDbPoint
 10
-2.039811215060183
 20
1.436600735422279
 30
0.0
  0
POINT
  5
8A
330
56
100
AcDbEntity
  8
DEFPOINTS
  6
BYBLOCK
 62
     0
100
AcDbPoint
 10
0.4601887849398168
 20
1.436600735422279
 30
0.0
  0
POINT
  5
8B
330
56
100
AcDbEntity
  8
DEFPOINTS
  6
BYBLOCK
 62
     0
100
AcDbPoint
 10
0.4601887849398168
 20
1.640229247432894
 30
0.0
  0
ENDBLK
  5
8C
330
56
100
AcDbEntity
  8
0
100
AcDbBlockEnd
  0
BLOCK
  5
8D
330
58
100
AcDbEntity
  8
0
100
AcDbBlockBegin
  2
*D1
 70
     1
 10
0.0
 20
0.0
 30
0.0
  3
*D1
  1

  0
LINE
  5
8E
330
58
100
AcDbEntity
  8
0
  6
BYBLOCK
 62
     0
100
AcDbLine
 10
3.022688784939816
 20
1.436600735422279
 30
0.0
 11
3.48785820160375
 21
1.436600735422279
 31
0.0
  0
LINE
  5
8F
330
58
100
AcDbEntity
  8
0
  6
BYBLOCK
 62
     0
100
AcDbLine
 10
1.487688784939816
 20
-1.56339926457772
 30
0.0
 11
3.487858201603751
 21
-1.56339926457772
 31
0.0
  0
LINE
  5
90
330
58
100
AcDbEntity
  8
0
  6
BYBLOCK
 62
     0
100
AcDbLine
 10
3.30785820160375
 20
1.436600735422279
 30
0.0
 11
3.30785820160375
 21
0.1032674020889458
 31
0.0
  0
LINE
  5
91
330
58
100
AcDbEntity
  8
0
  6
BYBLOCK
 62
     0
100
AcDbLine
 10
3.30785820160375
 20
-1.56339926457772
 30
0.0
 11
3.30785820160375
 21
-0.2300659312443875
 31
0.0
  0
LINE
  5
92
330
58
100
AcDbEntity
  8
0
  6
BYBLOCK
 62
     0
100
AcDbLine
 10
3.43285820160375
 20
1.311600735422279
 30
0.0
 11
3.18285820160375
 21
1.561600735422279
 31
0.0
  0
LINE
  5
93
330
58
100
AcDbEntity
  8
0
  6
BYBLOCK
 62
     0
100
AcDbLine
 10
3.43285820160375
 20
-1.68839926457772
 30
0.0
 11
3.18285820160375
 21
-1.43839926457772
 31
0.0
  0
TEXT
  5
94
330
58
100
AcDbEntity
  8
0
  6
BYBLOCK
 62
     0
100
AcDbText
 10
3.37035820160375
 20
-0.1050659312443875
 30
0.0
 40
0.125
  1
3
 50
90.0
 72
     1
 11
3.30785820160375
 21
-0.0633992645777208
 31
0.0
100
AcDbText
 73
     2
  0
POINT
  5
95
330
58
100
AcDbEntity
  8
DEFPOINTS
  6
BYBLOCK
 62
     0
100
AcDbPoint
 10
2.960188784939816
 20
1.436600735422279
 30
0.0
  0
POINT
  5
96
330
58
100
AcDbEntity
  8
DEFPOINTS
  6
BYBLOCK
 62
     0
100
AcDbPoint
 10
1.425188784939816
 20
-1.56339926457772
 30
0.0
  0
POINT
  5
97
330
58
100
AcDbEntity
  8
DEFPOINTS
  6
BYBLOCK
 62
     0
100
AcDbPoint
 10
3.30785820160375
 20
-1.56339926457772
 30
0.0
  0
ENDBLK
  5
98
330
58
100
AcDbEntity
  8
0
100
AcDbBlockEnd
  0
BLOCK
  5
99
330
59
100
AcDbEntity
  8
0
100
AcDbBlockBegin
  2
*D2
 70
     1
 10
0.0
 20
0.0
 30
0.0
  3
*D2
  1

  0
LINE
  5
9A
330
59
100
AcDbEntity
  8
0
  6
BYBLOCK
 62
     0
100
AcDbLine
 10
-0.3692702029794752
 20
-2.056575488010992
 30
0.0
 11
-0.7910330349134163
 21
-2.307345452128786
 31
0.0
  0
LINE
  5
9B
330
59
100
AcDbEntity
  8
0
  6
BYBLOCK
 62
     0
100
AcDbLine
 10
-0.4128301465657473
 20
-2.227901292590339
 30
0.0
 11
-0.3257102593932031
 21
-1.885249683431644
 31
0.0
  0
LINE
  5
9C
330
59
100
AcDbEntity
  8
0
  6
BYBLOCK
 62
     0
100
AcDbLine
 10
0.2726887849398166
 20
-1.56339926457772
 30
0.0
 11
0.6476887849398166
 21
-1.56339926457772
 31
0.0
  0
LINE
  5
9D
330
59
100
AcDbEntity
  8
0
  6
BYBLOCK
 62
     0
100
AcDbLine
 10
0.4601887849398166
 20
-1.75089926457772
 30
0.0
 11
0.4601887849398166
 21
-1.37589926457772
 31
0.0
  0
TEXT
  5
9E
330
59
100
AcDbEntity
  8
0
  6
BYBLOCK
 62
     0
100
AcDbText
 10
-1.582820270966689
 20
-2.85083602297698
 30
0.0
 40
0.125
  1
%%c1 15/16
 50
30.73469120348682
 72
     1
 11
-1.256618822605592
 21
-2.584171484280449
 31
0.0
100
AcDbText
 73
     2
  0
POINT
  5
9F
330
59
100
AcDbEntity
  8
DEFPOINTS
  6
BYBLOCK
 62
     0
100
AcDbPoint
 10
-0.3692702029794752
 20
-2.056575488010992
 30
0.0
  0
POINT
  5
A0
330
59
100
AcDbEntity
  8
DEFPOINTS
  6
BYBLOCK
 62
     0
100
AcDbPoint
 10
1.289647772859108
 20
-1.070223041144448
 30
0.0
  0
ENDBLK
  5
A1
330
59
100
AcDbEntity
  8
0
100
AcDbBlockEnd
  0
BLOCK
  5
A2
330
5A
100
AcDbEntity
  8
0
100
AcDbBlockBegin
  2
*D3
 70
     1
 10
0.0
 20
0.0
 30
0.0
  3
*D3
  1

  0
LINE
  5
A3
330
5A
100
AcDbEntity
  8
0
  6
BYBLOCK
 62
     0
100
AcDbLine
 10
0.4601887849398168
 20
2.290429032039861
 30
0.0
 11
0.4601887849398168
 21
1.802801060702418
 31
0.0
  0
LINE
  5
A4
330
5A
100
AcDbEntity
  8
0
  6
BYBLOCK
 62
     0
100
AcDbLine
 10
2.210188784939816
 20
3.540429032039861
 30
0.0
 11
2.210188784939816
 21
1.802801060702418
 31
0.0
  0
LINE
  5
A5
330
5A
100
AcDbEntity
  8
0
  6
BYBLOCK
 62
     0
100
AcDbLine
 10
0.4601887849398168
 20
1.982801060702418
 30
0.0
 11
0.9393554516064835
 21
1.982801060702418
 31
0.0
  0
LINE
  5
A6
330
5A
100
AcDbEntity
  8
0
  6
BYBLOCK
 62
     0
100
AcDbLine
 10
2.210188784939816
 20
1.982801060702418
 30
0.0
 11
1.731022118273149
 21
1.982801060702418
 31
0.0
  0
LINE
  5
A7
330
5A
100
AcDbEntity
  8
0
  6
BYBLOCK
 62
     0
100
AcDbLine
 10
0.3351887849398167
 20
1.857801060702418
 30
0.0
 11
0.5851887849398168
 21
2.107801060702418
 31
0.0
  0
LINE
  5
A8
330
5A
100
AcDbEntity
  8
0
  6
BYBLOCK
 62
     0
100
AcDbLine
 10
2.085188784939816
 20
1.857801060702418
 30
0.0
 11
2.335188784939816
 21
2.107801060702418
 31
0.0
  0
TEXT
  5
A9
330
5A
100
AcDbEntity
  8
0
  6
BYBLOCK
 62
     0
100
AcDbText
 10
1.064355451606483
 20
1.920301060702418
 30
0.0
 40
0.125
  1
1 3/4
 72
     1
 11
1.335188784939816
 21
1.982801060702418
 31
0.0
100
AcDbText
 73
     2
  0
POINT
  5
AA
330
5A
100
AcDbEntity
  8
DEFPOINTS
  6
BYBLOCK
 62
     0
100
AcDbPoint
 10
0.4601887849398168
 20
2.352929032039861
 30
0.0
  0
POINT
  5
AB
330
5A
100
AcDbEntity
  8
DEFPOINTS
  6
BYBLOCK
 62
     0
100
AcDbPoint
 10
2.210188784939816
 20
3.602929032039861
 30
0.0
  0
POINT
  5
AC
330
5A
100
AcDbEntity
  8
DEFPOINTS
  6
BYBLOCK
 62
     0
100
AcDbPoint
 10
2.210188784939816
 20
1.982801060702418
 30
0.0
  0
ENDBLK
  5
AD
330
5A
100
AcDbEntity
  8
0
100
AcDbBlockEnd
  0
BLOCK
  5
AE
330
5B
100
AcDbEntity
  8
0
100
AcDbBlockBegin
  2
*D4
 70
     1
 10
0.0
 20
0.0
 30
0.0
  3
*D4
  1

  0
LINE
  5
AF
330
5B
100
AcDbEntity
  8
0
  6
BYBLOCK
 62
     0
100
AcDbLine
 10
-1.289811215060183
 20
3.540429032039861
 30
0.0
 11
-1.289811215060183
 21
1.802801060702418
 31
0.0
  0
LINE
  5
B0
330
5B
100
AcDbEntity
  8
0
  6
BYBLOCK
 62
     0
100
AcDbLine
 10
0.4601887849398168
 20
2.290429032039861
 30
0.0
 11
0.4601887849398168
 21
1.802801060702418
 31
0.0
  0
LINE
  5
B1
330
5B
100
AcDbEntity
  8
0
  6
BYBLOCK
 62
     0
100
AcDbLine
 10
-1.289811215060183
 20
1.982801060702418
 30
0.0
 11
-0.8106445483935164
 21
1.982801060702418
 31
0.0
  0
LINE
  5
B2
330
5B
100
AcDbEntity
  8
0
  6
BYBLOCK
 62
     0
100
AcDbLine
 10
0.4601887849398168
 20
1.982801060702418
 30
0.0
 11
-0.01897788172685
 21
1.982801060702418
 31
0.0
  0
LINE
  5
B3
330
5B
100
AcDbEntity
  8
0
  6
BYBLOCK
 62
     0
100
AcDbLine
 10
-1.414811215060183
 20
1.857801060702418
 30
0.0
 11
-1.164811215060183
 21
2.107801060702418
 31
0.0
  0
LINE
  5
B4
330
5B
100
AcDbEntity
  8
0
  6
BYBLOCK
 62
     0
100
AcDbLine
 10
0.3351887849398167
 20
1.857801060702418
 30
0.0
 11
0.5851887849398168
 21
2.107801060702418
 31
0.0
  0
TEXT
  5
B5
330
5B
100
AcDbEntity
  8
0
  6
BYBLOCK
 62
     0
100
AcDbText
 10
-0.6856445483935165
 20
1.920301060702418
 30
0.0
 40
0.125
  1
1 3/4
 72
     1
 11
-0.4148112150601833
 21
1.982801060702418
 31
0.0
100
AcDbText
 73
     2
  0
POINT
  5
B6
330
5B
100
AcDbEntity
  8
DEFPOINTS
  6
BYBLOCK
 62
     0
100
AcDbPoint
 10
-1.289811215060183
 20
3.602929032039861
 30
0.0
  0
POINT
  5
B7
330
5B
100
AcDbEntity
  8
DEFPOINTS
  6
BYBLOCK
 62
     0
100
AcDbPoint
 10
0.4601887849398168
 20
2.352929032039861
 30
0.0
  0
POINT
  5
B8
330
5B
100
AcDbEntity
  8
DEFPOINTS
  6
BYBLOCK
 62
     0
100
AcDbPoint
 10
0.4601887849398168
 20
1.982801060702418
 30
0.0
  0
ENDBLK
  5
B9
330
5B
100
AcDbEntity
  8
0
100
AcDbBlockEnd
  0
BLOCK
  5
BA
330
5C
100
AcDbEntity
  8
0
100
AcDbBlockBegin
  2
*D5
 70
     1
 10
0.0
 20
0.0
 30
0.0
  3
*D5
  1

  0
LINE
  5
BB
330
5C
100
AcDbEntity
  8
0
  6
BYBLOCK
 62
     0
100
AcDbLine
 10
3.022688784939816
 20
2.352929032039861
 30
0.0
 11
3.495168233858244
 21
2.352929032039861
 31
0.0
  0
LINE
  5
BC
330
5C
100
AcDbEntity
  8
0
  6
BYBLOCK
 62
     0
100
AcDbLine
 10
2.272688784939816
 20
3.602929032039861
 30
0.0
 11
3.495168233858244
 21
3.602929032039861
 31
0.0
  0
LINE
  5
BD
330
5C
100
AcDbEntity
  8
0
  6
BYBLOCK
 62
     0
100
AcDbLine
 10
3.315168233858244
 20
2.352929032039861
 30
0.0
 11
3.315168233858244
 21
2.602929032039861
 31
0.0
  0
LINE
  5
BE
330
5C
100
AcDbEntity
  8
0
  6
BYBLOCK
 62
     0
100
AcDbLine
 10
3.315168233858244
 20
3.602929032039861
 30
0.0
 11
3.315168233858244
 21
3.352929032039861
 31
0.0
  0
LINE
  5
BF
330
5C
100
AcDbEntity
  8
0
  6
BYBLOCK
 62
     0
100
AcDbLine
 10
3.440168233858244
 20
2.227929032039861
 30
0.0
 11
3.190168233858244
 21
2.477929032039861
 31
0.0
  0
LINE
  5
C0
330
5C
100
AcDbEntity
  8
0
  6
BYBLOCK
 62
     0
100
AcDbLine
 10
3.440168233858244
 20
3.477929032039861
 30
0.0
 11
3.190168233858245
 21
3.727929032039861
 31
0.0
  0
TEXT
  5
C1
330
5C
100
AcDbEntity
  8
0
  6
BYBLOCK
 62
     0
100
AcDbText
 10
3.377668233858244
 20
2.727929032039861
 30
0.0
 40
0.125
  1
1 1/4
 50
90.0
 72
     1
 11
3.315168233858244
 21
2.977929032039861
 31
0.0
100
AcDbText
 73
     2
  0
POINT
  5
C2
330
5C
100
AcDbEntity
  8
DEFPOINTS
  6
BYBLOCK
 62
     0
100
AcDbPoint
 10
2.960188784939816
 20
2.352929032039861
 30
0.0
  0
POINT
  5
C3
330
5C
100
AcDbEntity
  8
DEFPOINTS
  6
BYBLOCK
 62
     0
100
AcDbPoint
 10
2.210188784939816
 20
3.602929032039861
 30
0.0
  0
POINT
  5
C4
330
5C
100
AcDbEntity
  8
DEFPOINTS
  6
BYBLOCK
 62
     0
100
AcDbPoint
 10
3.315168233858244
 20
3.602929032039861
 30
0.0
  0
ENDBLK
  5
C5
330
5C
100
AcDbEntity
  8
0
100
AcDbBlockEnd
  0
BLOCK
  5
C6
330
5D
100
AcDbEntity
  8
0
100
AcDbBlockBegin
  2
*D6
 70
     1
 10
0.0
 20
0.0
 30
0.0
  3
*D6
  1

  0
LINE
  5
C7
330
5D
100
AcDbEntity
  8
0
  6
BYBLOCK
 62
     0
100
AcDbLine
 10
2.272688784939816
 20
3.602929032039861
 30
0.0
 11
3.495168233858244
 21
3.602929032039861
 31
0.0
  0
LINE
  5
C8
330
5D
100
AcDbEntity
  8
0
  6
BYBLOCK
 62
     0
100
AcDbLine
 10
2.272688784939816
 20
7.102929032039861
 30
0.0
 11
3.495168233858244
 21
7.102929032039861
 31
0.0
  0
LINE
  5
C9
330
5D
100
AcDbEntity
  8
0
  6
BYBLOCK
 62
     0
100
AcDbLine
 10
3.315168233858244
 20
3.602929032039861
 30
0.0
 11
3.315168233858244
 21
4.957095698706527
 31
0.0
  0
LINE
  5
CA
330
5D
100
AcDbEntity
  8
0
  6
BYBLOCK
 62
     0
100
AcDbLine
 10
3.315168233858244
 20
7.102929032039861
 30
0.0
 11
3.315168233858244
 21
5.748762365373194
 31
0.0
  0
LINE
  5
CB
330
5D
100
AcDbEntity
  8
0
  6
BYBLOCK
 62
     0
100
AcDbLine
 10
3.440168233858244
 20
3.477929032039861
 30
0.0
 11
3.190168233858244
 21
3.727929032039861
 31
0.0
  0
LINE
  5
CC
330
5D
100
AcDbEntity
  8
0
  6
BYBLOCK
 62
     0
100
AcDbLine
 10
3.440168233858244
 20
6.977929032039861
 30
0.0
 11
3.190168233858244
 21
7.227929032039861
 31
0.0
  0
TEXT
  5
CD
330
5D
100
AcDbEntity
  8
0
  6
BYBLOCK
 62
     0
100
AcDbText
 10
3.377668233858244
 20
5.082095698706527
 30
0.0
 40
0.125
  1
3 1/2
 50
90.0
 72
     1
 11
3.315168233858244
 21
5.352929032039861
 31
0.0
100
AcDbText
 73
     2
  0
POINT
  5
CE
330
5D
100
AcDbEntity
  8
DEFPOINTS
  6
BYBLOCK
 62
     0
100
AcDbPoint
 10
2.210188784939816
 20
3.602929032039861
 30
0.0
  0
POINT
  5
CF
330
5D
100
AcDbEntity
  8
DEFPOINTS
  6
BYBLOCK
 62
     0
100
AcDbPoint
 10
2.210188784939816
 20
7.102929032039861
 30
0.0
  0
POINT
  5
D0
330
5D
100
AcDbEntity
  8
DEFPOINTS
  6
BYBLOCK
 62
     0
100
AcDbPoint
 10
3.315168233858244
 20
7.102929032039861
 30
0.0
  0
ENDBLK
  5
D1
330
5D
100
AcDbEntity
  8
0
100
AcDbBlockEnd
  0
BLOCK
  5
D2
330
60
100
AcDbEntity
  8
0
100
AcDbBlockBegin
  2
*D7
 70
     1
 10
0.0
 20
0.0
 30
0.0
  3
*D7
  1

  0
LINE
  5
D3
330
60
100
AcDbEntity
  8
0
  6
BYBLOCK
 62
     0
100
AcDbLine
 10
3.022688784939816
 20
2.352929032039861
 30
0.0
 11
3.901092647787989
 21
2.35292903203986
 31
0.0
  0
LINE
  5
D4
330
60
100
AcDbEntity
  8
0
  6
BYBLOCK
 62
     0
100
AcDbLine
 10
3.022688784939816
 20
8.35292903203986
 30
0.0
 11
3.90109264778799
 21
8.35292903203986
 31
0.0
  0
LINE
  5
D5
330
60
100
AcDbEntity
  8
0
  6
BYBLOCK
 62
     0
100
AcDbLine
 10
3.721092647787989
 20
2.35292903203986
 30
0.0
 11
3.721092647787989
 21
5.186262365373193
 31
0.0
  0
LINE
  5
D6
330
60
100
AcDbEntity
  8
0
  6
BYBLOCK
 62
     0
100
AcDbLine
 10
3.721092647787989
 20
8.35292903203986
 30
0.0
 11
3.721092647787989
 21
5.519595698706527
 31
0.0
  0
LINE
  5
D7
330
60
100
AcDbEntity
  8
0
  6
BYBLOCK
 62
     0
100
AcDbLine
 10
3.846092647787989
 20
2.22792903203986
 30
0.0
 11
3.596092647787989
 21
2.477929032039861
 31
0.0
  0
LINE
  5
D8
330
60
100
AcDbEntity
  8
0
  6
BYBLOCK
 62
     0
100
AcDbLine
 10
3.846092647787989
 20
8.22792903203986
 30
0.0
 11
3.596092647787989
 21
8.47792903203986
 31
0.0
  0
TEXT
  5
D9
330
60
100
AcDbEntity
  8
0
  6
BYBLOCK
 62
     0
100
AcDbText
 10
3.783592647787989
 20
5.311262365373193
 30
0.0
 40
0.125
  1
6
 50
90.0
 72
     1
 11
3.721092647787989
 21
5.35292903203986
 31
0.0
100
AcDbText
 73
     2
  0
POINT
  5
DA
330
60
100
AcDbEntity
  8
DEFPOINTS
  6
BYBLOCK
 62
     0
100
AcDbPoint
 10
2.960188784939816
 20
2.352929032039861
 30
0.0
  0
POINT
  5
DB
330
60
100
AcDbEntity
  8
DEFPOINTS
  6
BYBLOCK
 62
     0
100
AcDbPoint
 10
2.960188784939816
 20
8.35292903203986
 30
0.0
  0
POINT
  5
DC
330
60
100
AcDbEntity
  8
DEFPOINTS
  6
BYBLOCK
 62
     0
100
AcDbPoint
 10
3.721092647787989
 20
8.35292903203986
 30
0.0
  0
ENDBLK
  5
DD
330
60
100
AcDbEntity
  8
0
100
AcDbBlockEnd
  0
ENDSEC
  0
SECTION
  2
ENTITIES
  0
DIMENSION
  5
DE
330
18
100
AcDbEntity
  8
ADPDIM
100
AcDbDimension
  2
*D5
 10
3.315168233858244
 20
4.471532834883616
 30
0.0
 11
3.315168233858244
 21
3.846532834883616
 31
0.0
 12
0.0
 22
0.8686038028437552
 32
0.0
100
AcDbAlignedDimension
 13
2.960188784939816
 23
3.221532834883616
 33
0.0
 14
2.210188784939816
 24
4.471532834883616
 34
0.0
 50
90.0
100
AcDbRotatedDimension
  0
DIMENSION
  5
DF
330
18
100
AcDbEntity
  8
ADPDIM
100
AcDbDimension
  2
*D3
 10
2.210188784939816
 20
2.851404863546173
 30
0.0
 11
1.335188784939816
 21
2.851404863546173
 31
0.0
 12
0.0
 22
0.8686038028437552
 32
0.0
100
AcDbAlignedDimension
 13
0.4601887849398168
 23
3.221532834883616
 33
0.0
 14
2.210188784939816
 24
4.471532834883616
 34
0.0
100
AcDbRotatedDimension
  0
CIRCLE
  5
E0
330
18
100
AcDbEntity
  8
ADP1DETAIL
100
AcDbCircle
 10
2.210188784939816
 20
4.471532834883616
 30
0.0
 40
0.21875
  0
CIRCLE
  5
E1
330
18
100
AcDbEntity
  8
ADP1DETAIL
100
AcDbCircle
 10
-1.289811215060183
 20
4.471532834883616
 30
0.0
 40
0.21875
  0
DIMENSION
  5
E2
330
18
100
AcDbEntity
  8
ADPDIM
100
AcDbDimension
  2
*D4
 10
0.4601887849398168
 20
2.851404863546173
 30
0.0
 11
-0.4148112150601833
 21
2.851404863546173
 31
0.0
 12
0.0
 22
0.8686038028437552
 32
0.0
100
AcDbAlignedDimension
 13
-1.289811215060183
 23
4.471532834883616
 33
0.0
 14
0.4601887849398168
 24
3.221532834883616
 34
0.0
100
AcDbRotatedDimension
  0
DIMENSION
  5
E3
330
18
100
AcDbEntity
  8
ADPDIM
100
AcDbDimension
  2
*D6
 10
3.315168233858244
 20
7.971532834883616
 30
0.0
 11
3.315168233858244
 21
6.221532834883616
 31
0.0
 12
0.0
 22
0.8686038028437552
 32
0.0
100
AcDbAlignedDimension
 13
2.210188784939816
 23
4.471532834883616
 33
0.0
 14
2.210188784939816
 24
7.971532834883616
 34
0.0
 50
90.0
100
AcDbRotatedDimension
  0
DIMENSION
  5
E4
330
18
100
AcDbEntity
  8
ADPDIM
100
AcDbDimension
  2
*D7
 10
3.721092647787989
 20
9.221532834883614
 30
0.0
 11
3.721092647787989
 21
6.221532834883615
 31
0.0
 12
0.0
 22
0.8686038028437552
 32
0.0
100
AcDbAlignedDimension
 13
2.960188784939816
 23
3.221532834883616
 33
0.0
 14
2.960188784939816
 24
9.221532834883614
 34
0.0
 50
90.0
100
AcDbRotatedDimension
  0
LINE
  5
E5
330
18
100
AcDbEntity
  8
ADP1DETAIL
100
AcDbLine
 10
0.4249865001759097
 20
9.221532834883614
 30
0.0
 11
0.4249865001759097
 21
3.221532834883616
 31
0.0
  0
LINE
  5
E6
330
18
100
AcDbEntity
  8
ADP1DETAIL
100
AcDbLine
 10
0.4899343930478901
 20
9.221532834883614
 30
0.0
 11
0.4899343930478901
 21
3.221532834883616
 31
0.0
  0
LINE
  5
E7
330
18
100
AcDbEntity
  8
ADP1DETAIL
100
AcDbLine
 10
-0.7603127951773354
 20
9.221532834883614
 30
0.0
 11
-0.7603127951773354
 21
3.221532834883616
 31
0.0
  0
LINE
  5
E8
330
18
100
AcDbEntity
  8
ADP1DETAIL
100
AcDbLine
 10
1.67523363274789
 20
9.221532834883614
 30
0.0
 11
1.67523363274789
 21
3.221532834883616
 31
0.0
  0
LINE
  5
E9
330
18
100
AcDbEntity
  8
ADP1DETAIL
100
AcDbLine
 10
2.960188784939816
 20
9.221532834883614
 30
0.0
 11
2.960188784939816
 21
3.221532834883616
 31
0.0
  0
LINE
  5
EA
330
18
100
AcDbEntity
  8
ADP1DETAIL
100
AcDbLine
 10
-2.039811215060183
 20
3.221532834883616
 30
0.0
 11
-2.039811215060183
 21
9.221532834883614
 31
0.0
  0
LINE
  5
EB
330
18
100
AcDbEntity
  8
ADP1DETAIL
100
AcDbLine
 10
2.960188784939816
 20
3.221532834883616
 30
0.0
 11
-2.039811215060183
 21
3.221532834883616
 31
0.0
  0
DIMENSION
  5
EC
330
18
100
AcDbEntity
  8
ADPDIM
100
AcDbDimension
  2
*D2
 10
1.289647772859108
 20
-1.070223041144448
 30
0.0
 11
-1.256618822605592
 21
-2.584171484280449
 31
0.0
 70
     3
100
AcDbDiametricDimension
 15
-0.3692702029794752
 25
-2.056575488010992
 35
0.0
 40
0.4906826482611522
  0
DIMENSION
  5
ED
330
18
100
AcDbEntity
  8
ADPDIM
100
AcDbDimension
  2
*D0
 10
0.4601887849398168
 20
1.640229247432894
 30
0.0
 11
-0.7898112150601833
 21
1.640229247432894
 31
0.0
100
AcDbAlignedDimension
 13
-2.039811215060183
 23
1.436600735422279
 33
0.0
 14
0.4601887849398168
 24
1.436600735422279
 34
0.0
100
AcDbRotatedDimension
  0
LINE
  5
EE
330
18
100
AcDbEntity
  8
ADP1DETAIL
100
AcDbLine
 10
0.4601887849398168
 20
1.436600735422279
 30
0.0
 11
-2.039811215060183
 21
1.436600735422279
 31
0.0
  0
LINE
  5
EF
330
18
100
AcDbEntity
  8
ADP1DETAIL
100
AcDbLine
 10
-1.914811215060183
 20
1.186600735422279
 30
0.0
 11
-0.1018112150601833
 21
1.186600735422279
 31
0.0
  0
LINE
  5
F0
330
18
100
AcDbEntity
  8
ADP2DETAIL
  6
HIDDEN2
100
AcDbLine
 10
-1.501899938295667
 20
1.436600735422279
 30
0.0
 11
-1.501899938295668
 21
1.186600735422279
 31
0.0
  0
LINE
  5
F1
330
18
100
AcDbEntity
  8
ADP2DETAIL
  6
HIDDEN2
100
AcDbLine
 10
-1.07763674517
 20
1.436600735422278
 30
0.0
 11
-1.07763674517
 21
1.186600735422278
 31
0.0
  0
LINE
  5
F2
330
18
100
AcDbEntity
  8
ADP1DETAIL
100
AcDbLine
 10
-2.039811215060183
 20
1.436600735422279
 30
0.0
 11
-2.039811215060183
 21
1.311600735422279
 31
0.0
  0
LINE
  5
F3
330
18
100
AcDbEntity
  8
ADP1DETAIL
100
AcDbLine
 10
-2.039811215060183
 20
1.311600735422279
 30
0.0
 11
-1.914811215060183
 21
1.186600735422279
 31
0.0
  0
DIMENSION
  5
F4
330
18
100
AcDbEntity
  8
ADPDIM
100
AcDbDimension
  2
*D1
 10
3.30785820160375
 20
-1.56339926457772
 30
0.0
 11
3.30785820160375
 21
-0.0633992645777208
 31
0.0
100
AcDbAlignedDimension
 13
2.960188784939816
 23
1.436600735422279
 33
0.0
 14
1.425188784939816
 24
-1.56339926457772
 34
0.0
 50
90.0
100
AcDbRotatedDimension
  0
ARC
  5
F5
330
18
100
AcDbEntity
  8
ADP1DETAIL
100
AcDbCircle
 10
0.4601887849398168
 20
-1.56339926457772
 30
0.0
 40
0.965
100
AcDbArc
 50
91.8409065287707
 51
268.1590934712293
  0
ARC
  5
F6
330
18
100
AcDbEntity
  8
ADP1DETAIL
100
AcDbCircle
 10
0.4601887849398168
 20
-1.56339926457772
 30
0.0
 40
1.214999999999999
100
AcDbArc
 50
271.462026280846
 51
67.4420448937045
  0
ARC
  5
F7
330
18
100
AcDbEntity
  8
ADP1DETAIL
100
AcDbCircle
 10
0.4601887849398168
 20
-1.56339926457772
 30
0.0
 40
0.965
100
AcDbArc
 50
271.8409065287707
 51
88.15909347122932
  0
ARC
  5
F8
330
18
100
AcDbEntity
  8
ADP1DETAIL
100
AcDbCircle
 10
0.4601887849398168
 20
-1.56339926457772
 30
0.0
 40
1.214999999999999
100
AcDbArc
 50
112.5579551062955
 51
268.5379737191539
  0
LINE
  5
F9
330
18
100
AcDbEntity
  8
ADP1DETAIL
100
AcDbLine
 10
0.4911887849398168
 20
-2.527901208588203
 30
0.0
 11
0.4911887849398168
 21
-2.778003726943967
 31
0.0
  0
LINE
  5
FA
330
18
100
AcDbEntity
  8
ADP1DETAIL
100
AcDbLine
 10
0.4291887849398167
 20
-2.527901208588203
 30
0.0
 11
0.4291887849398167
 21
-2.778003726943967
 31
0.0
  0
DIMENSION
  5
FB
330
18
100
AcDbEntity
  8
ADPDIM
100
AcDbDimension
  2
*D0
 10
2.960188784939816
 20
1.640229247432894
 30
0.0
 11
1.710188784939816
 21
1.640229247432894
 31
0.0
 12
2.5
 22
0.0
 32
0.0
100
AcDbAlignedDimension
 13
0.4601887849398168
 23
1.436600735422279
 33
0.0
 14
2.960188784939816
 24
1.436600735422279
 34
0.0
100
AcDbRotatedDimension
  0
LINE
  5
FC
330
18
100
AcDbEntity
  8
ADP1DETAIL
100
AcDbLine
 10
2.835188784939816
 20
1.186600735422279
 30
0.0
 11
1.022188784939816
 21
1.186600735422279
 31
0.0
  0
LINE
  5
FD
330
18
100
AcDbEntity
  8
ADP1DETAIL
100
AcDbLine
 10
0.4601887849398168
 20
1.436600735422279
 30
0.0
 11
2.960188784939816
 21
1.436600735422279
 31
0.0
  0
LINE
  5
FE
330
18
100
AcDbEntity
  8
ADP2DETAIL
  6
HIDDEN2
100
AcDbLine
 10
1.998271555013814
 20
1.436600735422279
 30
0.0
 11
1.998271555013814
 21
1.186600735422279
 31
0.0
  0
LINE
  5
FF
330
18
100
AcDbEntity
  8
ADP1DETAIL
100
AcDbLine
 10
0.4601887849398168
 20
1.311600735422279
 30
0.0
 11
0.4601887849398168
 21
1.436600735422279
 31
0.0
  0
LINE
  5
100
330
18
100
AcDbEntity
  8
ADP1DETAIL
100
AcDbLine
 10
0.4601887849398168
 20
1.311600735422279
 30
0.0
 11
0.4601887849398168
 21
1.436600735422279
 31
0.0
  0
LINE
  5
101
330
18
100
AcDbEntity
  8
ADP2DETAIL
  6
HIDDENX2
100
AcDbLine
 10
0.8031887849398158
 20
0.1063517074275205
 30
0.0
 11
0.1791887849398162
 21
0.1063517074275205
 31
0.0
  0
LINE
  5
102
330
18
100
AcDbEntity
  8
ADP2DETAIL
  6
HIDDENX2
100
AcDbLine
 10
0.8031887849398158
 20
0.6063517074275206
 30
0.0
 11
0.1791887849398162
 21
0.6063517074275206
 31
0.0
  0
LINE
  5
103
330
18
100
AcDbEntity
  8
ADP1DETAIL
100
AcDbLine
 10
0.1481887849398167
 20
-0.210483524407624
 30
0.0
 11
0.1481887849398167
 21
0.9366007354222791
 31
0.0
  0
LINE
  5
104
330
18
100
AcDbEntity
  8
ADP1DETAIL
100
AcDbLine
 10
0.4911887849398167
 20
1.311600735422279
 30
0.0
 11
0.4911887849398168
 21
-0.5988973205672381
 31
0.0
  0
LINE
  5
105
330
18
100
AcDbEntity
  8
ADP1DETAIL
100
AcDbLine
 10
0.4291887849398168
 20
1.311600735422279
 30
0.0
 11
0.4291887849398167
 21
-0.5988973205672381
 31
0.0
  0
ARC
  5
106
330
18
100
AcDbEntity
  8
ADP1DETAIL
100
AcDbCircle
 10
-0.1018112150601833
 20
-0.210483524407624
 30
0.0
 40
0.25
100
AcDbArc
 50
292.5579551062955
 51
0.0
  0
ARC
  5
107
330
18
100
AcDbEntity
  8
ADP1DETAIL
100
AcDbCircle
 10
-0.1018112150601833
 20
0.9366007354222791
 30
0.0
 40
0.25
100
AcDbArc
 50
0.0
 51
90.00000000000003
  0
LINE
  5
108
330
18
100
AcDbEntity
  8
ADP1DETAIL
100
AcDbLine
 10
0.4911887849398167
 20
1.311600735422279
 30
0.0
 11
0.4601887849398168
 21
1.311600735422279
 31
0.0
  0
LINE
  5
109
330
18
100
AcDbEntity
  8
ADP1DETAIL
100
AcDbLine
 10
0.4291887849398168
 20
1.311600735422279
 30
0.0
 11
0.4601887849398168
 21
1.311600735422279
 31
0.0
  0
LINE
  5
10A
330
18
100
AcDbEntity
  8
ADP1DETAIL
100
AcDbLine
 10
0.7721887849398169
 20
-0.210483524407624
 30
0.0
 11
0.7721887849398169
 21
0.9366007354222791
 31
0.0
  0
ARC
  5
10B
330
18
100
AcDbEntity
  8
ADP1DETAIL
100
AcDbCircle
 10
1.022188784939816
 20
-0.210483524407624
 30
0.0
 40
0.25
100
AcDbArc
 50
180.0
 51
247.4420448937044
  0
ARC
  5
10C
330
18
100
AcDbEntity
  8
ADP1DETAIL
100
AcDbCircle
 10
1.022188784939816
 20
0.9366007354222791
 30
0.0
 40
0.25
100
AcDbArc
 50
90.00000000000003
 51
180.0
  0
LINE
  5
10D
330
18
100
AcDbEntity
  8
ADP2DETAIL
  6
HIDDEN2
100
AcDbLine
 10
2.422534748139481
 20
1.436600735422279
 30
0.0
 11
2.422534748139481
 21
1.186600735422279
 31
0.0
  0
LINE
  5
10E
330
18
100
AcDbEntity
  8
ADP1DETAIL
100
AcDbLine
 10
2.960188784939816
 20
1.436600735422279
 30
0.0
 11
2.960188784939816
 21
1.311600735422279
 31
0.0
  0
LINE
  5
10F
330
18
100
AcDbEntity
  8
ADP1DETAIL
100
AcDbLine
 10
2.960188784939816
 20
1.311600735422279
 30
0.0
 11
2.835188784939816
 21
1.186600735422279
 31
0.0
  0
LINE
  5
110
330
18
100
AcDbEntity
  8
ADP1DETAIL
100
AcDbLine
 10
-2.039811215060183
 20
9.221532834883614
 30
0.0
 11
2.960188784939816
 21
9.221532834883614
 31
0.0
  0
CIRCLE
  5
111
330
18
100
AcDbEntity
  8
ADP1DETAIL
100
AcDbCircle
 10
-1.289811215060183
 20
7.971532834883616
 30
0.0
 40
0.21875
  0
CIRCLE
  5
112
330
18
100
AcDbEntity
  8
ADP1DETAIL
100
AcDbCircle
 10
2.210188784939816
 20
7.971532834883616
 30
0.0
 40
0.21875
  0
TEXT
  5
120
330
18
100
AcDbEntity
  8
ADPDIM
100
AcDbText
 10
-12.40922629009429
 20
-4.102485801415225
 30
0.0
 40
0.25
  1
J U L I U S  B L U M  &  C O . ,  I N C .      ( 8 0 0 )  5 2 6 - 6 2 9 3        W W W . J U L I U S B L U M . C O M        P A R T  N o .  7 4 8
 41
1.25
  7
ARIAL_WIDE
 72
     1
 11
0.4601887849398168
 21
-3.852485801415225
 31
0.0
100
AcDbText
 73
     3
  0
ENDSEC
  0
SECTION
  2
OBJECTS
  0
DICTIONARY
  5
C
330
0
100
AcDbDictionary
  3
ACAD_GROUP
350
D
  3
ACAD_LAYOUT
350
119
  3
ACAD_MLINESTYLE
350
E
  3
ACAD_PLOTSETTINGS
350
11A
  3
ACAD_PLOTSTYLENAME
350
117
  3
ACDBHEADERROUNDTRIPXREC
350
264
  3
ACDBVARIABLEDICTIONARY
350
17A
  0
DICTIONARY
  5
174
330
18
100
AcDbDictionary
280
     1
  3
ACAD_LAYOUTSELFREF
360
285
  0
DICTIONARY
  5
172
330
15
100
AcDbDictionary
280
     1
  3
ACAD_LAYOUTSELFREF
360
284
  0
DICTIONARY
  5
D
102
{ACAD_REACTORS
330
C
102
}
330
C
100
AcDbDictionary
  0
DICTIONARY
  5
119
102
{ACAD_REACTORS
330
C
102
}
330
C
100
AcDbDictionary
  0
DICTIONARY
  5
E
102
{ACAD_REACTORS
330
C
102
}
330
C
100
AcDbDictionary
  3
STANDARD
350
1B
  0
DICTIONARY
  5
11A
102
{ACAD_REACTORS
330
C
102
}
330
C
100
AcDbDictionary
  0
ACDBDICTIONARYWDFLT
  5
117
102
{ACAD_REACTORS
330
C
102
}
330
C
100
AcDbDictionary
281
     1
  3
Normal
350
118
100
AcDbDictionaryWithDefault
340
118
  0
DICTIONARY
  5
264
102
{ACAD_REACTORS
330
C
102
}
330
C
100
AcDbDictionary
  3
CEPSNTYPE
350
26E
  3
FINGERPRINTGUID
350
26F
  3
HYPERLINKBASE
350
267
  3
INSUNITS
350
26D
  3
LAYOUTDICT
350
269
  3
LWETCUNION
350
26C
  3
PLOTSETDICT
350
26A
  3
PLOTSTYLNAMDICT
350
26B
  3
PSVPSCALE
350
271
  3
PUCSBASE
350
274
  3
PUCSORGBACK
350
27A
  3
PUCSORGBOTTOM
350
276
  3
PUCSORGFRONT
350
279
  3
PUCSORGLEFT
350
277
  3
PUCSORGRIGHT
350
278
  3
PUCSORGTOP
350
275
  3
PUCSORTHOREF
350
272
  3
PUCSORTHOVIEW
350
273
  3
STYLESHEET
350
268
  3
TSTACKALIGN
350
265
  3
TSTACKSIZE
350
266
  3
UCSBASE
350
27D
  3
UCSORGBACK
350
283
  3
UCSORGBOTTOM
350
27F
  3
UCSORGFRONT
350
282
  3
UCSORGLEFT
350
280
  3
UCSORGRIGHT
350
281
  3
UCSORGTOP
350
27E
  3
UCSORTHOREF
350
27B
  3
UCSORTHOVIEW
350
27C
  3
VERSIONGUID
350
270
  0
DICTIONARY
  5
17A
102
{ACAD_REACTORS
330
C
102
}
330
C
100
AcDbDictionary
  3
DIMASSOC
350
17B
  0
XRECORD
  5
285
102
{ACAD_REACTORS
330
174
102
}
330
174
100
AcDbXrecord
340
18
  0
XRECORD
  5
284
102
{ACAD_REACTORS
330
172
102
}
330
172
100
AcDbXrecord
340
15
  0
MLINESTYLE
  5
1B
102
{ACAD_REACTORS
330
E
102
}
330
E
100
AcDbMlineStyle
  2
STANDARD
 70
     0
  3

 62
     0
 51
90.0
 52
90.0
 71
     2
 49
0.5
 62
   256
  6
BYLAYER
 49
-0.5
 62
   256
  6
BYLAYER
  0
ACDBPLACEHOLDER
  5
118
102
{ACAD_REACTORS
330
117
102
}
330
117
100
AcDbPlaceHolder
280
     0
  0
XRECORD
  5
26E
102
{ACAD_REACTORS
330
264
102
}
330
264
100
AcDbXrecord
 90
        0
  0
XRECORD
  5
26F
102
{ACAD_REACTORS
330
264
102
}
330
264
100
AcDbXrecord
  1
{03322FC9-81D6-42AC-AB09-00E1262110EF}
  0
XRECORD
  5
267
102
{ACAD_REACTORS
330
264
102
}
330
264
100
AcDbXrecord
  1

  0
XRECORD
  5
26D
102
{ACAD_REACTORS
330
264
102
}
330
264
100
AcDbXrecord
 90
        0
  0
XRECORD
  5
269
102
{ACAD_REACTORS
330
264
102
}
330
264
100
AcDbXrecord
340
119
  0
XRECORD
  5
26C
102
{ACAD_REACTORS
330
264
102
}
330
264
100
AcDbXrecord
 90
    14877
  0
XRECORD
  5
26A
102
{ACAD_REACTORS
330
264
102
}
330
264
100
AcDbXrecord
340
11A
  0
XRECORD
  5
26B
102
{ACAD_REACTORS
330
264
102
}
330
264
100
AcDbXrecord
340
117
  0
XRECORD
  5
271
102
{ACAD_REACTORS
330
264
102
}
330
264
100
AcDbXrecord
 40
0.0
  0
XRECORD
  5
274
102
{ACAD_REACTORS
330
264
102
}
330
264
100
AcDbXrecord
340
0
  0
XRECORD
  5
27A
102
{ACAD_REACTORS
330
264
102
}
330
264
100
AcDbXrecord
 10
0.0
 20
0.0
 30
0.0
  0
XRECORD
  5
276
102
{ACAD_REACTORS
330
264
102
}
330
264
100
AcDbXrecord
 10
0.0
 20
0.0
 30
0.0
  0
XRECORD
  5
279
102
{ACAD_REACTORS
330
264
102
}
330
264
100
AcDbXrecord
 10
0.0
 20
0.0
 30
0.0
  0
XRECORD
  5
277
102
{ACAD_REACTORS
330
264
102
}
330
264
100
AcDbXrecord
 10
0.0
 20
0.0
 30
0.0
  0
XRECORD
  5
278
102
{ACAD_REACTORS
330
264
102
}
330
264
100
AcDbXrecord
 10
0.0
 20
0.0
 30
0.0
  0
XRECORD
  5
275
102
{ACAD_REACTORS
330
264
102
}
330
264
100
AcDbXrecord
 10
0.0
 20
0.0
 30
0.0
  0
XRECORD
  5
272
102
{ACAD_REACTORS
330
264
102
}
330
264
100
AcDbXrecord
340
0
  0
XRECORD
  5
273
102
{ACAD_REACTORS
330
264
102
}
330
264
100
AcDbXrecord
 70
     0
  0
XRECORD
  5
268
102
{ACAD_REACTORS
330
264
102
}
330
264
100
AcDbXrecord
  1

  0
XRECORD
  5
265
102
{ACAD_REACTORS
330
264
102
}
330
264
100
AcDbXrecord
 90
        1
  0
XRECORD
  5
266
102
{ACAD_REACTORS
330
264
102
}
330
264
100
AcDbXrecord
 90
       70
  0
XRECORD
  5
27D
102
{ACAD_REACTORS
330
264
102
}
330
264
100
AcDbXrecord
340
0
  0
XRECORD
  5
283
102
{ACAD_REACTORS
330
264
102
}
330
264
100
AcDbXrecord
 10
0.0
 20
0.0
 30
0.0
  0
XRECORD
  5
27F
102
{ACAD_REACTORS
330
264
102
}
330
264
100
AcDbXrecord
 10
0.0
 20
0.0
 30
0.0
  0
XRECORD
  5
282
102
{ACAD_REACTORS
330
264
102
}
330
264
100
AcDbXrecord
 10
0.0
 20
0.0
 30
0.0
  0
XRECORD
  5
280
102
{ACAD_REACTORS
330
264
102
}
330
264
100
AcDbXrecord
 10
0.0
 20
0.0
 30
0.0
  0
XRECORD
  5
281
102
{ACAD_REACTORS
330
264
102
}
330
264
100
AcDbXrecord
 10
0.0
 20
0.0
 30
0.0
  0
XRECORD
  5
27E
102
{ACAD_REACTORS
330
264
102
}
330
264
100
AcDbXrecord
 10
0.0
 20
0.0
 30
0.0
  0
XRECORD
  5
27B
102
{ACAD_REACTORS
330
264
102
}
330
264
100
AcDbXrecord
340
0
  0
XRECORD
  5
27C
102
{ACAD_REACTORS
330
264
102
}
330
264
100
AcDbXrecord
 70
     0
  0
XRECORD
  5
270
102
{ACAD_REACTORS
330
264
102
}
330
264
100
AcDbXrecord
  1
{27483D94-DBDA-4813-B6DD-88542DD2C81D}
  0
DICTIONARYVAR
  5
17B
102
{ACAD_REACTORS
330
17A
102
}
330
17A
100
DictionaryVariables
280
     0
  1
1
  0
ENDSEC
  0
EOF
