  0
SECTION
  2
HEADER
  9
$ACADVER
  1
AC1014
  9
$ACADMAINTVER
 70
     9
  9
$DWGCODEPAGE
  3
ANSI_1252
  9
$INSBASE
 10
78.18075361615207
 20
-21.32791862947294
 30
0.0
  9
$EXTMIN
 10
68.32408829435704
 20
-24.77292724976779
 30
0.0
  9
$EXTMAX
 10
87.90127536802689
 20
-15.44333284055891
 30
0.0
  9
$LIMMIN
 10
0.0
 20
0.0
  9
$LIMMAX
 10
36.0
 20
36.0
  9
$ORTHOMODE
 70
     1
  9
$REGENMODE
 70
     1
  9
$FILLMODE
 70
     1
  9
$QTEXTMODE
 70
     0
  9
$MIRRTEXT
 70
     1
  9
$DRAGMODE
 70
     0
  9
$LTSCALE
 40
1.0
  9
$OSMODE
 70
    37
  9
$ATTMODE
 70
     1
  9
$TEXTSIZE
 40
0.2
  9
$TRACEWID
 40
0.05
  9
$TEXTSTYLE
  7
STANDARD
  9
$CLAYER
  8
0
  9
$CELTYPE
  6
BYLAYER
  9
$CECOLOR
 62
   256
  9
$CELTSCALE
 40
1.0
  9
$DELOBJ
 70
     1
  9
$DISPSILH
 70
     0
  9
$DIMSCALE
 40
1.0
  9
$DIMASZ
 40
0.125
  9
$DIMEXO
 40
0.0625
  9
$DIMDLI
 40
0.38
  9
$DIMRND
 40
0.0
  9
$DIMDLE
 40
0.0
  9
$DIMEXE
 40
0.18
  9
$DIMTP
 40
0.0
  9
$DIMTM
 40
0.0
  9
$DIMTXT
 40
0.125
  9
$DIMCEN
 40
0.1875
  9
$DIMTSZ
 40
0.125
  9
$DIMTOL
 70
     0
  9
$DIMLIM
 70
     0
  9
$DIMTIH
 70
     0
  9
$DIMTOH
 70
     0
  9
$DIMSE1
 70
     0
  9
$DIMSE2
 70
     0
  9
$DIMTAD
 70
     0
  9
$DIMZIN
 70
     3
  9
$DIMBLK
  1

  9
$DIMASO
 70
     1
  9
$DIMSHO
 70
     1
  9
$DIMPOST
  1

  9
$DIMAPOST
  1

  9
$DIMALT
 70
     0
  9
$DIMALTD
 70
     1
  9
$DIMALTF
 40
25.4
  9
$DIMLFAC
 40
1.0
  9
$DIMTOFL
 70
     0
  9
$DIMTVP
 40
0.0
  9
$DIMTIX
 70
     0
  9
$DIMSOXD
 70
     0
  9
$DIMSAH
 70
     0
  9
$DIMBLK1
  1

  9
$DIMBLK2
  1

  9
$DIMSTYLE
  2
STANDARD
  9
$DIMCLRD
 70
     0
  9
$DIMCLRE
 70
     0
  9
$DIMCLRT
 70
     0
  9
$DIMTFAC
 40
1.0
  9
$DIMGAP
 40
0.125
  9
$DIMJUST
 70
     0
  9
$DIMSD1
 70
     0
  9
$DIMSD2
 70
     0
  9
$DIMTOLJ
 70
     1
  9
$DIMTZIN
 70
     0
  9
$DIMALTZ
 70
     0
  9
$DIMALTTZ
 70
     0
  9
$DIMFIT
 70
     3
  9
$DIMUPT
 70
     0
  9
$DIMUNIT
 70
     2
  9
$DIMDEC
 70
     4
  9
$DIMTDEC
 70
     4
  9
$DIMALTU
 70
     2
  9
$DIMALTTD
 70
     2
  9
$DIMTXSTY
  7
STANDARD
  9
$DIMAUNIT
 70
     0
  9
$LUNITS
 70
     5
  9
$LUPREC
 70
     4
  9
$SKETCHINC
 40
0.1
  9
$FILLETRAD
 40
0.062
  9
$AUNITS
 70
     0
  9
$AUPREC
 70
     0
  9
$MENU
  1
acad
  9
$ELEVATION
 40
0.0
  9
$PELEVATION
 40
0.0
  9
$THICKNESS
 40
0.0
  9
$LIMCHECK
 70
     0
  9
$BLIPMODE
 70
     0
  9
$CHAMFERA
 40
0.0
  9
$CHAMFERB
 40
0.0
  9
$CHAMFERC
 40
0.0
  9
$CHAMFERD
 40
0.0
  9
$SKPOLY
 70
     0
  9
$TDCREATE
 40
2450387.495298414
  9
$TDUPDATE
 40
2452297.101380926
  9
$TDINDWG
 40
0.0389930324
  9
$TDUSRTIMER
 40
0.0389930324
  9
$USRTIMER
 70
     1
  9
$ANGBASE
 50
0.0
  9
$ANGDIR
 70
     0
  9
$PDMODE
 70
     0
  9
$PDSIZE
 40
0.0
  9
$PLINEWID
 40
0.0
  9
$COORDS
 70
     2
  9
$SPLFRAME
 70
     0
  9
$SPLINETYPE
 70
     6
  9
$SPLINESEGS
 70
     8
  9
$ATTDIA
 70
     0
  9
$ATTREQ
 70
     1
  9
$HANDLING
 70
 22529
  9
$HANDSEED
  5
25F
  9
$SURFTAB1
 70
     6
  9
$SURFTAB2
 70
     6
  9
$SURFTYPE
 70
     6
  9
$SURFU
 70
     6
  9
$SURFV
 70
     6
  9
$UCSNAME
  2

  9
$UCSORG
 10
0.0
 20
0.0
 30
0.0
  9
$UCSXDIR
 10
1.0
 20
0.0
 30
0.0
  9
$UCSYDIR
 10
0.0
 20
1.0
 30
0.0
  9
$PUCSNAME
  2

  9
$PUCSORG
 10
0.0
 20
0.0
 30
0.0
  9
$PUCSXDIR
 10
1.0
 20
0.0
 30
0.0
  9
$PUCSYDIR
 10
0.0
 20
1.0
 30
0.0
  9
$USERI1
 70
     0
  9
$USERI2
 70
     0
  9
$USERI3
 70
     0
  9
$USERI4
 70
     0
  9
$USERI5
 70
     0
  9
$USERR1
 40
0.0
  9
$USERR2
 40
0.0
  9
$USERR3
 40
0.0
  9
$USERR4
 40
0.0
  9
$USERR5
 40
0.0
  9
$WORLDVIEW
 70
     1
  9
$SHADEDGE
 70
     3
  9
$SHADEDIF
 70
    70
  9
$TILEMODE
 70
     1
  9
$MAXACTVP
 70
    15
  9
$PINSBASE
 10
0.0
 20
0.0
 30
0.0
  9
$PLIMCHECK
 70
     0
  9
$PEXTMIN
 10
1.000000000000000E+20
 20
1.000000000000000E+20
 30
1.000000000000000E+20
  9
$PEXTMAX
 10
-1.000000000000000E+20
 20
-1.000000000000000E+20
 30
-1.000000000000000E+20
  9
$PLIMMIN
 10
0.0
 20
0.0
  9
$PLIMMAX
 10
12.0
 20
9.0
  9
$UNITMODE
 70
     0
  9
$VISRETAIN
 70
     0
  9
$PLINEGEN
 70
     0
  9
$PSLTSCALE
 70
     1
  9
$TREEDEPTH
 70
  3020
  9
$PICKSTYLE
 70
     1
  9
$CMLSTYLE
  2
STANDARD
  9
$CMLJUST
 70
     0
  9
$CMLSCALE
 40
1.0
  9
$PROXYGRAPHICS
 70
     1
  9
$MEASUREMENT
 70
     0
  0
ENDSEC
  0
SECTION
  2
CLASSES
  0
CLASS
  1
ACDBDICTIONARYWDFLT
  2
AcDbDictionaryWithDefault
  3
AutoCAD 2000
 90
        0
280
     0
281
     0
  0
CLASS
  1
ACDBPLACEHOLDER
  2
AcDbPlaceHolder
  3
AutoCAD 2000
 90
        0
280
     0
281
     0
  0
CLASS
  1
LAYOUT
  2
AcDbLayout
  3
AutoCAD 2000
 90
        0
280
     0
281
     0
  0
CLASS
  1
DICTIONARYVAR
  2
AcDbDictionaryVar
  3
AutoCAD 2000
 90
        0
280
     0
281
     0
  0
CLASS
  1
LONG_TRANSACTION
  2
AcDbLongTransaction
  3
AutoCAD 2000
 90
        0
280
     0
281
     0
  0
CLASS
  1
LWPOLYLINE
  2
AcDbPolyline
  3
AutoCAD 2000
 90
        0
280
     0
281
     1
  0
CLASS
  1
HATCH
  2
AcDbHatch
  3
AutoCAD 2000
 90
        0
280
     0
281
     1
  0
CLASS
  1
XRECORD
  2
AcDbXrecord
  3
AutoCAD 2000
 90
        0
280
     0
281
     0
  0
CLASS
  1
LONG_TRANSACTION
  2
AcDbLongTransaction
  3
AutoCAD 2000
 90
        0
280
     0
281
     0
  0
CLASS
  1
LWPOLYLINE
  2
AcDbPolyline
  3
AutoCAD 2000
 90
        0
280
     0
281
     1
  0
CLASS
  1
HATCH
  2
AcDbHatch
  3
AutoCAD 2000
 90
        0
280
     0
281
     1
  0
CLASS
  1
XRECORD
  2
AcDbXrecord
  3
AutoCAD 2000
 90
        0
280
     0
281
     0
  0
CLASS
  1
LONG_TRANSACTION
  2
AcDbLongTransaction
  3
AutoCAD 2000
 90
        0
280
     0
281
     0
  0
CLASS
  1
LWPOLYLINE
  2
AcDbPolyline
  3
AutoCAD 2000
 90
        0
280
     0
281
     1
  0
CLASS
  1
HATCH
  2
AcDbHatch
  3
AutoCAD 2000
 90
        0
280
     0
281
     1
  0
CLASS
  1
XRECORD
  2
AcDbXrecord
  3
AutoCAD 2000
 90
        0
280
     0
281
     0
  0
CLASS
  1
LONG_TRANSACTION
  2
AcDbLongTransaction
  3
AutoCAD 2000
 90
        0
280
     0
281
     0
  0
CLASS
  1
LWPOLYLINE
  2
AcDbPolyline
  3
AutoCAD 2000
 90
        0
280
     0
281
     1
  0
CLASS
  1
HATCH
  2
AcDbHatch
  3
AutoCAD 2000
 90
        0
280
     0
281
     1
  0
CLASS
  1
XRECORD
  2
AcDbXrecord
  3
AutoCAD 2000
 90
        0
280
     0
281
     0
  0
CLASS
  1
LONG_TRANSACTION
  2
AcDbLongTransaction
  3
AutoCAD 2000
 90
        0
280
     0
281
     0
  0
CLASS
  1
LWPOLYLINE
  2
AcDbPolyline
  3
AutoCAD 2000
 90
        0
280
     0
281
     1
  0
CLASS
  1
HATCH
  2
AcDbHatch
  3
AutoCAD 2000
 90
        0
280
     0
281
     1
  0
CLASS
  1
XRECORD
  2
AcDbXrecord
  3
AutoCAD 2000
 90
        0
280
     0
281
     0
  0
ENDSEC
  0
SECTION
  2
TABLES
  0
TABLE
  2
VPORT
  5
8
330
0
100
AcDbSymbolTable
 70
     2
  0
VPORT
  5
23C
330
8
100
AcDbSymbolTableRecord
100
AcDbViewportTableRecord
  2
*ACTIVE
 70
     0
 10
0.0
 20
0.0
 11
1.0
 21
1.0
 12
78.12896939164153
 22
-20.10800455173288
 13
0.0
 23
0.0
 14
0.5740882589684922
 24
0.5740882589684922
 15
0.5
 25
0.5
 16
0.0
 26
0.0
 36
1.0
 17
0.0
 27
0.0
 37
0.0
 40
12.5489423149986
 41
1.570528967254408
 42
50.0
 43
0.0
 44
0.0
 50
0.0
 51
0.0
 71
     0
 72
   100
 73
     1
 74
     0
 75
     0
 76
     0
 77
     0
 78
     0
  0
ENDTAB
  0
TABLE
  2
LTYPE
  5
5
330
0
100
AcDbSymbolTable
 70
     2
  0
LTYPE
  5
12
330
5
100
AcDbSymbolTableRecord
100
AcDbLinetypeTableRecord
  2
BYBLOCK
 70
     0
  3

 72
    65
 73
     0
 40
0.0
  0
LTYPE
  5
13
330
5
100
AcDbSymbolTableRecord
100
AcDbLinetypeTableRecord
  2
BYLAYER
 70
     0
  3

 72
    65
 73
     0
 40
0.0
  0
LTYPE
  5
14
330
5
100
AcDbSymbolTableRecord
100
AcDbLinetypeTableRecord
  2
CONTINUOUS
 70
     0
  3
Solid line
 72
    65
 73
     0
 40
0.0
  0
LTYPE
  5
97
330
5
100
AcDbSymbolTableRecord
100
AcDbLinetypeTableRecord
  2
CENTER2
 70
     0
  3
___ _ ___ _ ___ _ ___ _ ___ _ ___ _ ___ _ ___ _
 72
    65
 73
     4
 40
1.125
 49
0.75
 74
     0
 49
-0.125
 74
     0
 49
0.125
 74
     0
 49
-0.125
 74
     0
  0
ENDTAB
  0
TABLE
  2
LAYER
  5
2
330
0
100
AcDbSymbolTable
 70
     5
  0
LAYER
  5
F
330
2
100
AcDbSymbolTableRecord
100
AcDbLayerTableRecord
  2
0
 70
     0
 62
     7
  6
CONTINUOUS
  0
LAYER
  5
98
330
2
100
AcDbSymbolTableRecord
100
AcDbLayerTableRecord
  2
ADP1DETAIL
 70
     0
 62
     7
  6
CONTINUOUS
  0
LAYER
  5
99
330
2
100
AcDbSymbolTableRecord
100
AcDbLayerTableRecord
  2
DEFPOINTS
 70
     0
 62
     7
  6
CONTINUOUS
  0
LAYER
  5
9C
330
2
100
AcDbSymbolTableRecord
100
AcDbLayerTableRecord
  2
ADPDIM
 70
     0
 62
     3
  6
CONTINUOUS
  0
LAYER
  5
9D
330
2
100
AcDbSymbolTableRecord
100
AcDbLayerTableRecord
  2
ADP3DETAIL
 70
     0
 62
     1
  6
CONTINUOUS
  0
ENDTAB
  0
TABLE
  2
STYLE
  5
3
330
0
100
AcDbSymbolTable
 70
     2
  0
STYLE
  5
10
330
3
100
AcDbSymbolTableRecord
100
AcDbTextStyleTableRecord
  2
STANDARD
 70
     0
 40
0.0
 41
1.0
 50
0.0
 71
     0
 42
0.2
  3
txt
  4

  0
STYLE
  5
F8
330
3
100
AcDbSymbolTableRecord
100
AcDbTextStyleTableRecord
  2
ARIAL_WIDE
 70
     0
 40
0.0
 41
1.25
 50
0.0
 71
     0
 42
0.2
  3
ARIAL.TTF
  4

1001
ACAD
1000
Arial
1071
       34
  0
ENDTAB
  0
TABLE
  2
VIEW
  5
6
330
0
100
AcDbSymbolTable
 70
     0
  0
ENDTAB
  0
TABLE
  2
UCS
  5
7
330
0
100
AcDbSymbolTable
 70
     0
  0
ENDTAB
  0
TABLE
  2
APPID
  5
9
330
0
100
AcDbSymbolTable
 70
     1
  0
APPID
  5
11
330
9
100
AcDbSymbolTableRecord
100
AcDbRegAppTableRecord
  2
ACAD
 70
     0
  0
ENDTAB
  0
TABLE
  2
DIMSTYLE
  5
A
330
0
100
AcDbSymbolTable
 70
     1
  0
DIMSTYLE
105
EC
330
A
100
AcDbSymbolTableRecord
100
AcDbDimStyleTableRecord
  2
STANDARD
 70
     0
  3

  4

  5

  6

  7

 40
1.0
 41
0.18
 42
0.0625
 43
0.38
 44
0.18
 45
0.0
 46
0.0
 47
0.0
 48
0.0
140
0.18
141
0.09
142
0.0
143
25.4
144
1.0
145
0.0
146
1.0
147
0.09
 71
     0
 72
     0
 73
     1
 74
     1
 75
     0
 76
     0
 77
     0
 78
     0
170
     0
171
     2
172
     0
173
     0
174
     0
175
     0
176
     0
177
     0
178
     0
270
     2
271
     4
272
     4
273
     2
274
     2
340
10
275
     0
280
     0
281
     0
282
     0
283
     1
284
     0
285
     0
286
     0
287
     3
288
     0
  0
ENDTAB
  0
TABLE
  2
BLOCK_RECORD
  5
1
330
0
100
AcDbSymbolTable
 70
     5
  0
BLOCK_RECORD
  5
18
102
{ACAD_XDICTIONARY
360
14D
102
}
330
1
100
AcDbSymbolTableRecord
100
AcDbBlockTableRecord
  2
*MODEL_SPACE
  0
BLOCK_RECORD
  5
15
102
{ACAD_XDICTIONARY
360
14B
102
}
330
1
100
AcDbSymbolTableRecord
100
AcDbBlockTableRecord
  2
*PAPER_SPACE
  0
BLOCK_RECORD
  5
90
330
1
100
AcDbSymbolTableRecord
100
AcDbBlockTableRecord
  2
*D0
  0
BLOCK_RECORD
  5
91
330
1
100
AcDbSymbolTableRecord
100
AcDbBlockTableRecord
  2
*D1
  0
BLOCK_RECORD
  5
93
330
1
100
AcDbSymbolTableRecord
100
AcDbBlockTableRecord
  2
*D2
  0
BLOCK_RECORD
  5
94
330
1
100
AcDbSymbolTableRecord
100
AcDbBlockTableRecord
  2
*D3
  0
BLOCK_RECORD
  5
95
330
1
100
AcDbSymbolTableRecord
100
AcDbBlockTableRecord
  2
*D4
  0
ENDTAB
  0
ENDSEC
  0
SECTION
  2
BLOCKS
  0
BLOCK
  5
A0
330
18
100
AcDbEntity
  8
0
100
AcDbBlockBegin
  2
*MODEL_SPACE
 70
     0
 10
0.0
 20
0.0
 30
0.0
  3
*MODEL_SPACE
  1

  0
ENDBLK
  5
A1
330
18
100
AcDbEntity
  8
0
100
AcDbBlockEnd
  0
BLOCK
  5
9E
330
15
100
AcDbEntity
 67
     1
  8
0
100
AcDbBlockBegin
  2
*PAPER_SPACE
 70
     0
 10
0.0
 20
0.0
 30
0.0
  3
*PAPER_SPACE
  1

  0
ENDBLK
  5
9F
330
15
100
AcDbEntity
 67
     1
  8
0
100
AcDbBlockEnd
  0
BLOCK
  5
A3
330
90
100
AcDbEntity
  8
0
100
AcDbBlockBegin
  2
*D0
 70
     1
 10
0.0
 20
0.0
 30
0.0
  3
*D0
  1

  0
LINE
  5
A4
330
90
100
AcDbEntity
  8
0
  6
BYBLOCK
 62
     0
100
AcDbLine
 10
76.45825361615208
 20
-21.32791862947294
 30
0.0
 11
75.86332950747156
 21
-21.32791862947294
 31
0.0
  0
LINE
  5
A5
330
90
100
AcDbEntity
  8
0
  6
BYBLOCK
 62
     0
100
AcDbLine
 10
77.03166502251395
 20
-18.32791862947294
 30
0.0
 11
75.86332950747156
 21
-18.32791862947294
 31
0.0
  0
LINE
  5
A6
330
90
100
AcDbEntity
  8
0
  6
BYBLOCK
 62
     0
100
AcDbLine
 10
76.04332950747156
 20
-21.32791862947294
 30
0.0
 11
76.04332950747156
 21
-19.99458529613961
 31
0.0
  0
LINE
  5
A7
330
90
100
AcDbEntity
  8
0
  6
BYBLOCK
 62
     0
100
AcDbLine
 10
76.04332950747156
 20
-18.32791862947294
 30
0.0
 11
76.04332950747156
 21
-19.66125196280628
 31
0.0
  0
LINE
  5
A8
330
90
100
AcDbEntity
  8
0
  6
BYBLOCK
 62
     0
100
AcDbLine
 10
76.16832950747157
 20
-21.45291862947294
 30
0.0
 11
75.91832950747157
 21
-21.20291862947294
 31
0.0
  0
LINE
  5
A9
330
90
100
AcDbEntity
  8
0
  6
BYBLOCK
 62
     0
100
AcDbLine
 10
76.16832950747157
 20
-18.45291862947294
 30
0.0
 11
75.91832950747157
 21
-18.20291862947294
 31
0.0
  0
TEXT
  5
AA
330
90
100
AcDbEntity
  8
0
  6
BYBLOCK
 62
     0
100
AcDbText
 10
76.10582950747157
 20
-19.86958529613961
 30
0.0
 40
0.125
  1
3
 50
90.0
 72
     1
 11
76.04332950747156
 21
-19.82791862947294
 31
0.0
100
AcDbText
 73
     2
  0
POINT
  5
AB
330
90
100
AcDbEntity
  8
DEFPOINTS
  6
BYBLOCK
 62
     0
100
AcDbPoint
 10
76.52075361615207
 20
-21.32791862947294
 30
0.0
  0
POINT
  5
AC
330
90
100
AcDbEntity
  8
DEFPOINTS
  6
BYBLOCK
 62
     0
100
AcDbPoint
 10
77.09416502251395
 20
-18.32791862947294
 30
0.0
  0
POINT
  5
AD
330
90
100
AcDbEntity
  8
DEFPOINTS
  6
BYBLOCK
 62
     0
100
AcDbPoint
 10
76.04332950747156
 20
-18.32791862947294
 30
0.0
  0
ENDBLK
  5
AE
330
90
100
AcDbEntity
  8
0
100
AcDbBlockEnd
  0
BLOCK
  5
AF
330
91
100
AcDbEntity
  8
0
100
AcDbBlockBegin
  2
*D1
 70
     1
 10
0.0
 20
0.0
 30
0.0
  3
*D1
  1

  0
LINE
  5
B0
330
91
100
AcDbEntity
  8
0
  6
BYBLOCK
 62
     0
100
AcDbLine
 10
78.02848855854657
 20
-23.23283995603437
 30
0.0
 11
78.02848855854657
 21
-23.11533995603437
 31
0.0
  0
LINE
  5
B1
330
91
100
AcDbEntity
  8
0
  6
BYBLOCK
 62
     0
100
AcDbLine
 10
78.17348855854658
 20
-23.23283995603437
 30
0.0
 11
78.17348855854658
 21
-23.11533995603437
 31
0.0
  0
LINE
  5
B2
330
91
100
AcDbEntity
  8
0
  6
BYBLOCK
 62
     0
100
AcDbLine
 10
78.02848855854657
 20
-23.29533995603437
 30
0.0
 11
77.77848855854657
 21
-23.29533995603437
 31
0.0
  0
LINE
  5
B3
330
91
100
AcDbEntity
  8
0
  6
BYBLOCK
 62
     0
100
AcDbLine
 10
78.17348855854658
 20
-23.29533995603437
 30
0.0
 11
78.42348855854658
 21
-23.29533995603437
 31
0.0
  0
LINE
  5
B4
330
91
100
AcDbEntity
  8
0
  6
BYBLOCK
 62
     0
100
AcDbLine
 10
77.90348855854657
 20
-23.42033995603437
 30
0.0
 11
78.15348855854657
 21
-23.17033995603437
 31
0.0
  0
LINE
  5
B5
330
91
100
AcDbEntity
  8
0
  6
BYBLOCK
 62
     0
100
AcDbLine
 10
78.04848855854658
 20
-23.42033995603437
 30
0.0
 11
78.29848855854658
 21
-23.17033995603437
 31
0.0
  0
TEXT
  5
B6
330
91
100
AcDbEntity
  8
0
  6
BYBLOCK
 62
     0
100
AcDbText
 10
78.54848855854658
 20
-23.35783995603437
 30
0.0
 40
0.125
  1
0.145
 72
     1
 11
78.76723855854658
 21
-23.29533995603437
 31
0.0
100
AcDbText
 73
     2
  0
POINT
  5
B7
330
91
100
AcDbEntity
  8
DEFPOINTS
  6
BYBLOCK
 62
     0
100
AcDbPoint
 10
78.02848855854657
 20
-23.29533995603437
 30
0.0
  0
POINT
  5
B8
330
91
100
AcDbEntity
  8
DEFPOINTS
  6
BYBLOCK
 62
     0
100
AcDbPoint
 10
78.17348855854658
 20
-23.29533995603437
 30
0.0
  0
POINT
  5
B9
330
91
100
AcDbEntity
  8
DEFPOINTS
  6
BYBLOCK
 62
     0
100
AcDbPoint
 10
78.17348855854658
 20
-23.29533995603437
 30
0.0
  0
ENDBLK
  5
BA
330
91
100
AcDbEntity
  8
0
100
AcDbBlockEnd
  0
BLOCK
  5
BB
330
93
100
AcDbEntity
  8
0
100
AcDbBlockBegin
  2
*D2
 70
     1
 10
0.0
 20
0.0
 30
0.0
  3
*D2
  1

  0
LINE
  5
BC
330
93
100
AcDbEntity
  8
0
  6
BYBLOCK
 62
     0
100
AcDbLine
 10
76.52075361615207
 20
-21.39041862947294
 30
0.0
 11
76.52075361615207
 21
-21.98107972874385
 31
0.0
  0
LINE
  5
BD
330
93
100
AcDbEntity
  8
0
  6
BYBLOCK
 62
     0
100
AcDbLine
 10
78.18075361615207
 20
-21.39041862947294
 30
0.0
 11
78.18075361615207
 21
-21.98107972874385
 31
0.0
  0
LINE
  5
BE
330
93
100
AcDbEntity
  8
0
  6
BYBLOCK
 62
     0
100
AcDbLine
 10
76.52075361615207
 20
-21.80107972874385
 30
0.0
 11
77.00700361615208
 21
-21.80107972874385
 31
0.0
  0
LINE
  5
BF
330
93
100
AcDbEntity
  8
0
  6
BYBLOCK
 62
     0
100
AcDbLine
 10
78.18075361615207
 20
-21.80107972874385
 30
0.0
 11
77.69450361615207
 21
-21.80107972874385
 31
0.0
  0
LINE
  5
C0
330
93
100
AcDbEntity
  8
0
  6
BYBLOCK
 62
     0
100
AcDbLine
 10
76.39575361615207
 20
-21.92607972874385
 30
0.0
 11
76.64575361615208
 21
-21.67607972874385
 31
0.0
  0
LINE
  5
C1
330
93
100
AcDbEntity
  8
0
  6
BYBLOCK
 62
     0
100
AcDbLine
 10
78.05575361615208
 20
-21.92607972874385
 30
0.0
 11
78.30575361615207
 21
-21.67607972874385
 31
0.0
  0
TEXT
  5
C2
330
93
100
AcDbEntity
  8
0
  6
BYBLOCK
 62
     0
100
AcDbText
 10
77.13200361615207
 20
-21.86357972874385
 30
0.0
 40
0.125
  1
1.660
 72
     1
 11
77.35075361615208
 21
-21.80107972874385
 31
0.0
100
AcDbText
 73
     2
  0
POINT
  5
C3
330
93
100
AcDbEntity
  8
DEFPOINTS
  6
BYBLOCK
 62
     0
100
AcDbPoint
 10
76.52075361615207
 20
-21.32791862947294
 30
0.0
  0
POINT
  5
C4
330
93
100
AcDbEntity
  8
DEFPOINTS
  6
BYBLOCK
 62
     0
100
AcDbPoint
 10
78.18075361615207
 20
-21.32791862947294
 30
0.0
  0
POINT
  5
C5
330
93
100
AcDbEntity
  8
DEFPOINTS
  6
BYBLOCK
 62
     0
100
AcDbPoint
 10
78.18075361615207
 20
-21.80107972874385
 30
0.0
  0
ENDBLK
  5
C6
330
93
100
AcDbEntity
  8
0
100
AcDbBlockEnd
  0
BLOCK
  5
C7
330
94
100
AcDbEntity
  8
0
100
AcDbBlockBegin
  2
*D3
 70
     1
 10
0.0
 20
0.0
 30
0.0
  3
*D3
  1

  0
LINE
  5
C8
330
94
100
AcDbEntity
  8
0
  6
BYBLOCK
 62
     0
100
AcDbLine
 10
79.7723612217471
 20
-16.55599231765175
 30
0.0
 11
79.01192478248598
 21
-15.4699765326669
 31
0.0
  0
LINE
  5
C9
330
94
100
AcDbEntity
  8
0
  6
BYBLOCK
 62
     0
100
AcDbLine
 10
77.31490508888012
 20
-18.27672162670488
 30
0.0
 11
76.55446864961899
 21
-17.19070584172003
 31
0.0
  0
LINE
  5
CA
330
94
100
AcDbEntity
  8
0
  6
BYBLOCK
 62
     0
100
AcDbLine
 10
79.11516854102917
 20
-15.61742390063892
 30
0.0
 11
78.0229658153105
 21
-16.38219248244031
 31
0.0
  0
LINE
  5
CB
330
94
100
AcDbEntity
  8
0
  6
BYBLOCK
 62
     0
100
AcDbLine
 10
76.65771240816218
 20
-17.33815320969205
 30
0.0
 11
77.74991513388084
 21
-16.57338462789065
 31
0.0
  0
LINE
  5
CC
330
94
100
AcDbEntity
  8
0
  6
BYBLOCK
 62
     0
100
AcDbLine
 10
79.08447159003692
 20
-15.79151496071892
 30
0.0
 11
79.14586549202141
 21
-15.44333284055891
 31
0.0
  0
LINE
  5
CD
330
94
100
AcDbEntity
  8
0
  6
BYBLOCK
 62
     0
100
AcDbLine
 10
76.62701545716995
 20
-17.51224426977205
 30
0.0
 11
76.68840935915444
 21
-17.16406214961204
 31
0.0
  0
TEXT
  5
CE
330
94
100
AcDbEntity
  8
0
  6
BYBLOCK
 62
     0
100
AcDbText
 10
77.88815766668889
 20
-16.55288457611484
 30
0.0
 40
0.125
  1
3
 50
34.99999999999985
 72
     1
 11
77.88644047459567
 21
-16.47778855516548
 31
0.0
100
AcDbText
 73
     2
  0
POINT
  5
CF
330
94
100
AcDbEntity
  8
DEFPOINTS
  6
BYBLOCK
 62
     0
100
AcDbPoint
 10
79.80820974901904
 20
-16.60718932041981
 30
0.0
  0
POINT
  5
D0
330
94
100
AcDbEntity
  8
DEFPOINTS
  6
BYBLOCK
 62
     0
100
AcDbPoint
 10
77.35075361615206
 20
-18.32791862947295
 30
0.0
  0
POINT
  5
D1
330
94
100
AcDbEntity
  8
DEFPOINTS
  6
BYBLOCK
 62
     0
100
AcDbPoint
 10
76.65771240816218
 20
-17.33815320969205
 30
0.0
  0
ENDBLK
  5
D2
330
94
100
AcDbEntity
  8
0
100
AcDbBlockEnd
  0
BLOCK
  5
D3
330
95
100
AcDbEntity
  8
0
100
AcDbBlockBegin
  2
*D4
 70
     1
 10
0.0
 20
0.0
 30
0.0
  3
*D4
  1

  0
LINE
  5
D4
330
95
100
AcDbEntity
  8
0
  6
BYBLOCK
 62
     0
100
AcDbLine
 10
77.56868620472902
 20
-18.60846979557415
 30
0.0
 11
79.8127342510256
 21
-19.61232856602492
 31
0.0
  0
LINE
  5
D5
330
95
100
AcDbEntity
  8
0
  6
BYBLOCK
 62
     0
100
AcDbLine
 10
77.40353951114396
 20
-18.6715298431314
 30
0.0
 11
77.73383289831407
 21
-18.54540974801691
 31
0.0
  0
TEXT
  5
D6
330
95
100
AcDbEntity
  8
0
  6
BYBLOCK
 62
     0
100
AcDbText
 10
79.90131596008978
 20
-19.7204235743244
 30
0.0
 40
0.125
  1
R2 1/2
 50
335.8989879593195
 72
     1
 11
80.23111327645315
 21
-19.79948741707591
 31
0.0
100
AcDbText
 73
     2
  0
POINT
  5
D7
330
95
100
AcDbEntity
  8
DEFPOINTS
  6
BYBLOCK
 62
     0
100
AcDbPoint
 10
77.56868620472902
 20
-18.60846979557415
 30
0.0
  0
POINT
  5
D8
330
95
100
AcDbEntity
  8
DEFPOINTS
  6
BYBLOCK
 62
     0
100
AcDbPoint
 10
79.85075361615208
 20
-19.62933625585231
 30
0.0
  0
ENDBLK
  5
D9
330
95
100
AcDbEntity
  8
0
100
AcDbBlockEnd
  0
ENDSEC
  0
SECTION
  2
ENTITIES
  0
LINE
  5
DA
330
18
100
AcDbEntity
  8
ADP3DETAIL
  6
CENTER2
100
AcDbLine
 10
80.30912454374492
 20
-16.25644500515197
 30
0.0
 11
78.41681252527445
 21
-17.58145614512983
 31
0.0
  0
DIMENSION
  5
DB
330
18
100
AcDbEntity
  8
ADPDIM
100
AcDbDimension
  2
*D3
 10
76.65771240816218
 20
-17.33815320969205
 30
0.0
 11
77.88644047459567
 21
-16.47778855516548
 31
0.0
 70
     1
100
AcDbAlignedDimension
 13
79.80820974901904
 23
-16.60718932041981
 33
0.0
 14
77.35075361615206
 24
-18.32791862947294
 34
0.0
  0
DIMENSION
  5
DC
330
18
100
AcDbEntity
  8
ADPDIM
100
AcDbDimension
  2
*D1
 10
78.17348855854658
 20
-23.29533995603437
 30
0.0
 11
78.76723855854658
 21
-23.29533995603437
 31
0.0
  1
0.145
100
AcDbAlignedDimension
 13
78.02848855854657
 23
-23.29533995603437
 33
0.0
 14
78.17348855854658
 24
-23.29533995603437
 34
0.0
100
AcDbRotatedDimension
  0
DIMENSION
  5
DD
330
18
100
AcDbEntity
  8
ADPDIM
100
AcDbDimension
  2
*D4
 10
79.85075361615208
 20
-19.62933625585231
 30
0.0
 11
80.23111327645315
 21
-19.79948741707591
 31
0.0
 70
     4
100
AcDbRadialDimension
 15
77.56868620472902
 25
-18.60846979557415
 35
0.0
 40
-2.458349866292104
  0
ARC
  5
DE
330
18
100
AcDbEntity
  8
ADP1DETAIL
100
AcDbCircle
 10
79.88075361615208
 20
-19.64495326736885
 30
0.0
 40
1.7
100
AcDbArc
 50
124.9999999999999
 51
180.0
  0
LINE
  5
DF
330
18
100
AcDbEntity
  8
ADP1DETAIL
100
AcDbLine
 10
77.92795137619362
 20
-16.9105174981821
 30
0.0
 11
79.33214130684767
 21
-15.92729312365995
 31
0.0
  0
LINE
  5
E0
330
18
100
AcDbEntity
  8
ADP3DETAIL
  6
CENTER2
100
AcDbLine
 10
77.35075361615208
 20
-19.62933625585231
 30
0.0
 11
77.35075361615208
 21
-21.5208342439833
 31
0.0
  0
DIMENSION
  5
E1
330
18
100
AcDbEntity
  8
ADPDIM
100
AcDbDimension
  2
*D2
 10
78.18075361615207
 20
-21.80107972874385
 30
0.0
 11
77.35075361615208
 21
-21.80107972874385
 31
0.0
  1
1.660
100
AcDbAlignedDimension
 13
76.52075361615207
 23
-21.32791862947294
 33
0.0
 14
78.18075361615207
 24
-21.32791862947294
 34
0.0
100
AcDbRotatedDimension
  0
CIRCLE
  5
E2
330
18
100
AcDbEntity
  8
ADP1DETAIL
100
AcDbCircle
 10
77.35075361615208
 20
-23.29533995603437
 30
0.0
 40
0.8299999999999998
  0
CIRCLE
  5
E3
330
18
100
AcDbEntity
  8
ADP1DETAIL
100
AcDbCircle
 10
77.35075361615208
 20
-23.29533995603437
 30
0.0
 40
0.6899999999999978
  0
ARC
  5
E4
330
18
100
AcDbEntity
  8
ADP3DETAIL
  6
CENTER2
100
AcDbCircle
 10
79.85075361615208
 20
-19.62933625585231
 30
0.0
 40
2.5
100
AcDbArc
 50
125.0
 51
180.0
  0
DIMENSION
  5
E5
330
18
100
AcDbEntity
  8
ADPDIM
100
AcDbDimension
  2
*D0
 10
76.04332950747156
 20
-18.32791862947294
 30
0.0
 11
76.04332950747156
 21
-19.82791862947294
 31
0.0
100
AcDbAlignedDimension
 13
76.52075361615207
 23
-21.32791862947294
 33
0.0
 14
77.09416502251395
 24
-18.32791862947294
 34
0.0
 50
90.0
100
AcDbRotatedDimension
  0
ARC
  5
E6
330
18
100
AcDbEntity
  8
ADP1DETAIL
100
AcDbCircle
 10
79.82075361615208
 20
-19.61371924433576
 30
0.0
 40
3.299999999999999
100
AcDbArc
 50
125.0
 51
180.0
  0
LINE
  5
E7
330
18
100
AcDbEntity
  8
ADP1DETAIL
100
AcDbLine
 10
78.18075361615207
 20
-21.32791862947294
 30
0.0
 11
76.52075361615207
 21
-21.32791862947294
 31
0.0
  0
LINE
  5
E8
330
18
100
AcDbEntity
  8
ADP1DETAIL
100
AcDbLine
 10
76.52075361615207
 20
-21.32791862947294
 30
0.0
 11
76.52075361615207
 21
-19.61371924433576
 31
0.0
  0
LINE
  5
E9
330
18
100
AcDbEntity
  8
ADP1DETAIL
100
AcDbLine
 10
78.18075361615207
 20
-19.64495326736885
 30
0.0
 11
78.18075361615207
 21
-21.32791862947294
 31
0.0
  0
LINE
  5
EA
330
18
100
AcDbEntity
  8
ADP1DETAIL
100
AcDbLine
 10
79.33214130684767
 20
-15.92729312365995
 30
0.0
 11
80.28427819119041
 21
-17.28708551717967
 31
0.0
  0
LINE
  5
EB
330
18
100
AcDbEntity
  8
ADP1DETAIL
100
AcDbLine
 10
78.90567367435529
 20
-18.25239479207757
 30
0.0
 11
80.28427819119041
 21
-17.28708551717967
 31
0.0
  0
TEXT
  5
F9
330
18
100
AcDbEntity
  8
ADPDIM
100
AcDbText
 10
68.32408829435704
 20
-24.71741906422891
 30
0.0
 40
0.1875
  1
J U L I U S  B L U M  &  C O . ,  I N C .      ( 8 0 0 )  5 2 6 - 6 2 9 3        W W W . J U L I U S B L U M . C O M        P A R T  N o .  7 4 2 5
 41
1.25
  7
ARIAL_WIDE
 72
     1
 11
78.11268183119196
 21
-24.52991906422891
 31
0.0
100
AcDbText
 73
     3
  0
ENDSEC
  0
SECTION
  2
OBJECTS
  0
DICTIONARY
  5
C
330
0
100
AcDbDictionary
  3
ACAD_GROUP
350
D
  3
ACAD_LAYOUT
350
F2
  3
ACAD_MLINESTYLE
350
E
  3
ACAD_PLOTSETTINGS
350
F3
  3
ACAD_PLOTSTYLENAME
350
F0
  3
ACDBHEADERROUNDTRIPXREC
350
23D
  3
ACDBVARIABLEDICTIONARY
350
153
  0
DICTIONARY
  5
14D
330
18
100
AcDbDictionary
280
     1
  3
ACAD_LAYOUTSELFREF
360
25E
  0
DICTIONARY
  5
14B
330
15
100
AcDbDictionary
280
     1
  3
ACAD_LAYOUTSELFREF
360
25D
  0
DICTIONARY
  5
D
102
{ACAD_REACTORS
330
C
102
}
330
C
100
AcDbDictionary
  0
DICTIONARY
  5
F2
102
{ACAD_REACTORS
330
C
102
}
330
C
100
AcDbDictionary
  0
DICTIONARY
  5
E
102
{ACAD_REACTORS
330
C
102
}
330
C
100
AcDbDictionary
  3
STANDARD
350
1B
  0
DICTIONARY
  5
F3
102
{ACAD_REACTORS
330
C
102
}
330
C
100
AcDbDictionary
  0
ACDBDICTIONARYWDFLT
  5
F0
102
{ACAD_REACTORS
330
C
102
}
330
C
100
AcDbDictionary
281
     1
  3
Normal
350
F1
100
AcDbDictionaryWithDefault
340
F1
  0
DICTIONARY
  5
23D
102
{ACAD_REACTORS
330
C
102
}
330
C
100
AcDbDictionary
  3
CEPSNTYPE
350
247
  3
FINGERPRINTGUID
350
248
  3
HYPERLINKBASE
350
240
  3
INSUNITS
350
246
  3
LAYOUTDICT
350
242
  3
LWETCUNION
350
245
  3
PLOTSETDICT
350
243
  3
PLOTSTYLNAMDICT
350
244
  3
PSVPSCALE
350
24A
  3
PUCSBASE
350
24D
  3
PUCSORGBACK
350
253
  3
PUCSORGBOTTOM
350
24F
  3
PUCSORGFRONT
350
252
  3
PUCSORGLEFT
350
250
  3
PUCSORGRIGHT
350
251
  3
PUCSORGTOP
350
24E
  3
PUCSORTHOREF
350
24B
  3
PUCSORTHOVIEW
350
24C
  3
STYLESHEET
350
241
  3
TSTACKALIGN
350
23E
  3
TSTACKSIZE
350
23F
  3
UCSBASE
350
256
  3
UCSORGBACK
350
25C
  3
UCSORGBOTTOM
350
258
  3
UCSORGFRONT
350
25B
  3
UCSORGLEFT
350
259
  3
UCSORGRIGHT
350
25A
  3
UCSORGTOP
350
257
  3
UCSORTHOREF
350
254
  3
UCSORTHOVIEW
350
255
  3
VERSIONGUID
350
249
  0
DICTIONARY
  5
153
102
{ACAD_REACTORS
330
C
102
}
330
C
100
AcDbDictionary
  3
DIMASSOC
350
154
  0
XRECORD
  5
25E
102
{ACAD_REACTORS
330
14D
102
}
330
14D
100
AcDbXrecord
340
18
  0
XRECORD
  5
25D
102
{ACAD_REACTORS
330
14B
102
}
330
14B
100
AcDbXrecord
340
15
  0
MLINESTYLE
  5
1B
102
{ACAD_REACTORS
330
E
102
}
330
E
100
AcDbMlineStyle
  2
STANDARD
 70
     0
  3

 62
     0
 51
90.0
 52
90.0
 71
     2
 49
0.5
 62
   256
  6
BYLAYER
 49
-0.5
 62
   256
  6
BYLAYER
  0
ACDBPLACEHOLDER
  5
F1
102
{ACAD_REACTORS
330
F0
102
}
330
F0
100
AcDbPlaceHolder
280
     0
  0
XRECORD
  5
247
102
{ACAD_REACTORS
330
23D
102
}
330
23D
100
AcDbXrecord
 90
        0
  0
XRECORD
  5
248
102
{ACAD_REACTORS
330
23D
102
}
330
23D
100
AcDbXrecord
  1
{1B4D7BA9-669B-4C9A-8F1C-0BF14484A86D}
  0
XRECORD
  5
240
102
{ACAD_REACTORS
330
23D
102
}
330
23D
100
AcDbXrecord
  1

  0
XRECORD
  5
246
102
{ACAD_REACTORS
330
23D
102
}
330
23D
100
AcDbXrecord
 90
        0
  0
XRECORD
  5
242
102
{ACAD_REACTORS
330
23D
102
}
330
23D
100
AcDbXrecord
340
F2
  0
XRECORD
  5
245
102
{ACAD_REACTORS
330
23D
102
}
330
23D
100
AcDbXrecord
 90
    14877
  0
XRECORD
  5
243
102
{ACAD_REACTORS
330
23D
102
}
330
23D
100
AcDbXrecord
340
F3
  0
XRECORD
  5
244
102
{ACAD_REACTORS
330
23D
102
}
330
23D
100
AcDbXrecord
340
F0
  0
XRECORD
  5
24A
102
{ACAD_REACTORS
330
23D
102
}
330
23D
100
AcDbXrecord
 40
0.0
  0
XRECORD
  5
24D
102
{ACAD_REACTORS
330
23D
102
}
330
23D
100
AcDbXrecord
340
0
  0
XRECORD
  5
253
102
{ACAD_REACTORS
330
23D
102
}
330
23D
100
AcDbXrecord
 10
0.0
 20
0.0
 30
0.0
  0
XRECORD
  5
24F
102
{ACAD_REACTORS
330
23D
102
}
330
23D
100
AcDbXrecord
 10
0.0
 20
0.0
 30
0.0
  0
XRECORD
  5
252
102
{ACAD_REACTORS
330
23D
102
}
330
23D
100
AcDbXrecord
 10
0.0
 20
0.0
 30
0.0
  0
XRECORD
  5
250
102
{ACAD_REACTORS
330
23D
102
}
330
23D
100
AcDbXrecord
 10
0.0
 20
0.0
 30
0.0
  0
XRECORD
  5
251
102
{ACAD_REACTORS
330
23D
102
}
330
23D
100
AcDbXrecord
 10
0.0
 20
0.0
 30
0.0
  0
XRECORD
  5
24E
102
{ACAD_REACTORS
330
23D
102
}
330
23D
100
AcDbXrecord
 10
0.0
 20
0.0
 30
0.0
  0
XRECORD
  5
24B
102
{ACAD_REACTORS
330
23D
102
}
330
23D
100
AcDbXrecord
340
0
  0
XRECORD
  5
24C
102
{ACAD_REACTORS
330
23D
102
}
330
23D
100
AcDbXrecord
 70
     0
  0
XRECORD
  5
241
102
{ACAD_REACTORS
330
23D
102
}
330
23D
100
AcDbXrecord
  1

  0
XRECORD
  5
23E
102
{ACAD_REACTORS
330
23D
102
}
330
23D
100
AcDbXrecord
 90
        1
  0
XRECORD
  5
23F
102
{ACAD_REACTORS
330
23D
102
}
330
23D
100
AcDbXrecord
 90
       70
  0
XRECORD
  5
256
102
{ACAD_REACTORS
330
23D
102
}
330
23D
100
AcDbXrecord
340
0
  0
XRECORD
  5
25C
102
{ACAD_REACTORS
330
23D
102
}
330
23D
100
AcDbXrecord
 10
0.0
 20
0.0
 30
0.0
  0
XRECORD
  5
258
102
{ACAD_REACTORS
330
23D
102
}
330
23D
100
AcDbXrecord
 10
0.0
 20
0.0
 30
0.0
  0
XRECORD
  5
25B
102
{ACAD_REACTORS
330
23D
102
}
330
23D
100
AcDbXrecord
 10
0.0
 20
0.0
 30
0.0
  0
XRECORD
  5
259
102
{ACAD_REACTORS
330
23D
102
}
330
23D
100
AcDbXrecord
 10
0.0
 20
0.0
 30
0.0
  0
XRECORD
  5
25A
102
{ACAD_REACTORS
330
23D
102
}
330
23D
100
AcDbXrecord
 10
0.0
 20
0.0
 30
0.0
  0
XRECORD
  5
257
102
{ACAD_REACTORS
330
23D
102
}
330
23D
100
AcDbXrecord
 10
0.0
 20
0.0
 30
0.0
  0
XRECORD
  5
254
102
{ACAD_REACTORS
330
23D
102
}
330
23D
100
AcDbXrecord
340
0
  0
XRECORD
  5
255
102
{ACAD_REACTORS
330
23D
102
}
330
23D
100
AcDbXrecord
 70
     0
  0
XRECORD
  5
249
102
{ACAD_REACTORS
330
23D
102
}
330
23D
100
AcDbXrecord
  1
{1788C72E-FC59-43E9-B4D4-A33EF5173228}
  0
DICTIONARYVAR
  5
154
102
{ACAD_REACTORS
330
153
102
}
330
153
100
DictionaryVariables
280
     0
  1
1
  0
ENDSEC
  0
EOF
