  0
SECTION
  2
HEADER
  9
$ACADVER
  1
AC1014
  9
$ACADMAINTVER
 70
     9
  9
$DWGCODEPAGE
  3
ANSI_1252
  9
$INSBASE
 10
29.33595731355396
 20
-23.73712977007951
 30
0.0
  9
$EXTMIN
 10
15.97995952393469
 20
-27.2005837896756
 30
0.0
  9
$EXTMAX
 10
35.55714659760454
 20
-21.27189482768502
 30
0.0
  9
$LIMMIN
 10
0.0
 20
0.0
  9
$LIMMAX
 10
36.0
 20
36.0
  9
$ORTHOMODE
 70
     1
  9
$REGENMODE
 70
     1
  9
$FILLMODE
 70
     1
  9
$QTEXTMODE
 70
     0
  9
$MIRRTEXT
 70
     1
  9
$DRAGMODE
 70
     0
  9
$LTSCALE
 40
1.0
  9
$OSMODE
 70
    37
  9
$ATTMODE
 70
     1
  9
$TEXTSIZE
 40
0.2
  9
$TRACEWID
 40
0.05
  9
$TEXTSTYLE
  7
STANDARD
  9
$CLAYER
  8
0
  9
$CELTYPE
  6
BYLAYER
  9
$CECOLOR
 62
   256
  9
$CELTSCALE
 40
1.0
  9
$DELOBJ
 70
     1
  9
$DISPSILH
 70
     0
  9
$DIMSCALE
 40
1.0
  9
$DIMASZ
 40
0.125
  9
$DIMEXO
 40
0.0625
  9
$DIMDLI
 40
0.38
  9
$DIMRND
 40
0.0
  9
$DIMDLE
 40
0.0
  9
$DIMEXE
 40
0.18
  9
$DIMTP
 40
0.0
  9
$DIMTM
 40
0.0
  9
$DIMTXT
 40
0.125
  9
$DIMCEN
 40
0.1875
  9
$DIMTSZ
 40
0.125
  9
$DIMTOL
 70
     0
  9
$DIMLIM
 70
     0
  9
$DIMTIH
 70
     0
  9
$DIMTOH
 70
     0
  9
$DIMSE1
 70
     0
  9
$DIMSE2
 70
     0
  9
$DIMTAD
 70
     0
  9
$DIMZIN
 70
     3
  9
$DIMBLK
  1

  9
$DIMASO
 70
     1
  9
$DIMSHO
 70
     1
  9
$DIMPOST
  1

  9
$DIMAPOST
  1

  9
$DIMALT
 70
     0
  9
$DIMALTD
 70
     1
  9
$DIMALTF
 40
25.4
  9
$DIMLFAC
 40
1.0
  9
$DIMTOFL
 70
     0
  9
$DIMTVP
 40
0.0
  9
$DIMTIX
 70
     0
  9
$DIMSOXD
 70
     0
  9
$DIMSAH
 70
     0
  9
$DIMBLK1
  1

  9
$DIMBLK2
  1

  9
$DIMSTYLE
  2
STANDARD
  9
$DIMCLRD
 70
     0
  9
$DIMCLRE
 70
     0
  9
$DIMCLRT
 70
     0
  9
$DIMTFAC
 40
1.0
  9
$DIMGAP
 40
0.125
  9
$DIMJUST
 70
     0
  9
$DIMSD1
 70
     0
  9
$DIMSD2
 70
     0
  9
$DIMTOLJ
 70
     1
  9
$DIMTZIN
 70
     0
  9
$DIMALTZ
 70
     0
  9
$DIMALTTZ
 70
     0
  9
$DIMFIT
 70
     3
  9
$DIMUPT
 70
     0
  9
$DIMUNIT
 70
     2
  9
$DIMDEC
 70
     4
  9
$DIMTDEC
 70
     4
  9
$DIMALTU
 70
     2
  9
$DIMALTTD
 70
     2
  9
$DIMTXSTY
  7
STANDARD
  9
$DIMAUNIT
 70
     0
  9
$LUNITS
 70
     5
  9
$LUPREC
 70
     4
  9
$SKETCHINC
 40
0.1
  9
$FILLETRAD
 40
0.062
  9
$AUNITS
 70
     0
  9
$AUPREC
 70
     0
  9
$MENU
  1
acad
  9
$ELEVATION
 40
0.0
  9
$PELEVATION
 40
0.0
  9
$THICKNESS
 40
0.0
  9
$LIMCHECK
 70
     0
  9
$BLIPMODE
 70
     0
  9
$CHAMFERA
 40
0.0
  9
$CHAMFERB
 40
0.0
  9
$CHAMFERC
 40
0.0
  9
$CHAMFERD
 40
0.0
  9
$SKPOLY
 70
     0
  9
$TDCREATE
 40
2450387.485904120
  9
$TDUPDATE
 40
2452297.101108935
  9
$TDINDWG
 40
0.0426489583
  9
$TDUSRTIMER
 40
0.0426489583
  9
$USRTIMER
 70
     1
  9
$ANGBASE
 50
0.0
  9
$ANGDIR
 70
     0
  9
$PDMODE
 70
     0
  9
$PDSIZE
 40
0.0
  9
$PLINEWID
 40
0.0
  9
$COORDS
 70
     2
  9
$SPLFRAME
 70
     0
  9
$SPLINETYPE
 70
     6
  9
$SPLINESEGS
 70
     8
  9
$ATTDIA
 70
     0
  9
$ATTREQ
 70
     1
  9
$HANDLING
 70
 22529
  9
$HANDSEED
  5
28F
  9
$SURFTAB1
 70
     6
  9
$SURFTAB2
 70
     6
  9
$SURFTYPE
 70
     6
  9
$SURFU
 70
     6
  9
$SURFV
 70
     6
  9
$UCSNAME
  2

  9
$UCSORG
 10
0.0
 20
0.0
 30
0.0
  9
$UCSXDIR
 10
1.0
 20
0.0
 30
0.0
  9
$UCSYDIR
 10
0.0
 20
1.0
 30
0.0
  9
$PUCSNAME
  2

  9
$PUCSORG
 10
0.0
 20
0.0
 30
0.0
  9
$PUCSXDIR
 10
1.0
 20
0.0
 30
0.0
  9
$PUCSYDIR
 10
0.0
 20
1.0
 30
0.0
  9
$USERI1
 70
     0
  9
$USERI2
 70
     0
  9
$USERI3
 70
     0
  9
$USERI4
 70
     0
  9
$USERI5
 70
     0
  9
$USERR1
 40
0.0
  9
$USERR2
 40
0.0
  9
$USERR3
 40
0.0
  9
$USERR4
 40
0.0
  9
$USERR5
 40
0.0
  9
$WORLDVIEW
 70
     1
  9
$SHADEDGE
 70
     3
  9
$SHADEDIF
 70
    70
  9
$TILEMODE
 70
     1
  9
$MAXACTVP
 70
    15
  9
$PINSBASE
 10
0.0
 20
0.0
 30
0.0
  9
$PLIMCHECK
 70
     0
  9
$PEXTMIN
 10
1.000000000000000E+20
 20
1.000000000000000E+20
 30
1.000000000000000E+20
  9
$PEXTMAX
 10
-1.000000000000000E+20
 20
-1.000000000000000E+20
 30
-1.000000000000000E+20
  9
$PLIMMIN
 10
0.0
 20
0.0
  9
$PLIMMAX
 10
12.0
 20
9.0
  9
$UNITMODE
 70
     0
  9
$VISRETAIN
 70
     0
  9
$PLINEGEN
 70
     0
  9
$PSLTSCALE
 70
     1
  9
$TREEDEPTH
 70
  3020
  9
$PICKSTYLE
 70
     1
  9
$CMLSTYLE
  2
STANDARD
  9
$CMLJUST
 70
     0
  9
$CMLSCALE
 40
1.0
  9
$PROXYGRAPHICS
 70
     1
  9
$MEASUREMENT
 70
     0
  0
ENDSEC
  0
SECTION
  2
CLASSES
  0
CLASS
  1
ACDBDICTIONARYWDFLT
  2
AcDbDictionaryWithDefault
  3
AutoCAD 2000
 90
        0
280
     0
281
     0
  0
CLASS
  1
ACDBPLACEHOLDER
  2
AcDbPlaceHolder
  3
AutoCAD 2000
 90
        0
280
     0
281
     0
  0
CLASS
  1
LAYOUT
  2
AcDbLayout
  3
AutoCAD 2000
 90
        0
280
     0
281
     0
  0
CLASS
  1
DICTIONARYVAR
  2
AcDbDictionaryVar
  3
AutoCAD 2000
 90
        0
280
     0
281
     0
  0
CLASS
  1
LONG_TRANSACTION
  2
AcDbLongTransaction
  3
AutoCAD 2000
 90
        0
280
     0
281
     0
  0
CLASS
  1
LWPOLYLINE
  2
AcDbPolyline
  3
AutoCAD 2000
 90
        0
280
     0
281
     1
  0
CLASS
  1
HATCH
  2
AcDbHatch
  3
AutoCAD 2000
 90
        0
280
     0
281
     1
  0
CLASS
  1
XRECORD
  2
AcDbXrecord
  3
AutoCAD 2000
 90
        0
280
     0
281
     0
  0
CLASS
  1
LONG_TRANSACTION
  2
AcDbLongTransaction
  3
AutoCAD 2000
 90
        0
280
     0
281
     0
  0
CLASS
  1
LWPOLYLINE
  2
AcDbPolyline
  3
AutoCAD 2000
 90
        0
280
     0
281
     1
  0
CLASS
  1
HATCH
  2
AcDbHatch
  3
AutoCAD 2000
 90
        0
280
     0
281
     1
  0
CLASS
  1
XRECORD
  2
AcDbXrecord
  3
AutoCAD 2000
 90
        0
280
     0
281
     0
  0
CLASS
  1
LONG_TRANSACTION
  2
AcDbLongTransaction
  3
AutoCAD 2000
 90
        0
280
     0
281
     0
  0
CLASS
  1
LWPOLYLINE
  2
AcDbPolyline
  3
AutoCAD 2000
 90
        0
280
     0
281
     1
  0
CLASS
  1
HATCH
  2
AcDbHatch
  3
AutoCAD 2000
 90
        0
280
     0
281
     1
  0
CLASS
  1
XRECORD
  2
AcDbXrecord
  3
AutoCAD 2000
 90
        0
280
     0
281
     0
  0
CLASS
  1
LONG_TRANSACTION
  2
AcDbLongTransaction
  3
AutoCAD 2000
 90
        0
280
     0
281
     0
  0
CLASS
  1
LWPOLYLINE
  2
AcDbPolyline
  3
AutoCAD 2000
 90
        0
280
     0
281
     1
  0
CLASS
  1
HATCH
  2
AcDbHatch
  3
AutoCAD 2000
 90
        0
280
     0
281
     1
  0
CLASS
  1
XRECORD
  2
AcDbXrecord
  3
AutoCAD 2000
 90
        0
280
     0
281
     0
  0
CLASS
  1
LONG_TRANSACTION
  2
AcDbLongTransaction
  3
AutoCAD 2000
 90
        0
280
     0
281
     0
  0
CLASS
  1
LWPOLYLINE
  2
AcDbPolyline
  3
AutoCAD 2000
 90
        0
280
     0
281
     1
  0
CLASS
  1
HATCH
  2
AcDbHatch
  3
AutoCAD 2000
 90
        0
280
     0
281
     1
  0
CLASS
  1
XRECORD
  2
AcDbXrecord
  3
AutoCAD 2000
 90
        0
280
     0
281
     0
  0
ENDSEC
  0
SECTION
  2
TABLES
  0
TABLE
  2
VPORT
  5
8
330
0
100
AcDbSymbolTable
 70
     2
  0
VPORT
  5
26C
330
8
100
AcDbSymbolTableRecord
100
AcDbViewportTableRecord
  2
*ACTIVE
 70
     0
 10
0.0
 20
0.0
 11
1.0
 21
1.0
 12
25.78451028221236
 22
-24.2367953237563
 13
0.0
 23
0.0
 14
0.5740882589684922
 24
0.5740882589684922
 15
0.5
 25
0.5
 16
0.0
 26
0.0
 36
1.0
 17
0.0
 27
0.0
 37
0.0
 40
12.54751368323494
 41
1.570528967254408
 42
50.0
 43
0.0
 44
0.0
 50
0.0
 51
0.0
 71
     0
 72
   100
 73
     1
 74
     0
 75
     0
 76
     0
 77
     0
 78
     0
  0
ENDTAB
  0
TABLE
  2
LTYPE
  5
5
330
0
100
AcDbSymbolTable
 70
     2
  0
LTYPE
  5
12
330
5
100
AcDbSymbolTableRecord
100
AcDbLinetypeTableRecord
  2
BYBLOCK
 70
     0
  3

 72
    65
 73
     0
 40
0.0
  0
LTYPE
  5
13
330
5
100
AcDbSymbolTableRecord
100
AcDbLinetypeTableRecord
  2
BYLAYER
 70
     0
  3

 72
    65
 73
     0
 40
0.0
  0
LTYPE
  5
14
330
5
100
AcDbSymbolTableRecord
100
AcDbLinetypeTableRecord
  2
CONTINUOUS
 70
     0
  3
Solid line
 72
    65
 73
     0
 40
0.0
  0
LTYPE
  5
C7
330
5
100
AcDbSymbolTableRecord
100
AcDbLinetypeTableRecord
  2
CENTER2
 70
     0
  3
___ _ ___ _ ___ _ ___ _ ___ _ ___ _ ___ _ ___ _
 72
    65
 73
     4
 40
1.125
 49
0.75
 74
     0
 49
-0.125
 74
     0
 49
0.125
 74
     0
 49
-0.125
 74
     0
  0
ENDTAB
  0
TABLE
  2
LAYER
  5
2
330
0
100
AcDbSymbolTable
 70
     5
  0
LAYER
  5
F
330
2
100
AcDbSymbolTableRecord
100
AcDbLayerTableRecord
  2
0
 70
     0
 62
     7
  6
CONTINUOUS
  0
LAYER
  5
C8
330
2
100
AcDbSymbolTableRecord
100
AcDbLayerTableRecord
  2
ADP1DETAIL
 70
     0
 62
     7
  6
CONTINUOUS
  0
LAYER
  5
C9
330
2
100
AcDbSymbolTableRecord
100
AcDbLayerTableRecord
  2
DEFPOINTS
 70
     0
 62
     7
  6
CONTINUOUS
  0
LAYER
  5
CC
330
2
100
AcDbSymbolTableRecord
100
AcDbLayerTableRecord
  2
ADPDIM
 70
     0
 62
     3
  6
CONTINUOUS
  0
LAYER
  5
CD
330
2
100
AcDbSymbolTableRecord
100
AcDbLayerTableRecord
  2
ADP3DETAIL
 70
     0
 62
     1
  6
CONTINUOUS
  0
ENDTAB
  0
TABLE
  2
STYLE
  5
3
330
0
100
AcDbSymbolTable
 70
     2
  0
STYLE
  5
10
330
3
100
AcDbSymbolTableRecord
100
AcDbTextStyleTableRecord
  2
STANDARD
 70
     0
 40
0.0
 41
1.0
 50
0.0
 71
     0
 42
0.2
  3
txt
  4

  0
STYLE
  5
128
330
3
100
AcDbSymbolTableRecord
100
AcDbTextStyleTableRecord
  2
ARIAL_WIDE
 70
     0
 40
0.0
 41
1.25
 50
0.0
 71
     0
 42
0.2
  3
ARIAL.TTF
  4

1001
ACAD
1000
Arial
1071
       34
  0
ENDTAB
  0
TABLE
  2
VIEW
  5
6
330
0
100
AcDbSymbolTable
 70
     0
  0
ENDTAB
  0
TABLE
  2
UCS
  5
7
330
0
100
AcDbSymbolTable
 70
     0
  0
ENDTAB
  0
TABLE
  2
APPID
  5
9
330
0
100
AcDbSymbolTable
 70
     1
  0
APPID
  5
11
330
9
100
AcDbSymbolTableRecord
100
AcDbRegAppTableRecord
  2
ACAD
 70
     0
  0
ENDTAB
  0
TABLE
  2
DIMSTYLE
  5
A
330
0
100
AcDbSymbolTable
 70
     1
  0
DIMSTYLE
105
11C
330
A
100
AcDbSymbolTableRecord
100
AcDbDimStyleTableRecord
  2
STANDARD
 70
     0
  3

  4

  5

  6

  7

 40
1.0
 41
0.18
 42
0.0625
 43
0.38
 44
0.18
 45
0.0
 46
0.0
 47
0.0
 48
0.0
140
0.18
141
0.09
142
0.0
143
25.4
144
1.0
145
0.0
146
1.0
147
0.09
 71
     0
 72
     0
 73
     1
 74
     1
 75
     0
 76
     0
 77
     0
 78
     0
170
     0
171
     2
172
     0
173
     0
174
     0
175
     0
176
     0
177
     0
178
     0
270
     2
271
     4
272
     4
273
     2
274
     2
340
10
275
     0
280
     0
281
     0
282
     0
283
     1
284
     0
285
     0
286
     0
287
     3
288
     0
  0
ENDTAB
  0
TABLE
  2
BLOCK_RECORD
  5
1
330
0
100
AcDbSymbolTable
 70
     5
  0
BLOCK_RECORD
  5
18
102
{ACAD_XDICTIONARY
360
17D
102
}
330
1
100
AcDbSymbolTableRecord
100
AcDbBlockTableRecord
  2
*MODEL_SPACE
  0
BLOCK_RECORD
  5
15
102
{ACAD_XDICTIONARY
360
17B
102
}
330
1
100
AcDbSymbolTableRecord
100
AcDbBlockTableRecord
  2
*PAPER_SPACE
  0
BLOCK_RECORD
  5
C1
330
1
100
AcDbSymbolTableRecord
100
AcDbBlockTableRecord
  2
*D0
  0
BLOCK_RECORD
  5
C2
330
1
100
AcDbSymbolTableRecord
100
AcDbBlockTableRecord
  2
*D1
  0
BLOCK_RECORD
  5
C3
330
1
100
AcDbSymbolTableRecord
100
AcDbBlockTableRecord
  2
*D2
  0
BLOCK_RECORD
  5
C4
330
1
100
AcDbSymbolTableRecord
100
AcDbBlockTableRecord
  2
*D3
  0
BLOCK_RECORD
  5
C5
330
1
100
AcDbSymbolTableRecord
100
AcDbBlockTableRecord
  2
*D4
  0
ENDTAB
  0
ENDSEC
  0
SECTION
  2
BLOCKS
  0
BLOCK
  5
D0
330
18
100
AcDbEntity
  8
0
100
AcDbBlockBegin
  2
*MODEL_SPACE
 70
     0
 10
0.0
 20
0.0
 30
0.0
  3
*MODEL_SPACE
  1

  0
ENDBLK
  5
D1
330
18
100
AcDbEntity
  8
0
100
AcDbBlockEnd
  0
BLOCK
  5
CE
330
15
100
AcDbEntity
 67
     1
  8
0
100
AcDbBlockBegin
  2
*PAPER_SPACE
 70
     0
 10
0.0
 20
0.0
 30
0.0
  3
*PAPER_SPACE
  1

  0
ENDBLK
  5
CF
330
15
100
AcDbEntity
 67
     1
  8
0
100
AcDbBlockEnd
  0
BLOCK
  5
D3
330
C1
100
AcDbEntity
  8
0
100
AcDbBlockBegin
  2
*D0
 70
     1
 10
0.0
 20
0.0
 30
0.0
  3
*D0
  1

  0
LINE
  5
D4
330
C1
100
AcDbEntity
  8
0
  6
BYBLOCK
 62
     0
100
AcDbLine
 10
19.68179759087037
 20
-24.30689489912232
 30
0.0
 11
18.98434104116533
 21
-23.04864997622759
 31
0.0
  0
LINE
  5
D5
330
C1
100
AcDbEntity
  8
0
  6
BYBLOCK
 62
     0
100
AcDbLine
 10
22.30565671228855
 20
-22.8524660383833
 30
0.0
 11
21.60820016258352
 21
-21.59422111548857
 31
0.0
  0
LINE
  5
D6
330
C1
100
AcDbEntity
  8
0
  6
BYBLOCK
 62
     0
100
AcDbLine
 10
19.07160677280967
 20
-23.20608152351268
 30
0.0
 11
20.23776638232886
 21
-22.55966869651757
 31
0.0
  0
LINE
  5
D7
330
C1
100
AcDbEntity
  8
0
  6
BYBLOCK
 62
     0
100
AcDbLine
 10
21.69546589422786
 20
-21.75165266277367
 30
0.0
 11
20.52930628470866
 21
-22.39806548976879
 31
0.0
  0
LINE
  5
D8
330
C1
100
AcDbEntity
  8
0
  6
BYBLOCK
 62
     0
100
AcDbLine
 10
19.02288051194804
 20
-23.3760101894359
 30
0.0
 11
19.1203330336713
 21
-23.03615285758946
 31
0.0
  0
LINE
  5
D9
330
C1
100
AcDbEntity
  8
0
  6
BYBLOCK
 62
     0
100
AcDbLine
 10
21.64673963336622
 20
-21.92158132869689
 30
0.0
 11
21.74419215508949
 21
-21.58172399685045
 31
0.0
  0
TEXT
  5
DA
330
C1
100
AcDbEntity
  8
0
  6
BYBLOCK
 62
     0
100
AcDbText
 10
20.37739444698668
 20
-22.55373122568298
 30
0.0
 40
0.125
  1
3
 50
29.00000000000004
 72
     1
 11
20.38353633351876
 21
-22.47886709314318
 31
0.0
100
AcDbText
 73
     2
  0
POINT
  5
DB
330
C1
100
AcDbEntity
  8
DEFPOINTS
  6
BYBLOCK
 62
     0
100
AcDbPoint
 10
19.71209819213576
 20
-24.36155863081853
 30
0.0
  0
POINT
  5
DC
330
C1
100
AcDbEntity
  8
DEFPOINTS
  6
BYBLOCK
 62
     0
100
AcDbPoint
 10
22.33595731355395
 20
-22.90712977007951
 30
0.0
  0
POINT
  5
DD
330
C1
100
AcDbEntity
  8
DEFPOINTS
  6
BYBLOCK
 62
     0
100
AcDbPoint
 10
21.69546589422786
 20
-21.75165266277367
 30
0.0
  0
ENDBLK
  5
DE
330
C1
100
AcDbEntity
  8
0
100
AcDbBlockEnd
  0
BLOCK
  5
DF
330
C2
100
AcDbEntity
  8
0
100
AcDbBlockBegin
  2
*D1
 70
     1
 10
0.0
 20
0.0
 30
0.0
  3
*D1
  1

  0
LINE
  5
E0
330
C2
100
AcDbEntity
  8
0
  6
BYBLOCK
 62
     0
100
AcDbLine
 10
29.33595731355396
 20
-22.01462977007952
 30
0.0
 11
29.33595731355396
 21
-21.49507488561992
 31
0.0
  0
LINE
  5
E1
330
C2
100
AcDbEntity
  8
0
  6
BYBLOCK
 62
     0
100
AcDbLine
 10
22.33595731355396
 20
-22.60747731477099
 30
0.0
 11
22.33595731355396
 21
-21.49507488561992
 31
0.0
  0
LINE
  5
E2
330
C2
100
AcDbEntity
  8
0
  6
BYBLOCK
 62
     0
100
AcDbLine
 10
29.33595731355396
 20
-21.67507488561991
 30
0.0
 11
26.00262398022063
 21
-21.67507488561991
 31
0.0
  0
LINE
  5
E3
330
C2
100
AcDbEntity
  8
0
  6
BYBLOCK
 62
     0
100
AcDbLine
 10
22.33595731355396
 20
-21.67507488561991
 30
0.0
 11
25.66929064688729
 21
-21.67507488561991
 31
0.0
  0
LINE
  5
E4
330
C2
100
AcDbEntity
  8
0
  6
BYBLOCK
 62
     0
100
AcDbLine
 10
29.21095731355396
 20
-21.80007488561992
 30
0.0
 11
29.46095731355396
 21
-21.55007488561991
 31
0.0
  0
LINE
  5
E5
330
C2
100
AcDbEntity
  8
0
  6
BYBLOCK
 62
     0
100
AcDbLine
 10
22.21095731355396
 20
-21.80007488561992
 30
0.0
 11
22.46095731355396
 21
-21.55007488561991
 31
0.0
  0
TEXT
  5
E6
330
C2
100
AcDbEntity
  8
0
  6
BYBLOCK
 62
     0
100
AcDbText
 10
25.79429064688729
 20
-21.73757488561991
 30
0.0
 40
0.125
  1
7
 72
     1
 11
25.83595731355396
 21
-21.67507488561991
 31
0.0
100
AcDbText
 73
     2
  0
POINT
  5
E7
330
C2
100
AcDbEntity
  8
DEFPOINTS
  6
BYBLOCK
 62
     0
100
AcDbPoint
 10
29.33595731355396
 20
-22.07712977007952
 30
0.0
  0
POINT
  5
E8
330
C2
100
AcDbEntity
  8
DEFPOINTS
  6
BYBLOCK
 62
     0
100
AcDbPoint
 10
22.33595731355396
 20
-22.66997731477099
 30
0.0
  0
POINT
  5
E9
330
C2
100
AcDbEntity
  8
DEFPOINTS
  6
BYBLOCK
 62
     0
100
AcDbPoint
 10
22.33595731355396
 20
-21.67507488561991
 30
0.0
  0
ENDBLK
  5
EA
330
C2
100
AcDbEntity
  8
0
100
AcDbBlockEnd
  0
BLOCK
  5
EB
330
C3
100
AcDbEntity
  8
0
100
AcDbBlockBegin
  2
*D2
 70
     1
 10
0.0
 20
0.0
 30
0.0
  3
*D2
  1

  0
LINE
  5
EC
330
C3
100
AcDbEntity
  8
0
  6
BYBLOCK
 62
     0
100
AcDbLine
 10
22.32035309293269
 20
-22.9964120790751
 30
0.0
 11
22.98321627241977
 21
-25.40973290079567
 31
0.0
  0
LINE
  5
ED
330
C3
100
AcDbEntity
  8
0
  6
BYBLOCK
 62
     0
100
AcDbLine
 10
22.16670979930692
 20
-22.90898360360043
 30
0.0
 11
22.47399638655847
 21
-23.08384055454977
 31
0.0
  0
TEXT
  5
EE
330
C3
100
AcDbEntity
  8
0
  6
BYBLOCK
 62
     0
100
AcDbText
 10
22.95605573922021
 20
-25.54682248988366
 30
0.0
 40
0.125
  1
R2 1/2
 50
285.3585909233255
 72
     1
 11
23.10461010569679
 21
-25.85169781081314
 31
0.0
100
AcDbText
 73
     2
  0
POINT
  5
EF
330
C3
100
AcDbEntity
  8
DEFPOINTS
  6
BYBLOCK
 62
     0
100
AcDbPoint
 10
22.32035309293269
 20
-22.9964120790751
 30
0.0
  0
POINT
  5
F0
330
C3
100
AcDbEntity
  8
DEFPOINTS
  6
BYBLOCK
 62
     0
100
AcDbPoint
 10
22.9825012744437
 20
-25.40712977007951
 30
0.0
  0
ENDBLK
  5
F1
330
C3
100
AcDbEntity
  8
0
100
AcDbBlockEnd
  0
BLOCK
  5
F2
330
C4
100
AcDbEntity
  8
0
100
AcDbBlockBegin
  2
*D3
 70
     1
 10
0.0
 20
0.0
 30
0.0
  3
*D3
  1

  0
LINE
  5
F3
330
C4
100
AcDbEntity
  8
0
  6
BYBLOCK
 62
     0
100
AcDbLine
 10
29.39845731355396
 20
-22.07712977007952
 30
0.0
 11
30.33324138421988
 21
-22.07712977007952
 31
0.0
  0
LINE
  5
F4
330
C4
100
AcDbEntity
  8
0
  6
BYBLOCK
 62
     0
100
AcDbLine
 10
29.39845731355396
 20
-23.73712977007951
 30
0.0
 11
30.33324138421988
 21
-23.73712977007951
 31
0.0
  0
LINE
  5
F5
330
C4
100
AcDbEntity
  8
0
  6
BYBLOCK
 62
     0
100
AcDbLine
 10
30.15324138421988
 20
-22.07712977007952
 30
0.0
 11
30.15324138421988
 21
-22.56337977007951
 31
0.0
  0
LINE
  5
F6
330
C4
100
AcDbEntity
  8
0
  6
BYBLOCK
 62
     0
100
AcDbLine
 10
30.15324138421988
 20
-23.73712977007951
 30
0.0
 11
30.15324138421988
 21
-23.25087977007951
 31
0.0
  0
LINE
  5
F7
330
C4
100
AcDbEntity
  8
0
  6
BYBLOCK
 62
     0
100
AcDbLine
 10
30.27824138421987
 20
-22.20212977007951
 30
0.0
 11
30.02824138421988
 21
-21.95212977007952
 31
0.0
  0
LINE
  5
F8
330
C4
100
AcDbEntity
  8
0
  6
BYBLOCK
 62
     0
100
AcDbLine
 10
30.27824138421987
 20
-23.86212977007951
 30
0.0
 11
30.02824138421988
 21
-23.61212977007951
 31
0.0
  0
TEXT
  5
F9
330
C4
100
AcDbEntity
  8
0
  6
BYBLOCK
 62
     0
100
AcDbText
 10
30.21574138421987
 20
-23.12587977007952
 30
0.0
 40
0.125
  1
1.660
 50
90.0
 72
     1
 11
30.15324138421988
 21
-22.90712977007951
 31
0.0
100
AcDbText
 73
     2
  0
POINT
  5
FA
330
C4
100
AcDbEntity
  8
DEFPOINTS
  6
BYBLOCK
 62
     0
100
AcDbPoint
 10
29.33595731355396
 20
-22.07712977007952
 30
0.0
  0
POINT
  5
FB
330
C4
100
AcDbEntity
  8
DEFPOINTS
  6
BYBLOCK
 62
     0
100
AcDbPoint
 10
29.33595731355396
 20
-23.73712977007951
 30
0.0
  0
POINT
  5
FC
330
C4
100
AcDbEntity
  8
DEFPOINTS
  6
BYBLOCK
 62
     0
100
AcDbPoint
 10
30.15324138421988
 20
-23.73712977007951
 30
0.0
  0
ENDBLK
  5
FD
330
C4
100
AcDbEntity
  8
0
100
AcDbBlockEnd
  0
BLOCK
  5
FE
330
C5
100
AcDbEntity
  8
0
100
AcDbBlockBegin
  2
*D4
 70
     1
 10
0.0
 20
0.0
 30
0.0
  3
*D4
  1

  0
LINE
  5
FF
330
C5
100
AcDbEntity
  8
0
  6
BYBLOCK
 62
     0
100
AcDbLine
 10
31.55660330437333
 20
-22.22939482768502
 30
0.0
 11
31.43910330437333
 21
-22.22939482768502
 31
0.0
  0
LINE
  5
100
330
C5
100
AcDbEntity
  8
0
  6
BYBLOCK
 62
     0
100
AcDbLine
 10
31.55660330437333
 20
-22.08439482768502
 30
0.0
 11
31.43910330437333
 21
-22.08439482768502
 31
0.0
  0
LINE
  5
101
330
C5
100
AcDbEntity
  8
0
  6
BYBLOCK
 62
     0
100
AcDbLine
 10
31.61910330437333
 20
-22.22939482768502
 30
0.0
 11
31.61910330437333
 21
-22.47939482768502
 31
0.0
  0
LINE
  5
102
330
C5
100
AcDbEntity
  8
0
  6
BYBLOCK
 62
     0
100
AcDbLine
 10
31.61910330437333
 20
-22.08439482768502
 30
0.0
 11
31.61910330437333
 21
-21.83439482768501
 31
0.0
  0
LINE
  5
103
330
C5
100
AcDbEntity
  8
0
  6
BYBLOCK
 62
     0
100
AcDbLine
 10
31.74410330437333
 20
-22.35439482768502
 30
0.0
 11
31.49410330437333
 21
-22.10439482768502
 31
0.0
  0
LINE
  5
104
330
C5
100
AcDbEntity
  8
0
  6
BYBLOCK
 62
     0
100
AcDbLine
 10
31.74410330437333
 20
-22.20939482768502
 30
0.0
 11
31.49410330437333
 21
-21.95939482768502
 31
0.0
  0
TEXT
  5
105
330
C5
100
AcDbEntity
  8
0
  6
BYBLOCK
 62
     0
100
AcDbText
 10
31.68160330437333
 20
-21.70939482768502
 30
0.0
 40
0.125
  1
0.145
 50
90.0
 72
     1
 11
31.61910330437333
 21
-21.49064482768502
 31
0.0
100
AcDbText
 73
     2
  0
POINT
  5
106
330
C5
100
AcDbEntity
  8
DEFPOINTS
  6
BYBLOCK
 62
     0
100
AcDbPoint
 10
31.61910330437333
 20
-22.22939482768502
 30
0.0
  0
POINT
  5
107
330
C5
100
AcDbEntity
  8
DEFPOINTS
  6
BYBLOCK
 62
     0
100
AcDbPoint
 10
31.61910330437333
 20
-22.08439482768502
 30
0.0
  0
POINT
  5
108
330
C5
100
AcDbEntity
  8
DEFPOINTS
  6
BYBLOCK
 62
     0
100
AcDbPoint
 10
31.61910330437333
 20
-22.08439482768502
 30
0.0
  0
ENDBLK
  5
109
330
C5
100
AcDbEntity
  8
0
100
AcDbBlockEnd
  0
ENDSEC
  0
SECTION
  2
ENTITIES
  0
LINE
  5
10A
330
18
100
AcDbEntity
  8
ADP3DETAIL
  6
CENTER2
100
AcDbLine
 10
29.50805058947373
 20
-22.90712977007951
 30
0.0
 11
22.9825012744437
 21
-22.90712977007951
 31
0.0
  0
DIMENSION
  5
10B
330
18
100
AcDbEntity
  8
ADPDIM
100
AcDbDimension
  2
*D1
 10
22.33595731355396
 20
-21.67507488561991
 30
0.0
 11
25.83595731355396
 21
-21.67507488561991
 31
0.0
100
AcDbAlignedDimension
 13
29.33595731355396
 23
-22.07712977007952
 33
0.0
 14
22.33595731355396
 24
-22.66997731477099
 34
0.0
100
AcDbRotatedDimension
  0
LINE
  5
10C
330
18
100
AcDbEntity
  8
ADP1DETAIL
100
AcDbLine
 10
22.99025980197437
 20
-23.73712977007951
 30
0.0
 11
29.33595731355396
 21
-23.73712977007951
 31
0.0
  0
LINE
  5
10D
330
18
100
AcDbEntity
  8
ADP1DETAIL
100
AcDbLine
 10
22.97474274691301
 20
-22.07712977007952
 30
0.0
 11
29.33595731355396
 21
-22.07712977007952
 31
0.0
  0
LINE
  5
10E
330
18
100
AcDbEntity
  8
ADP3DETAIL
  6
CENTER2
100
AcDbLine
 10
21.77047722382786
 20
-23.22058050223102
 30
0.0
 11
19.05291197709137
 21
-24.72695151641053
 31
0.0
  0
DIMENSION
  5
10F
330
18
100
AcDbEntity
  8
ADPDIM
100
AcDbDimension
  2
*D0
 10
21.69546589422786
 20
-21.75165266277367
 30
0.0
 11
20.38353633351876
 21
-22.47886709314318
 31
0.0
 70
     1
100
AcDbAlignedDimension
 13
19.71209819213576
 23
-24.36155863081853
 33
0.0
 14
22.33595731355396
 24
-22.90712977007952
 34
0.0
  0
ARC
  5
110
330
18
100
AcDbEntity
  8
ADP1DETAIL
100
AcDbCircle
 10
22.97474274691301
 20
-25.37712977007952
 30
0.0
 40
3.299999999999999
100
AcDbArc
 50
90.0
 51
118.9999999999999
  0
LINE
  5
111
330
18
100
AcDbEntity
  8
ADP1DETAIL
100
AcDbLine
 10
22.1660834475556
 20
-23.95027626794254
 30
0.0
 11
20.11449017694022
 21
-25.08749298774423
 31
0.0
  0
LINE
  5
112
330
18
100
AcDbEntity
  8
ADP1DETAIL
100
AcDbLine
 10
20.11449017694022
 20
-25.08749298774423
 30
0.0
 11
19.3097062073313
 21
-23.63562427389283
 31
0.0
  0
LINE
  5
113
330
18
100
AcDbEntity
  8
ADP1DETAIL
100
AcDbLine
 10
19.3097062073313
 20
-23.63562427389283
 30
0.0
 11
21.3748710001001
 21
-22.49088473651951
 31
0.0
  0
DIMENSION
  5
114
330
18
100
AcDbEntity
  8
ADPDIM
100
AcDbDimension
  2
*D2
 10
22.9825012744437
 20
-25.40712977007951
 30
0.0
 11
23.10461010569679
 21
-25.85169781081314
 31
0.0
 70
     4
100
AcDbRadialDimension
 15
22.32035309293269
 25
-22.9964120790751
 35
0.0
 40
-2.502699539151623
  0
ARC
  5
115
330
18
100
AcDbEntity
  8
ADP3DETAIL
  6
CENTER2
100
AcDbCircle
 10
22.9825012744437
 20
-25.40712977007951
 30
0.0
 40
2.5
100
AcDbArc
 50
90.0
 51
118.9999999999999
  0
ARC
  5
116
330
18
100
AcDbEntity
  8
ADP1DETAIL
100
AcDbCircle
 10
22.99025980197437
 20
-25.43712977007951
 30
0.0
 40
1.7
100
AcDbArc
 50
90.0
 51
118.9999999999999
  0
DIMENSION
  5
117
330
18
100
AcDbEntity
  8
ADPDIM
100
AcDbDimension
  2
*D4
 10
31.61910330437333
 20
-22.08439482768502
 30
0.0
 11
31.61910330437333
 21
-21.49064482768502
 31
0.0
  1
0.145
100
AcDbAlignedDimension
 13
31.61910330437333
 23
-22.22939482768502
 33
0.0
 14
31.61910330437333
 24
-22.08439482768502
 34
0.0
 50
90.0
100
AcDbRotatedDimension
  0
CIRCLE
  5
118
330
18
100
AcDbEntity
  8
ADP1DETAIL
100
AcDbCircle
 10
31.61910330437333
 20
-22.90712977007951
 30
0.0
 40
0.6899999999999978
  0
CIRCLE
  5
119
330
18
100
AcDbEntity
  8
ADP1DETAIL
100
AcDbCircle
 10
31.61910330437333
 20
-22.90712977007951
 30
0.0
 40
0.8299999999999998
  0
DIMENSION
  5
11A
330
18
100
AcDbEntity
  8
ADPDIM
100
AcDbDimension
  2
*D3
 10
30.15324138421988
 20
-23.73712977007951
 30
0.0
 11
30.15324138421988
 21
-22.90712977007951
 31
0.0
  1
1.660
100
AcDbAlignedDimension
 13
29.33595731355396
 23
-22.07712977007952
 33
0.0
 14
29.33595731355396
 24
-23.73712977007951
 34
0.0
 50
90.0
100
AcDbRotatedDimension
  0
LINE
  5
11B
330
18
100
AcDbEntity
  8
ADP1DETAIL
100
AcDbLine
 10
29.33595731355396
 20
-22.07712977007952
 30
0.0
 11
29.33595731355396
 21
-23.73712977007951
 31
0.0
  0
TEXT
  5
129
330
18
100
AcDbEntity
  8
ADPDIM
100
AcDbText
 10
15.97995952393469
 20
-27.14507560413672
 30
0.0
 40
0.1875
  1
J U L I U S  B L U M  &  C O . ,  I N C .      ( 8 0 0 )  5 2 6 - 6 2 9 3        W W W . J U L I U S B L U M . C O M        P A R T  N o .  7 4 0 9
 41
1.25
  7
ARIAL_WIDE
 72
     1
 11
25.76855306076962
 21
-26.95757560413672
 31
0.0
100
AcDbText
 73
     3
  0
ENDSEC
  0
SECTION
  2
OBJECTS
  0
DICTIONARY
  5
C
330
0
100
AcDbDictionary
  3
ACAD_GROUP
350
D
  3
ACAD_LAYOUT
350
122
  3
ACAD_MLINESTYLE
350
E
  3
ACAD_PLOTSETTINGS
350
123
  3
ACAD_PLOTSTYLENAME
350
120
  3
ACDBHEADERROUNDTRIPXREC
350
26D
  3
ACDBVARIABLEDICTIONARY
350
183
  0
DICTIONARY
  5
17D
330
18
100
AcDbDictionary
280
     1
  3
ACAD_LAYOUTSELFREF
360
28E
  0
DICTIONARY
  5
17B
330
15
100
AcDbDictionary
280
     1
  3
ACAD_LAYOUTSELFREF
360
28D
  0
DICTIONARY
  5
D
102
{ACAD_REACTORS
330
C
102
}
330
C
100
AcDbDictionary
  0
DICTIONARY
  5
122
102
{ACAD_REACTORS
330
C
102
}
330
C
100
AcDbDictionary
  0
DICTIONARY
  5
E
102
{ACAD_REACTORS
330
C
102
}
330
C
100
AcDbDictionary
  3
STANDARD
350
1B
  0
DICTIONARY
  5
123
102
{ACAD_REACTORS
330
C
102
}
330
C
100
AcDbDictionary
  0
ACDBDICTIONARYWDFLT
  5
120
102
{ACAD_REACTORS
330
C
102
}
330
C
100
AcDbDictionary
281
     1
  3
Normal
350
121
100
AcDbDictionaryWithDefault
340
121
  0
DICTIONARY
  5
26D
102
{ACAD_REACTORS
330
C
102
}
330
C
100
AcDbDictionary
  3
CEPSNTYPE
350
277
  3
FINGERPRINTGUID
350
278
  3
HYPERLINKBASE
350
270
  3
INSUNITS
350
276
  3
LAYOUTDICT
350
272
  3
LWETCUNION
350
275
  3
PLOTSETDICT
350
273
  3
PLOTSTYLNAMDICT
350
274
  3
PSVPSCALE
350
27A
  3
PUCSBASE
350
27D
  3
PUCSORGBACK
350
283
  3
PUCSORGBOTTOM
350
27F
  3
PUCSORGFRONT
350
282
  3
PUCSORGLEFT
350
280
  3
PUCSORGRIGHT
350
281
  3
PUCSORGTOP
350
27E
  3
PUCSORTHOREF
350
27B
  3
PUCSORTHOVIEW
350
27C
  3
STYLESHEET
350
271
  3
TSTACKALIGN
350
26E
  3
TSTACKSIZE
350
26F
  3
UCSBASE
350
286
  3
UCSORGBACK
350
28C
  3
UCSORGBOTTOM
350
288
  3
UCSORGFRONT
350
28B
  3
UCSORGLEFT
350
289
  3
UCSORGRIGHT
350
28A
  3
UCSORGTOP
350
287
  3
UCSORTHOREF
350
284
  3
UCSORTHOVIEW
350
285
  3
VERSIONGUID
350
279
  0
DICTIONARY
  5
183
102
{ACAD_REACTORS
330
C
102
}
330
C
100
AcDbDictionary
  3
DIMASSOC
350
184
  0
XRECORD
  5
28E
102
{ACAD_REACTORS
330
17D
102
}
330
17D
100
AcDbXrecord
340
18
  0
XRECORD
  5
28D
102
{ACAD_REACTORS
330
17B
102
}
330
17B
100
AcDbXrecord
340
15
  0
MLINESTYLE
  5
1B
102
{ACAD_REACTORS
330
E
102
}
330
E
100
AcDbMlineStyle
  2
STANDARD
 70
     0
  3

 62
     0
 51
90.0
 52
90.0
 71
     2
 49
0.5
 62
   256
  6
BYLAYER
 49
-0.5
 62
   256
  6
BYLAYER
  0
ACDBPLACEHOLDER
  5
121
102
{ACAD_REACTORS
330
120
102
}
330
120
100
AcDbPlaceHolder
280
     0
  0
XRECORD
  5
277
102
{ACAD_REACTORS
330
26D
102
}
330
26D
100
AcDbXrecord
 90
        0
  0
XRECORD
  5
278
102
{ACAD_REACTORS
330
26D
102
}
330
26D
100
AcDbXrecord
  1
{716D7A3E-D8F5-4010-9802-73BC762E2737}
  0
XRECORD
  5
270
102
{ACAD_REACTORS
330
26D
102
}
330
26D
100
AcDbXrecord
  1

  0
XRECORD
  5
276
102
{ACAD_REACTORS
330
26D
102
}
330
26D
100
AcDbXrecord
 90
        0
  0
XRECORD
  5
272
102
{ACAD_REACTORS
330
26D
102
}
330
26D
100
AcDbXrecord
340
122
  0
XRECORD
  5
275
102
{ACAD_REACTORS
330
26D
102
}
330
26D
100
AcDbXrecord
 90
    14877
  0
XRECORD
  5
273
102
{ACAD_REACTORS
330
26D
102
}
330
26D
100
AcDbXrecord
340
123
  0
XRECORD
  5
274
102
{ACAD_REACTORS
330
26D
102
}
330
26D
100
AcDbXrecord
340
120
  0
XRECORD
  5
27A
102
{ACAD_REACTORS
330
26D
102
}
330
26D
100
AcDbXrecord
 40
0.0
  0
XRECORD
  5
27D
102
{ACAD_REACTORS
330
26D
102
}
330
26D
100
AcDbXrecord
340
0
  0
XRECORD
  5
283
102
{ACAD_REACTORS
330
26D
102
}
330
26D
100
AcDbXrecord
 10
0.0
 20
0.0
 30
0.0
  0
XRECORD
  5
27F
102
{ACAD_REACTORS
330
26D
102
}
330
26D
100
AcDbXrecord
 10
0.0
 20
0.0
 30
0.0
  0
XRECORD
  5
282
102
{ACAD_REACTORS
330
26D
102
}
330
26D
100
AcDbXrecord
 10
0.0
 20
0.0
 30
0.0
  0
XRECORD
  5
280
102
{ACAD_REACTORS
330
26D
102
}
330
26D
100
AcDbXrecord
 10
0.0
 20
0.0
 30
0.0
  0
XRECORD
  5
281
102
{ACAD_REACTORS
330
26D
102
}
330
26D
100
AcDbXrecord
 10
0.0
 20
0.0
 30
0.0
  0
XRECORD
  5
27E
102
{ACAD_REACTORS
330
26D
102
}
330
26D
100
AcDbXrecord
 10
0.0
 20
0.0
 30
0.0
  0
XRECORD
  5
27B
102
{ACAD_REACTORS
330
26D
102
}
330
26D
100
AcDbXrecord
340
0
  0
XRECORD
  5
27C
102
{ACAD_REACTORS
330
26D
102
}
330
26D
100
AcDbXrecord
 70
     0
  0
XRECORD
  5
271
102
{ACAD_REACTORS
330
26D
102
}
330
26D
100
AcDbXrecord
  1

  0
XRECORD
  5
26E
102
{ACAD_REACTORS
330
26D
102
}
330
26D
100
AcDbXrecord
 90
        1
  0
XRECORD
  5
26F
102
{ACAD_REACTORS
330
26D
102
}
330
26D
100
AcDbXrecord
 90
       70
  0
XRECORD
  5
286
102
{ACAD_REACTORS
330
26D
102
}
330
26D
100
AcDbXrecord
340
0
  0
XRECORD
  5
28C
102
{ACAD_REACTORS
330
26D
102
}
330
26D
100
AcDbXrecord
 10
0.0
 20
0.0
 30
0.0
  0
XRECORD
  5
288
102
{ACAD_REACTORS
330
26D
102
}
330
26D
100
AcDbXrecord
 10
0.0
 20
0.0
 30
0.0
  0
XRECORD
  5
28B
102
{ACAD_REACTORS
330
26D
102
}
330
26D
100
AcDbXrecord
 10
0.0
 20
0.0
 30
0.0
  0
XRECORD
  5
289
102
{ACAD_REACTORS
330
26D
102
}
330
26D
100
AcDbXrecord
 10
0.0
 20
0.0
 30
0.0
  0
XRECORD
  5
28A
102
{ACAD_REACTORS
330
26D
102
}
330
26D
100
AcDbXrecord
 10
0.0
 20
0.0
 30
0.0
  0
XRECORD
  5
287
102
{ACAD_REACTORS
330
26D
102
}
330
26D
100
AcDbXrecord
 10
0.0
 20
0.0
 30
0.0
  0
XRECORD
  5
284
102
{ACAD_REACTORS
330
26D
102
}
330
26D
100
AcDbXrecord
340
0
  0
XRECORD
  5
285
102
{ACAD_REACTORS
330
26D
102
}
330
26D
100
AcDbXrecord
 70
     0
  0
XRECORD
  5
279
102
{ACAD_REACTORS
330
26D
102
}
330
26D
100
AcDbXrecord
  1
{AD99FD38-90EB-4E1B-8B2E-BE339401746A}
  0
DICTIONARYVAR
  5
184
102
{ACAD_REACTORS
330
183
102
}
330
183
100
DictionaryVariables
280
     0
  1
1
  0
ENDSEC
  0
EOF
