  0
SECTION
  2
HEADER
  9
$ACADVER
  1
AC1014
  9
$ACADMAINTVER
 70
     9
  9
$DWGCODEPAGE
  3
ANSI_1252
  9
$INSBASE
 10
-51.53945950132585
 20
3.149093477169111
 30
0.0
  9
$EXTMIN
 10
-50.21902179369003
 20
-0.3796258506339292
 30
0.0
  9
$EXTMAX
 10
-30.64183472002018
 20
9.412958097173321
 30
0.0
  9
$LIMMIN
 10
0.0
 20
0.0
  9
$LIMMAX
 10
36.0
 20
36.0
  9
$ORTHOMODE
 70
     1
  9
$REGENMODE
 70
     1
  9
$FILLMODE
 70
     1
  9
$QTEXTMODE
 70
     0
  9
$MIRRTEXT
 70
     1
  9
$DRAGMODE
 70
     0
  9
$LTSCALE
 40
1.0
  9
$OSMODE
 70
    37
  9
$ATTMODE
 70
     1
  9
$TEXTSIZE
 40
0.2
  9
$TRACEWID
 40
0.05
  9
$TEXTSTYLE
  7
STANDARD
  9
$CLAYER
  8
ADP1DETAIL
  9
$CELTYPE
  6
BYLAYER
  9
$CECOLOR
 62
   256
  9
$CELTSCALE
 40
1.0
  9
$DELOBJ
 70
     1
  9
$DISPSILH
 70
     0
  9
$DIMSCALE
 40
1.0
  9
$DIMASZ
 40
0.25
  9
$DIMEXO
 40
0.0625
  9
$DIMDLI
 40
0.375
  9
$DIMRND
 40
0.0
  9
$DIMDLE
 40
0.0
  9
$DIMEXE
 40
0.1875
  9
$DIMTP
 40
0.0
  9
$DIMTM
 40
0.0
  9
$DIMTXT
 40
0.125
  9
$DIMCEN
 40
0.1875
  9
$DIMTSZ
 40
0.0
  9
$DIMTOL
 70
     0
  9
$DIMLIM
 70
     0
  9
$DIMTIH
 70
     0
  9
$DIMTOH
 70
     0
  9
$DIMSE1
 70
     0
  9
$DIMSE2
 70
     0
  9
$DIMTAD
 70
     0
  9
$DIMZIN
 70
     0
  9
$DIMBLK
  1

  9
$DIMASO
 70
     1
  9
$DIMSHO
 70
     1
  9
$DIMPOST
  1

  9
$DIMAPOST
  1

  9
$DIMALT
 70
     0
  9
$DIMALTD
 70
     1
  9
$DIMALTF
 40
25.4
  9
$DIMLFAC
 40
1.0
  9
$DIMTOFL
 70
     0
  9
$DIMTVP
 40
0.0
  9
$DIMTIX
 70
     0
  9
$DIMSOXD
 70
     0
  9
$DIMSAH
 70
     1
  9
$DIMBLK1
  1
OBLIQUE
  9
$DIMBLK2
  1
OBLIQUE
  9
$DIMSTYLE
  2
STANDARD
  9
$DIMCLRD
 70
     0
  9
$DIMCLRE
 70
     0
  9
$DIMCLRT
 70
     0
  9
$DIMTFAC
 40
1.0
  9
$DIMGAP
 40
0.125
  9
$DIMJUST
 70
     0
  9
$DIMSD1
 70
     0
  9
$DIMSD2
 70
     0
  9
$DIMTOLJ
 70
     1
  9
$DIMTZIN
 70
     0
  9
$DIMALTZ
 70
     0
  9
$DIMALTTZ
 70
     0
  9
$DIMFIT
 70
     3
  9
$DIMUPT
 70
     0
  9
$DIMUNIT
 70
     7
  9
$DIMDEC
 70
     3
  9
$DIMTDEC
 70
     4
  9
$DIMALTU
 70
     2
  9
$DIMALTTD
 70
     2
  9
$DIMTXSTY
  7
STANDARD
  9
$DIMAUNIT
 70
     0
  9
$LUNITS
 70
     5
  9
$LUPREC
 70
     4
  9
$SKETCHINC
 40
0.1
  9
$FILLETRAD
 40
2.5
  9
$AUNITS
 70
     0
  9
$AUPREC
 70
     0
  9
$MENU
  1
acad
  9
$ELEVATION
 40
0.0
  9
$PELEVATION
 40
0.0
  9
$THICKNESS
 40
0.0
  9
$LIMCHECK
 70
     0
  9
$BLIPMODE
 70
     0
  9
$CHAMFERA
 40
0.0
  9
$CHAMFERB
 40
0.0
  9
$CHAMFERC
 40
0.0
  9
$CHAMFERD
 40
0.0
  9
$SKPOLY
 70
     0
  9
$TDCREATE
 40
2450387.518160879
  9
$TDUPDATE
 40
2452297.101081632
  9
$TDINDWG
 40
0.0743758449
  9
$TDUSRTIMER
 40
0.0743758449
  9
$USRTIMER
 70
     1
  9
$ANGBASE
 50
0.0
  9
$ANGDIR
 70
     0
  9
$PDMODE
 70
     0
  9
$PDSIZE
 40
0.0
  9
$PLINEWID
 40
0.0
  9
$COORDS
 70
     2
  9
$SPLFRAME
 70
     0
  9
$SPLINETYPE
 70
     6
  9
$SPLINESEGS
 70
     8
  9
$ATTDIA
 70
     0
  9
$ATTREQ
 70
     1
  9
$HANDLING
 70
 22529
  9
$HANDSEED
  5
4D7
  9
$SURFTAB1
 70
     6
  9
$SURFTAB2
 70
     6
  9
$SURFTYPE
 70
     6
  9
$SURFU
 70
     6
  9
$SURFV
 70
     6
  9
$UCSNAME
  2

  9
$UCSORG
 10
0.0
 20
0.0
 30
0.0
  9
$UCSXDIR
 10
1.0
 20
0.0
 30
0.0
  9
$UCSYDIR
 10
0.0
 20
1.0
 30
0.0
  9
$PUCSNAME
  2

  9
$PUCSORG
 10
0.0
 20
0.0
 30
0.0
  9
$PUCSXDIR
 10
1.0
 20
0.0
 30
0.0
  9
$PUCSYDIR
 10
0.0
 20
1.0
 30
0.0
  9
$USERI1
 70
     0
  9
$USERI2
 70
     0
  9
$USERI3
 70
     0
  9
$USERI4
 70
     0
  9
$USERI5
 70
     0
  9
$USERR1
 40
0.0
  9
$USERR2
 40
0.0
  9
$USERR3
 40
0.0
  9
$USERR4
 40
0.0
  9
$USERR5
 40
0.0
  9
$WORLDVIEW
 70
     1
  9
$SHADEDGE
 70
     3
  9
$SHADEDIF
 70
    70
  9
$TILEMODE
 70
     1
  9
$MAXACTVP
 70
    15
  9
$PINSBASE
 10
0.0
 20
0.0
 30
0.0
  9
$PLIMCHECK
 70
     0
  9
$PEXTMIN
 10
1.000000000000000E+20
 20
1.000000000000000E+20
 30
1.000000000000000E+20
  9
$PEXTMAX
 10
-1.000000000000000E+20
 20
-1.000000000000000E+20
 30
-1.000000000000000E+20
  9
$PLIMMIN
 10
0.0
 20
0.0
  9
$PLIMMAX
 10
12.0
 20
9.0
  9
$UNITMODE
 70
     0
  9
$VISRETAIN
 70
     0
  9
$PLINEGEN
 70
     0
  9
$PSLTSCALE
 70
     1
  9
$TREEDEPTH
 70
  3020
  9
$PICKSTYLE
 70
     1
  9
$CMLSTYLE
  2
STANDARD
  9
$CMLJUST
 70
     0
  9
$CMLSCALE
 40
1.0
  9
$PROXYGRAPHICS
 70
     1
  9
$MEASUREMENT
 70
     0
  0
ENDSEC
  0
SECTION
  2
CLASSES
  0
CLASS
  1
ACDBDICTIONARYWDFLT
  2
AcDbDictionaryWithDefault
  3
AutoCAD 2000
 90
        0
280
     0
281
     0
  0
CLASS
  1
ACDBPLACEHOLDER
  2
AcDbPlaceHolder
  3
AutoCAD 2000
 90
        0
280
     0
281
     0
  0
CLASS
  1
LAYOUT
  2
AcDbLayout
  3
AutoCAD 2000
 90
        0
280
     0
281
     0
  0
CLASS
  1
DICTIONARYVAR
  2
AcDbDictionaryVar
  3
AutoCAD 2000
 90
        0
280
     0
281
     0
  0
CLASS
  1
LONG_TRANSACTION
  2
AcDbLongTransaction
  3
AutoCAD 2000
 90
        0
280
     0
281
     0
  0
CLASS
  1
LWPOLYLINE
  2
AcDbPolyline
  3
AutoCAD 2000
 90
        0
280
     0
281
     1
  0
CLASS
  1
HATCH
  2
AcDbHatch
  3
AutoCAD 2000
 90
        0
280
     0
281
     1
  0
CLASS
  1
XRECORD
  2
AcDbXrecord
  3
AutoCAD 2000
 90
        0
280
     0
281
     0
  0
CLASS
  1
LONG_TRANSACTION
  2
AcDbLongTransaction
  3
AutoCAD 2000
 90
        0
280
     0
281
     0
  0
CLASS
  1
LWPOLYLINE
  2
AcDbPolyline
  3
AutoCAD 2000
 90
        0
280
     0
281
     1
  0
CLASS
  1
HATCH
  2
AcDbHatch
  3
AutoCAD 2000
 90
        0
280
     0
281
     1
  0
CLASS
  1
XRECORD
  2
AcDbXrecord
  3
AutoCAD 2000
 90
        0
280
     0
281
     0
  0
CLASS
  1
LONG_TRANSACTION
  2
AcDbLongTransaction
  3
AutoCAD 2000
 90
        0
280
     0
281
     0
  0
CLASS
  1
LWPOLYLINE
  2
AcDbPolyline
  3
AutoCAD 2000
 90
        0
280
     0
281
     1
  0
CLASS
  1
HATCH
  2
AcDbHatch
  3
AutoCAD 2000
 90
        0
280
     0
281
     1
  0
CLASS
  1
XRECORD
  2
AcDbXrecord
  3
AutoCAD 2000
 90
        0
280
     0
281
     0
  0
CLASS
  1
LONG_TRANSACTION
  2
AcDbLongTransaction
  3
AutoCAD 2000
 90
        0
280
     0
281
     0
  0
CLASS
  1
LWPOLYLINE
  2
AcDbPolyline
  3
AutoCAD 2000
 90
        0
280
     0
281
     1
  0
CLASS
  1
HATCH
  2
AcDbHatch
  3
AutoCAD 2000
 90
        0
280
     0
281
     1
  0
CLASS
  1
XRECORD
  2
AcDbXrecord
  3
AutoCAD 2000
 90
        0
280
     0
281
     0
  0
CLASS
  1
LONG_TRANSACTION
  2
AcDbLongTransaction
  3
AutoCAD 2000
 90
        0
280
     0
281
     0
  0
CLASS
  1
LWPOLYLINE
  2
AcDbPolyline
  3
AutoCAD 2000
 90
        0
280
     0
281
     1
  0
CLASS
  1
HATCH
  2
AcDbHatch
  3
AutoCAD 2000
 90
        0
280
     0
281
     1
  0
CLASS
  1
XRECORD
  2
AcDbXrecord
  3
AutoCAD 2000
 90
        0
280
     0
281
     0
  0
ENDSEC
  0
SECTION
  2
TABLES
  0
TABLE
  2
VPORT
  5
8
330
0
100
AcDbSymbolTable
 70
     2
  0
VPORT
  5
4B3
330
8
100
AcDbSymbolTableRecord
100
AcDbViewportTableRecord
  2
*ACTIVE
 70
     0
 10
0.0
 20
0.0
 11
1.0
 21
1.0
 12
-40.41152153453134
 22
4.516806976861021
 13
0.0
 23
0.0
 14
0.5740882589684922
 24
0.5740882589684922
 15
0.5
 25
0.5
 16
0.0
 26
0.0
 36
1.0
 17
0.0
 27
0.0
 37
0.0
 40
12.54957110756876
 41
1.570528967254408
 42
50.0
 43
0.0
 44
0.0
 50
0.0
 51
0.0
 71
     0
 72
   100
 73
     1
 74
     0
 75
     0
 76
     0
 77
     0
 78
     0
  0
ENDTAB
  0
TABLE
  2
LTYPE
  5
5
330
0
100
AcDbSymbolTable
 70
     2
  0
LTYPE
  5
12
330
5
100
AcDbSymbolTableRecord
100
AcDbLinetypeTableRecord
  2
BYBLOCK
 70
     0
  3

 72
    65
 73
     0
 40
0.0
  0
LTYPE
  5
13
330
5
100
AcDbSymbolTableRecord
100
AcDbLinetypeTableRecord
  2
BYLAYER
 70
     0
  3

 72
    65
 73
     0
 40
0.0
  0
LTYPE
  5
14
330
5
100
AcDbSymbolTableRecord
100
AcDbLinetypeTableRecord
  2
CONTINUOUS
 70
     0
  3
Solid line
 72
    65
 73
     0
 40
0.0
  0
LTYPE
  5
253
330
5
100
AcDbSymbolTableRecord
100
AcDbLinetypeTableRecord
  2
CENTER2
 70
     0
  3
___ _ ___ _ ___ _ ___ _ ___ _ ___ _ ___ _ ___ _
 72
    65
 73
     4
 40
1.125
 49
0.75
 74
     0
 49
-0.125
 74
     0
 49
0.125
 74
     0
 49
-0.125
 74
     0
  0
ENDTAB
  0
TABLE
  2
LAYER
  5
2
330
0
100
AcDbSymbolTable
 70
     5
  0
LAYER
  5
F
330
2
100
AcDbSymbolTableRecord
100
AcDbLayerTableRecord
  2
0
 70
     0
 62
     7
  6
CONTINUOUS
  0
LAYER
  5
254
330
2
100
AcDbSymbolTableRecord
100
AcDbLayerTableRecord
  2
ADP1DETAIL
 70
     0
 62
     7
  6
CONTINUOUS
  0
LAYER
  5
255
330
2
100
AcDbSymbolTableRecord
100
AcDbLayerTableRecord
  2
DEFPOINTS
 70
     0
 62
     7
  6
CONTINUOUS
  0
LAYER
  5
259
330
2
100
AcDbSymbolTableRecord
100
AcDbLayerTableRecord
  2
ADP3DETAIL
 70
     0
 62
     1
  6
CONTINUOUS
  0
LAYER
  5
25C
330
2
100
AcDbSymbolTableRecord
100
AcDbLayerTableRecord
  2
ADPDIM
 70
     0
 62
     3
  6
CONTINUOUS
  0
ENDTAB
  0
TABLE
  2
STYLE
  5
3
330
0
100
AcDbSymbolTable
 70
     2
  0
STYLE
  5
10
330
3
100
AcDbSymbolTableRecord
100
AcDbTextStyleTableRecord
  2
STANDARD
 70
     0
 40
0.0
 41
1.0
 50
0.0
 71
     0
 42
0.2
  3
txt
  4

  0
STYLE
  5
35A
330
3
100
AcDbSymbolTableRecord
100
AcDbTextStyleTableRecord
  2
ARIAL_WIDE
 70
     0
 40
0.0
 41
1.25
 50
0.0
 71
     0
 42
0.2
  3
ARIAL.TTF
  4

1001
ACAD
1000
Arial
1071
       34
  0
ENDTAB
  0
TABLE
  2
VIEW
  5
6
330
0
100
AcDbSymbolTable
 70
     0
  0
ENDTAB
  0
TABLE
  2
UCS
  5
7
330
0
100
AcDbSymbolTable
 70
     0
  0
ENDTAB
  0
TABLE
  2
APPID
  5
9
330
0
100
AcDbSymbolTable
 70
     1
  0
APPID
  5
11
330
9
100
AcDbSymbolTableRecord
100
AcDbRegAppTableRecord
  2
ACAD
 70
     0
  0
ENDTAB
  0
TABLE
  2
DIMSTYLE
  5
A
330
0
100
AcDbSymbolTable
 70
     1
  0
DIMSTYLE
105
2AB
102
{ACAD_REACTORS
330
328
330
332
102
}
330
A
100
AcDbSymbolTableRecord
100
AcDbDimStyleTableRecord
  2
STANDARD
 70
     0
  3

  4

  5

  6
OBLIQUE
  7
OBLIQUE
 40
1.0
 41
0.25
 42
0.0625
 43
0.375
 44
0.1875
 45
0.0
 46
0.0
 47
0.0
 48
0.0
140
0.125
141
0.1875
142
0.0
143
25.4
144
1.0
145
0.0
146
1.0
147
0.125
 71
     0
 72
     0
 73
     0
 74
     0
 75
     0
 76
     0
 77
     0
 78
     0
170
     0
171
     1
172
     0
173
     1
174
     0
175
     0
176
     0
177
     0
178
     0
270
     7
271
     3
272
     4
273
     2
274
     2
340
10
275
     0
280
     0
281
     0
282
     0
283
     1
284
     0
285
     0
286
     0
287
     3
288
     0
  0
ENDTAB
  0
TABLE
  2
BLOCK_RECORD
  5
1
330
0
100
AcDbSymbolTable
 70
     6
  0
BLOCK_RECORD
  5
18
102
{ACAD_XDICTIONARY
360
3B3
102
}
330
1
100
AcDbSymbolTableRecord
100
AcDbBlockTableRecord
  2
*MODEL_SPACE
  0
BLOCK_RECORD
  5
15
102
{ACAD_XDICTIONARY
360
3B1
102
}
330
1
100
AcDbSymbolTableRecord
100
AcDbBlockTableRecord
  2
*PAPER_SPACE
  0
BLOCK_RECORD
  5
24C
330
1
100
AcDbSymbolTableRecord
100
AcDbBlockTableRecord
  2
*D0
  0
BLOCK_RECORD
  5
24E
330
1
100
AcDbSymbolTableRecord
100
AcDbBlockTableRecord
  2
*D1
  0
BLOCK_RECORD
  5
250
330
1
100
AcDbSymbolTableRecord
100
AcDbBlockTableRecord
  2
*D2
  0
BLOCK_RECORD
  5
31B
330
1
100
AcDbSymbolTableRecord
100
AcDbBlockTableRecord
  2
*D3
  0
BLOCK_RECORD
  5
329
330
1
100
AcDbSymbolTableRecord
100
AcDbBlockTableRecord
  2
*D4
  0
BLOCK_RECORD
  5
334
330
1
100
AcDbSymbolTableRecord
100
AcDbBlockTableRecord
  2
_OBLIQUE
  0
ENDTAB
  0
ENDSEC
  0
SECTION
  2
BLOCKS
  0
BLOCK
  5
25F
330
18
100
AcDbEntity
  8
0
100
AcDbBlockBegin
  2
*MODEL_SPACE
 70
     0
 10
0.0
 20
0.0
 30
0.0
  3
*MODEL_SPACE
  1

  0
ENDBLK
  5
260
330
18
100
AcDbEntity
  8
0
100
AcDbBlockEnd
  0
BLOCK
  5
25D
330
15
100
AcDbEntity
 67
     1
  8
0
100
AcDbBlockBegin
  2
*PAPER_SPACE
 70
     0
 10
0.0
 20
0.0
 30
0.0
  3
*PAPER_SPACE
  1

  0
ENDBLK
  5
25E
330
15
100
AcDbEntity
 67
     1
  8
0
100
AcDbBlockEnd
  0
BLOCK
  5
262
330
24C
100
AcDbEntity
  8
0
100
AcDbBlockBegin
  2
*D0
 70
     1
 10
0.0
 20
0.0
 30
0.0
  3
*D0
  1

  0
LINE
  5
263
330
24C
100
AcDbEntity
  8
0
  6
BYBLOCK
 62
     0
100
AcDbLine
 10
-51.0867380532581
 20
8.986234015517853
 30
0.0
 11
-51.59427886188058
 21
9.462833735664991
 31
0.0
  0
LINE
  5
264
330
24C
100
AcDbEntity
  8
0
  6
BYBLOCK
 62
     0
100
AcDbLine
 10
-53.15825367978178
 20
6.780234574655109
 30
0.0
 11
-53.66579448840426
 21
7.256834294802247
 31
0.0
  0
LINE
  5
265
330
24C
100
AcDbEntity
  8
0
  6
BYBLOCK
 62
     0
100
AcDbLine
 10
-51.46306285459167
 20
9.339617018328599
 30
0.0
 11
-52.38473111476426
 21
8.358113600942516
 31
0.0
  0
LINE
  5
266
330
24C
100
AcDbEntity
  8
0
  6
BYBLOCK
 62
     0
100
AcDbLine
 10
-53.53457848111535
 20
7.133617577465855
 30
0.0
 11
-52.61291022094276
 21
8.115120994851938
 31
0.0
  0
LINE
  5
267
330
24C
100
AcDbEntity
  8
0
  6
BYBLOCK
 62
     0
100
AcDbLine
 10
-51.45750779212464
 20
9.162927626227693
 30
0.0
 11
-51.4686179170587
 21
9.516306410429505
 31
0.0
  0
LINE
  5
268
330
24C
100
AcDbEntity
  8
0
  6
BYBLOCK
 62
     0
100
AcDbLine
 10
-53.52902341864833
 20
6.95692818536495
 30
0.0
 11
-53.54013354358237
 21
7.31030696956676
 31
0.0
  0
TEXT
  5
269
330
24C
100
AcDbEntity
  8
0
  6
BYBLOCK
 62
     0
100
AcDbText
 10
-52.48178194248385
 20
8.163459639727435
 30
0.0
 40
0.125
  1
3
 50
46.80076926875194
 72
     1
 11
-52.49882066785351
 21
8.236617297897227
 31
0.0
100
AcDbText
 73
     2
  0
POINT
  5
26A
330
24C
100
AcDbEntity
  8
DEFPOINTS
  6
BYBLOCK
 62
     0
100
AcDbPoint
 10
-51.04117693961612
 20
8.943450433109383
 30
0.0
  0
POINT
  5
26B
330
24C
100
AcDbEntity
  8
DEFPOINTS
  6
BYBLOCK
 62
     0
100
AcDbPoint
 10
-53.1126925661398
 20
6.737450992246639
 30
0.0
  0
POINT
  5
26C
330
24C
100
AcDbEntity
  8
DEFPOINTS
  6
BYBLOCK
 62
     0
100
AcDbPoint
 10
-53.53457848111535
 20
7.133617577465855
 30
0.0
  0
ENDBLK
  5
26D
330
24C
100
AcDbEntity
  8
0
100
AcDbBlockEnd
  0
BLOCK
  5
27A
330
24E
100
AcDbEntity
  8
0
100
AcDbBlockBegin
  2
*D1
 70
     1
 10
0.0
 20
0.0
 30
0.0
  3
*D1
  1

  0
LINE
  5
27B
330
24E
100
AcDbEntity
  8
0
  6
BYBLOCK
 62
     0
100
AcDbLine
 10
-53.50195950132585
 20
3.149093477169111
 30
0.0
 11
-54.08295331231864
 21
3.149093477169111
 31
0.0
  0
LINE
  5
27C
330
24E
100
AcDbEntity
  8
0
  6
BYBLOCK
 62
     0
100
AcDbLine
 10
-52.55427338829788
 20
6.149093477169111
 30
0.0
 11
-54.08295331231864
 21
6.149093477169111
 31
0.0
  0
LINE
  5
27D
330
24E
100
AcDbEntity
  8
0
  6
BYBLOCK
 62
     0
100
AcDbLine
 10
-53.90295331231864
 20
3.149093477169111
 30
0.0
 11
-53.90295331231864
 21
4.482426810502444
 31
0.0
  0
LINE
  5
27E
330
24E
100
AcDbEntity
  8
0
  6
BYBLOCK
 62
     0
100
AcDbLine
 10
-53.90295331231864
 20
6.149093477169111
 30
0.0
 11
-53.90295331231864
 21
4.815760143835777
 31
0.0
  0
LINE
  5
27F
330
24E
100
AcDbEntity
  8
0
  6
BYBLOCK
 62
     0
100
AcDbLine
 10
-53.77795331231864
 20
3.024093477169111
 30
0.0
 11
-54.02795331231864
 21
3.274093477169111
 31
0.0
  0
LINE
  5
280
330
24E
100
AcDbEntity
  8
0
  6
BYBLOCK
 62
     0
100
AcDbLine
 10
-53.77795331231864
 20
6.024093477169111
 30
0.0
 11
-54.02795331231864
 21
6.274093477169111
 31
0.0
  0
TEXT
  5
281
330
24E
100
AcDbEntity
  8
0
  6
BYBLOCK
 62
     0
100
AcDbText
 10
-53.84045331231863
 20
4.607426810502444
 30
0.0
 40
0.125
  1
3
 50
90.0
 72
     1
 11
-53.90295331231864
 21
4.649093477169111
 31
0.0
100
AcDbText
 73
     2
  0
POINT
  5
282
330
24E
100
AcDbEntity
  8
DEFPOINTS
  6
BYBLOCK
 62
     0
100
AcDbPoint
 10
-53.43945950132585
 20
3.149093477169111
 30
0.0
  0
POINT
  5
283
330
24E
100
AcDbEntity
  8
DEFPOINTS
  6
BYBLOCK
 62
     0
100
AcDbPoint
 10
-52.49177338829788
 20
6.149093477169111
 30
0.0
  0
POINT
  5
284
330
24E
100
AcDbEntity
  8
DEFPOINTS
  6
BYBLOCK
 62
     0
100
AcDbPoint
 10
-53.90295331231864
 20
6.149093477169111
 30
0.0
  0
ENDBLK
  5
285
330
24E
100
AcDbEntity
  8
0
100
AcDbBlockEnd
  0
BLOCK
  5
286
330
250
100
AcDbEntity
  8
0
100
AcDbBlockBegin
  2
*D2
 70
     1
 10
0.0
 20
0.0
 30
0.0
  3
*D2
  1

  0
LINE
  5
287
330
250
100
AcDbEntity
  8
0
  6
BYBLOCK
 62
     0
100
AcDbLine
 10
-51.6769418414357
 20
1.422684812954177
 30
0.0
 11
-51.6769418414357
 21
1.540184812954177
 31
0.0
  0
LINE
  5
288
330
250
100
AcDbEntity
  8
0
  6
BYBLOCK
 62
     0
100
AcDbLine
 10
-51.5319418414357
 20
1.422684812954177
 30
0.0
 11
-51.5319418414357
 21
1.540184812954177
 31
0.0
  0
LINE
  5
289
330
250
100
AcDbEntity
  8
0
  6
BYBLOCK
 62
     0
100
AcDbLine
 10
-51.6769418414357
 20
1.360184812954177
 30
0.0
 11
-51.9269418414357
 21
1.360184812954177
 31
0.0
  0
LINE
  5
28A
330
250
100
AcDbEntity
  8
0
  6
BYBLOCK
 62
     0
100
AcDbLine
 10
-51.5319418414357
 20
1.360184812954177
 30
0.0
 11
-51.2819418414357
 21
1.360184812954177
 31
0.0
  0
LINE
  5
28B
330
250
100
AcDbEntity
  8
0
  6
BYBLOCK
 62
     0
100
AcDbLine
 10
-51.8019418414357
 20
1.235184812954177
 30
0.0
 11
-51.55194184143571
 21
1.485184812954177
 31
0.0
  0
LINE
  5
28C
330
250
100
AcDbEntity
  8
0
  6
BYBLOCK
 62
     0
100
AcDbLine
 10
-51.6569418414357
 20
1.235184812954177
 30
0.0
 11
-51.4069418414357
 21
1.485184812954177
 31
0.0
  0
TEXT
  5
28D
330
250
100
AcDbEntity
  8
0
  6
BYBLOCK
 62
     0
100
AcDbText
 10
-51.15694184143571
 20
1.297684812954177
 30
0.0
 40
0.125
  1
0.145
 72
     1
 11
-50.9381918414357
 21
1.360184812954177
 31
0.0
100
AcDbText
 73
     2
  0
POINT
  5
28E
330
250
100
AcDbEntity
  8
DEFPOINTS
  6
BYBLOCK
 62
     0
100
AcDbPoint
 10
-51.6769418414357
 20
1.360184812954177
 30
0.0
  0
POINT
  5
28F
330
250
100
AcDbEntity
  8
DEFPOINTS
  6
BYBLOCK
 62
     0
100
AcDbPoint
 10
-51.5319418414357
 20
1.360184812954177
 30
0.0
  0
POINT
  5
290
330
250
100
AcDbEntity
  8
DEFPOINTS
  6
BYBLOCK
 62
     0
100
AcDbPoint
 10
-51.5319418414357
 20
1.360184812954177
 30
0.0
  0
ENDBLK
  5
291
330
250
100
AcDbEntity
  8
0
100
AcDbBlockEnd
  0
BLOCK
  5
338
330
31B
100
AcDbEntity
  8
0
100
AcDbBlockBegin
  2
*D3
 70
     1
 10
0.0
 20
0.0
 30
0.0
  3
*D3
  1

  0
LINE
  5
339
330
31B
100
AcDbEntity
  8
0
  6
BYBLOCK
 62
     0
100
AcDbLine
 10
-42.22974158282773
 20
3.069383147908723
 30
0.0
 11
-42.22974158282773
 21
2.328675787884463
 31
0.0
  0
LINE
  5
33A
330
31B
100
AcDbEntity
  8
0
  6
BYBLOCK
 62
     0
100
AcDbLine
 10
-40.56974158282772
 20
3.069383147908723
 30
0.0
 11
-40.56974158282772
 21
2.328675787884463
 31
0.0
  0
LINE
  5
33B
330
31B
100
AcDbEntity
  8
0
  6
BYBLOCK
 62
     0
100
AcDbLine
 10
-42.22974158282773
 20
2.516175787884463
 30
0.0
 11
-41.79557491616106
 21
2.516175787884463
 31
0.0
  0
LINE
  5
33C
330
31B
100
AcDbEntity
  8
0
  6
BYBLOCK
 62
     0
100
AcDbLine
 10
-40.56974158282772
 20
2.516175787884463
 30
0.0
 11
-41.00390824949439
 21
2.516175787884463
 31
0.0
  0
LINE
  5
33D
330
31B
100
AcDbEntity
  8
0
  6
BYBLOCK
 62
     0
100
AcDbLine
 10
-40.69474158282773
 20
2.391175787884463
 30
0.0
 11
-40.44474158282773
 21
2.641175787884463
 31
0.0
  0
LINE
  5
33E
330
31B
100
AcDbEntity
  8
0
  6
BYBLOCK
 62
     0
100
AcDbLine
 10
-42.35474158282772
 20
2.391175787884463
 30
0.0
 11
-42.10474158282773
 21
2.641175787884463
 31
0.0
  0
MTEXT
  5
33F
330
31B
100
AcDbEntity
  8
0
  6
BYBLOCK
 62
     0
100
AcDbMText
 10
-41.39974158282773
 20
2.516175787884463
 30
0.0
 40
0.125
 41
0.0
 71
     5
 72
     5
  1
\A1;1 5/8
1001
ACAD
1000
MTEXTBEGIN
1070
    73
1070
     1
1070
    44
1040
1.0
1070
    74
1070
     0
1000
MTEXTEND
  0
POINT
  5
340
330
31B
100
AcDbEntity
  8
DEFPOINTS
  6
BYBLOCK
 62
     0
100
AcDbPoint
 10
-42.22974158282773
 20
3.131883147908723
 30
0.0
  0
POINT
  5
341
330
31B
100
AcDbEntity
  8
DEFPOINTS
  6
BYBLOCK
 62
     0
100
AcDbPoint
 10
-40.56974158282772
 20
3.131883147908723
 30
0.0
  0
POINT
  5
342
330
31B
100
AcDbEntity
  8
DEFPOINTS
  6
BYBLOCK
 62
     0
100
AcDbPoint
 10
-40.56974158282772
 20
2.516175787884463
 30
0.0
  0
ENDBLK
  5
343
330
31B
100
AcDbEntity
  8
0
100
AcDbBlockEnd
  0
BLOCK
  5
344
330
329
100
AcDbEntity
  8
0
100
AcDbBlockBegin
  2
*D4
 70
     1
 10
0.0
 20
0.0
 30
0.0
  3
*D4
  1

  0
LINE
  5
345
330
329
100
AcDbEntity
  8
0
  6
BYBLOCK
 62
     0
100
AcDbLine
 10
-38.89974158282773
 20
5.094936172337149
 30
0.0
 11
-39.63122317211832
 21
5.397708026445153
 31
0.0
  0
LINE
  5
346
330
329
100
AcDbEntity
  8
0
  6
BYBLOCK
 62
     0
100
AcDbLine
 10
-41.20968344374542
 20
6.051057816888746
 30
0.0
 11
-40.47820185445482
 21
5.748285962780741
 31
0.0
  0
LINE
  5
347
330
329
100
AcDbEntity
  8
0
  6
BYBLOCK
 62
     0
100
AcDbLine
 10
-41.37298661901888
 20
5.983366806070455
 30
0.0
 11
-41.04638026847195
 21
6.118748827707065
 31
0.0
  0
MTEXT
  5
348
330
329
100
AcDbEntity
  8
0
  6
BYBLOCK
 62
     0
100
AcDbMText
 10
-40.05471251328656
 20
5.57299699461296
 30
0.0
 40
0.125
 41
0.0
 71
     5
 72
     5
  1
\A1;R2 1/2
 11
0.9239767443670814
 21
-0.38244865782064
 31
0.0
1001
ACAD
1000
MTEXTBEGIN
1070
    73
1070
     1
1070
    44
1040
1.0
1070
    74
1070
     0
1000
MTEXTEND
  0
POINT
  5
349
330
329
100
AcDbEntity
  8
DEFPOINTS
  6
BYBLOCK
 62
     0
100
AcDbPoint
 10
-41.20968344374541
 20
6.051057816888759
 30
0.0
  0
POINT
  5
34A
330
329
100
AcDbEntity
  8
DEFPOINTS
  6
BYBLOCK
 62
     0
100
AcDbPoint
 10
-38.89974158282773
 20
5.094936172337149
 30
0.0
  0
ENDBLK
  5
34B
330
329
100
AcDbEntity
  8
0
100
AcDbBlockEnd
  0
BLOCK
  5
335
330
334
100
AcDbEntity
  8
0
100
AcDbBlockBegin
  2
_OBLIQUE
 70
     0
 10
0.0
 20
0.0
 30
0.0
  3
_OBLIQUE
  1

  0
LINE
  5
336
330
334
100
AcDbEntity
  8
0
  6
BYBLOCK
 62
     0
100
AcDbLine
 10
-0.5
 20
-0.5
 30
0.0
 11
0.5
 21
0.5
 31
0.0
  0
ENDBLK
  5
337
330
334
100
AcDbEntity
  8
0
100
AcDbBlockEnd
  0
ENDSEC
  0
SECTION
  2
ENTITIES
  0
CIRCLE
  5
29A
330
18
100
AcDbEntity
  8
ADP1DETAIL
100
AcDbCircle
 10
-41.39974158282773
 20
1.30497621118786
 30
0.0
 40
0.8271195490522273
  0
DIMENSION
  5
29B
330
18
100
AcDbEntity
  8
ADPDIM
100
AcDbDimension
  2
*D0
 10
-42.35872140915215
 20
7.030269264209671
 30
0.0
 11
-41.3229635958903
 21
8.133268984641043
 31
0.0
 12
11.1758570719632
 22
-0.1033483132561841
 32
0.0
 70
     1
100
AcDbAlignedDimension
 13
-39.86531986765291
 23
8.840102119853199
 33
0.0
 14
-41.93683549417659
 24
6.634102678990455
 34
0.0
  0
DIMENSION
  5
29D
330
18
100
AcDbEntity
  8
ADPDIM
100
AcDbDimension
  2
*D1
 10
-42.69323539382051
 20
6.131883147908723
 30
0.0
 11
-42.69323539382051
 21
4.631883147908723
 31
0.0
 12
11.20971791849812
 22
-0.0172103292603874
 32
0.0
100
AcDbAlignedDimension
 13
-42.22974158282773
 23
3.131883147908723
 33
0.0
 14
-41.28205546979976
 24
6.131883147908723
 34
0.0
 50
90.0
100
AcDbRotatedDimension
  0
LINE
  5
2A3
330
18
100
AcDbEntity
  8
ADP3DETAIL
  6
CENTER2
100
AcDbLine
 10
-40.66840670348365
 20
6.861804501040545
 30
0.0
 11
-38.45260737841766
 21
9.079857152135986
 31
0.0
  0
LINE
  5
2A5
330
18
100
AcDbEntity
  8
ADP3DETAIL
  6
CENTER2
100
AcDbLine
 10
-41.39974158282773
 20
2.762098721557253
 30
0.0
 11
-41.39974158282773
 21
5.09493617233714
 31
0.0
  0
DIMENSION
  5
2A7
330
18
100
AcDbEntity
  8
ADPDIM
100
AcDbDimension
  2
*D2
 10
-40.59086425753577
 20
1.30514831697995
 30
0.0
 11
-39.99711425753577
 21
1.30514831697995
 31
0.0
 12
10.94107758389993
 22
-0.0550364959742267
 32
0.0
  1
0.145
100
AcDbAlignedDimension
 13
-40.73586425753577
 23
1.30514831697995
 33
0.0
 14
-40.59086425753577
 24
1.30514831697995
 34
0.0
100
AcDbRotatedDimension
  0
LINE
  5
2B4
330
18
100
AcDbEntity
  8
ADP1DETAIL
100
AcDbLine
 10
-42.22974158282773
 20
3.131883147908723
 30
0.0
 11
-42.22974158282773
 21
5.096349241975977
 31
0.0
  0
LINE
  5
2B6
330
18
100
AcDbEntity
  8
ADP1DETAIL
100
AcDbLine
 10
-40.56974158282772
 20
5.096349241975984
 30
0.0
 11
-40.56974158282772
 21
3.131883147908723
 31
0.0
  0
LINE
  5
2B7
330
18
100
AcDbEntity
  8
ADP1DETAIL
100
AcDbLine
 10
-40.56974158282772
 20
3.131883147908723
 30
0.0
 11
-42.22974158282773
 21
3.131883147908723
 31
0.0
  0
LINE
  5
2BC
330
18
100
AcDbEntity
  8
ADP1DETAIL
100
AcDbLine
 10
-41.25440716417894
 20
7.45101482332718
 30
0.0
 11
-39.86531986765291
 21
8.840102119853199
 31
0.0
  0
LINE
  5
2BD
330
18
100
AcDbEntity
  8
ADP1DETAIL
100
AcDbLine
 10
-38.69152261088324
 20
7.666304863083531
 30
0.0
 11
-40.08060990740926
 21
6.277217566557518
 31
0.0
  0
LINE
  5
2BE
330
18
100
AcDbEntity
  8
ADP1DETAIL
100
AcDbLine
 10
-39.86531986765291
 20
8.840102119853199
 30
0.0
 11
-38.69152261088324
 21
7.666304863083531
 31
0.0
  0
ARC
  5
2C0
330
18
100
AcDbEntity
  8
ADP1DETAIL
100
AcDbCircle
 10
-38.89974158282773
 20
5.096349241975984
 30
0.0
 40
1.669999999999999
100
AcDbArc
 50
135.0
 51
180.0
  0
ARC
  5
2C1
330
18
100
AcDbEntity
  8
ADP1DETAIL
100
AcDbCircle
 10
-38.89974158282773
 20
5.096349241975977
 30
0.0
 40
3.33
100
AcDbArc
 50
135.0
 51
180.0
  0
ARC
  5
2C2
330
18
100
AcDbEntity
  8
ADP3DETAIL
  6
CENTER2
100
AcDbCircle
 10
-38.89974158282773
 20
5.09493617233714
 30
0.0
 40
2.5
100
AcDbArc
 50
135.0291182612621
 51
180.0
  0
CIRCLE
  5
2D0
330
18
100
AcDbEntity
  8
0
100
AcDbCircle
 10
-41.39974158282773
 20
1.30497621118786
 30
0.0
 40
0.6600000000000001
  0
DIMENSION
  5
328
330
18
100
AcDbEntity
  8
ADPDIM
100
AcDbDimension
  2
*D3
 10
-40.56974158282772
 20
2.516175787884463
 30
0.0
 11
-41.39974158282773
 21
2.516175787884463
 31
0.0
 70
    32
  3
STANDARD
100
AcDbAlignedDimension
 13
-42.22974158282773
 23
3.131883147908723
 33
0.0
 14
-40.56974158282772
 24
3.131883147908723
 34
0.0
100
AcDbRotatedDimension
1001
ACAD
1000
DSTYLE
1002
{
1070
    78
1070
     3
1070
   140
1040
0.125
1070
   142
1040
0.125
1070
    74
1070
     0
1070
    73
1070
     0
1070
   147
1040
0.125
1070
   141
1040
0.1875
1070
    41
1040
0.125
1070
   171
1070
     1
1002
}
  0
DIMENSION
  5
332
330
18
100
AcDbEntity
  8
ADPDIM
100
AcDbDimension
  2
*D4
 10
-38.89974158282773
 20
5.094936172337149
 30
0.0
 11
-40.05471251328656
 21
5.57299699461296
 31
0.0
 70
    36
  3
STANDARD
100
AcDbRadialDimension
 15
-41.20968344374541
 25
6.051057816888759
 35
0.0
 40
0.0
1001
ACAD
1000
DSTYLE
1002
{
1070
    78
1070
     3
1070
   140
1040
0.125
1070
   142
1040
0.125
1070
    74
1070
     0
1070
    73
1070
     0
1070
   147
1040
0.125
1070
   141
1040
0.1875
1070
    41
1040
0.125
1070
   171
1070
     1
1002
}
  0
TEXT
  5
35B
330
18
100
AcDbEntity
  8
ADPDIM
100
AcDbText
 10
-50.21902179369003
 20
-0.3241176650950479
 30
0.0
 40
0.1875
  1
J U L I U S  B L U M  &  C O . ,  I N C .      ( 8 0 0 )  5 2 6 - 6 2 9 3        W W W . J U L I U S B L U M . C O M        P A R T  N o .  7 4 0 8
 41
1.25
  7
ARIAL_WIDE
 72
     1
 11
-40.4304282568551
 21
-0.1366176650950479
 31
0.0
100
AcDbText
 73
     3
  0
ENDSEC
  0
SECTION
  2
OBJECTS
  0
DICTIONARY
  5
C
330
0
100
AcDbDictionary
  3
ACAD_GROUP
350
D
  3
ACAD_LAYOUT
350
354
  3
ACAD_MLINESTYLE
350
E
  3
ACAD_PLOTSETTINGS
350
355
  3
ACAD_PLOTSTYLENAME
350
352
  3
ACDBHEADERROUNDTRIPXREC
350
4B4
  3
ACDBVARIABLEDICTIONARY
350
3BB
  0
DICTIONARY
  5
3B3
330
18
100
AcDbDictionary
280
     1
  3
ACAD_LAYOUTSELFREF
360
4D6
  0
DICTIONARY
  5
3B1
330
15
100
AcDbDictionary
280
     1
  3
ACAD_LAYOUTSELFREF
360
4D5
  0
DICTIONARY
  5
D
102
{ACAD_REACTORS
330
C
102
}
330
C
100
AcDbDictionary
  0
DICTIONARY
  5
354
102
{ACAD_REACTORS
330
C
102
}
330
C
100
AcDbDictionary
  0
DICTIONARY
  5
E
102
{ACAD_REACTORS
330
C
102
}
330
C
100
AcDbDictionary
  3
STANDARD
350
1B
  0
DICTIONARY
  5
355
102
{ACAD_REACTORS
330
C
102
}
330
C
100
AcDbDictionary
  0
ACDBDICTIONARYWDFLT
  5
352
102
{ACAD_REACTORS
330
C
102
}
330
C
100
AcDbDictionary
281
     1
  3
Normal
350
353
100
AcDbDictionaryWithDefault
340
353
  0
DICTIONARY
  5
4B4
102
{ACAD_REACTORS
330
C
102
}
330
C
100
AcDbDictionary
  3
CEPSNTYPE
350
4BE
  3
DIMSTYLEDATA
350
4C2
  3
FINGERPRINTGUID
350
4BF
  3
HYPERLINKBASE
350
4B7
  3
INSUNITS
350
4BD
  3
LAYOUTDICT
350
4B9
  3
LWETCUNION
350
4BC
  3
PLOTSETDICT
350
4BA
  3
PLOTSTYLNAMDICT
350
4BB
  3
PSVPSCALE
350
4C1
  3
PUCSBASE
350
4C5
  3
PUCSORGBACK
350
4CB
  3
PUCSORGBOTTOM
350
4C7
  3
PUCSORGFRONT
350
4CA
  3
PUCSORGLEFT
350
4C8
  3
PUCSORGRIGHT
350
4C9
  3
PUCSORGTOP
350
4C6
  3
PUCSORTHOREF
350
4C3
  3
PUCSORTHOVIEW
350
4C4
  3
STYLESHEET
350
4B8
  3
TSTACKALIGN
350
4B5
  3
TSTACKSIZE
350
4B6
  3
UCSBASE
350
4CE
  3
UCSORGBACK
350
4D4
  3
UCSORGBOTTOM
350
4D0
  3
UCSORGFRONT
350
4D3
  3
UCSORGLEFT
350
4D1
  3
UCSORGRIGHT
350
4D2
  3
UCSORGTOP
350
4CF
  3
UCSORTHOREF
350
4CC
  3
UCSORTHOVIEW
350
4CD
  3
VERSIONGUID
350
4C0
  0
DICTIONARY
  5
3BB
102
{ACAD_REACTORS
330
C
102
}
330
C
100
AcDbDictionary
  3
DIMASSOC
350
3BC
  0
XRECORD
  5
4D6
102
{ACAD_REACTORS
330
3B3
102
}
330
3B3
100
AcDbXrecord
340
18
  0
XRECORD
  5
4D5
102
{ACAD_REACTORS
330
3B1
102
}
330
3B1
100
AcDbXrecord
340
15
  0
MLINESTYLE
  5
1B
102
{ACAD_REACTORS
330
E
102
}
330
E
100
AcDbMlineStyle
  2
STANDARD
 70
     0
  3

 62
     0
 51
90.0
 52
90.0
 71
     2
 49
0.5
 62
   256
  6
BYLAYER
 49
-0.5
 62
   256
  6
BYLAYER
  0
ACDBPLACEHOLDER
  5
353
102
{ACAD_REACTORS
330
352
102
}
330
352
100
AcDbPlaceHolder
280
     0
  0
XRECORD
  5
4BE
102
{ACAD_REACTORS
330
4B4
102
}
330
4B4
100
AcDbXrecord
 90
        0
  0
XRECORD
  5
4C2
102
{ACAD_REACTORS
330
4B4
102
}
330
4B4
100
AcDbXrecord
1000
DSTYLE
1002
{
1070
   276
 70
     2
1070
   277
 70
     5
1070
   341
340
334
1070
   343
340
334
1070
   344
340
334
1002
}
  0
XRECORD
  5
4BF
102
{ACAD_REACTORS
330
4B4
102
}
330
4B4
100
AcDbXrecord
  1
{612F02E4-F872-4B90-8B56-B644EC292577}
  0
XRECORD
  5
4B7
102
{ACAD_REACTORS
330
4B4
102
}
330
4B4
100
AcDbXrecord
  1

  0
XRECORD
  5
4BD
102
{ACAD_REACTORS
330
4B4
102
}
330
4B4
100
AcDbXrecord
 90
        0
  0
XRECORD
  5
4B9
102
{ACAD_REACTORS
330
4B4
102
}
330
4B4
100
AcDbXrecord
340
354
  0
XRECORD
  5
4BC
102
{ACAD_REACTORS
330
4B4
102
}
330
4B4
100
AcDbXrecord
 90
    14877
  0
XRECORD
  5
4BA
102
{ACAD_REACTORS
330
4B4
102
}
330
4B4
100
AcDbXrecord
340
355
  0
XRECORD
  5
4BB
102
{ACAD_REACTORS
330
4B4
102
}
330
4B4
100
AcDbXrecord
340
352
  0
XRECORD
  5
4C1
102
{ACAD_REACTORS
330
4B4
102
}
330
4B4
100
AcDbXrecord
 40
0.0
  0
XRECORD
  5
4C5
102
{ACAD_REACTORS
330
4B4
102
}
330
4B4
100
AcDbXrecord
340
0
  0
XRECORD
  5
4CB
102
{ACAD_REACTORS
330
4B4
102
}
330
4B4
100
AcDbXrecord
 10
0.0
 20
0.0
 30
0.0
  0
XRECORD
  5
4C7
102
{ACAD_REACTORS
330
4B4
102
}
330
4B4
100
AcDbXrecord
 10
0.0
 20
0.0
 30
0.0
  0
XRECORD
  5
4CA
102
{ACAD_REACTORS
330
4B4
102
}
330
4B4
100
AcDbXrecord
 10
0.0
 20
0.0
 30
0.0
  0
XRECORD
  5
4C8
102
{ACAD_REACTORS
330
4B4
102
}
330
4B4
100
AcDbXrecord
 10
0.0
 20
0.0
 30
0.0
  0
XRECORD
  5
4C9
102
{ACAD_REACTORS
330
4B4
102
}
330
4B4
100
AcDbXrecord
 10
0.0
 20
0.0
 30
0.0
  0
XRECORD
  5
4C6
102
{ACAD_REACTORS
330
4B4
102
}
330
4B4
100
AcDbXrecord
 10
0.0
 20
0.0
 30
0.0
  0
XRECORD
  5
4C3
102
{ACAD_REACTORS
330
4B4
102
}
330
4B4
100
AcDbXrecord
340
0
  0
XRECORD
  5
4C4
102
{ACAD_REACTORS
330
4B4
102
}
330
4B4
100
AcDbXrecord
 70
     0
  0
XRECORD
  5
4B8
102
{ACAD_REACTORS
330
4B4
102
}
330
4B4
100
AcDbXrecord
  1

  0
XRECORD
  5
4B5
102
{ACAD_REACTORS
330
4B4
102
}
330
4B4
100
AcDbXrecord
 90
        1
  0
XRECORD
  5
4B6
102
{ACAD_REACTORS
330
4B4
102
}
330
4B4
100
AcDbXrecord
 90
       70
  0
XRECORD
  5
4CE
102
{ACAD_REACTORS
330
4B4
102
}
330
4B4
100
AcDbXrecord
340
0
  0
XRECORD
  5
4D4
102
{ACAD_REACTORS
330
4B4
102
}
330
4B4
100
AcDbXrecord
 10
0.0
 20
0.0
 30
0.0
  0
XRECORD
  5
4D0
102
{ACAD_REACTORS
330
4B4
102
}
330
4B4
100
AcDbXrecord
 10
0.0
 20
0.0
 30
0.0
  0
XRECORD
  5
4D3
102
{ACAD_REACTORS
330
4B4
102
}
330
4B4
100
AcDbXrecord
 10
0.0
 20
0.0
 30
0.0
  0
XRECORD
  5
4D1
102
{ACAD_REACTORS
330
4B4
102
}
330
4B4
100
AcDbXrecord
 10
0.0
 20
0.0
 30
0.0
  0
XRECORD
  5
4D2
102
{ACAD_REACTORS
330
4B4
102
}
330
4B4
100
AcDbXrecord
 10
0.0
 20
0.0
 30
0.0
  0
XRECORD
  5
4CF
102
{ACAD_REACTORS
330
4B4
102
}
330
4B4
100
AcDbXrecord
 10
0.0
 20
0.0
 30
0.0
  0
XRECORD
  5
4CC
102
{ACAD_REACTORS
330
4B4
102
}
330
4B4
100
AcDbXrecord
340
0
  0
XRECORD
  5
4CD
102
{ACAD_REACTORS
330
4B4
102
}
330
4B4
100
AcDbXrecord
 70
     0
  0
XRECORD
  5
4C0
102
{ACAD_REACTORS
330
4B4
102
}
330
4B4
100
AcDbXrecord
  1
{FC10005D-97D8-4E64-860E-62B64C9E5D89}
  0
DICTIONARYVAR
  5
3BC
102
{ACAD_REACTORS
330
3BB
102
}
330
3BB
100
DictionaryVariables
280
     0
  1
1
  0
ENDSEC
  0
EOF
