  0
SECTION
  2
HEADER
  9
$ACADVER
  1
AC1014
  9
$ACADMAINTVER
 70
     9
  9
$DWGCODEPAGE
  3
ANSI_1252
  9
$INSBASE
 10
30.22547436726945
 20
2.595464301027115
 30
0.0
  9
$EXTMIN
 10
17.48782976168089
 20
-1.123663520455117
 30
0.0
  9
$EXTMAX
 10
37.06501683535075
 20
4.754950113858215
 30
0.0
  9
$LIMMIN
 10
0.0
 20
0.0
  9
$LIMMAX
 10
36.0
 20
36.0
  9
$ORTHOMODE
 70
     1
  9
$REGENMODE
 70
     1
  9
$FILLMODE
 70
     1
  9
$QTEXTMODE
 70
     0
  9
$MIRRTEXT
 70
     1
  9
$DRAGMODE
 70
     0
  9
$LTSCALE
 40
1.0
  9
$OSMODE
 70
    37
  9
$ATTMODE
 70
     1
  9
$TEXTSIZE
 40
0.2
  9
$TRACEWID
 40
0.05
  9
$TEXTSTYLE
  7
STANDARD
  9
$CLAYER
  8
0
  9
$CELTYPE
  6
BYLAYER
  9
$CECOLOR
 62
   256
  9
$CELTSCALE
 40
1.0
  9
$DELOBJ
 70
     1
  9
$DISPSILH
 70
     0
  9
$DIMSCALE
 40
1.0
  9
$DIMASZ
 40
0.125
  9
$DIMEXO
 40
0.0625
  9
$DIMDLI
 40
0.38
  9
$DIMRND
 40
0.0
  9
$DIMDLE
 40
0.0
  9
$DIMEXE
 40
0.18
  9
$DIMTP
 40
0.0
  9
$DIMTM
 40
0.0
  9
$DIMTXT
 40
0.125
  9
$DIMCEN
 40
0.1875
  9
$DIMTSZ
 40
0.125
  9
$DIMTOL
 70
     0
  9
$DIMLIM
 70
     0
  9
$DIMTIH
 70
     0
  9
$DIMTOH
 70
     0
  9
$DIMSE1
 70
     0
  9
$DIMSE2
 70
     0
  9
$DIMTAD
 70
     0
  9
$DIMZIN
 70
     3
  9
$DIMBLK
  1

  9
$DIMASO
 70
     1
  9
$DIMSHO
 70
     1
  9
$DIMPOST
  1

  9
$DIMAPOST
  1

  9
$DIMALT
 70
     0
  9
$DIMALTD
 70
     1
  9
$DIMALTF
 40
25.4
  9
$DIMLFAC
 40
1.0
  9
$DIMTOFL
 70
     0
  9
$DIMTVP
 40
0.0
  9
$DIMTIX
 70
     0
  9
$DIMSOXD
 70
     0
  9
$DIMSAH
 70
     0
  9
$DIMBLK1
  1

  9
$DIMBLK2
  1

  9
$DIMSTYLE
  2
STANDARD
  9
$DIMCLRD
 70
     0
  9
$DIMCLRE
 70
     0
  9
$DIMCLRT
 70
     0
  9
$DIMTFAC
 40
1.0
  9
$DIMGAP
 40
0.125
  9
$DIMJUST
 70
     0
  9
$DIMSD1
 70
     0
  9
$DIMSD2
 70
     0
  9
$DIMTOLJ
 70
     1
  9
$DIMTZIN
 70
     0
  9
$DIMALTZ
 70
     0
  9
$DIMALTTZ
 70
     0
  9
$DIMFIT
 70
     3
  9
$DIMUPT
 70
     0
  9
$DIMUNIT
 70
     2
  9
$DIMDEC
 70
     4
  9
$DIMTDEC
 70
     4
  9
$DIMALTU
 70
     2
  9
$DIMALTTD
 70
     2
  9
$DIMTXSTY
  7
STANDARD
  9
$DIMAUNIT
 70
     0
  9
$LUNITS
 70
     5
  9
$LUPREC
 70
     4
  9
$SKETCHINC
 40
0.1
  9
$FILLETRAD
 40
0.062
  9
$AUNITS
 70
     0
  9
$AUPREC
 70
     0
  9
$MENU
  1
acad
  9
$ELEVATION
 40
0.0
  9
$PELEVATION
 40
0.0
  9
$THICKNESS
 40
0.0
  9
$LIMCHECK
 70
     0
  9
$BLIPMODE
 70
     0
  9
$CHAMFERA
 40
0.0
  9
$CHAMFERB
 40
0.0
  9
$CHAMFERC
 40
0.0
  9
$CHAMFERD
 40
0.0
  9
$SKPOLY
 70
     0
  9
$TDCREATE
 40
2450387.484329467
  9
$TDUPDATE
 40
2452297.101026284
  9
$TDINDWG
 40
0.0434350810
  9
$TDUSRTIMER
 40
0.0434350810
  9
$USRTIMER
 70
     1
  9
$ANGBASE
 50
0.0
  9
$ANGDIR
 70
     0
  9
$PDMODE
 70
     0
  9
$PDSIZE
 40
0.0
  9
$PLINEWID
 40
0.0
  9
$COORDS
 70
     2
  9
$SPLFRAME
 70
     0
  9
$SPLINETYPE
 70
     6
  9
$SPLINESEGS
 70
     8
  9
$ATTDIA
 70
     0
  9
$ATTREQ
 70
     1
  9
$HANDLING
 70
 22529
  9
$HANDSEED
  5
29A
  9
$SURFTAB1
 70
     6
  9
$SURFTAB2
 70
     6
  9
$SURFTYPE
 70
     6
  9
$SURFU
 70
     6
  9
$SURFV
 70
     6
  9
$UCSNAME
  2

  9
$UCSORG
 10
0.0
 20
0.0
 30
0.0
  9
$UCSXDIR
 10
1.0
 20
0.0
 30
0.0
  9
$UCSYDIR
 10
0.0
 20
1.0
 30
0.0
  9
$PUCSNAME
  2

  9
$PUCSORG
 10
0.0
 20
0.0
 30
0.0
  9
$PUCSXDIR
 10
1.0
 20
0.0
 30
0.0
  9
$PUCSYDIR
 10
0.0
 20
1.0
 30
0.0
  9
$USERI1
 70
     0
  9
$USERI2
 70
     0
  9
$USERI3
 70
     0
  9
$USERI4
 70
     0
  9
$USERI5
 70
     0
  9
$USERR1
 40
0.0
  9
$USERR2
 40
0.0
  9
$USERR3
 40
0.0
  9
$USERR4
 40
0.0
  9
$USERR5
 40
0.0
  9
$WORLDVIEW
 70
     1
  9
$SHADEDGE
 70
     3
  9
$SHADEDIF
 70
    70
  9
$TILEMODE
 70
     1
  9
$MAXACTVP
 70
    15
  9
$PINSBASE
 10
0.0
 20
0.0
 30
0.0
  9
$PLIMCHECK
 70
     0
  9
$PEXTMIN
 10
1.000000000000000E+20
 20
1.000000000000000E+20
 30
1.000000000000000E+20
  9
$PEXTMAX
 10
-1.000000000000000E+20
 20
-1.000000000000000E+20
 30
-1.000000000000000E+20
  9
$PLIMMIN
 10
0.0
 20
0.0
  9
$PLIMMAX
 10
12.0
 20
9.0
  9
$UNITMODE
 70
     0
  9
$VISRETAIN
 70
     0
  9
$PLINEGEN
 70
     0
  9
$PSLTSCALE
 70
     1
  9
$TREEDEPTH
 70
  3020
  9
$PICKSTYLE
 70
     1
  9
$CMLSTYLE
  2
STANDARD
  9
$CMLJUST
 70
     0
  9
$CMLSCALE
 40
1.0
  9
$PROXYGRAPHICS
 70
     1
  9
$MEASUREMENT
 70
     0
  0
ENDSEC
  0
SECTION
  2
CLASSES
  0
CLASS
  1
ACDBDICTIONARYWDFLT
  2
AcDbDictionaryWithDefault
  3
AutoCAD 2000
 90
        0
280
     0
281
     0
  0
CLASS
  1
ACDBPLACEHOLDER
  2
AcDbPlaceHolder
  3
AutoCAD 2000
 90
        0
280
     0
281
     0
  0
CLASS
  1
LAYOUT
  2
AcDbLayout
  3
AutoCAD 2000
 90
        0
280
     0
281
     0
  0
CLASS
  1
DICTIONARYVAR
  2
AcDbDictionaryVar
  3
AutoCAD 2000
 90
        0
280
     0
281
     0
  0
CLASS
  1
LONG_TRANSACTION
  2
AcDbLongTransaction
  3
AutoCAD 2000
 90
        0
280
     0
281
     0
  0
CLASS
  1
LWPOLYLINE
  2
AcDbPolyline
  3
AutoCAD 2000
 90
        0
280
     0
281
     1
  0
CLASS
  1
HATCH
  2
AcDbHatch
  3
AutoCAD 2000
 90
        0
280
     0
281
     1
  0
CLASS
  1
XRECORD
  2
AcDbXrecord
  3
AutoCAD 2000
 90
        0
280
     0
281
     0
  0
CLASS
  1
LONG_TRANSACTION
  2
AcDbLongTransaction
  3
AutoCAD 2000
 90
        0
280
     0
281
     0
  0
CLASS
  1
LWPOLYLINE
  2
AcDbPolyline
  3
AutoCAD 2000
 90
        0
280
     0
281
     1
  0
CLASS
  1
HATCH
  2
AcDbHatch
  3
AutoCAD 2000
 90
        0
280
     0
281
     1
  0
CLASS
  1
XRECORD
  2
AcDbXrecord
  3
AutoCAD 2000
 90
        0
280
     0
281
     0
  0
CLASS
  1
LONG_TRANSACTION
  2
AcDbLongTransaction
  3
AutoCAD 2000
 90
        0
280
     0
281
     0
  0
CLASS
  1
LWPOLYLINE
  2
AcDbPolyline
  3
AutoCAD 2000
 90
        0
280
     0
281
     1
  0
CLASS
  1
HATCH
  2
AcDbHatch
  3
AutoCAD 2000
 90
        0
280
     0
281
     1
  0
CLASS
  1
XRECORD
  2
AcDbXrecord
  3
AutoCAD 2000
 90
        0
280
     0
281
     0
  0
CLASS
  1
LONG_TRANSACTION
  2
AcDbLongTransaction
  3
AutoCAD 2000
 90
        0
280
     0
281
     0
  0
CLASS
  1
LWPOLYLINE
  2
AcDbPolyline
  3
AutoCAD 2000
 90
        0
280
     0
281
     1
  0
CLASS
  1
HATCH
  2
AcDbHatch
  3
AutoCAD 2000
 90
        0
280
     0
281
     1
  0
CLASS
  1
XRECORD
  2
AcDbXrecord
  3
AutoCAD 2000
 90
        0
280
     0
281
     0
  0
CLASS
  1
LONG_TRANSACTION
  2
AcDbLongTransaction
  3
AutoCAD 2000
 90
        0
280
     0
281
     0
  0
CLASS
  1
LWPOLYLINE
  2
AcDbPolyline
  3
AutoCAD 2000
 90
        0
280
     0
281
     1
  0
CLASS
  1
HATCH
  2
AcDbHatch
  3
AutoCAD 2000
 90
        0
280
     0
281
     1
  0
CLASS
  1
XRECORD
  2
AcDbXrecord
  3
AutoCAD 2000
 90
        0
280
     0
281
     0
  0
ENDSEC
  0
SECTION
  2
TABLES
  0
TABLE
  2
VPORT
  5
8
330
0
100
AcDbSymbolTable
 70
     2
  0
VPORT
  5
277
330
8
100
AcDbSymbolTableRecord
100
AcDbViewportTableRecord
  2
*ACTIVE
 70
     0
 10
0.0
 20
0.0
 11
1.0
 21
1.0
 12
27.29226226210806
 22
1.81631585504076
 13
0.0
 23
0.0
 14
0.5740882589684922
 24
0.5740882589684922
 15
0.5
 25
0.5
 16
0.0
 26
0.0
 36
1.0
 17
0.0
 27
0.0
 37
0.0
 40
12.54735822405575
 41
1.570528967254408
 42
50.0
 43
0.0
 44
0.0
 50
0.0
 51
0.0
 71
     0
 72
   100
 73
     1
 74
     0
 75
     0
 76
     0
 77
     0
 78
     0
  0
ENDTAB
  0
TABLE
  2
LTYPE
  5
5
330
0
100
AcDbSymbolTable
 70
     2
  0
LTYPE
  5
12
330
5
100
AcDbSymbolTableRecord
100
AcDbLinetypeTableRecord
  2
BYBLOCK
 70
     0
  3

 72
    65
 73
     0
 40
0.0
  0
LTYPE
  5
13
330
5
100
AcDbSymbolTableRecord
100
AcDbLinetypeTableRecord
  2
BYLAYER
 70
     0
  3

 72
    65
 73
     0
 40
0.0
  0
LTYPE
  5
14
330
5
100
AcDbSymbolTableRecord
100
AcDbLinetypeTableRecord
  2
CONTINUOUS
 70
     0
  3
Solid line
 72
    65
 73
     0
 40
0.0
  0
LTYPE
  5
D2
330
5
100
AcDbSymbolTableRecord
100
AcDbLinetypeTableRecord
  2
CENTER2
 70
     0
  3
___ _ ___ _ ___ _ ___ _ ___ _ ___ _ ___ _ ___ _
 72
    65
 73
     4
 40
1.125
 49
0.75
 74
     0
 49
-0.125
 74
     0
 49
0.125
 74
     0
 49
-0.125
 74
     0
  0
ENDTAB
  0
TABLE
  2
LAYER
  5
2
330
0
100
AcDbSymbolTable
 70
     5
  0
LAYER
  5
F
330
2
100
AcDbSymbolTableRecord
100
AcDbLayerTableRecord
  2
0
 70
     0
 62
     7
  6
CONTINUOUS
  0
LAYER
  5
D3
330
2
100
AcDbSymbolTableRecord
100
AcDbLayerTableRecord
  2
ADP1DETAIL
 70
     0
 62
     7
  6
CONTINUOUS
  0
LAYER
  5
D4
330
2
100
AcDbSymbolTableRecord
100
AcDbLayerTableRecord
  2
DEFPOINTS
 70
     0
 62
     7
  6
CONTINUOUS
  0
LAYER
  5
D7
330
2
100
AcDbSymbolTableRecord
100
AcDbLayerTableRecord
  2
ADPDIM
 70
     0
 62
     3
  6
CONTINUOUS
  0
LAYER
  5
D8
330
2
100
AcDbSymbolTableRecord
100
AcDbLayerTableRecord
  2
ADP3DETAIL
 70
     0
 62
     1
  6
CONTINUOUS
  0
ENDTAB
  0
TABLE
  2
STYLE
  5
3
330
0
100
AcDbSymbolTable
 70
     2
  0
STYLE
  5
10
330
3
100
AcDbSymbolTableRecord
100
AcDbTextStyleTableRecord
  2
STANDARD
 70
     0
 40
0.0
 41
1.0
 50
0.0
 71
     0
 42
0.2
  3
txt
  4

  0
STYLE
  5
133
330
3
100
AcDbSymbolTableRecord
100
AcDbTextStyleTableRecord
  2
ARIAL_WIDE
 70
     0
 40
0.0
 41
1.25
 50
0.0
 71
     0
 42
0.2
  3
ARIAL.TTF
  4

1001
ACAD
1000
Arial
1071
       34
  0
ENDTAB
  0
TABLE
  2
VIEW
  5
6
330
0
100
AcDbSymbolTable
 70
     0
  0
ENDTAB
  0
TABLE
  2
UCS
  5
7
330
0
100
AcDbSymbolTable
 70
     0
  0
ENDTAB
  0
TABLE
  2
APPID
  5
9
330
0
100
AcDbSymbolTable
 70
     1
  0
APPID
  5
11
330
9
100
AcDbSymbolTableRecord
100
AcDbRegAppTableRecord
  2
ACAD
 70
     0
  0
ENDTAB
  0
TABLE
  2
DIMSTYLE
  5
A
330
0
100
AcDbSymbolTable
 70
     1
  0
DIMSTYLE
105
127
330
A
100
AcDbSymbolTableRecord
100
AcDbDimStyleTableRecord
  2
STANDARD
 70
     0
  3

  4

  5

  6

  7

 40
1.0
 41
0.18
 42
0.0625
 43
0.38
 44
0.18
 45
0.0
 46
0.0
 47
0.0
 48
0.0
140
0.18
141
0.09
142
0.0
143
25.4
144
1.0
145
0.0
146
1.0
147
0.09
 71
     0
 72
     0
 73
     1
 74
     1
 75
     0
 76
     0
 77
     0
 78
     0
170
     0
171
     2
172
     0
173
     0
174
     0
175
     0
176
     0
177
     0
178
     0
270
     2
271
     4
272
     4
273
     2
274
     2
340
10
275
     0
280
     0
281
     0
282
     0
283
     1
284
     0
285
     0
286
     0
287
     3
288
     0
  0
ENDTAB
  0
TABLE
  2
BLOCK_RECORD
  5
1
330
0
100
AcDbSymbolTable
 70
     5
  0
BLOCK_RECORD
  5
18
102
{ACAD_XDICTIONARY
360
188
102
}
330
1
100
AcDbSymbolTableRecord
100
AcDbBlockTableRecord
  2
*MODEL_SPACE
  0
BLOCK_RECORD
  5
15
102
{ACAD_XDICTIONARY
360
186
102
}
330
1
100
AcDbSymbolTableRecord
100
AcDbBlockTableRecord
  2
*PAPER_SPACE
  0
BLOCK_RECORD
  5
CC
330
1
100
AcDbSymbolTableRecord
100
AcDbBlockTableRecord
  2
*D0
  0
BLOCK_RECORD
  5
CD
330
1
100
AcDbSymbolTableRecord
100
AcDbBlockTableRecord
  2
*D1
  0
BLOCK_RECORD
  5
CE
330
1
100
AcDbSymbolTableRecord
100
AcDbBlockTableRecord
  2
*D2
  0
BLOCK_RECORD
  5
CF
330
1
100
AcDbSymbolTableRecord
100
AcDbBlockTableRecord
  2
*D3
  0
BLOCK_RECORD
  5
D0
330
1
100
AcDbSymbolTableRecord
100
AcDbBlockTableRecord
  2
*D4
  0
ENDTAB
  0
ENDSEC
  0
SECTION
  2
BLOCKS
  0
BLOCK
  5
DB
330
18
100
AcDbEntity
  8
0
100
AcDbBlockBegin
  2
*MODEL_SPACE
 70
     0
 10
0.0
 20
0.0
 30
0.0
  3
*MODEL_SPACE
  1

  0
ENDBLK
  5
DC
330
18
100
AcDbEntity
  8
0
100
AcDbBlockEnd
  0
BLOCK
  5
D9
330
15
100
AcDbEntity
 67
     1
  8
0
100
AcDbBlockBegin
  2
*PAPER_SPACE
 70
     0
 10
0.0
 20
0.0
 30
0.0
  3
*PAPER_SPACE
  1

  0
ENDBLK
  5
DA
330
15
100
AcDbEntity
 67
     1
  8
0
100
AcDbBlockEnd
  0
BLOCK
  5
DE
330
CC
100
AcDbEntity
  8
0
100
AcDbBlockBegin
  2
*D0
 70
     1
 10
0.0
 20
0.0
 30
0.0
  3
*D0
  1

  0
LINE
  5
DF
330
CC
100
AcDbEntity
  8
0
  6
BYBLOCK
 62
     0
100
AcDbLine
 10
30.22547436726945
 20
4.317964301027111
 30
0.0
 11
30.22547436726945
 21
4.754950113858215
 31
0.0
  0
LINE
  5
E0
330
CC
100
AcDbEntity
  8
0
  6
BYBLOCK
 62
     0
100
AcDbLine
 10
23.22547436726945
 20
3.892010025757806
 30
0.0
 11
23.22547436726945
 21
4.754950113858215
 31
0.0
  0
LINE
  5
E1
330
CC
100
AcDbEntity
  8
0
  6
BYBLOCK
 62
     0
100
AcDbLine
 10
30.22547436726945
 20
4.574950113858215
 30
0.0
 11
26.89214103393612
 21
4.574950113858215
 31
0.0
  0
LINE
  5
E2
330
CC
100
AcDbEntity
  8
0
  6
BYBLOCK
 62
     0
100
AcDbLine
 10
23.22547436726945
 20
4.574950113858215
 30
0.0
 11
26.55880770060278
 21
4.574950113858215
 31
0.0
  0
LINE
  5
E3
330
CC
100
AcDbEntity
  8
0
  6
BYBLOCK
 62
     0
100
AcDbLine
 10
30.10047436726945
 20
4.449950113858215
 30
0.0
 11
30.35047436726945
 21
4.699950113858215
 31
0.0
  0
LINE
  5
E4
330
CC
100
AcDbEntity
  8
0
  6
BYBLOCK
 62
     0
100
AcDbLine
 10
23.10047436726945
 20
4.449950113858215
 30
0.0
 11
23.35047436726945
 21
4.699950113858215
 31
0.0
  0
TEXT
  5
E5
330
CC
100
AcDbEntity
  8
0
  6
BYBLOCK
 62
     0
100
AcDbText
 10
26.68380770060278
 20
4.512450113858215
 30
0.0
 40
0.125
  1
7
 72
     1
 11
26.72547436726945
 21
4.574950113858215
 31
0.0
100
AcDbText
 73
     2
  0
POINT
  5
E6
330
CC
100
AcDbEntity
  8
DEFPOINTS
  6
BYBLOCK
 62
     0
100
AcDbPoint
 10
30.22547436726945
 20
4.255464301027111
 30
0.0
  0
POINT
  5
E7
330
CC
100
AcDbEntity
  8
DEFPOINTS
  6
BYBLOCK
 62
     0
100
AcDbPoint
 10
23.22547436726945
 20
3.829510025757806
 30
0.0
  0
POINT
  5
E8
330
CC
100
AcDbEntity
  8
DEFPOINTS
  6
BYBLOCK
 62
     0
100
AcDbPoint
 10
23.22547436726945
 20
4.574950113858215
 30
0.0
  0
ENDBLK
  5
E9
330
CC
100
AcDbEntity
  8
0
100
AcDbBlockEnd
  0
BLOCK
  5
EA
330
CD
100
AcDbEntity
  8
0
100
AcDbBlockBegin
  2
*D1
 70
     1
 10
0.0
 20
0.0
 30
0.0
  3
*D1
  1

  0
LINE
  5
EB
330
CD
100
AcDbEntity
  8
0
  6
BYBLOCK
 62
     0
100
AcDbLine
 10
20.20714762914302
 20
3.233779305240025
 30
0.0
 11
20.06720131767099
 21
4.373550547185498
 31
0.0
  0
LINE
  5
EC
330
CD
100
AcDbEntity
  8
0
  6
BYBLOCK
 62
     0
100
AcDbLine
 10
23.18478608406699
 20
3.599387335455466
 30
0.0
 11
23.04483977259495
 21
4.739158577400939
 31
0.0
  0
LINE
  5
ED
330
CD
100
AcDbEntity
  8
0
  6
BYBLOCK
 62
     0
100
AcDbLine
 10
20.08913779948392
 20
4.19489223989006
 30
0.0
 11
21.41253266833901
 21
4.357384697763589
 31
0.0
  0
LINE
  5
EE
330
CD
100
AcDbEntity
  8
0
  6
BYBLOCK
 62
     0
100
AcDbLine
 10
23.06677625440788
 20
4.5605002701055
 30
0.0
 11
21.74338138555278
 21
4.398007812231972
 31
0.0
  0
LINE
  5
EF
330
CD
100
AcDbEntity
  8
0
  6
BYBLOCK
 62
     0
100
AcDbLine
 10
19.98030319845439
 20
4.055590303009251
 30
0.0
 11
20.19797240051344
 21
4.334194176770869
 31
0.0
  0
LINE
  5
F0
330
CD
100
AcDbEntity
  8
0
  6
BYBLOCK
 62
     0
100
AcDbLine
 10
22.95794165337836
 20
4.421198333224692
 30
0.0
 11
23.1756108554374
 21
4.699802206986309
 31
0.0
  0
TEXT
  5
F1
330
CD
100
AcDbEntity
  8
0
  6
BYBLOCK
 62
     0
100
AcDbText
 10
21.54421777125699
 20
4.31058423121165
 30
0.0
 40
0.125
  1
3
 50
6.999999999999971
 72
     1
 11
21.5779570269459
 21
4.37769625499778
 31
0.0
100
AcDbText
 73
     2
  0
POINT
  5
F2
330
CD
100
AcDbEntity
  8
DEFPOINTS
  6
BYBLOCK
 62
     0
100
AcDbPoint
 10
20.21476446310584
 20
3.171745170762442
 30
0.0
  0
POINT
  5
F3
330
CD
100
AcDbEntity
  8
DEFPOINTS
  6
BYBLOCK
 62
     0
100
AcDbPoint
 10
23.19240291802981
 20
3.537353200977883
 30
0.0
  0
POINT
  5
F4
330
CD
100
AcDbEntity
  8
DEFPOINTS
  6
BYBLOCK
 62
     0
100
AcDbPoint
 10
23.06677625440788
 20
4.5605002701055
 30
0.0
  0
ENDBLK
  5
F5
330
CD
100
AcDbEntity
  8
0
100
AcDbBlockEnd
  0
BLOCK
  5
F6
330
CE
100
AcDbEntity
  8
0
100
AcDbBlockBegin
  2
*D2
 70
     1
 10
0.0
 20
0.0
 30
0.0
  3
*D2
  1

  0
LINE
  5
F7
330
CE
100
AcDbEntity
  8
0
  6
BYBLOCK
 62
     0
100
AcDbLine
 10
23.22288580748258
 20
3.420623869214176
 30
0.0
 11
23.37868344318428
 21
0.9206098108042525
 31
0.0
  0
LINE
  5
F8
330
CE
100
AcDbEntity
  8
0
  6
BYBLOCK
 62
     0
100
AcDbLine
 10
23.09035307356507
 20
3.537607092115367
 30
0.0
 11
23.35541854140009
 21
3.303640646312985
 31
0.0
  0
TEXT
  5
F9
330
CE
100
AcDbEntity
  8
0
  6
BYBLOCK
 62
     0
100
AcDbText
 10
23.32407920948777
 20
0.7919644546408202
 30
0.0
 40
0.125
  1
R2 1/2
 50
273.5659871718144
 72
     1
 11
23.40719088004754
 21
0.4631638899699619
 31
0.0
100
AcDbText
 73
     2
  0
POINT
  5
FA
330
CE
100
AcDbEntity
  8
DEFPOINTS
  6
BYBLOCK
 62
     0
100
AcDbPoint
 10
23.22288580748258
 20
3.420623869214176
 30
0.0
  0
POINT
  5
FB
330
CE
100
AcDbEntity
  8
DEFPOINTS
  6
BYBLOCK
 62
     0
100
AcDbPoint
 10
23.37838091764579
 20
0.9254643010271131
 30
0.0
  0
ENDBLK
  5
FC
330
CE
100
AcDbEntity
  8
0
100
AcDbBlockEnd
  0
BLOCK
  5
FD
330
CF
100
AcDbEntity
  8
0
100
AcDbBlockBegin
  2
*D3
 70
     1
 10
0.0
 20
0.0
 30
0.0
  3
*D3
  1

  0
LINE
  5
FE
330
CF
100
AcDbEntity
  8
0
  6
BYBLOCK
 62
     0
100
AcDbLine
 10
33.3201330802122
 20
3.516144296385356
 30
0.0
 11
33.3201330802122
 21
3.633644296385357
 31
0.0
  0
LINE
  5
FF
330
CF
100
AcDbEntity
  8
0
  6
BYBLOCK
 62
     0
100
AcDbLine
 10
33.4601330802122
 20
3.516144296385356
 30
0.0
 11
33.4601330802122
 21
3.633644296385357
 31
0.0
  0
LINE
  5
100
330
CF
100
AcDbEntity
  8
0
  6
BYBLOCK
 62
     0
100
AcDbLine
 10
33.3201330802122
 20
3.453644296385356
 30
0.0
 11
33.0701330802122
 21
3.453644296385356
 31
0.0
  0
LINE
  5
101
330
CF
100
AcDbEntity
  8
0
  6
BYBLOCK
 62
     0
100
AcDbLine
 10
33.4601330802122
 20
3.453644296385356
 30
0.0
 11
33.7101330802122
 21
3.453644296385356
 31
0.0
  0
LINE
  5
102
330
CF
100
AcDbEntity
  8
0
  6
BYBLOCK
 62
     0
100
AcDbLine
 10
33.1951330802122
 20
3.328644296385356
 30
0.0
 11
33.4451330802122
 21
3.578644296385356
 31
0.0
  0
LINE
  5
103
330
CF
100
AcDbEntity
  8
0
  6
BYBLOCK
 62
     0
100
AcDbLine
 10
33.3351330802122
 20
3.328644296385356
 30
0.0
 11
33.5851330802122
 21
3.578644296385356
 31
0.0
  0
TEXT
  5
104
330
CF
100
AcDbEntity
  8
0
  6
BYBLOCK
 62
     0
100
AcDbText
 10
33.8351330802122
 20
3.391144296385356
 30
0.0
 40
0.125
  1
1/8
 72
     1
 11
33.98096641354554
 21
3.453644296385356
 31
0.0
100
AcDbText
 73
     2
  0
POINT
  5
105
330
CF
100
AcDbEntity
  8
DEFPOINTS
  6
BYBLOCK
 62
     0
100
AcDbPoint
 10
33.3201330802122
 20
3.453644296385356
 30
0.0
  0
POINT
  5
106
330
CF
100
AcDbEntity
  8
DEFPOINTS
  6
BYBLOCK
 62
     0
100
AcDbPoint
 10
33.4601330802122
 20
3.453644296385356
 30
0.0
  0
POINT
  5
107
330
CF
100
AcDbEntity
  8
DEFPOINTS
  6
BYBLOCK
 62
     0
100
AcDbPoint
 10
33.4601330802122
 20
3.453644296385356
 30
0.0
  0
ENDBLK
  5
108
330
CF
100
AcDbEntity
  8
0
100
AcDbBlockEnd
  0
BLOCK
  5
109
330
D0
100
AcDbEntity
  8
0
100
AcDbBlockBegin
  2
*D4
 70
     1
 10
0.0
 20
0.0
 30
0.0
  3
*D4
  1

  0
LINE
  5
10A
330
D0
100
AcDbEntity
  8
0
  6
BYBLOCK
 62
     0
100
AcDbLine
 10
30.28797436726945
 20
2.595464301027115
 30
0.0
 11
31.11221066222595
 21
2.595464301027115
 31
0.0
  0
LINE
  5
10B
330
D0
100
AcDbEntity
  8
0
  6
BYBLOCK
 62
     0
100
AcDbLine
 10
30.28797436726945
 20
4.255464301027111
 30
0.0
 11
31.11221066222595
 21
4.255464301027111
 31
0.0
  0
LINE
  5
10C
330
D0
100
AcDbEntity
  8
0
  6
BYBLOCK
 62
     0
100
AcDbLine
 10
30.93221066222595
 20
2.595464301027115
 30
0.0
 11
30.93221066222595
 21
3.081714301027113
 31
0.0
  0
LINE
  5
10D
330
D0
100
AcDbEntity
  8
0
  6
BYBLOCK
 62
     0
100
AcDbLine
 10
30.93221066222595
 20
4.255464301027111
 30
0.0
 11
30.93221066222595
 21
3.769214301027113
 31
0.0
  0
LINE
  5
10E
330
D0
100
AcDbEntity
  8
0
  6
BYBLOCK
 62
     0
100
AcDbLine
 10
31.05721066222595
 20
2.470464301027115
 30
0.0
 11
30.80721066222595
 21
2.720464301027115
 31
0.0
  0
LINE
  5
10F
330
D0
100
AcDbEntity
  8
0
  6
BYBLOCK
 62
     0
100
AcDbLine
 10
31.05721066222595
 20
4.130464301027111
 30
0.0
 11
30.80721066222595
 21
4.380464301027111
 31
0.0
  0
TEXT
  5
110
330
D0
100
AcDbEntity
  8
0
  6
BYBLOCK
 62
     0
100
AcDbText
 10
30.99471066222595
 20
3.206714301027113
 30
0.0
 40
0.125
  1
1.660
 50
90.0
 72
     1
 11
30.93221066222595
 21
3.425464301027113
 31
0.0
100
AcDbText
 73
     2
  0
POINT
  5
111
330
D0
100
AcDbEntity
  8
DEFPOINTS
  6
BYBLOCK
 62
     0
100
AcDbPoint
 10
30.22547436726945
 20
2.595464301027115
 30
0.0
  0
POINT
  5
112
330
D0
100
AcDbEntity
  8
DEFPOINTS
  6
BYBLOCK
 62
     0
100
AcDbPoint
 10
30.22547436726945
 20
4.255464301027111
 30
0.0
  0
POINT
  5
113
330
D0
100
AcDbEntity
  8
DEFPOINTS
  6
BYBLOCK
 62
     0
100
AcDbPoint
 10
30.93221066222595
 20
4.255464301027111
 30
0.0
  0
ENDBLK
  5
114
330
D0
100
AcDbEntity
  8
0
100
AcDbBlockEnd
  0
ENDSEC
  0
SECTION
  2
ENTITIES
  0
LINE
  5
115
330
18
100
AcDbEntity
  8
ADP3DETAIL
  6
CENTER2
100
AcDbLine
 10
30.40197923982244
 20
3.425464301027113
 30
0.0
 11
23.37838091764579
 21
3.425464301027113
 31
0.0
  0
DIMENSION
  5
116
330
18
100
AcDbEntity
  8
ADPDIM
100
AcDbDimension
  2
*D0
 10
23.22547436726945
 20
4.574950113858215
 30
0.0
 11
26.72547436726945
 21
4.574950113858215
 31
0.0
100
AcDbAlignedDimension
 13
30.22547436726945
 23
4.255464301027111
 33
0.0
 14
23.22547436726945
 24
3.829510025757806
 34
0.0
100
AcDbRotatedDimension
  0
LINE
  5
117
330
18
100
AcDbEntity
  8
ADP1DETAIL
100
AcDbLine
 10
23.38021579625016
 20
2.595464301027115
 30
0.0
 11
30.22547436726945
 21
2.595464301027115
 31
0.0
  0
LINE
  5
118
330
18
100
AcDbEntity
  8
ADP1DETAIL
100
AcDbLine
 10
23.37654603904114
 20
4.255464301027111
 30
0.0
 11
30.22547436726945
 21
4.255464301027111
 31
0.0
  0
LINE
  5
119
330
18
100
AcDbEntity
  8
ADP3DETAIL
  6
CENTER2
100
AcDbLine
 10
23.07370755913292
 20
3.406829680130422
 30
0.0
 11
19.4997705124733
 21
2.968005389161697
 31
0.0
  0
DIMENSION
  5
11A
330
18
100
AcDbEntity
  8
ADPDIM
100
AcDbDimension
  2
*D1
 10
23.06677625440788
 20
4.5605002701055
 30
0.0
 11
21.5779570269459
 21
4.37769625499778
 31
0.0
 70
     1
100
AcDbAlignedDimension
 13
20.21476446310584
 23
3.171745170762442
 33
0.0
 14
23.19240291802981
 24
3.537353200977883
 34
0.0
  0
LINE
  5
11B
330
18
100
AcDbEntity
  8
ADP1DETAIL
100
AcDbLine
 10
20.14668435731921
 20
3.88366957667396
 30
0.0
 11
22.97437720580415
 21
4.230866601443474
 31
0.0
  0
LINE
  5
11C
330
18
100
AcDbEntity
  8
ADP1DETAIL
100
AcDbLine
 10
23.1730379124614
 20
2.582792758817356
 30
0.0
 11
20.34898746737175
 21
2.23604296494937
 31
0.0
  0
LINE
  5
11D
330
18
100
AcDbEntity
  8
ADP1DETAIL
100
AcDbLine
 10
20.34898746737175
 20
2.23604296494937
 30
0.0
 11
20.14668435731921
 21
3.88366957667396
 31
0.0
  0
DIMENSION
  5
11E
330
18
100
AcDbEntity
  8
ADPDIM
100
AcDbDimension
  2
*D2
 10
23.37838091764579
 20
0.9254643010271131
 30
0.0
 11
23.40719088004754
 21
0.4631638899699619
 31
0.0
 70
     4
100
AcDbRadialDimension
 15
23.22288580748258
 25
3.420623869214176
 35
0.0
 40
-2.504863907588094
  0
ARC
  5
11F
330
18
100
AcDbEntity
  8
ADP1DETAIL
100
AcDbCircle
 10
23.38021579625016
 20
0.8954643010271121
 30
0.0
 40
1.7
100
AcDbArc
 50
90.0
 51
97.00000000000008
  0
ARC
  5
120
330
18
100
AcDbEntity
  8
ADP3DETAIL
  6
CENTER2
100
AcDbCircle
 10
23.37838091764579
 20
0.9254643010271133
 30
0.0
 40
2.5
100
AcDbArc
 50
90.0
 51
96.99999999999997
  0
ARC
  5
121
330
18
100
AcDbEntity
  8
ADP1DETAIL
100
AcDbCircle
 10
23.37654603904114
 20
0.9554643010271144
 30
0.0
 40
3.299999999999999
100
AcDbArc
 50
90.0
 51
97.00000000000008
  0
DIMENSION
  5
122
330
18
100
AcDbEntity
  8
ADPDIM
100
AcDbDimension
  2
*D4
 10
30.93221066222595
 20
4.255464301027111
 30
0.0
 11
30.93221066222595
 21
3.425464301027113
 31
0.0
  1
1.660
100
AcDbAlignedDimension
 13
30.22547436726945
 23
2.595464301027115
 33
0.0
 14
30.22547436726945
 24
4.255464301027111
 34
0.0
 50
90.0
100
AcDbRotatedDimension
  0
LINE
  5
123
330
18
100
AcDbEntity
  8
ADP1DETAIL
100
AcDbLine
 10
30.22547436726945
 20
4.255464301027111
 30
0.0
 11
30.22547436726945
 21
2.595464301027115
 31
0.0
  0
CIRCLE
  5
124
330
18
100
AcDbEntity
  8
ADP1DETAIL
100
AcDbCircle
 10
32.62175058993153
 20
3.425464301027113
 30
0.0
 40
0.6899999999999978
  0
CIRCLE
  5
125
330
18
100
AcDbEntity
  8
ADP1DETAIL
100
AcDbCircle
 10
32.62175058993153
 20
3.425464301027113
 30
0.0
 40
0.8299999999999998
  0
DIMENSION
  5
126
330
18
100
AcDbEntity
  8
ADPDIM
100
AcDbDimension
  2
*D3
 10
33.4601330802122
 20
3.453644296385356
 30
0.0
 11
33.98096641354554
 21
3.453644296385356
 31
0.0
100
AcDbAlignedDimension
 13
33.3201330802122
 23
3.453644296385356
 33
0.0
 14
33.4601330802122
 24
3.453644296385356
 34
0.0
100
AcDbRotatedDimension
  0
TEXT
  5
134
330
18
100
AcDbEntity
  8
ADPDIM
100
AcDbText
 10
17.48782976168089
 20
-1.068155334916235
 30
0.0
 40
0.1875
  1
J U L I U S  B L U M  &  C O . ,  I N C .      ( 8 0 0 )  5 2 6 - 6 2 9 3        W W W . J U L I U S B L U M . C O M        P A R T  N o .  7 4 0 6
 41
1.25
  7
ARIAL_WIDE
 72
     1
 11
27.27642329851582
 21
-0.8806553349162358
 31
0.0
100
AcDbText
 73
     3
  0
ENDSEC
  0
SECTION
  2
OBJECTS
  0
DICTIONARY
  5
C
330
0
100
AcDbDictionary
  3
ACAD_GROUP
350
D
  3
ACAD_LAYOUT
350
12D
  3
ACAD_MLINESTYLE
350
E
  3
ACAD_PLOTSETTINGS
350
12E
  3
ACAD_PLOTSTYLENAME
350
12B
  3
ACDBHEADERROUNDTRIPXREC
350
278
  3
ACDBVARIABLEDICTIONARY
350
18E
  0
DICTIONARY
  5
188
330
18
100
AcDbDictionary
280
     1
  3
ACAD_LAYOUTSELFREF
360
299
  0
DICTIONARY
  5
186
330
15
100
AcDbDictionary
280
     1
  3
ACAD_LAYOUTSELFREF
360
298
  0
DICTIONARY
  5
D
102
{ACAD_REACTORS
330
C
102
}
330
C
100
AcDbDictionary
  0
DICTIONARY
  5
12D
102
{ACAD_REACTORS
330
C
102
}
330
C
100
AcDbDictionary
  0
DICTIONARY
  5
E
102
{ACAD_REACTORS
330
C
102
}
330
C
100
AcDbDictionary
  3
STANDARD
350
1B
  0
DICTIONARY
  5
12E
102
{ACAD_REACTORS
330
C
102
}
330
C
100
AcDbDictionary
  0
ACDBDICTIONARYWDFLT
  5
12B
102
{ACAD_REACTORS
330
C
102
}
330
C
100
AcDbDictionary
281
     1
  3
Normal
350
12C
100
AcDbDictionaryWithDefault
340
12C
  0
DICTIONARY
  5
278
102
{ACAD_REACTORS
330
C
102
}
330
C
100
AcDbDictionary
  3
CEPSNTYPE
350
282
  3
FINGERPRINTGUID
350
283
  3
HYPERLINKBASE
350
27B
  3
INSUNITS
350
281
  3
LAYOUTDICT
350
27D
  3
LWETCUNION
350
280
  3
PLOTSETDICT
350
27E
  3
PLOTSTYLNAMDICT
350
27F
  3
PSVPSCALE
350
285
  3
PUCSBASE
350
288
  3
PUCSORGBACK
350
28E
  3
PUCSORGBOTTOM
350
28A
  3
PUCSORGFRONT
350
28D
  3
PUCSORGLEFT
350
28B
  3
PUCSORGRIGHT
350
28C
  3
PUCSORGTOP
350
289
  3
PUCSORTHOREF
350
286
  3
PUCSORTHOVIEW
350
287
  3
STYLESHEET
350
27C
  3
TSTACKALIGN
350
279
  3
TSTACKSIZE
350
27A
  3
UCSBASE
350
291
  3
UCSORGBACK
350
297
  3
UCSORGBOTTOM
350
293
  3
UCSORGFRONT
350
296
  3
UCSORGLEFT
350
294
  3
UCSORGRIGHT
350
295
  3
UCSORGTOP
350
292
  3
UCSORTHOREF
350
28F
  3
UCSORTHOVIEW
350
290
  3
VERSIONGUID
350
284
  0
DICTIONARY
  5
18E
102
{ACAD_REACTORS
330
C
102
}
330
C
100
AcDbDictionary
  3
DIMASSOC
350
18F
  0
XRECORD
  5
299
102
{ACAD_REACTORS
330
188
102
}
330
188
100
AcDbXrecord
340
18
  0
XRECORD
  5
298
102
{ACAD_REACTORS
330
186
102
}
330
186
100
AcDbXrecord
340
15
  0
MLINESTYLE
  5
1B
102
{ACAD_REACTORS
330
E
102
}
330
E
100
AcDbMlineStyle
  2
STANDARD
 70
     0
  3

 62
     0
 51
90.0
 52
90.0
 71
     2
 49
0.5
 62
   256
  6
BYLAYER
 49
-0.5
 62
   256
  6
BYLAYER
  0
ACDBPLACEHOLDER
  5
12C
102
{ACAD_REACTORS
330
12B
102
}
330
12B
100
AcDbPlaceHolder
280
     0
  0
XRECORD
  5
282
102
{ACAD_REACTORS
330
278
102
}
330
278
100
AcDbXrecord
 90
        0
  0
XRECORD
  5
283
102
{ACAD_REACTORS
330
278
102
}
330
278
100
AcDbXrecord
  1
{9ED3AEF4-3BC9-4154-B7B5-668CA20A8900}
  0
XRECORD
  5
27B
102
{ACAD_REACTORS
330
278
102
}
330
278
100
AcDbXrecord
  1

  0
XRECORD
  5
281
102
{ACAD_REACTORS
330
278
102
}
330
278
100
AcDbXrecord
 90
        0
  0
XRECORD
  5
27D
102
{ACAD_REACTORS
330
278
102
}
330
278
100
AcDbXrecord
340
12D
  0
XRECORD
  5
280
102
{ACAD_REACTORS
330
278
102
}
330
278
100
AcDbXrecord
 90
    14877
  0
XRECORD
  5
27E
102
{ACAD_REACTORS
330
278
102
}
330
278
100
AcDbXrecord
340
12E
  0
XRECORD
  5
27F
102
{ACAD_REACTORS
330
278
102
}
330
278
100
AcDbXrecord
340
12B
  0
XRECORD
  5
285
102
{ACAD_REACTORS
330
278
102
}
330
278
100
AcDbXrecord
 40
0.0
  0
XRECORD
  5
288
102
{ACAD_REACTORS
330
278
102
}
330
278
100
AcDbXrecord
340
0
  0
XRECORD
  5
28E
102
{ACAD_REACTORS
330
278
102
}
330
278
100
AcDbXrecord
 10
0.0
 20
0.0
 30
0.0
  0
XRECORD
  5
28A
102
{ACAD_REACTORS
330
278
102
}
330
278
100
AcDbXrecord
 10
0.0
 20
0.0
 30
0.0
  0
XRECORD
  5
28D
102
{ACAD_REACTORS
330
278
102
}
330
278
100
AcDbXrecord
 10
0.0
 20
0.0
 30
0.0
  0
XRECORD
  5
28B
102
{ACAD_REACTORS
330
278
102
}
330
278
100
AcDbXrecord
 10
0.0
 20
0.0
 30
0.0
  0
XRECORD
  5
28C
102
{ACAD_REACTORS
330
278
102
}
330
278
100
AcDbXrecord
 10
0.0
 20
0.0
 30
0.0
  0
XRECORD
  5
289
102
{ACAD_REACTORS
330
278
102
}
330
278
100
AcDbXrecord
 10
0.0
 20
0.0
 30
0.0
  0
XRECORD
  5
286
102
{ACAD_REACTORS
330
278
102
}
330
278
100
AcDbXrecord
340
0
  0
XRECORD
  5
287
102
{ACAD_REACTORS
330
278
102
}
330
278
100
AcDbXrecord
 70
     0
  0
XRECORD
  5
27C
102
{ACAD_REACTORS
330
278
102
}
330
278
100
AcDbXrecord
  1

  0
XRECORD
  5
279
102
{ACAD_REACTORS
330
278
102
}
330
278
100
AcDbXrecord
 90
        1
  0
XRECORD
  5
27A
102
{ACAD_REACTORS
330
278
102
}
330
278
100
AcDbXrecord
 90
       70
  0
XRECORD
  5
291
102
{ACAD_REACTORS
330
278
102
}
330
278
100
AcDbXrecord
340
0
  0
XRECORD
  5
297
102
{ACAD_REACTORS
330
278
102
}
330
278
100
AcDbXrecord
 10
0.0
 20
0.0
 30
0.0
  0
XRECORD
  5
293
102
{ACAD_REACTORS
330
278
102
}
330
278
100
AcDbXrecord
 10
0.0
 20
0.0
 30
0.0
  0
XRECORD
  5
296
102
{ACAD_REACTORS
330
278
102
}
330
278
100
AcDbXrecord
 10
0.0
 20
0.0
 30
0.0
  0
XRECORD
  5
294
102
{ACAD_REACTORS
330
278
102
}
330
278
100
AcDbXrecord
 10
0.0
 20
0.0
 30
0.0
  0
XRECORD
  5
295
102
{ACAD_REACTORS
330
278
102
}
330
278
100
AcDbXrecord
 10
0.0
 20
0.0
 30
0.0
  0
XRECORD
  5
292
102
{ACAD_REACTORS
330
278
102
}
330
278
100
AcDbXrecord
 10
0.0
 20
0.0
 30
0.0
  0
XRECORD
  5
28F
102
{ACAD_REACTORS
330
278
102
}
330
278
100
AcDbXrecord
340
0
  0
XRECORD
  5
290
102
{ACAD_REACTORS
330
278
102
}
330
278
100
AcDbXrecord
 70
     0
  0
XRECORD
  5
284
102
{ACAD_REACTORS
330
278
102
}
330
278
100
AcDbXrecord
  1
{F18B7D25-4F9F-4333-88BA-FF7090B5857D}
  0
DICTIONARYVAR
  5
18F
102
{ACAD_REACTORS
330
18E
102
}
330
18E
100
DictionaryVariables
280
     0
  1
1
  0
ENDSEC
  0
EOF
