  0
SECTION
  2
HEADER
  9
$ACADVER
  1
AC1014
  9
$ACADMAINTVER
 70
     9
  9
$DWGCODEPAGE
  3
ANSI_1252
  9
$INSBASE
 10
11.07117652414633
 20
2.751972199131413
 30
0.0
  9
$EXTMIN
 10
3.642494088683259
 20
1.482268140521644
 30
0.0
  9
$EXTMAX
 10
16.69395213779649
 20
5.081103737271416
 30
0.0
  9
$LIMMIN
 10
0.0
 20
0.0
  9
$LIMMAX
 10
36.0
 20
36.0
  9
$ORTHOMODE
 70
     1
  9
$REGENMODE
 70
     1
  9
$FILLMODE
 70
     1
  9
$QTEXTMODE
 70
     0
  9
$MIRRTEXT
 70
     1
  9
$DRAGMODE
 70
     0
  9
$LTSCALE
 40
1.0
  9
$OSMODE
 70
    33
  9
$ATTMODE
 70
     1
  9
$TEXTSIZE
 40
0.2
  9
$TRACEWID
 40
0.05
  9
$TEXTSTYLE
  7
STANDARD
  9
$CLAYER
  8
ADP1DETAIL
  9
$CELTYPE
  6
BYLAYER
  9
$CECOLOR
 62
   256
  9
$CELTSCALE
 40
1.0
  9
$DELOBJ
 70
     1
  9
$DISPSILH
 70
     0
  9
$DIMSCALE
 40
1.0
  9
$DIMASZ
 40
0.25
  9
$DIMEXO
 40
0.0625
  9
$DIMDLI
 40
0.38
  9
$DIMRND
 40
0.0
  9
$DIMDLE
 40
0.0
  9
$DIMEXE
 40
0.18
  9
$DIMTP
 40
0.0
  9
$DIMTM
 40
0.0
  9
$DIMTXT
 40
0.125
  9
$DIMCEN
 40
0.1875
  9
$DIMTSZ
 40
0.0
  9
$DIMTOL
 70
     0
  9
$DIMLIM
 70
     0
  9
$DIMTIH
 70
     0
  9
$DIMTOH
 70
     0
  9
$DIMSE1
 70
     0
  9
$DIMSE2
 70
     0
  9
$DIMTAD
 70
     0
  9
$DIMZIN
 70
     3
  9
$DIMBLK
  1

  9
$DIMASO
 70
     1
  9
$DIMSHO
 70
     1
  9
$DIMPOST
  1

  9
$DIMAPOST
  1

  9
$DIMALT
 70
     0
  9
$DIMALTD
 70
     1
  9
$DIMALTF
 40
25.4
  9
$DIMLFAC
 40
1.0
  9
$DIMTOFL
 70
     0
  9
$DIMTVP
 40
0.0
  9
$DIMTIX
 70
     0
  9
$DIMSOXD
 70
     0
  9
$DIMSAH
 70
     1
  9
$DIMBLK1
  1
OBLIQUE
  9
$DIMBLK2
  1
OBLIQUE
  9
$DIMSTYLE
  2
STANDARD
  9
$DIMCLRD
 70
     0
  9
$DIMCLRE
 70
     0
  9
$DIMCLRT
 70
     0
  9
$DIMTFAC
 40
1.0
  9
$DIMGAP
 40
0.125
  9
$DIMJUST
 70
     0
  9
$DIMSD1
 70
     0
  9
$DIMSD2
 70
     0
  9
$DIMTOLJ
 70
     1
  9
$DIMTZIN
 70
     3
  9
$DIMALTZ
 70
     3
  9
$DIMALTTZ
 70
     3
  9
$DIMFIT
 70
     5
  9
$DIMUPT
 70
     0
  9
$DIMUNIT
 70
     7
  9
$DIMDEC
 70
     4
  9
$DIMTDEC
 70
     4
  9
$DIMALTU
 70
     5
  9
$DIMALTTD
 70
     1
  9
$DIMTXSTY
  7
STANDARD
  9
$DIMAUNIT
 70
     0
  9
$LUNITS
 70
     2
  9
$LUPREC
 70
     1
  9
$SKETCHINC
 40
0.1
  9
$FILLETRAD
 40
0.0
  9
$AUNITS
 70
     0
  9
$AUPREC
 70
     1
  9
$MENU
  1
acad
  9
$ELEVATION
 40
0.0
  9
$PELEVATION
 40
0.0
  9
$THICKNESS
 40
0.0
  9
$LIMCHECK
 70
     0
  9
$BLIPMODE
 70
     0
  9
$CHAMFERA
 40
0.0
  9
$CHAMFERB
 40
0.0
  9
$CHAMFERC
 40
0.0
  9
$CHAMFERD
 40
0.0
  9
$SKPOLY
 70
     0
  9
$TDCREATE
 40
2450277.466215660
  9
$TDUPDATE
 40
2452316.490328946
  9
$TDINDWG
 40
0.0397875000
  9
$TDUSRTIMER
 40
0.0397875000
  9
$USRTIMER
 70
     1
  9
$ANGBASE
 50
0.0
  9
$ANGDIR
 70
     0
  9
$PDMODE
 70
     0
  9
$PDSIZE
 40
0.0
  9
$PLINEWID
 40
0.0
  9
$COORDS
 70
     2
  9
$SPLFRAME
 70
     0
  9
$SPLINETYPE
 70
     6
  9
$SPLINESEGS
 70
     8
  9
$ATTDIA
 70
     0
  9
$ATTREQ
 70
     1
  9
$HANDLING
 70
 22529
  9
$HANDSEED
  5
520
  9
$SURFTAB1
 70
     6
  9
$SURFTAB2
 70
     6
  9
$SURFTYPE
 70
     6
  9
$SURFU
 70
     6
  9
$SURFV
 70
     6
  9
$UCSNAME
  2

  9
$UCSORG
 10
0.0
 20
0.0
 30
0.0
  9
$UCSXDIR
 10
1.0
 20
0.0
 30
0.0
  9
$UCSYDIR
 10
0.0
 20
1.0
 30
0.0
  9
$PUCSNAME
  2

  9
$PUCSORG
 10
0.0
 20
0.0
 30
0.0
  9
$PUCSXDIR
 10
1.0
 20
0.0
 30
0.0
  9
$PUCSYDIR
 10
0.0
 20
1.0
 30
0.0
  9
$USERI1
 70
     0
  9
$USERI2
 70
     0
  9
$USERI3
 70
     0
  9
$USERI4
 70
     0
  9
$USERI5
 70
     0
  9
$USERR1
 40
0.0
  9
$USERR2
 40
0.0
  9
$USERR3
 40
0.0
  9
$USERR4
 40
0.0
  9
$USERR5
 40
0.0
  9
$WORLDVIEW
 70
     1
  9
$SHADEDGE
 70
     3
  9
$SHADEDIF
 70
    70
  9
$TILEMODE
 70
     1
  9
$MAXACTVP
 70
    15
  9
$PINSBASE
 10
0.1875029802322391
 20
0.0
 30
0.0
  9
$PLIMCHECK
 70
     0
  9
$PEXTMIN
 10
1.000000000000000E+20
 20
1.000000000000000E+20
 30
1.000000000000000E+20
  9
$PEXTMAX
 10
-1.000000000000000E+20
 20
-1.000000000000000E+20
 30
-1.000000000000000E+20
  9
$PLIMMIN
 10
0.0
 20
0.0
  9
$PLIMMAX
 10
12.0
 20
9.0
  9
$UNITMODE
 70
     0
  9
$VISRETAIN
 70
     0
  9
$PLINEGEN
 70
     0
  9
$PSLTSCALE
 70
     1
  9
$TREEDEPTH
 70
  3020
  9
$PICKSTYLE
 70
     1
  9
$CMLSTYLE
  2
STANDARD
  9
$CMLJUST
 70
     0
  9
$CMLSCALE
 40
1.0
  9
$PROXYGRAPHICS
 70
     1
  9
$MEASUREMENT
 70
     0
  0
ENDSEC
  0
SECTION
  2
CLASSES
  0
CLASS
  1
ACDBDICTIONARYWDFLT
  2
AcDbDictionaryWithDefault
  3
AutoCAD 2000
 90
        0
280
     0
281
     0
  0
CLASS
  1
ACDBPLACEHOLDER
  2
AcDbPlaceHolder
  3
AutoCAD 2000
 90
        0
280
     0
281
     0
  0
CLASS
  1
LAYOUT
  2
AcDbLayout
  3
AutoCAD 2000
 90
        0
280
     0
281
     0
  0
CLASS
  1
DICTIONARYVAR
  2
AcDbDictionaryVar
  3
AutoCAD 2000
 90
        0
280
     0
281
     0
  0
CLASS
  1
LONG_TRANSACTION
  2
AcDbLongTransaction
  3
AutoCAD 2000
 90
        0
280
     0
281
     0
  0
CLASS
  1
LWPOLYLINE
  2
AcDbPolyline
  3
AutoCAD 2000
 90
        0
280
     0
281
     1
  0
CLASS
  1
HATCH
  2
AcDbHatch
  3
AutoCAD 2000
 90
        0
280
     0
281
     1
  0
CLASS
  1
XRECORD
  2
AcDbXrecord
  3
AutoCAD 2000
 90
        0
280
     0
281
     0
  0
CLASS
  1
LONG_TRANSACTION
  2
AcDbLongTransaction
  3
AutoCAD 2000
 90
        0
280
     0
281
     0
  0
CLASS
  1
LWPOLYLINE
  2
AcDbPolyline
  3
AutoCAD 2000
 90
        0
280
     0
281
     1
  0
CLASS
  1
HATCH
  2
AcDbHatch
  3
AutoCAD 2000
 90
        0
280
     0
281
     1
  0
CLASS
  1
XRECORD
  2
AcDbXrecord
  3
AutoCAD 2000
 90
        0
280
     0
281
     0
  0
CLASS
  1
LONG_TRANSACTION
  2
AcDbLongTransaction
  3
AutoCAD 2000
 90
        0
280
     0
281
     0
  0
CLASS
  1
LWPOLYLINE
  2
AcDbPolyline
  3
AutoCAD 2000
 90
        0
280
     0
281
     1
  0
CLASS
  1
HATCH
  2
AcDbHatch
  3
AutoCAD 2000
 90
        0
280
     0
281
     1
  0
CLASS
  1
XRECORD
  2
AcDbXrecord
  3
AutoCAD 2000
 90
        0
280
     0
281
     0
  0
CLASS
  1
LONG_TRANSACTION
  2
AcDbLongTransaction
  3
AutoCAD 2000
 90
        0
280
     0
281
     0
  0
CLASS
  1
LWPOLYLINE
  2
AcDbPolyline
  3
AutoCAD 2000
 90
        0
280
     0
281
     1
  0
CLASS
  1
HATCH
  2
AcDbHatch
  3
AutoCAD 2000
 90
        0
280
     0
281
     1
  0
CLASS
  1
XRECORD
  2
AcDbXrecord
  3
AutoCAD 2000
 90
        0
280
     0
281
     0
  0
CLASS
  1
LONG_TRANSACTION
  2
AcDbLongTransaction
  3
AutoCAD 2000
 90
        0
280
     0
281
     0
  0
CLASS
  1
LWPOLYLINE
  2
AcDbPolyline
  3
AutoCAD 2000
 90
        0
280
     0
281
     1
  0
CLASS
  1
HATCH
  2
AcDbHatch
  3
AutoCAD 2000
 90
        0
280
     0
281
     1
  0
CLASS
  1
XRECORD
  2
AcDbXrecord
  3
AutoCAD 2000
 90
        0
280
     0
281
     0
  0
CLASS
  1
LONG_TRANSACTION
  2
AcDbLongTransaction
  3
AutoCAD 2000
 90
        0
280
     0
281
     0
  0
CLASS
  1
LWPOLYLINE
  2
AcDbPolyline
  3
AutoCAD 2000
 90
        0
280
     0
281
     1
  0
CLASS
  1
HATCH
  2
AcDbHatch
  3
AutoCAD 2000
 90
        0
280
     0
281
     1
  0
CLASS
  1
XRECORD
  2
AcDbXrecord
  3
AutoCAD 2000
 90
        0
280
     0
281
     0
  0
CLASS
  1
LONG_TRANSACTION
  2
AcDbLongTransaction
  3
AutoCAD 2000
 90
        0
280
     0
281
     0
  0
CLASS
  1
LWPOLYLINE
  2
AcDbPolyline
  3
AutoCAD 2000
 90
        0
280
     0
281
     1
  0
CLASS
  1
HATCH
  2
AcDbHatch
  3
AutoCAD 2000
 90
        0
280
     0
281
     1
  0
CLASS
  1
XRECORD
  2
AcDbXrecord
  3
AutoCAD 2000
 90
        0
280
     0
281
     0
  0
CLASS
  1
LONG_TRANSACTION
  2
AcDbLongTransaction
  3
AutoCAD 2000
 90
        0
280
     0
281
     0
  0
CLASS
  1
LWPOLYLINE
  2
AcDbPolyline
  3
AutoCAD 2000
 90
        0
280
     0
281
     1
  0
CLASS
  1
HATCH
  2
AcDbHatch
  3
AutoCAD 2000
 90
        0
280
     0
281
     1
  0
CLASS
  1
XRECORD
  2
AcDbXrecord
  3
AutoCAD 2000
 90
        0
280
     0
281
     0
  0
CLASS
  1
LONG_TRANSACTION
  2
AcDbLongTransaction
  3
AutoCAD 2000
 90
        0
280
     0
281
     0
  0
CLASS
  1
LWPOLYLINE
  2
AcDbPolyline
  3
AutoCAD 2000
 90
        0
280
     0
281
     1
  0
CLASS
  1
HATCH
  2
AcDbHatch
  3
AutoCAD 2000
 90
        0
280
     0
281
     1
  0
CLASS
  1
XRECORD
  2
AcDbXrecord
  3
AutoCAD 2000
 90
        0
280
     0
281
     0
  0
CLASS
  1
LONG_TRANSACTION
  2
AcDbLongTransaction
  3
AutoCAD 2000
 90
        0
280
     0
281
     0
  0
CLASS
  1
LWPOLYLINE
  2
AcDbPolyline
  3
AutoCAD 2000
 90
        0
280
     0
281
     1
  0
CLASS
  1
HATCH
  2
AcDbHatch
  3
AutoCAD 2000
 90
        0
280
     0
281
     1
  0
CLASS
  1
XRECORD
  2
AcDbXrecord
  3
AutoCAD 2000
 90
        0
280
     0
281
     0
  0
CLASS
  1
LONG_TRANSACTION
  2
AcDbLongTransaction
  3
AutoCAD 2000
 90
        0
280
     0
281
     0
  0
CLASS
  1
LWPOLYLINE
  2
AcDbPolyline
  3
AutoCAD 2000
 90
        0
280
     0
281
     1
  0
CLASS
  1
HATCH
  2
AcDbHatch
  3
AutoCAD 2000
 90
        0
280
     0
281
     1
  0
CLASS
  1
XRECORD
  2
AcDbXrecord
  3
AutoCAD 2000
 90
        0
280
     0
281
     0
  0
ENDSEC
  0
SECTION
  2
TABLES
  0
TABLE
  2
VPORT
  5
8
330
0
100
AcDbSymbolTable
 70
     2
  0
VPORT
  5
4E8
330
8
100
AcDbSymbolTableRecord
100
AcDbViewportTableRecord
  2
*ACTIVE
 70
     0
 10
0.0
 20
0.0
 11
1.0
 21
1.0
 12
10.16812141259215
 22
3.282440252232412
 13
0.0
 23
0.0
 14
0.5740882589684921
 24
0.5740882589684921
 15
0.5
 25
0.5
 16
0.0
 26
0.0
 36
1.0
 17
0.0
 27
0.0
 37
0.0
 40
8.377089918896405
 41
1.56592039800995
 42
50.0
 43
0.0
 44
0.0
 50
0.0
 51
0.0
 71
     0
 72
   100
 73
     1
 74
     0
 75
     0
 76
     0
 77
     0
 78
     0
  0
ENDTAB
  0
TABLE
  2
LTYPE
  5
5
330
0
100
AcDbSymbolTable
 70
     2
  0
LTYPE
  5
13
330
5
100
AcDbSymbolTableRecord
100
AcDbLinetypeTableRecord
  2
BYBLOCK
 70
     0
  3

 72
    65
 73
     0
 40
0.0
  0
LTYPE
  5
14
330
5
100
AcDbSymbolTableRecord
100
AcDbLinetypeTableRecord
  2
BYLAYER
 70
     0
  3

 72
    65
 73
     0
 40
0.0
  0
LTYPE
  5
15
330
5
100
AcDbSymbolTableRecord
100
AcDbLinetypeTableRecord
  2
CONTINUOUS
 70
     0
  3
Solid line
 72
    65
 73
     0
 40
0.0
  0
LTYPE
  5
37
330
5
100
AcDbSymbolTableRecord
100
AcDbLinetypeTableRecord
  2
HIDDEN2
 70
     0
  3
_ _ _ _ _ _ _ _ _ _ _ _ _ _ _ _ _ _ _ _ _ _ _ _
 72
    65
 73
     2
 40
0.1875
 49
0.125
 74
     0
 49
-0.0625
 74
     0
  0
ENDTAB
  0
TABLE
  2
LAYER
  5
2
330
0
100
AcDbSymbolTable
 70
     5
  0
LAYER
  5
10
330
2
100
AcDbSymbolTableRecord
100
AcDbLayerTableRecord
  2
0
 70
     0
 62
     7
  6
CONTINUOUS
  0
LAYER
  5
38
330
2
100
AcDbSymbolTableRecord
100
AcDbLayerTableRecord
  2
ADP2DETAIL
 70
     0
 62
     5
  6
CONTINUOUS
  0
LAYER
  5
39
330
2
100
AcDbSymbolTableRecord
100
AcDbLayerTableRecord
  2
ADPDIM
 70
     0
 62
     3
  6
CONTINUOUS
  0
LAYER
  5
3B
330
2
100
AcDbSymbolTableRecord
100
AcDbLayerTableRecord
  2
ADP1DETAIL
 70
     0
 62
     7
  6
CONTINUOUS
  0
LAYER
  5
3D
330
2
100
AcDbSymbolTableRecord
100
AcDbLayerTableRecord
  2
DEFPOINTS
 70
     0
 62
     7
  6
CONTINUOUS
  0
ENDTAB
  0
TABLE
  2
STYLE
  5
3
330
0
100
AcDbSymbolTable
 70
     2
  0
STYLE
  5
11
330
3
100
AcDbSymbolTableRecord
100
AcDbTextStyleTableRecord
  2
STANDARD
 70
     0
 40
0.0
 41
1.0
 50
0.0
 71
     0
 42
0.2
  3
txt
  4

  0
STYLE
  5
70
330
3
100
AcDbSymbolTableRecord
100
AcDbTextStyleTableRecord
  2
ARIAL_WIDE
 70
     0
 40
0.0
 41
1.25
 50
0.0
 71
     0
 42
0.2
  3
ARIAL.TTF
  4

1001
ACAD
1000
Arial
1071
       34
  0
ENDTAB
  0
TABLE
  2
VIEW
  5
6
330
0
100
AcDbSymbolTable
 70
     0
  0
ENDTAB
  0
TABLE
  2
UCS
  5
7
330
0
100
AcDbSymbolTable
 70
     0
  0
ENDTAB
  0
TABLE
  2
APPID
  5
9
330
0
100
AcDbSymbolTable
 70
     1
  0
APPID
  5
12
330
9
100
AcDbSymbolTableRecord
100
AcDbRegAppTableRecord
  2
ACAD
 70
     0
  0
ENDTAB
  0
TABLE
  2
DIMSTYLE
  5
A
330
0
100
AcDbSymbolTable
 70
     1
  0
DIMSTYLE
105
6E
102
{ACAD_REACTORS
330
68
330
61
102
}
330
A
100
AcDbSymbolTableRecord
100
AcDbDimStyleTableRecord
  2
STANDARD
 70
     0
  3

  4

  5

  6

  7

 40
1.0
 41
0.18
 42
0.0625
 43
0.38
 44
0.18
 45
0.0
 46
0.0
 47
0.0
 48
0.0
140
0.18
141
0.09
142
0.0
143
25.4
144
1.0
145
0.0
146
1.0
147
0.09
 71
     0
 72
     0
 73
     1
 74
     1
 75
     0
 76
     0
 77
     0
 78
     0
170
     0
171
     2
172
     0
173
     0
174
     0
175
     0
176
     0
177
     0
178
     0
270
     2
271
     4
272
     4
273
     2
274
     2
340
11
275
     0
280
     0
281
     0
282
     0
283
     1
284
     0
285
     0
286
     0
287
     3
288
     0
  0
ENDTAB
  0
TABLE
  2
BLOCK_RECORD
  5
1
330
0
100
AcDbSymbolTable
 70
     3
  0
BLOCK_RECORD
  5
1E
102
{ACAD_XDICTIONARY
360
AD
102
}
330
1
100
AcDbSymbolTableRecord
100
AcDbBlockTableRecord
  2
*MODEL_SPACE
  0
BLOCK_RECORD
  5
1A
102
{ACAD_XDICTIONARY
360
AF
102
}
330
1
100
AcDbSymbolTableRecord
100
AcDbBlockTableRecord
  2
*PAPER_SPACE
  0
BLOCK_RECORD
  5
244
330
1
100
AcDbSymbolTableRecord
100
AcDbBlockTableRecord
  2
*D0
  0
BLOCK_RECORD
  5
251
330
1
100
AcDbSymbolTableRecord
100
AcDbBlockTableRecord
  2
*D1
  0
BLOCK_RECORD
  5
272
330
1
100
AcDbSymbolTableRecord
100
AcDbBlockTableRecord
  2
_OBLIQUE
  0
ENDTAB
  0
ENDSEC
  0
SECTION
  2
BLOCKS
  0
BLOCK
  5
40
330
1E
100
AcDbEntity
  8
0
100
AcDbBlockBegin
  2
*MODEL_SPACE
 70
     0
 10
0.0
 20
0.0
 30
0.0
  3
*MODEL_SPACE
  1

  0
ENDBLK
  5
41
330
1E
100
AcDbEntity
  8
0
100
AcDbBlockEnd
  0
BLOCK
  5
3E
330
1A
100
AcDbEntity
 67
     1
  8
0
100
AcDbBlockBegin
  2
*PAPER_SPACE
 70
     0
 10
0.0
 20
0.0
 30
0.0
  3
*PAPER_SPACE
  1

  0
ENDBLK
  5
3F
330
1A
100
AcDbEntity
 67
     1
  8
0
100
AcDbBlockEnd
  0
BLOCK
  5
24F
330
244
100
AcDbEntity
  8
0
100
AcDbBlockBegin
  2
*D0
 70
     1
 10
0.0
 20
0.0
 30
0.0
  3
*D0
  1

  0
LINE
  5
50C
330
244
100
AcDbEntity
  8
ADPDIM
 62
     0
100
AcDbLine
 10
10.94617652414633
 20
3.056103737271417
 30
0.0
 11
10.64347812791886
 21
3.056103737271417
 31
0.0
  0
LINE
  5
50D
330
244
100
AcDbEntity
  8
ADPDIM
 62
     0
100
AcDbLine
 10
10.94617652414633
 20
4.956103737271416
 30
0.0
 11
10.64347812791886
 21
4.956103737271416
 31
0.0
  0
LINE
  5
50E
330
244
100
AcDbEntity
  8
ADPDIM
 62
     0
100
AcDbLine
 10
10.82347812791886
 20
3.056103737271417
 30
0.0
 11
10.82347812791886
 21
3.77693707060475
 31
0.0
  0
LINE
  5
50F
330
244
100
AcDbEntity
  8
ADPDIM
 62
     0
100
AcDbLine
 10
10.82347812791886
 20
4.956103737271416
 30
0.0
 11
10.82347812791886
 21
4.235270403938083
 31
0.0
  0
INSERT
  5
510
330
244
100
AcDbEntity
  8
ADPDIM
 62
     0
100
AcDbBlockReference
  2
_OBLIQUE
 10
10.82347812791886
 20
3.056103737271417
 30
0.0
 41
0.25
 42
0.25
 43
0.25
 50
270.0
  0
INSERT
  5
511
330
244
100
AcDbEntity
  8
ADPDIM
 62
     0
100
AcDbBlockReference
  2
_OBLIQUE
 10
10.82347812791886
 20
4.956103737271416
 30
0.0
 41
0.25
 42
0.25
 43
0.25
 50
90.0
  0
MTEXT
  5
512
330
244
100
AcDbEntity
  8
ADPDIM
 62
     0
100
AcDbMText
 10
10.82347812791886
 20
4.006103737271418
 30
0.0
 40
0.125
 41
0.0
 71
     5
 72
     1
  1
\A1;1.9
 11
0.0000000000000001
 21
1.0
 31
0.0
  0
POINT
  5
513
330
244
100
AcDbEntity
  8
DEFPOINTS
 62
     0
100
AcDbPoint
 10
11.00867652414633
 20
3.056103737271417
 30
0.0
  0
POINT
  5
514
330
244
100
AcDbEntity
  8
DEFPOINTS
 62
     0
100
AcDbPoint
 10
11.00867652414633
 20
4.956103737271416
 30
0.0
  0
POINT
  5
515
330
244
100
AcDbEntity
  8
DEFPOINTS
 62
     0
100
AcDbPoint
 10
10.82347812791886
 20
4.956103737271416
 30
0.0
  0
ENDBLK
  5
250
330
244
100
AcDbEntity
  8
0
100
AcDbBlockEnd
  0
BLOCK
  5
25C
330
251
100
AcDbEntity
  8
0
100
AcDbBlockBegin
  2
*D1
 70
     1
 10
0.0
 20
0.0
 30
0.0
  3
*D1
  1

  0
LINE
  5
516
330
251
100
AcDbEntity
  8
ADPDIM
 62
     0
100
AcDbLine
 10
11.00867652414633
 20
2.993603737271417
 30
0.0
 11
11.00867652414633
 21
2.440312581913211
 31
0.0
  0
LINE
  5
517
330
251
100
AcDbEntity
  8
ADPDIM
 62
     0
100
AcDbLine
 10
11.13367652414633
 20
2.993603737271417
 30
0.0
 11
11.13367652414633
 21
2.440312581913211
 31
0.0
  0
LINE
  5
518
330
251
100
AcDbEntity
  8
ADPDIM
 62
     0
100
AcDbLine
 10
11.00867652414633
 20
2.620312581913211
 30
0.0
 11
10.75867652414633
 21
2.620312581913211
 31
0.0
  0
LINE
  5
519
330
251
100
AcDbEntity
  8
ADPDIM
 62
     0
100
AcDbLine
 10
11.13367652414633
 20
2.620312581913211
 30
0.0
 11
11.38367652414633
 21
2.620312581913211
 31
0.0
  0
MTEXT
  5
51A
330
251
100
AcDbEntity
  8
ADPDIM
 62
     0
100
AcDbMText
 10
11.07134545366821
 20
2.297923193590932
 30
0.0
 40
0.125
 41
0.0
 71
     5
 72
     1
  1
\A1;1/8
  0
INSERT
  5
51B
330
251
100
AcDbEntity
  8
ADPDIM
 62
     0
100
AcDbBlockReference
  2
_OBLIQUE
 10
11.00867652414633
 20
2.620312581913211
 30
0.0
 41
0.25
 42
0.25
 43
0.25
  0
INSERT
  5
51C
330
251
100
AcDbEntity
  8
ADPDIM
 62
     0
100
AcDbBlockReference
  2
_OBLIQUE
 10
11.13367652414633
 20
2.620312581913211
 30
0.0
 41
0.25
 42
0.25
 43
0.25
 50
180.0
  0
POINT
  5
51D
330
251
100
AcDbEntity
  8
DEFPOINTS
 62
     0
100
AcDbPoint
 10
11.00867652414633
 20
3.056103737271417
 30
0.0
  0
POINT
  5
51E
330
251
100
AcDbEntity
  8
DEFPOINTS
 62
     0
100
AcDbPoint
 10
11.13367652414633
 20
3.056103737271417
 30
0.0
  0
POINT
  5
51F
330
251
100
AcDbEntity
  8
DEFPOINTS
 62
     0
100
AcDbPoint
 10
11.13367652414633
 20
2.620312581913211
 30
0.0
  0
ENDBLK
  5
25D
330
251
100
AcDbEntity
  8
0
100
AcDbBlockEnd
  0
BLOCK
  5
274
330
272
100
AcDbEntity
  8
0
100
AcDbBlockBegin
  2
_OBLIQUE
 70
     0
 10
0.0
 20
0.0
 30
0.0
  3
_OBLIQUE
  1

  0
LINE
  5
273
330
272
100
AcDbEntity
  8
0
  6
BYBLOCK
 62
     0
100
AcDbLine
 10
-0.5
 20
-0.5
 30
0.0
 11
0.5
 21
0.5
 31
0.0
  0
ENDBLK
  5
275
330
272
100
AcDbEntity
  8
0
100
AcDbBlockEnd
  0
ENDSEC
  0
SECTION
  2
ENTITIES
  0
LINE
  5
5F
330
1E
100
AcDbEntity
  8
ADP2DETAIL
  6
HIDDEN2
100
AcDbLine
 10
9.887074490503657
 20
4.196103737271416
 30
0.0
 11
8.841314490503657
 21
4.196103737271416
 31
0.0
  0
LINE
  5
60
330
1E
100
AcDbEntity
  8
ADP2DETAIL
  6
HIDDEN2
100
AcDbLine
 10
8.841314490503657
 20
4.196103737271416
 30
0.0
 11
8.841314490503657
 21
3.367964641462356
 31
0.0
  0
DIMENSION
  5
61
330
1E
100
AcDbEntity
  8
ADPDIM
100
AcDbDimension
  2
*D0
 10
10.82347812791886
 20
4.956103737271416
 30
0.0
 11
10.82347812791886
 21
4.006103737271418
 31
0.0
 70
    32
  3
STANDARD
100
AcDbAlignedDimension
 13
11.00867652414633
 23
3.056103737271417
 33
0.0
 14
11.00867652414633
 24
4.956103737271416
 34
0.0
 50
90.0
100
AcDbRotatedDimension
1001
ACAD
1000
DSTYLE
1002
{
1070
   287
1070
     5
1070
   287
1070
     5
1070
   287
1070
     5
1070
   287
1070
     5
1070
   287
1070
     5
1070
   287
1070
     5
1070
   271
1070
     1
1070
    41
1040
0.25
1070
    73
1070
     0
1070
    74
1070
     0
1070
    78
1070
     3
1070
   140
1040
0.125
1070
   141
1040
0.1875
1070
   147
1040
0.125
1070
   171
1070
     1
1070
   173
1070
     1
1070
   273
1070
     5
1070
   274
1070
     1
1070
   276
1070
     2
1070
   277
1070
     2
1070
   279
1070
     2
1070
   284
1070
     3
1070
   285
1070
     3
1070
   286
1070
     3
1070
     6
1000
OBLIQUE
1070
     7
1000
OBLIQUE
1002
}
  0
LWPOLYLINE
  5
62
330
1E
100
AcDbEntity
  8
ADP1DETAIL
100
AcDbPolyline
 90
        4
 70
     1
 43
0.0
 10
11.00867652414633
 20
3.056103737271416
 10
11.00867652414633
 20
4.956103737271416
 10
11.13367652414633
 20
4.956103737271416
 10
11.13367652414633
 20
3.056103737271416
  0
DIMENSION
  5
68
330
1E
100
AcDbEntity
  8
ADPDIM
100
AcDbDimension
  2
*D1
 10
11.13367652414633
 20
2.620312581913211
 30
0.0
 11
11.07134545366821
 21
2.297923193590932
 31
0.0
 70
   160
  3
STANDARD
100
AcDbAlignedDimension
 13
11.00867652414633
 23
3.056103737271417
 33
0.0
 14
11.13367652414633
 24
3.056103737271417
 34
0.0
100
AcDbRotatedDimension
1001
ACAD
1000
DSTYLE
1002
{
1070
   287
1070
     5
1070
   270
1070
     7
1070
   287
1070
     5
1070
   270
1070
     7
1070
   287
1070
     5
1070
   270
1070
     7
1070
   287
1070
     5
1070
   270
1070
     7
1070
   287
1070
     5
1070
   270
1070
     7
1070
   287
1070
     5
1070
   270
1070
     7
1070
    41
1040
0.25
1070
    73
1070
     0
1070
    74
1070
     0
1070
    78
1070
     3
1070
   140
1040
0.125
1070
   141
1040
0.1875
1070
   147
1040
0.125
1070
   171
1070
     1
1070
   173
1070
     1
1070
   273
1070
     5
1070
   274
1070
     1
1070
   276
1070
     2
1070
   277
1070
     5
1070
   279
1070
     2
1070
   284
1070
     3
1070
   285
1070
     3
1070
   286
1070
     3
1070
     6
1000
OBLIQUE
1070
     7
1000
OBLIQUE
1002
}
  0
LINE
  5
69
330
1E
100
AcDbEntity
  8
ADP2DETAIL
  6
HIDDEN2
100
AcDbLine
 10
9.887074490503657
 20
4.196103737271416
 30
0.0
 11
9.887074490503657
 21
3.367964641462356
 31
0.0
  0
LINE
  5
6A
330
1E
100
AcDbEntity
  8
ADP1DETAIL
100
AcDbLine
 10
12.12803408819398
 20
4.831103737271416
 30
0.0
 11
12.12803408819398
 21
3.367964641462358
 31
0.0
  0
LINE
  5
6B
330
1E
100
AcDbEntity
  8
ADP2DETAIL
  6
HIDDEN2
100
AcDbLine
 10
11.13367652414633
 20
4.196103737271416
 30
0.0
 11
12.12803408819398
 21
4.196103737271416
 31
0.0
  0
LINE
  5
6C
330
1E
100
AcDbEntity
  8
ADP1DETAIL
100
AcDbLine
 10
12.12803408819398
 20
3.367964641462358
 30
0.0
 11
11.13367652414633
 21
3.367964641462359
 31
0.0
  0
LINE
  5
6D
330
1E
100
AcDbEntity
  8
ADP1DETAIL
100
AcDbLine
 10
11.13367652414633
 20
4.831103737271416
 30
0.0
 11
12.12803408819398
 21
4.831103737271416
 31
0.0
  0
TEXT
  5
71
330
1E
100
AcDbEntity
  8
ADPDIM
100
AcDbText
 10
3.642494088683259
 20
1.519273597547565
 30
0.0
 40
0.125
  1
J U L I U S  B L U M  &  C O . ,  I N C .      ( 8 0 0 )  5 2 6 - 6 2 9 3        W W W . J U L I U S B L U M . C O M        P A R T  N o .  7 2 8 0
 41
1.25
  7
ARIAL_WIDE
 72
     1
 11
10.16822311323987
 21
1.644273597547565
 31
0.0
100
AcDbText
 73
     3
  0
CIRCLE
  5
240
330
1E
100
AcDbEntity
  8
ADP1DETAIL
100
AcDbCircle
 10
9.364194490503658
 20
4.006103737271416
 30
0.0
 40
0.95
  0
ARC
  5
241
330
1E
100
AcDbEntity
  8
ADP2DETAIL
  6
HIDDEN2
100
AcDbCircle
 10
9.364194490503658
 20
4.006103737271416
 30
0.0
 40
0.825
100
AcDbArc
 50
309.3305904959676
 51
230.6694095040323
  0
ENDSEC
  0
SECTION
  2
OBJECTS
  0
DICTIONARY
  5
C
330
0
100
AcDbDictionary
  3
ACAD_GROUP
350
D
  3
ACAD_LAYOUT
350
19
  3
ACAD_MLINESTYLE
350
16
  3
ACAD_PLOTSETTINGS
350
18
  3
ACAD_PLOTSTYLENAME
350
E
  3
ACDBHEADERROUNDTRIPXREC
350
4E9
  3
ACDBVARIABLEDICTIONARY
350
E2
  0
DICTIONARY
  5
AD
330
1E
100
AcDbDictionary
280
     1
  3
ACAD_LAYOUTSELFREF
360
50B
  0
DICTIONARY
  5
AF
330
1A
100
AcDbDictionary
280
     1
  3
ACAD_LAYOUTSELFREF
360
50A
  0
DICTIONARY
  5
D
102
{ACAD_REACTORS
330
C
102
}
330
C
100
AcDbDictionary
  0
DICTIONARY
  5
19
102
{ACAD_REACTORS
330
C
102
}
330
C
100
AcDbDictionary
  0
DICTIONARY
  5
16
102
{ACAD_REACTORS
330
C
102
}
330
C
100
AcDbDictionary
  3
STANDARD
350
17
  0
DICTIONARY
  5
18
102
{ACAD_REACTORS
330
C
102
}
330
C
100
AcDbDictionary
  0
ACDBDICTIONARYWDFLT
  5
E
102
{ACAD_REACTORS
330
C
102
}
330
C
100
AcDbDictionary
281
     1
  3
Normal
350
F
100
AcDbDictionaryWithDefault
340
F
  0
DICTIONARY
  5
4E9
102
{ACAD_REACTORS
330
C
102
}
330
C
100
AcDbDictionary
  3
CEPSNTYPE
350
4F3
  3
DIMSTYLEDATA
350
4F7
  3
FINGERPRINTGUID
350
4F4
  3
HYPERLINKBASE
350
4EC
  3
INSUNITS
350
4F2
  3
LAYOUTDICT
350
4EE
  3
LWETCUNION
350
4F1
  3
PLOTSETDICT
350
4EF
  3
PLOTSTYLNAMDICT
350
4F0
  3
PSVPSCALE
350
4F6
  3
PUCSBASE
350
4FA
  3
PUCSORGBACK
350
500
  3
PUCSORGBOTTOM
350
4FC
  3
PUCSORGFRONT
350
4FF
  3
PUCSORGLEFT
350
4FD
  3
PUCSORGRIGHT
350
4FE
  3
PUCSORGTOP
350
4FB
  3
PUCSORTHOREF
350
4F8
  3
PUCSORTHOVIEW
350
4F9
  3
STYLESHEET
350
4ED
  3
TSTACKALIGN
350
4EA
  3
TSTACKSIZE
350
4EB
  3
UCSBASE
350
503
  3
UCSORGBACK
350
509
  3
UCSORGBOTTOM
350
505
  3
UCSORGFRONT
350
508
  3
UCSORGLEFT
350
506
  3
UCSORGRIGHT
350
507
  3
UCSORGTOP
350
504
  3
UCSORTHOREF
350
501
  3
UCSORTHOVIEW
350
502
  3
VERSIONGUID
350
4F5
  0
DICTIONARY
  5
E2
102
{ACAD_REACTORS
330
C
102
}
330
C
100
AcDbDictionary
  3
DIMASSOC
350
E4
  3
HIDETEXT
350
E3
  0
XRECORD
  5
50B
102
{ACAD_REACTORS
330
AD
102
}
330
AD
100
AcDbXrecord
340
1E
  0
XRECORD
  5
50A
102
{ACAD_REACTORS
330
AF
102
}
330
AF
100
AcDbXrecord
340
1A
  0
MLINESTYLE
  5
17
102
{ACAD_REACTORS
330
16
102
}
330
16
100
AcDbMlineStyle
  2
STANDARD
 70
     0
  3

 62
   256
 51
90.0
 52
90.0
 71
     2
 49
0.5
 62
   256
  6
BYLAYER
 49
-0.5
 62
   256
  6
BYLAYER
  0
ACDBPLACEHOLDER
  5
F
102
{ACAD_REACTORS
330
E
102
}
330
E
100
AcDbPlaceHolder
280
     0
  0
XRECORD
  5
4F3
102
{ACAD_REACTORS
330
4E9
102
}
330
4E9
100
AcDbXrecord
 90
        0
  0
XRECORD
  5
4F7
102
{ACAD_REACTORS
330
4E9
102
}
330
4E9
100
AcDbXrecord
1000
DSTYLE
1002
{
1070
   276
 70
     2
1070
   277
 70
     5
1070
   279
 70
     2
1070
   343
340
272
1070
   344
340
272
1002
}
  0
XRECORD
  5
4F4
102
{ACAD_REACTORS
330
4E9
102
}
330
4E9
100
AcDbXrecord
  1
{10802FDD-6248-4B38-882B-2632444B73FF}
  0
XRECORD
  5
4EC
102
{ACAD_REACTORS
330
4E9
102
}
330
4E9
100
AcDbXrecord
  1

  0
XRECORD
  5
4F2
102
{ACAD_REACTORS
330
4E9
102
}
330
4E9
100
AcDbXrecord
 90
        0
  0
XRECORD
  5
4EE
102
{ACAD_REACTORS
330
4E9
102
}
330
4E9
100
AcDbXrecord
340
19
  0
XRECORD
  5
4F1
102
{ACAD_REACTORS
330
4E9
102
}
330
4E9
100
AcDbXrecord
 90
    14877
  0
XRECORD
  5
4EF
102
{ACAD_REACTORS
330
4E9
102
}
330
4E9
100
AcDbXrecord
340
18
  0
XRECORD
  5
4F0
102
{ACAD_REACTORS
330
4E9
102
}
330
4E9
100
AcDbXrecord
340
E
  0
XRECORD
  5
4F6
102
{ACAD_REACTORS
330
4E9
102
}
330
4E9
100
AcDbXrecord
 40
0.0
  0
XRECORD
  5
4FA
102
{ACAD_REACTORS
330
4E9
102
}
330
4E9
100
AcDbXrecord
340
0
  0
XRECORD
  5
500
102
{ACAD_REACTORS
330
4E9
102
}
330
4E9
100
AcDbXrecord
 10
0.0
 20
0.0
 30
0.0
  0
XRECORD
  5
4FC
102
{ACAD_REACTORS
330
4E9
102
}
330
4E9
100
AcDbXrecord
 10
0.0
 20
0.0
 30
0.0
  0
XRECORD
  5
4FF
102
{ACAD_REACTORS
330
4E9
102
}
330
4E9
100
AcDbXrecord
 10
0.0
 20
0.0
 30
0.0
  0
XRECORD
  5
4FD
102
{ACAD_REACTORS
330
4E9
102
}
330
4E9
100
AcDbXrecord
 10
0.0
 20
0.0
 30
0.0
  0
XRECORD
  5
4FE
102
{ACAD_REACTORS
330
4E9
102
}
330
4E9
100
AcDbXrecord
 10
0.0
 20
0.0
 30
0.0
  0
XRECORD
  5
4FB
102
{ACAD_REACTORS
330
4E9
102
}
330
4E9
100
AcDbXrecord
 10
0.0
 20
0.0
 30
0.0
  0
XRECORD
  5
4F8
102
{ACAD_REACTORS
330
4E9
102
}
330
4E9
100
AcDbXrecord
340
0
  0
XRECORD
  5
4F9
102
{ACAD_REACTORS
330
4E9
102
}
330
4E9
100
AcDbXrecord
 70
     0
  0
XRECORD
  5
4ED
102
{ACAD_REACTORS
330
4E9
102
}
330
4E9
100
AcDbXrecord
  1

  0
XRECORD
  5
4EA
102
{ACAD_REACTORS
330
4E9
102
}
330
4E9
100
AcDbXrecord
 90
        1
  0
XRECORD
  5
4EB
102
{ACAD_REACTORS
330
4E9
102
}
330
4E9
100
AcDbXrecord
 90
       70
  0
XRECORD
  5
503
102
{ACAD_REACTORS
330
4E9
102
}
330
4E9
100
AcDbXrecord
340
0
  0
XRECORD
  5
509
102
{ACAD_REACTORS
330
4E9
102
}
330
4E9
100
AcDbXrecord
 10
0.0
 20
0.0
 30
0.0
  0
XRECORD
  5
505
102
{ACAD_REACTORS
330
4E9
102
}
330
4E9
100
AcDbXrecord
 10
0.0
 20
0.0
 30
0.0
  0
XRECORD
  5
508
102
{ACAD_REACTORS
330
4E9
102
}
330
4E9
100
AcDbXrecord
 10
0.0
 20
0.0
 30
0.0
  0
XRECORD
  5
506
102
{ACAD_REACTORS
330
4E9
102
}
330
4E9
100
AcDbXrecord
 10
0.0
 20
0.0
 30
0.0
  0
XRECORD
  5
507
102
{ACAD_REACTORS
330
4E9
102
}
330
4E9
100
AcDbXrecord
 10
0.0
 20
0.0
 30
0.0
  0
XRECORD
  5
504
102
{ACAD_REACTORS
330
4E9
102
}
330
4E9
100
AcDbXrecord
 10
0.0
 20
0.0
 30
0.0
  0
XRECORD
  5
501
102
{ACAD_REACTORS
330
4E9
102
}
330
4E9
100
AcDbXrecord
340
0
  0
XRECORD
  5
502
102
{ACAD_REACTORS
330
4E9
102
}
330
4E9
100
AcDbXrecord
 70
     0
  0
XRECORD
  5
4F5
102
{ACAD_REACTORS
330
4E9
102
}
330
4E9
100
AcDbXrecord
  1
{99F26599-BE20-4815-9C9B-53FB7C8944D1}
  0
DICTIONARYVAR
  5
E4
102
{ACAD_REACTORS
330
E2
102
}
330
E2
100
DictionaryVariables
280
     0
  1
2
  0
DICTIONARYVAR
  5
E3
102
{ACAD_REACTORS
330
E2
102
}
330
E2
100
DictionaryVariables
280
     0
  1
1
  0
ENDSEC
  0
EOF
