  0
SECTION
  2
HEADER
  9
$ACADVER
  1
AC1014
  9
$ACADMAINTVER
 70
     9
  9
$DWGCODEPAGE
  3
ANSI_1252
  9
$INSBASE
 10
8.006033005788452
 20
-1.311130418079863
 30
0.0
  9
$EXTMIN
 10
3.15045332991732
 20
-2.339087657619419
 30
0.0
  9
$EXTMAX
 10
16.20191137903055
 20
0.6911526174179908
 30
0.0
  9
$LIMMIN
 10
0.0
 20
0.0
  9
$LIMMAX
 10
36.0
 20
36.0
  9
$ORTHOMODE
 70
     1
  9
$REGENMODE
 70
     1
  9
$FILLMODE
 70
     1
  9
$QTEXTMODE
 70
     0
  9
$MIRRTEXT
 70
     1
  9
$DRAGMODE
 70
     0
  9
$LTSCALE
 40
1.0
  9
$OSMODE
 70
    37
  9
$ATTMODE
 70
     1
  9
$TEXTSIZE
 40
0.2
  9
$TRACEWID
 40
0.05
  9
$TEXTSTYLE
  7
STANDARD
  9
$CLAYER
  8
ADPDIM
  9
$CELTYPE
  6
BYLAYER
  9
$CECOLOR
 62
   256
  9
$CELTSCALE
 40
1.0
  9
$DELOBJ
 70
     1
  9
$DISPSILH
 70
     0
  9
$DIMSCALE
 40
1.0
  9
$DIMASZ
 40
0.125
  9
$DIMEXO
 40
0.0625
  9
$DIMDLI
 40
0.38
  9
$DIMRND
 40
0.0
  9
$DIMDLE
 40
0.0
  9
$DIMEXE
 40
0.18
  9
$DIMTP
 40
0.0
  9
$DIMTM
 40
0.0
  9
$DIMTXT
 40
0.125
  9
$DIMCEN
 40
0.1875
  9
$DIMTSZ
 40
0.125
  9
$DIMTOL
 70
     0
  9
$DIMLIM
 70
     0
  9
$DIMTIH
 70
     0
  9
$DIMTOH
 70
     0
  9
$DIMSE1
 70
     0
  9
$DIMSE2
 70
     0
  9
$DIMTAD
 70
     0
  9
$DIMZIN
 70
     3
  9
$DIMBLK
  1

  9
$DIMASO
 70
     1
  9
$DIMSHO
 70
     1
  9
$DIMPOST
  1

  9
$DIMAPOST
  1

  9
$DIMALT
 70
     0
  9
$DIMALTD
 70
     1
  9
$DIMALTF
 40
25.4
  9
$DIMLFAC
 40
1.0
  9
$DIMTOFL
 70
     0
  9
$DIMTVP
 40
0.0
  9
$DIMTIX
 70
     0
  9
$DIMSOXD
 70
     0
  9
$DIMSAH
 70
     0
  9
$DIMBLK1
  1

  9
$DIMBLK2
  1

  9
$DIMSTYLE
  2
STANDARD
  9
$DIMCLRD
 70
     0
  9
$DIMCLRE
 70
     0
  9
$DIMCLRT
 70
     0
  9
$DIMTFAC
 40
1.0
  9
$DIMGAP
 40
0.125
  9
$DIMJUST
 70
     0
  9
$DIMSD1
 70
     0
  9
$DIMSD2
 70
     0
  9
$DIMTOLJ
 70
     1
  9
$DIMTZIN
 70
     0
  9
$DIMALTZ
 70
     0
  9
$DIMALTTZ
 70
     0
  9
$DIMFIT
 70
     3
  9
$DIMUPT
 70
     0
  9
$DIMUNIT
 70
     2
  9
$DIMDEC
 70
     4
  9
$DIMTDEC
 70
     4
  9
$DIMALTU
 70
     2
  9
$DIMALTTD
 70
     2
  9
$DIMTXSTY
  7
STANDARD
  9
$DIMAUNIT
 70
     0
  9
$LUNITS
 70
     5
  9
$LUPREC
 70
     4
  9
$SKETCHINC
 40
0.1
  9
$FILLETRAD
 40
0.045
  9
$AUNITS
 70
     0
  9
$AUPREC
 70
     0
  9
$MENU
  1
acad
  9
$ELEVATION
 40
0.0
  9
$PELEVATION
 40
0.0
  9
$THICKNESS
 40
0.0
  9
$LIMCHECK
 70
     0
  9
$BLIPMODE
 70
     0
  9
$CHAMFERA
 40
0.0
  9
$CHAMFERB
 40
0.0
  9
$CHAMFERC
 40
0.0
  9
$CHAMFERD
 40
0.0
  9
$SKPOLY
 70
     0
  9
$TDCREATE
 40
2450225.400948877
  9
$TDUPDATE
 40
2452297.100462233
  9
$TDINDWG
 40
0.0186756713
  9
$TDUSRTIMER
 40
0.0186756713
  9
$USRTIMER
 70
     1
  9
$ANGBASE
 50
0.0
  9
$ANGDIR
 70
     0
  9
$PDMODE
 70
     0
  9
$PDSIZE
 40
0.0
  9
$PLINEWID
 40
0.0
  9
$COORDS
 70
     2
  9
$SPLFRAME
 70
     0
  9
$SPLINETYPE
 70
     6
  9
$SPLINESEGS
 70
     8
  9
$ATTDIA
 70
     0
  9
$ATTREQ
 70
     1
  9
$HANDLING
 70
 22529
  9
$HANDSEED
  5
61E
  9
$SURFTAB1
 70
     6
  9
$SURFTAB2
 70
     6
  9
$SURFTYPE
 70
     6
  9
$SURFU
 70
     6
  9
$SURFV
 70
     6
  9
$UCSNAME
  2

  9
$UCSORG
 10
0.0
 20
0.0
 30
0.0
  9
$UCSXDIR
 10
1.0
 20
0.0
 30
0.0
  9
$UCSYDIR
 10
0.0
 20
1.0
 30
0.0
  9
$PUCSNAME
  2

  9
$PUCSORG
 10
0.0
 20
0.0
 30
0.0
  9
$PUCSXDIR
 10
1.0
 20
0.0
 30
0.0
  9
$PUCSYDIR
 10
0.0
 20
1.0
 30
0.0
  9
$USERI1
 70
     0
  9
$USERI2
 70
     0
  9
$USERI3
 70
     0
  9
$USERI4
 70
     0
  9
$USERI5
 70
     0
  9
$USERR1
 40
0.0
  9
$USERR2
 40
0.0
  9
$USERR3
 40
0.0
  9
$USERR4
 40
0.0
  9
$USERR5
 40
0.0
  9
$WORLDVIEW
 70
     1
  9
$SHADEDGE
 70
     3
  9
$SHADEDIF
 70
    70
  9
$TILEMODE
 70
     1
  9
$MAXACTVP
 70
    15
  9
$PINSBASE
 10
1.505478697236901E+79
 20
1.26574764936231
 30
0.0
  9
$PLIMCHECK
 70
     0
  9
$PEXTMIN
 10
1.000000000000000E+20
 20
1.000000000000000E+20
 30
1.000000000000000E+20
  9
$PEXTMAX
 10
-1.000000000000000E+20
 20
-1.000000000000000E+20
 30
-1.000000000000000E+20
  9
$PLIMMIN
 10
0.0
 20
0.0
  9
$PLIMMAX
 10
12.0
 20
9.0
  9
$UNITMODE
 70
     0
  9
$VISRETAIN
 70
     0
  9
$PLINEGEN
 70
     0
  9
$PSLTSCALE
 70
     1
  9
$TREEDEPTH
 70
  3020
  9
$PICKSTYLE
 70
     1
  9
$CMLSTYLE
  2
STANDARD
  9
$CMLJUST
 70
     0
  9
$CMLSCALE
 40
1.0
  9
$PROXYGRAPHICS
 70
     1
  9
$MEASUREMENT
 70
     0
  0
ENDSEC
  0
SECTION
  2
CLASSES
  0
CLASS
  1
ACDBDICTIONARYWDFLT
  2
AcDbDictionaryWithDefault
  3
AutoCAD 2000
 90
        0
280
     0
281
     0
  0
CLASS
  1
ACDBPLACEHOLDER
  2
AcDbPlaceHolder
  3
AutoCAD 2000
 90
        0
280
     0
281
     0
  0
CLASS
  1
LAYOUT
  2
AcDbLayout
  3
AutoCAD 2000
 90
        0
280
     0
281
     0
  0
CLASS
  1
DICTIONARYVAR
  2
AcDbDictionaryVar
  3
AutoCAD 2000
 90
        0
280
     0
281
     0
  0
CLASS
  1
LONG_TRANSACTION
  2
AcDbLongTransaction
  3
AutoCAD 2000
 90
        0
280
     0
281
     0
  0
CLASS
  1
LWPOLYLINE
  2
AcDbPolyline
  3
AutoCAD 2000
 90
        0
280
     0
281
     1
  0
CLASS
  1
HATCH
  2
AcDbHatch
  3
AutoCAD 2000
 90
        0
280
     0
281
     1
  0
CLASS
  1
XRECORD
  2
AcDbXrecord
  3
AutoCAD 2000
 90
        0
280
     0
281
     0
  0
CLASS
  1
LONG_TRANSACTION
  2
AcDbLongTransaction
  3
AutoCAD 2000
 90
        0
280
     0
281
     0
  0
CLASS
  1
LWPOLYLINE
  2
AcDbPolyline
  3
AutoCAD 2000
 90
        0
280
     0
281
     1
  0
CLASS
  1
HATCH
  2
AcDbHatch
  3
AutoCAD 2000
 90
        0
280
     0
281
     1
  0
CLASS
  1
XRECORD
  2
AcDbXrecord
  3
AutoCAD 2000
 90
        0
280
     0
281
     0
  0
CLASS
  1
LONG_TRANSACTION
  2
AcDbLongTransaction
  3
AutoCAD 2000
 90
        0
280
     0
281
     0
  0
CLASS
  1
LWPOLYLINE
  2
AcDbPolyline
  3
AutoCAD 2000
 90
        0
280
     0
281
     1
  0
CLASS
  1
HATCH
  2
AcDbHatch
  3
AutoCAD 2000
 90
        0
280
     0
281
     1
  0
CLASS
  1
XRECORD
  2
AcDbXrecord
  3
AutoCAD 2000
 90
        0
280
     0
281
     0
  0
CLASS
  1
LONG_TRANSACTION
  2
AcDbLongTransaction
  3
AutoCAD 2000
 90
        0
280
     0
281
     0
  0
CLASS
  1
LWPOLYLINE
  2
AcDbPolyline
  3
AutoCAD 2000
 90
        0
280
     0
281
     1
  0
CLASS
  1
HATCH
  2
AcDbHatch
  3
AutoCAD 2000
 90
        0
280
     0
281
     1
  0
CLASS
  1
XRECORD
  2
AcDbXrecord
  3
AutoCAD 2000
 90
        0
280
     0
281
     0
  0
CLASS
  1
LONG_TRANSACTION
  2
AcDbLongTransaction
  3
AutoCAD 2000
 90
        0
280
     0
281
     0
  0
CLASS
  1
LWPOLYLINE
  2
AcDbPolyline
  3
AutoCAD 2000
 90
        0
280
     0
281
     1
  0
CLASS
  1
HATCH
  2
AcDbHatch
  3
AutoCAD 2000
 90
        0
280
     0
281
     1
  0
CLASS
  1
XRECORD
  2
AcDbXrecord
  3
AutoCAD 2000
 90
        0
280
     0
281
     0
  0
ENDSEC
  0
SECTION
  2
TABLES
  0
TABLE
  2
VPORT
  5
8
330
0
100
AcDbSymbolTable
 70
     2
  0
VPORT
  5
5FB
330
8
100
AcDbSymbolTableRecord
100
AcDbViewportTableRecord
  2
*ACTIVE
 70
     0
 10
0.0
 20
0.0
 11
1.0
 21
1.0
 12
9.687019243290066
 22
-0.8247512701823671
 13
0.0
 23
0.0
 14
0.5740882589684922
 24
0.5740882589684922
 15
0.5
 25
0.5
 16
0.0
 26
0.0
 36
1.0
 17
0.0
 27
0.0
 37
0.0
 40
8.365595802020571
 41
1.570528967254408
 42
50.0
 43
0.0
 44
0.0
 50
0.0
 51
0.0
 71
     0
 72
   100
 73
     1
 74
     0
 75
     0
 76
     0
 77
     0
 78
     0
  0
ENDTAB
  0
TABLE
  2
LTYPE
  5
5
330
0
100
AcDbSymbolTable
 70
     2
  0
LTYPE
  5
12
330
5
100
AcDbSymbolTableRecord
100
AcDbLinetypeTableRecord
  2
BYBLOCK
 70
     0
  3

 72
    65
 73
     0
 40
0.0
  0
LTYPE
  5
13
330
5
100
AcDbSymbolTableRecord
100
AcDbLinetypeTableRecord
  2
BYLAYER
 70
     0
  3

 72
    65
 73
     0
 40
0.0
  0
LTYPE
  5
14
330
5
100
AcDbSymbolTableRecord
100
AcDbLinetypeTableRecord
  2
CONTINUOUS
 70
     0
  3
Solid line
 72
    65
 73
     0
 40
0.0
  0
LTYPE
  5
26
330
5
100
AcDbSymbolTableRecord
100
AcDbLinetypeTableRecord
  2
HIDDEN2
 70
     0
  3
_ _ _ _ _ _ _ _ _ _ _ _ _ _ _ _ _ _ _ _ _ _ _ _
 72
    65
 73
     2
 40
0.1875
 49
0.125
 74
     0
 49
-0.0625
 74
     0
  0
ENDTAB
  0
TABLE
  2
LAYER
  5
2
330
0
100
AcDbSymbolTable
 70
     5
  0
LAYER
  5
F
330
2
100
AcDbSymbolTableRecord
100
AcDbLayerTableRecord
  2
0
 70
     0
 62
     7
  6
CONTINUOUS
  0
LAYER
  5
27
330
2
100
AcDbSymbolTableRecord
100
AcDbLayerTableRecord
  2
ADP2DETAIL
 70
     0
 62
     5
  6
CONTINUOUS
  0
LAYER
  5
28
330
2
100
AcDbSymbolTableRecord
100
AcDbLayerTableRecord
  2
ADPDIM
 70
     0
 62
     3
  6
CONTINUOUS
  0
LAYER
  5
29
330
2
100
AcDbSymbolTableRecord
100
AcDbLayerTableRecord
  2
ADP1DETAIL
 70
     0
 62
     7
  6
CONTINUOUS
  0
LAYER
  5
2A
330
2
100
AcDbSymbolTableRecord
100
AcDbLayerTableRecord
  2
DEFPOINTS
 70
     0
 62
     7
  6
CONTINUOUS
  0
ENDTAB
  0
TABLE
  2
STYLE
  5
3
330
0
100
AcDbSymbolTable
 70
     2
  0
STYLE
  5
10
330
3
100
AcDbSymbolTableRecord
100
AcDbTextStyleTableRecord
  2
STANDARD
 70
     0
 40
0.0
 41
1.0
 50
0.0
 71
     0
 42
0.2
  3
txt
  4

  0
STYLE
  5
4B7
330
3
100
AcDbSymbolTableRecord
100
AcDbTextStyleTableRecord
  2
ARIAL_WIDE
 70
     0
 40
0.0
 41
1.25
 50
0.0
 71
     0
 42
0.2
  3
ARIAL.TTF
  4

1001
ACAD
1000
Arial
1071
       34
  0
ENDTAB
  0
TABLE
  2
VIEW
  5
6
330
0
100
AcDbSymbolTable
 70
     0
  0
ENDTAB
  0
TABLE
  2
UCS
  5
7
330
0
100
AcDbSymbolTable
 70
     0
  0
ENDTAB
  0
TABLE
  2
APPID
  5
9
330
0
100
AcDbSymbolTable
 70
     1
  0
APPID
  5
11
330
9
100
AcDbSymbolTableRecord
100
AcDbRegAppTableRecord
  2
ACAD
 70
     0
  0
ENDTAB
  0
TABLE
  2
DIMSTYLE
  5
A
330
0
100
AcDbSymbolTable
 70
     1
  0
DIMSTYLE
105
4AB
330
A
100
AcDbSymbolTableRecord
100
AcDbDimStyleTableRecord
  2
STANDARD
 70
     0
  3

  4

  5

  6

  7

 40
1.0
 41
0.18
 42
0.0625
 43
0.38
 44
0.18
 45
0.0
 46
0.0
 47
0.0
 48
0.0
140
0.18
141
0.09
142
0.0
143
25.4
144
1.0
145
0.0
146
1.0
147
0.09
 71
     0
 72
     0
 73
     1
 74
     1
 75
     0
 76
     0
 77
     0
 78
     0
170
     0
171
     2
172
     0
173
     0
174
     0
175
     0
176
     0
177
     0
178
     0
270
     2
271
     4
272
     4
273
     2
274
     2
340
10
275
     0
280
     0
281
     0
282
     0
283
     1
284
     0
285
     0
286
     0
287
     3
288
     0
  0
ENDTAB
  0
TABLE
  2
BLOCK_RECORD
  5
1
330
0
100
AcDbSymbolTable
 70
     2
  0
BLOCK_RECORD
  5
18
102
{ACAD_XDICTIONARY
360
50C
102
}
330
1
100
AcDbSymbolTableRecord
100
AcDbBlockTableRecord
  2
*MODEL_SPACE
  0
BLOCK_RECORD
  5
15
102
{ACAD_XDICTIONARY
360
50A
102
}
330
1
100
AcDbSymbolTableRecord
100
AcDbBlockTableRecord
  2
*PAPER_SPACE
  0
BLOCK_RECORD
  5
24
330
1
100
AcDbSymbolTableRecord
100
AcDbBlockTableRecord
  2
*D0
  0
BLOCK_RECORD
  5
25
330
1
100
AcDbSymbolTableRecord
100
AcDbBlockTableRecord
  2
*D1
  0
ENDTAB
  0
ENDSEC
  0
SECTION
  2
BLOCKS
  0
BLOCK
  5
2D
330
18
100
AcDbEntity
  8
0
100
AcDbBlockBegin
  2
*MODEL_SPACE
 70
     0
 10
0.0
 20
0.0
 30
0.0
  3
*MODEL_SPACE
  1

  0
ENDBLK
  5
2E
330
18
100
AcDbEntity
  8
0
100
AcDbBlockEnd
  0
BLOCK
  5
2B
330
15
100
AcDbEntity
 67
     1
  8
0
100
AcDbBlockBegin
  2
*PAPER_SPACE
 70
     0
 10
0.0
 20
0.0
 30
0.0
  3
*PAPER_SPACE
  1

  0
ENDBLK
  5
2C
330
15
100
AcDbEntity
 67
     1
  8
0
100
AcDbBlockEnd
  0
BLOCK
  5
30
330
24
100
AcDbEntity
  8
0
100
AcDbBlockBegin
  2
*D0
 70
     1
 10
0.0
 20
0.0
 30
0.0
  3
*D0
  1

  0
LINE
  5
31
330
24
100
AcDbEntity
  8
0
  6
BYBLOCK
 62
     0
100
AcDbLine
 10
12.94353300578845
 20
0.1921883935040524
 30
0.0
 11
12.94353300578845
 21
0.6004523602243868
 31
0.0
  0
LINE
  5
32
330
24
100
AcDbEntity
  8
0
  6
BYBLOCK
 62
     0
100
AcDbLine
 10
7.943533005788451
 20
0.1921883935040524
 30
0.0
 11
7.943533005788451
 21
0.6004523602243868
 31
0.0
  0
LINE
  5
33
330
24
100
AcDbEntity
  8
0
  6
BYBLOCK
 62
     0
100
AcDbLine
 10
12.94353300578845
 20
0.4204523602243868
 30
0.0
 11
10.61019967245511
 21
0.4204523602243868
 31
0.0
  0
LINE
  5
34
330
24
100
AcDbEntity
  8
0
  6
BYBLOCK
 62
     0
100
AcDbLine
 10
7.943533005788451
 20
0.4204523602243868
 30
0.0
 11
10.27686633912178
 21
0.4204523602243868
 31
0.0
  0
LINE
  5
35
330
24
100
AcDbEntity
  8
0
  6
BYBLOCK
 62
     0
100
AcDbLine
 10
12.81853300578845
 20
0.2954523602243868
 30
0.0
 11
13.06853300578845
 21
0.5454523602243869
 31
0.0
  0
LINE
  5
36
330
24
100
AcDbEntity
  8
0
  6
BYBLOCK
 62
     0
100
AcDbLine
 10
7.818533005788451
 20
0.2954523602243868
 30
0.0
 11
8.068533005788451
 21
0.5454523602243869
 31
0.0
  0
TEXT
  5
37
330
24
100
AcDbEntity
  8
0
  6
BYBLOCK
 62
     0
100
AcDbText
 10
10.40186633912178
 20
0.3579523602243868
 30
0.0
 40
0.125
  1
5
 72
     1
 11
10.44353300578845
 21
0.4204523602243868
 31
0.0
100
AcDbText
 73
     2
  0
POINT
  5
38
330
24
100
AcDbEntity
  8
DEFPOINTS
  6
BYBLOCK
 62
     0
100
AcDbPoint
 10
12.94353300578845
 20
0.1296883935040524
 30
0.0
  0
POINT
  5
39
330
24
100
AcDbEntity
  8
DEFPOINTS
  6
BYBLOCK
 62
     0
100
AcDbPoint
 10
7.943533005788451
 20
0.1296883935040524
 30
0.0
  0
POINT
  5
3A
330
24
100
AcDbEntity
  8
DEFPOINTS
  6
BYBLOCK
 62
     0
100
AcDbPoint
 10
7.943533005788451
 20
0.4204523602243868
 30
0.0
  0
ENDBLK
  5
3B
330
24
100
AcDbEntity
  8
0
100
AcDbBlockEnd
  0
BLOCK
  5
3C
330
25
100
AcDbEntity
  8
0
100
AcDbBlockBegin
  2
*D1
 70
     1
 10
0.0
 20
0.0
 30
0.0
  3
*D1
  1

  0
LINE
  5
3D
330
25
100
AcDbEntity
  8
0
  6
BYBLOCK
 62
     0
100
AcDbLine
 10
6.146293903094635
 20
-0.4532149388161071
 30
0.0
 11
6.146293903094635
 21
0.6911526174179908
 31
0.0
  0
LINE
  5
3E
330
25
100
AcDbEntity
  8
0
  6
BYBLOCK
 62
     0
100
AcDbLine
 10
7.843431238697514
 20
-0.4526879856967239
 30
0.0
 11
7.843431238697514
 21
0.6911526174179908
 31
0.0
  0
LINE
  5
3F
330
25
100
AcDbEntity
  8
0
  6
BYBLOCK
 62
     0
100
AcDbLine
 10
6.146293903094635
 20
0.5111526174179908
 30
0.0
 11
6.661529237562741
 21
0.5111526174179908
 31
0.0
  0
LINE
  5
40
330
25
100
AcDbEntity
  8
0
  6
BYBLOCK
 62
     0
100
AcDbLine
 10
7.843431238697514
 20
0.5111526174179908
 30
0.0
 11
7.328195904229407
 21
0.5111526174179908
 31
0.0
  0
LINE
  5
41
330
25
100
AcDbEntity
  8
0
  6
BYBLOCK
 62
     0
100
AcDbLine
 10
6.021293903094635
 20
0.3861526174179908
 30
0.0
 11
6.271293903094635
 21
0.6361526174179908
 31
0.0
  0
LINE
  5
42
330
25
100
AcDbEntity
  8
0
  6
BYBLOCK
 62
     0
100
AcDbLine
 10
7.718431238697514
 20
0.3861526174179908
 30
0.0
 11
7.968431238697514
 21
0.6361526174179908
 31
0.0
  0
TEXT
  5
43
330
25
100
AcDbEntity
  8
0
  6
BYBLOCK
 62
     0
100
AcDbText
 10
6.786529237562741
 20
0.4486526174179908
 30
0.0
 40
0.125
  1
1.700
 72
     1
 11
6.994862570896074
 21
0.5111526174179908
 31
0.0
100
AcDbText
 73
     2
  0
POINT
  5
44
330
25
100
AcDbEntity
  8
DEFPOINTS
  6
BYBLOCK
 62
     0
100
AcDbPoint
 10
6.146293903094635
 20
-0.5157149388161071
 30
0.0
  0
POINT
  5
45
330
25
100
AcDbEntity
  8
DEFPOINTS
  6
BYBLOCK
 62
     0
100
AcDbPoint
 10
7.843431238697514
 20
-0.5151879856967239
 30
0.0
  0
POINT
  5
46
330
25
100
AcDbEntity
  8
DEFPOINTS
  6
BYBLOCK
 62
     0
100
AcDbPoint
 10
7.843431238697514
 20
0.5111526174179908
 30
0.0
  0
ENDBLK
  5
47
330
25
100
AcDbEntity
  8
0
100
AcDbBlockEnd
  0
ENDSEC
  0
SECTION
  2
ENTITIES
  0
DIMENSION
  5
48
330
18
100
AcDbEntity
  8
ADPDIM
100
AcDbDimension
  2
*D1
 10
7.843431238697514
 20
0.5111526174179908
 30
0.0
 11
6.994862570896074
 21
0.5111526174179908
 31
0.0
  1
1.700
100
AcDbAlignedDimension
 13
6.146293903094635
 23
-0.5157149388161071
 33
0.0
 14
7.843431238697514
 24
-0.5151879856967239
 34
0.0
100
AcDbRotatedDimension
  0
LWPOLYLINE
  5
49
330
18
100
AcDbEntity
  8
ADP1DETAIL
100
AcDbPolyline
 90
        2
 70
     0
 43
0.0
 10
6.750610669440359
 20
0.2490003582382312
 10
6.734954558234251
 20
0.2199642854862986
  0
ARC
  5
4D
330
18
100
AcDbEntity
  8
ADP1DETAIL
100
AcDbCircle
 10
6.994900054322135
 20
-0.6051390500458656
 30
0.0
 40
0.725
100
AcDbArc
 50
300.0687664065313
 51
239.8819924849639
  0
LWPOLYLINE
  5
4E
330
18
100
AcDbEntity
  8
ADP1DETAIL
100
AcDbPolyline
 90
        2
 70
     0
 43
0.0
 10
6.258514033848676
 20
-0.1405970514893504
 10
6.267051953350378
 20
-0.1724610008606391
  0
LWPOLYLINE
  5
52
330
18
100
AcDbEntity
  8
ADP1DETAIL
100
AcDbPolyline
 90
        2
 70
     0
 43
0.0
 10
6.258514033848678
 20
-0.1405970514893509
 10
6.26705195335038
 20
-0.172461000860638
  0
LWPOLYLINE
  5
56
330
18
100
AcDbEntity
  8
ADP1DETAIL
100
AcDbPolyline
 90
        2
 70
     0
 43
0.0
 10
6.258514033848678
 20
-0.140597051489352
 10
6.267051953350378
 20
-0.1724610008606398
  0
LWPOLYLINE
  5
5A
330
18
100
AcDbEntity
  8
ADP1DETAIL
100
AcDbPolyline
 90
        2
 70
     0
 43
0.0
 10
6.228590635049258
 20
-0.872004897513336
 10
6.21443226046137
 20
-0.9017999938881137
  0
LWPOLYLINE
  5
5E
330
18
100
AcDbEntity
  8
ADP1DETAIL
100
AcDbPolyline
 90
        2
 70
     0
 43
0.0
 10
6.376995380972498
 20
-1.148829117067541
 10
6.409969413204857
 20
-1.149788563414544
  0
LWPOLYLINE
  5
62
330
18
100
AcDbEntity
  8
ADP1DETAIL
100
AcDbPolyline
 90
        2
 70
     0
 43
0.0
 10
6.269397095679362
 20
-0.9588930740365444
 10
6.258793454520183
 20
-0.9901303935937786
  0
LWPOLYLINE
  5
66
330
18
100
AcDbEntity
  8
ADP1DETAIL
100
AcDbPolyline
 90
        2
 70
     0
 43
0.0
 10
6.259042888362044
 20
-0.9905970514893491
 10
6.290906837733331
 20
-0.9991349709910542
  0
LWPOLYLINE
  5
6A
330
18
100
AcDbEntity
  8
ADP1DETAIL
100
AcDbPolyline
 90
        2
 70
     0
 43
0.0
 10
6.259042888362044
 20
-0.9905970514893491
 10
6.290906837733331
 20
-0.9991349709910526
  0
LWPOLYLINE
  5
6E
330
18
100
AcDbEntity
  8
ADP1DETAIL
100
AcDbPolyline
 90
        2
 70
     0
 43
0.0
 10
6.285026024924327
 20
-1.032663532905981
 10
6.317332501405104
 20
-1.039334283714588
  0
LWPOLYLINE
  5
72
330
18
100
AcDbEntity
  8
ADP1DETAIL
100
AcDbPolyline
 90
        2
 70
     0
 43
0.0
 10
6.293519292216862
 20
-1.00041114995223
 10
6.284749879341548
 20
-1.032212167809769
  0
LWPOLYLINE
  5
76
330
18
100
AcDbEntity
  8
ADP1DETAIL
100
AcDbPolyline
 90
        2
 70
     0
 43
0.0
 10
6.214625832045831
 20
-0.9022924539115228
 10
6.24528313683502
 20
-0.9144718217939775
  0
LWPOLYLINE
  5
7A
330
18
100
AcDbEntity
  8
ADP1DETAIL
100
AcDbPolyline
 90
        2
 70
     0
 43
0.0
 10
6.235549659519282
 20
-0.9470909548713876
 10
6.266863264262704
 20
-0.9574671534492066
  0
LWPOLYLINE
  5
7E
330
18
100
AcDbEntity
  8
ADP1DETAIL
100
AcDbPolyline
 90
        2
 70
     0
 43
0.0
 10
6.247729771501369
 20
-0.9160426591435742
 10
6.235327781423501
 20
-0.9466105831990589
  0
LWPOLYLINE
  5
82
330
18
100
AcDbEntity
  8
ADP1DETAIL
100
AcDbPolyline
 90
        2
 70
     0
 43
0.0
 10
6.259042888362051
 20
-0.9905970514893493
 10
6.290906837733336
 20
-0.9991349709910545
  0
LWPOLYLINE
  5
86
330
18
100
AcDbEntity
  8
ADP1DETAIL
100
AcDbPolyline
 90
        2
 70
     0
 43
0.0
 10
6.269397095679368
 20
-0.9588930740365452
 10
6.258793454520189
 20
-0.9901303935937797
  0
LWPOLYLINE
  5
8A
330
18
100
AcDbEntity
  8
ADP1DETAIL
100
AcDbPolyline
 90
        2
 70
     0
 43
0.0
 10
6.348793784532448
 20
-1.078893332311925
 10
6.343775540125042
 20
-1.111497389759135
  0
LWPOLYLINE
  5
8E
330
18
100
AcDbEntity
  8
ADP1DETAIL
100
AcDbPolyline
 90
        2
 70
     0
 43
0.0
 10
6.344102218799529
 20
-1.11191364434061
 10
6.376964677344499
 20
-1.114788736918887
  0
LWPOLYLINE
  5
92
330
18
100
AcDbEntity
  8
ADP1DETAIL
100
AcDbPolyline
 90
        2
 70
     0
 43
0.0
 10
6.344102218799529
 20
-1.111913644340609
 10
6.376964677344499
 20
-1.114788736918885
  0
LWPOLYLINE
  5
96
330
18
100
AcDbEntity
  8
ADP1DETAIL
100
AcDbPolyline
 90
        2
 70
     0
 43
0.0
 10
6.379759048925258
 20
-1.115591879893781
 10
6.376645051935199
 20
-1.148432561398573
  0
LWPOLYLINE
  5
9A
330
18
100
AcDbEntity
  8
ADP1DETAIL
100
AcDbPolyline
 90
        2
 70
     0
 43
0.0
 10
6.313411150496765
 20
-1.073148059463999
 10
6.346050839196994
 20
-1.077929069870352
  0
LWPOLYLINE
  5
9E
330
18
100
AcDbEntity
  8
ADP1DETAIL
100
AcDbPolyline
 90
        2
 70
     0
 43
0.0
 10
6.344102218799521
 20
-1.111913644340607
 10
6.376964677344492
 20
-1.114788736918885
  0
LWPOLYLINE
  5
A2
330
18
100
AcDbEntity
  8
ADP1DETAIL
100
AcDbPolyline
 90
        2
 70
     0
 43
0.0
 10
6.348793784532439
 20
-1.078893332311923
 10
6.343775540125035
 20
-1.111497389759133
  0
LWPOLYLINE
  5
A6
330
18
100
AcDbEntity
  8
ADP1DETAIL
100
AcDbPolyline
 90
        2
 70
     0
 43
0.0
 10
6.320014739236482
 20
-1.040456402863964
 10
6.313109227562312
 20
-1.072713514443759
  0
LWPOLYLINE
  5
AA
330
18
100
AcDbEntity
  8
ADP1DETAIL
100
AcDbPolyline
 90
        2
 70
     0
 43
0.0
 10
6.563473073612065
 20
-1.268891516985526
 10
6.569908710774219
 20
-1.301245649847814
  0
LWPOLYLINE
  5
AE
330
18
100
AcDbEntity
  8
ADP1DETAIL
100
AcDbPolyline
 90
        2
 70
     0
 43
0.0
 10
6.5232834129954
 20
-1.24261563121451
 10
6.527826936558227
 20
-1.275289225026446
  0
LWPOLYLINE
  5
B2
330
18
100
AcDbEntity
  8
ADP1DETAIL
100
AcDbPolyline
 90
        2
 70
     0
 43
0.0
 10
6.528259274461882
 20
-1.275594300050051
 10
6.560565750942659
 20
-1.268923549241444
  0
LWPOLYLINE
  5
B6
330
18
100
AcDbEntity
  8
ADP1DETAIL
100
AcDbPolyline
 90
        2
 70
     0
 43
0.0
 10
6.563473073612067
 20
-1.268891516985528
 10
6.569908710774221
 20
-1.301245649847815
  0
ARC
  5
BA
330
18
100
AcDbEntity
  8
ADP1DETAIL
100
AcDbCircle
 10
6.608527436001555
 20
-1.271184243566623
 30
0.0
 40
0.045
100
AcDbArc
 50
334.5161172414742
 51
59.88199248496336
  0
LINE
  5
BB
330
18
100
AcDbEntity
  8
ADP1DETAIL
100
AcDbLine
 10
6.649149221794251
 20
-1.290545816824298
 30
0.0
 11
6.649084607015291
 21
-1.290681382652291
 31
0.0
  0
ARC
  5
BC
330
18
100
AcDbEntity
  8
ADP1DETAIL
100
AcDbCircle
 10
6.608462821222596
 20
-1.271319809394616
 30
0.0
 40
0.045
100
AcDbArc
 50
241.3115771322809
 51
334.516117241473
  0
LINE
  5
BD
330
18
100
AcDbEntity
  8
ADP1DETAIL
100
AcDbLine
 10
6.569908710774219
 20
-1.301245649847814
 30
0.0
 11
6.586860739869205
 21
-1.3107957524638
 31
0.0
  0
LINE
  5
BE
330
18
100
AcDbEntity
  8
ADP1DETAIL
100
AcDbLine
 10
6.528259274461882
 20
-1.275594300050051
 30
0.0
 11
6.563473073612067
 21
-1.268891516985528
 31
0.0
  0
LWPOLYLINE
  5
BF
330
18
100
AcDbEntity
  8
ADP1DETAIL
100
AcDbPolyline
 90
        2
 70
     0
 43
0.0
 10
6.448935712149767
 20
-1.216616767825517
 10
6.481798170694737
 20
-1.213741675247244
  0
LWPOLYLINE
  5
C3
330
18
100
AcDbEntity
  8
ADP1DETAIL
100
AcDbPolyline
 90
        2
 70
     0
 43
0.0
 10
6.484689553806258
 20
-1.214047379142975
 10
6.487325589924237
 20
-1.246929876805683
  0
LWPOLYLINE
  5
C7
330
18
100
AcDbEntity
  8
ADP1DETAIL
100
AcDbPolyline
 90
        2
 70
     0
 43
0.0
 10
6.448935712149763
 20
-1.216616767825518
 10
6.481798170694732
 20
-1.213741675247243
  0
LWPOLYLINE
  5
CB
330
18
100
AcDbEntity
  8
ADP1DETAIL
100
AcDbPolyline
 90
        2
 70
     0
 43
0.0
 10
6.448935712149763
 20
-1.216616767825519
 10
6.481798170694734
 20
-1.213741675247245
  0
LWPOLYLINE
  5
CF
330
18
100
AcDbEntity
  8
ADP1DETAIL
100
AcDbPolyline
 90
        2
 70
     0
 43
0.0
 10
6.447822085447533
 20
-1.183283426692862
 10
6.448541714608865
 20
-1.216263564242963
  0
LWPOLYLINE
  5
D3
330
18
100
AcDbEntity
  8
ADP1DETAIL
100
AcDbPolyline
 90
        2
 70
     0
 43
0.0
 10
6.411979336966968
 20
-1.183769567370405
 10
6.444953369199328
 20
-1.182810121023403
  0
LWPOLYLINE
  5
D7
330
18
100
AcDbEntity
  8
ADP1DETAIL
100
AcDbPolyline
 90
        2
 70
     0
 43
0.0
 10
6.412805755762036
 20
-1.150427869341164
 10
6.411606542969428
 20
-1.183394052432803
  0
LWPOLYLINE
  5
DB
330
18
100
AcDbEntity
  8
ADP1DETAIL
100
AcDbPolyline
 90
        2
 70
     0
 43
0.0
 10
6.447822085447535
 20
-1.183283426692861
 10
6.448541714608868
 20
-1.216263564242963
  0
LWPOLYLINE
  5
DF
330
18
100
AcDbEntity
  8
ADP1DETAIL
100
AcDbPolyline
 90
        2
 70
     0
 43
0.0
 10
6.487739457845536
 20
-1.247259573904073
 10
6.520379146545764
 20
-1.242478563497721
  0
LWPOLYLINE
  5
E3
330
18
100
AcDbEntity
  8
ADP1DETAIL
100
AcDbPolyline
 90
        2
 70
     0
 43
0.0
 10
6.186945901814977
 20
-0.7342746815807533
 10
6.167828760561882
 20
-0.7611585475464678
  0
LWPOLYLINE
  5
E7
330
18
100
AcDbEntity
  8
ADP1DETAIL
100
AcDbPolyline
 90
        2
 70
     0
 43
0.0
 10
6.21204444710244
 20
-0.8269287989913589
 10
6.196177595462408
 20
-0.8558502505107174
  0
LWPOLYLINE
  5
EB
330
18
100
AcDbEntity
  8
ADP1DETAIL
100
AcDbPolyline
 90
        2
 70
     0
 43
0.0
 10
6.196342205550577
 20
-0.8563531325563673
 10
6.226239475770471
 20
-0.8702944586178361
  0
LWPOLYLINE
  5
EF
330
18
100
AcDbEntity
  8
ADP1DETAIL
100
AcDbPolyline
 90
        2
 70
     0
 43
0.0
 10
6.196342205550577
 20
-0.8563531325563673
 10
6.226239475770471
 20
-0.8702944586178343
  0
LWPOLYLINE
  5
F3
330
18
100
AcDbEntity
  8
ADP1DETAIL
100
AcDbPolyline
 90
        2
 70
     0
 43
0.0
 10
6.167933876573384
 20
-0.7616771393484595
 10
6.19601050297831
 20
-0.7789950603747114
  0
LWPOLYLINE
  5
F7
330
18
100
AcDbEntity
  8
ADP1DETAIL
100
AcDbPolyline
 90
        2
 70
     0
 43
0.0
 10
6.180760646038038
 20
-0.8094284349276412
 10
6.20979671878997
 20
-0.8250845461337494
  0
LWPOLYLINE
  5
FB
330
18
100
AcDbEntity
  8
ADP1DETAIL
100
AcDbPolyline
 90
        2
 70
     0
 43
0.0
 10
6.198147194723352
 20
-0.7809668868265434
 10
6.180625554434593
 20
-0.8089168324534075
  0
LWPOLYLINE
  5
FF
330
18
100
AcDbEntity
  8
ADP1DETAIL
100
AcDbPolyline
 90
        2
 70
     0
 43
0.0
 10
6.196342205550575
 20
-0.8563531325563671
 10
6.226239475770467
 20
-0.8702944586178356
  0
LWPOLYLINE
  5
103
330
18
100
AcDbEntity
  8
ADP1DETAIL
100
AcDbPolyline
 90
        2
 70
     0
 43
0.0
 10
6.212044447102439
 20
-0.8269287989913589
 10
6.196177595462405
 20
-0.8558502505107183
  0
LWPOLYLINE
  5
107
330
18
100
AcDbEntity
  8
ADP1DETAIL
100
AcDbPolyline
 90
        2
 70
     0
 43
0.0
 10
6.17847847000683
 20
-0.687010174896469
 10
6.157830514144011
 20
-0.7127369947084967
  0
LWPOLYLINE
  5
10B
330
18
100
AcDbEntity
  8
ADP1DETAIL
100
AcDbPolyline
 90
        2
 70
     0
 43
0.0
 10
6.157905298884255
 20
-0.7132608210877399
 10
6.184927476525874
 20
-0.7321819535712453
  0
LWPOLYLINE
  5
10F
330
18
100
AcDbEntity
  8
ADP1DETAIL
100
AcDbPolyline
 90
        2
 70
     0
 43
0.0
 10
6.157905298884257
 20
-0.7132608210877394
 10
6.184927476525876
 20
-0.7321819535712433
  0
LWPOLYLINE
  5
113
330
18
100
AcDbEntity
  8
ADP1DETAIL
100
AcDbPolyline
 90
        2
 70
     0
 43
0.0
 10
6.146368869946757
 20
-0.6150901143950096
 10
6.171011723881569
 20
-0.6370203922979665
  0
LWPOLYLINE
  5
117
330
18
100
AcDbEntity
  8
ADP1DETAIL
100
AcDbPolyline
 90
        2
 70
     0
 43
0.0
 10
6.169850446660099
 20
-0.5914053650707436
 10
6.146355403405033
 20
-0.6145611479639188
  0
LWPOLYLINE
  5
11B
330
18
100
AcDbEntity
  8
ADP1DETAIL
100
AcDbPolyline
 90
        2
 70
     0
 43
0.0
 10
6.150708846503089
 20
-0.6643433056406567
 10
6.176585140885928
 20
-0.6848036264584307
  0
LWPOLYLINE
  5
11F
330
18
100
AcDbEntity
  8
ADP1DETAIL
100
AcDbPolyline
 90
        2
 70
     0
 43
0.0
 10
6.172773550407846
 20
-0.6393332949030877
 10
6.150664646081988
 20
-0.6638160171468146
  0
LWPOLYLINE
  5
123
330
18
100
AcDbEntity
  8
ADP1DETAIL
100
AcDbPolyline
 90
        2
 70
     0
 43
0.0
 10
6.157905298884257
 20
-0.7132608210877402
 10
6.184927476525874
 20
-0.7321819535712459
  0
LWPOLYLINE
  5
127
330
18
100
AcDbEntity
  8
ADP1DETAIL
100
AcDbPolyline
 90
        2
 70
     0
 43
0.0
 10
6.17847847000683
 20
-0.6870101748964699
 10
6.157830514144013
 20
-0.7127369947084985
  0
LWPOLYLINE
  5
12B
330
18
100
AcDbEntity
  8
ADP1DETAIL
100
AcDbPolyline
 90
        2
 70
     0
 43
0.0
 10
6.186032336502039
 20
-0.4004278194731663
 10
6.157830514144011
 20
-0.4175411053832346
  0
LWPOLYLINE
  5
12F
330
18
100
AcDbEntity
  8
ADP1DETAIL
100
AcDbPolyline
 90
        2
 70
     0
 43
0.0
 10
6.157721629639258
 20
-0.4180589190539586
 10
6.176642762122762
 20
-0.4450810966955796
  0
LWPOLYLINE
  5
133
330
18
100
AcDbEntity
  8
ADP1DETAIL
100
AcDbPolyline
 90
        2
 70
     0
 43
0.0
 10
6.15772162963926
 20
-0.4180589190539587
 10
6.176642762122764
 20
-0.4450810966955783
  0
LWPOLYLINE
  5
137
330
18
100
AcDbEntity
  8
ADP1DETAIL
100
AcDbPolyline
 90
        2
 70
     0
 43
0.0
 10
6.150586053979878
 20
-0.4669853516277671
 10
6.171046374797649
 20
-0.4928616460106037
  0
LWPOLYLINE
  5
13B
330
18
100
AcDbEntity
  8
ADP1DETAIL
100
AcDbPolyline
 90
        2
 70
     0
 43
0.0
 10
6.177823706338788
 20
-0.4477379598700977
 10
6.150664646081988
 20
-0.466462082944916
  0
LWPOLYLINE
  5
13F
330
18
100
AcDbEntity
  8
ADP1DETAIL
100
AcDbPolyline
 90
        2
 70
     0
 43
0.0
 10
6.146307369636359
 20
-0.5162439052471979
 10
6.168237647539317
 20
-0.5408867591820118
  0
LWPOLYLINE
  5
143
330
18
100
AcDbEntity
  8
ADP1DETAIL
100
AcDbPolyline
 90
        2
 70
     0
 43
0.0
 10
6.17237980389769
 20
-0.4954453483937427
 10
6.146355403405033
 20
-0.515716952127812
  0
LWPOLYLINE
  5
147
330
18
100
AcDbEntity
  8
ADP1DETAIL
100
AcDbPolyline
 90
        2
 70
     0
 43
0.0
 10
6.157721629639262
 20
-0.4180589190539568
 10
6.176642762122762
 20
-0.4450810966955772
  0
LWPOLYLINE
  5
14B
330
18
100
AcDbEntity
  8
ADP1DETAIL
100
AcDbPolyline
 90
        2
 70
     0
 43
0.0
 10
6.186032336502037
 20
-0.4004278194731641
 10
6.157830514144013
 20
-0.4175411053832335
  0
LWPOLYLINE
  5
14F
330
18
100
AcDbEntity
  8
ADP1DETAIL
100
AcDbPolyline
 90
        2
 70
     0
 43
0.0
 10
6.23507496057519
 20
-0.1841323485306048
 10
6.245451159153008
 20
-0.215445953274024
  0
LWPOLYLINE
  5
153
330
18
100
AcDbEntity
  8
ADP1DETAIL
100
AcDbPolyline
 90
        2
 70
     0
 43
0.0
 10
6.26725297719199
 20
-0.1753615422901957
 10
6.235327781423501
 20
-0.1836675168926694
  0
LWPOLYLINE
  5
157
330
18
100
AcDbEntity
  8
ADP1DETAIL
100
AcDbPolyline
 90
        2
 70
     0
 43
0.0
 10
6.226922659681839
 20
-0.2624717479966196
 10
6.196177595462405
 20
-0.2744278495810115
  0
LWPOLYLINE
  5
15B
330
18
100
AcDbEntity
  8
ADP1DETAIL
100
AcDbPolyline
 90
        2
 70
     0
 43
0.0
 10
6.195980447757651
 20
-0.2749188889027303
 10
6.209921773819115
 20
-0.3048161591226264
  0
LWPOLYLINE
  5
15F
330
18
100
AcDbEntity
  8
ADP1DETAIL
100
AcDbPolyline
 90
        2
 70
     0
 43
0.0
 10
6.195980447757651
 20
-0.2749188889027303
 10
6.209921773819116
 20
-0.3048161591226248
  0
LWPOLYLINE
  5
163
330
18
100
AcDbEntity
  8
ADP1DETAIL
100
AcDbPolyline
 90
        2
 70
     0
 43
0.0
 10
6.180457291669901
 20
-0.3218629393187897
 10
6.196113402876008
 20
-0.3508990120707207
  0
LWPOLYLINE
  5
167
330
18
100
AcDbEntity
  8
ADP1DETAIL
100
AcDbPolyline
 90
        2
 70
     0
 43
0.0
 10
6.210623417390365
 20
-0.3076377273866229
 10
6.180625554434591
 20
-0.32136126763832
  0
LWPOLYLINE
  5
16B
330
18
100
AcDbEntity
  8
ADP1DETAIL
100
AcDbPolyline
 90
        2
 70
     0
 43
0.0
 10
6.167689952085188
 20
-0.3696301590863082
 10
6.185007873111441
 20
-0.3977067854912384
  0
LWPOLYLINE
  5
16F
330
18
100
AcDbEntity
  8
ADP1DETAIL
100
AcDbPolyline
 90
        2
 70
     0
 43
0.0
 10
6.196977918981353
 20
-0.3536750097423817
 10
6.167828760561882
 20
-0.3691195525452595
  0
LWPOLYLINE
  5
173
330
18
100
AcDbEntity
  8
ADP1DETAIL
100
AcDbPolyline
 90
        2
 70
     0
 43
0.0
 10
6.214206894901979
 20
-0.2289568516449549
 10
6.226386262784433
 20
-0.2596141564341459
  0
LWPOLYLINE
  5
177
330
18
100
AcDbEntity
  8
ADP1DETAIL
100
AcDbPolyline
 90
        2
 70
     0
 43
0.0
 10
6.195980447757653
 20
-0.2749188889027307
 10
6.209921773819116
 20
-0.3048161591226264
  0
LWPOLYLINE
  5
17B
330
18
100
AcDbEntity
  8
ADP1DETAIL
100
AcDbPolyline
 90
        2
 70
     0
 43
0.0
 10
6.226922659681841
 20
-0.2624717479966196
 10
6.196177595462406
 20
-0.2744278495810124
  0
LWPOLYLINE
  5
17F
330
18
100
AcDbEntity
  8
ADP1DETAIL
100
AcDbPolyline
 90
        2
 70
     0
 43
0.0
 10
6.245820494379264
 20
-0.2183298989496769
 10
6.21443226046137
 20
-0.2284781062036143
  0
LWPOLYLINE
  5
183
330
18
100
AcDbEntity
  8
ADP1DETAIL
100
AcDbPolyline
 90
        2
 70
     0
 43
0.0
 10
6.169719049621386
 20
-0.5433885583427591
 10
6.144917367226305
 20
-0.5651390500458666
  0
LWPOLYLINE
  5
187
330
18
100
AcDbEntity
  8
ADP1DETAIL
100
AcDbPolyline
 90
        2
 70
     0
 43
0.0
 10
6.144900054322135
 20
-0.5656679045592379
 10
6.168226084191719
 20
-0.5889939344288246
  0
LWPOLYLINE
  5
18B
330
18
100
AcDbEntity
  8
ADP1DETAIL
100
AcDbPolyline
 90
        2
 70
     0
 43
0.0
 10
6.144900054322135
 20
-0.5656679045592379
 10
6.168226084191719
 20
-0.5889939344288229
  0
LWPOLYLINE
  5
18F
330
18
100
AcDbEntity
  8
ADP1DETAIL
100
AcDbPolyline
 90
        2
 70
     0
 43
0.0
 10
6.144900054322135
 20
-0.5656679045592368
 10
6.168226084191719
 20
-0.5889939344288231
  0
LWPOLYLINE
  5
193
330
18
100
AcDbEntity
  8
ADP1DETAIL
100
AcDbPolyline
 90
        2
 70
     0
 43
0.0
 10
6.169719049621386
 20
-0.543388558342758
 10
6.144917367226303
 20
-0.5651390500458663
  0
LWPOLYLINE
  5
197
330
18
100
AcDbEntity
  8
ADP1DETAIL
100
AcDbPolyline
 90
        2
 70
     0
 43
0.0
 10
6.409611235026835
 20
0.0169552485142375
 10
6.376645051935197
 20
0.0181544613068447
  0
LWPOLYLINE
  5
19B
330
18
100
AcDbEntity
  8
ADP1DETAIL
100
AcDbPolyline
 90
        2
 70
     0
 43
0.0
 10
6.37675567767514
 20
-0.0180610811712643
 10
6.343775540125038
 20
-0.0187807103325963
  0
LWPOLYLINE
  5
19F
330
18
100
AcDbEntity
  8
ADP1DETAIL
100
AcDbPolyline
 90
        2
 70
     0
 43
0.0
 10
6.37675567767514
 20
-0.0180610811712621
 10
6.343775540125038
 20
-0.018780710332595
  0
LWPOLYLINE
  5
1A3
330
18
100
AcDbEntity
  8
ADP1DETAIL
100
AcDbPolyline
 90
        2
 70
     0
 43
0.0
 10
6.291147587382475
 20
-0.1337120693357969
 10
6.258793454520187
 20
-0.1401477064979502
  0
LWPOLYLINE
  5
1A7
330
18
100
AcDbEntity
  8
ADP1DETAIL
100
AcDbPolyline
 90
        2
 70
     0
 43
0.0
 10
6.312779530463927
 20
-0.0579784535692682
 10
6.31756054087028
 20
-0.0906181422694954
  0
LWPOLYLINE
  5
1AB
330
18
100
AcDbEntity
  8
ADP1DETAIL
100
AcDbPolyline
 90
        2
 70
     0
 43
0.0
 10
6.345991725225026
 20
-0.0549285495299892
 10
6.313109227562318
 20
-0.0575645856479694
  0
LWPOLYLINE
  5
1AF
330
18
100
AcDbEntity
  8
ADP1DETAIL
100
AcDbPolyline
 90
        2
 70
     0
 43
0.0
 10
6.284444804317949
 20
-0.0984982701856132
 10
6.291115555126557
 20
-0.1308047466663904
  0
LWPOLYLINE
  5
1B3
330
18
100
AcDbEntity
  8
ADP1DETAIL
100
AcDbPolyline
 90
        2
 70
     0
 43
0.0
 10
6.317423473153491
 20
-0.0935224087191324
 10
6.284749879341555
 20
-0.0980659322819588
  0
LWPOLYLINE
  5
1B7
330
18
100
AcDbEntity
  8
ADP1DETAIL
100
AcDbPolyline
 90
        2
 70
     0
 43
0.0
 10
6.291147587382475
 20
-0.1337120693357976
 10
6.258793454520187
 20
-0.1401477064979517
  0
LWPOLYLINE
  5
1BB
330
18
100
AcDbEntity
  8
ADP1DETAIL
100
AcDbPolyline
 90
        2
 70
     0
 43
0.0
 10
6.343422336542483
 20
-0.0191747078734941
 10
6.346297429120756
 20
-0.0520371664184651
  0
LWPOLYLINE
  5
1BF
330
18
100
AcDbEntity
  8
ADP1DETAIL
100
AcDbPolyline
 90
        2
 70
     0
 43
0.0
 10
6.343422336542483
 20
-0.0191747078734945
 10
6.346297429120758
 20
-0.0520371664184642
  0
LWPOLYLINE
  5
1C3
330
18
100
AcDbEntity
  8
ADP1DETAIL
100
AcDbPolyline
 90
        2
 70
     0
 43
0.0
 10
6.343422336542483
 20
-0.0191747078734932
 10
6.346297429120756
 20
-0.0520371664184634
  0
LWPOLYLINE
  5
1C7
330
18
100
AcDbEntity
  8
ADP1DETAIL
100
AcDbPolyline
 90
        2
 70
     0
 43
0.0
 10
6.376269536997595
 20
0.0177816673093059
 10
6.377228983344597
 20
-0.0151923649230552
  0
LWPOLYLINE
  5
1CB
330
18
100
AcDbEntity
  8
ADP1DETAIL
100
AcDbPolyline
 90
        2
 70
     0
 43
0.0
 10
6.601146030331454
 20
0.1603639085969024
 10
6.569908710774219
 20
0.1709675497560821
  0
LWPOLYLINE
  5
1CF
330
18
100
AcDbEntity
  8
ADP1DETAIL
100
AcDbPolyline
 90
        2
 70
     0
 43
0.0
 10
6.569442052878649
 20
0.1707181159142217
 10
6.560904133376944
 20
0.1388541665429335
  0
LWPOLYLINE
  5
1D3
330
18
100
AcDbEntity
  8
ADP1DETAIL
100
AcDbPolyline
 90
        2
 70
     0
 43
0.0
 10
6.569442052878649
 20
0.1707181159142208
 10
6.560904133376945
 20
0.1388541665429339
  0
LWPOLYLINE
  5
1D7
330
18
100
AcDbEntity
  8
ADP1DETAIL
100
AcDbPolyline
 90
        2
 70
     0
 43
0.0
 10
6.527375571462016
 20
0.1447349793519379
 10
6.520704820653408
 20
0.1124285028711629
  0
LWPOLYLINE
  5
1DB
330
18
100
AcDbEntity
  8
ADP1DETAIL
100
AcDbPolyline
 90
        2
 70
     0
 43
0.0
 10
6.559627954415768
 20
0.1362417120594022
 10
6.527826936558229
 20
0.1450111249347161
  0
LWPOLYLINE
  5
1DF
330
18
100
AcDbEntity
  8
ADP1DETAIL
100
AcDbPolyline
 90
        2
 70
     0
 43
0.0
 10
6.733110305376641
 20
0.2177165571738304
 10
6.704188853857283
 20
0.2335834088138631
  0
LWPOLYLINE
  5
1E3
330
18
100
AcDbEntity
  8
ADP1DETAIL
100
AcDbPolyline
 90
        2
 70
     0
 43
0.0
 10
6.703685971811633
 20
0.2334187987256953
 10
6.689744645750165
 20
0.2035215285057998
  0
LWPOLYLINE
  5
1E7
330
18
100
AcDbEntity
  8
ADP1DETAIL
100
AcDbPolyline
 90
        2
 70
     0
 43
0.0
 10
6.703685971811633
 20
0.2334187987256944
 10
6.689744645750167
 20
0.2035215285058003
  0
LWPOLYLINE
  5
1EB
330
18
100
AcDbEntity
  8
ADP1DETAIL
100
AcDbPolyline
 90
        2
 70
     0
 43
0.0
 10
6.657746650456477
 20
0.2151351722304411
 10
6.645567282574022
 20
0.1844778674412519
  0
LWPOLYLINE
  5
1EF
330
18
100
AcDbEntity
  8
ADP1DETAIL
100
AcDbPolyline
 90
        2
 70
     0
 43
0.0
 10
6.688034206854664
 20
0.2011703692270119
 10
6.658239110479886
 20
0.2153287438149016
  0
LWPOLYLINE
  5
1F3
330
18
100
AcDbEntity
  8
ADP1DETAIL
100
AcDbPolyline
 90
        2
 70
     0
 43
0.0
 10
6.612948149496613
 20
0.1942113447569884
 10
6.602571950918793
 20
0.1628977400135678
  0
LWPOLYLINE
  5
1F7
330
18
100
AcDbEntity
  8
ADP1DETAIL
100
AcDbPolyline
 90
        2
 70
     0
 43
0.0
 10
6.643996445224427
 20
0.1820312327749023
 10
6.613428521168941
 20
0.1944332228527697
  0
LWPOLYLINE
  5
1FB
330
18
100
AcDbEntity
  8
ADP1DETAIL
100
AcDbPolyline
 90
        2
 70
     0
 43
0.0
 10
6.569442052878651
 20
0.1707181159142213
 10
6.560904133376945
 20
0.1388541665429339
  0
LWPOLYLINE
  5
1FF
330
18
100
AcDbEntity
  8
ADP1DETAIL
100
AcDbPolyline
 90
        2
 70
     0
 43
0.0
 10
6.601146030331456
 20
0.1603639085969029
 10
6.569908710774221
 20
0.1709675497560825
  0
LWPOLYLINE
  5
203
330
18
100
AcDbEntity
  8
ADP1DETAIL
100
AcDbPolyline
 90
        2
 70
     0
 43
0.0
 10
6.703685971811633
 20
0.2334187987256944
 10
6.689744645750165
 20
0.2035215285058003
  0
LWPOLYLINE
  5
207
330
18
100
AcDbEntity
  8
ADP1DETAIL
100
AcDbPolyline
 90
        2
 70
     0
 43
0.0
 10
6.733110305376641
 20
0.2177165571738304
 10
6.704188853857282
 20
0.2335834088138635
  0
LWPOLYLINE
  5
20B
330
18
100
AcDbEntity
  8
ADP1DETAIL
100
AcDbPolyline
 90
        2
 70
     0
 43
0.0
 10
6.481145772056075
 20
0.0809672197438261
 10
6.448541714608866
 20
0.0859854641512326
  0
LWPOLYLINE
  5
20F
330
18
100
AcDbEntity
  8
ADP1DETAIL
100
AcDbPolyline
 90
        2
 70
     0
 43
0.0
 10
6.448125460027391
 20
0.0856587854767446
 10
6.445250367449112
 20
0.052796326931774
  0
LWPOLYLINE
  5
213
330
18
100
AcDbEntity
  8
ADP1DETAIL
100
AcDbPolyline
 90
        2
 70
     0
 43
0.0
 10
6.448125460027391
 20
0.0856587854767441
 10
6.445250367449116
 20
0.0527963269317744
  0
LWPOLYLINE
  5
217
330
18
100
AcDbEntity
  8
ADP1DETAIL
100
AcDbPolyline
 90
        2
 70
     0
 43
0.0
 10
6.411209987300459
 20
0.0527656233037743
 10
6.410250540953455
 20
0.0197915910714159
  0
LWPOLYLINE
  5
21B
330
18
100
AcDbEntity
  8
ADP1DETAIL
100
AcDbPolyline
 90
        2
 70
     0
 43
0.0
 10
6.444447224474219
 20
0.0500019553510156
 10
6.411606542969426
 20
0.0531159523410749
  0
LWPOLYLINE
  5
21F
330
18
100
AcDbEntity
  8
ADP1DETAIL
100
AcDbPolyline
 90
        2
 70
     0
 43
0.0
 10
6.486891044903998
 20
0.1163498537795009
 10
6.482110034497646
 20
0.083710165079272
  0
LWPOLYLINE
  5
223
330
18
100
AcDbEntity
  8
ADP1DETAIL
100
AcDbPolyline
 90
        2
 70
     0
 43
0.0
 10
6.448125460027391
 20
0.0856587854767437
 10
6.445250367449112
 20
0.0527963269317731
  0
LWPOLYLINE
  5
227
330
18
100
AcDbEntity
  8
ADP1DETAIL
100
AcDbPolyline
 90
        2
 70
     0
 43
0.0
 10
6.481145772056075
 20
0.0809672197438256
 10
6.448541714608865
 20
0.0859854641512317
  0
LWPOLYLINE
  5
22B
330
18
100
AcDbEntity
  8
ADP1DETAIL
100
AcDbPolyline
 90
        2
 70
     0
 43
0.0
 10
6.519582701504033
 20
0.1097462650397842
 10
6.487325589924239
 20
0.1166517767139528
  0
LINE
  5
22F
330
18
100
AcDbEntity
  8
ADP1DETAIL
100
AcDbLine
 10
8.006033005788451
 20
0.2801170138731631
 30
0.0
 11
12.88103300578845
 21
0.2801170138731631
 31
0.0
  0
DIMENSION
  5
230
330
18
100
AcDbEntity
  8
ADPDIM
100
AcDbDimension
  2
*D0
 10
7.943533005788451
 20
0.5083809805934975
 30
0.0
 11
10.44353300578845
 21
0.4204523602243868
 31
0.0
 12
0.0
 22
0.0879286203691107
 32
0.0
100
AcDbAlignedDimension
 13
12.94353300578845
 23
0.2176170138731631
 33
0.0
 14
7.943533005788451
 24
0.2176170138731631
 34
0.0
100
AcDbRotatedDimension
  0
LINE
  5
231
330
18
100
AcDbEntity
  8
ADP1DETAIL
100
AcDbLine
 10
12.88103300578845
 20
-1.311130418079863
 30
0.0
 11
8.006033005788452
 21
-1.311130418079863
 31
0.0
  0
LINE
  5
232
330
18
100
AcDbEntity
  8
ADP2DETAIL
  6
HIDDEN2
100
AcDbLine
 10
12.94353300578845
 20
-1.210983781091214
 30
0.0
 11
7.943533005788451
 21
-1.210983781091214
 31
0.0
  0
LINE
  5
233
330
18
100
AcDbEntity
  8
ADP1DETAIL
100
AcDbLine
 10
7.943533005788451
 20
-1.248630418079863
 30
0.0
 11
7.943533005788451
 21
0.2176170138731631
 31
0.0
  0
LINE
  5
234
330
18
100
AcDbEntity
  8
ADP1DETAIL
100
AcDbLine
 10
8.006033005788452
 20
-1.311130418079863
 30
0.0
 11
8.006033005788451
 21
0.2801170138731631
 31
0.0
  0
LWPOLYLINE
  5
235
330
18
100
AcDbEntity
  8
ADP1DETAIL
100
AcDbPolyline
 90
        2
 70
     0
 43
0.0
 10
7.720403012964903
 20
-0.1713850260551872
 10
7.731006654124085
 20
-0.1401477064979522
  0
LWPOLYLINE
  5
239
330
18
100
AcDbEntity
  8
ADP1DETAIL
100
AcDbPolyline
 90
        2
 70
     0
 43
0.0
 10
7.720403012964906
 20
-0.1713850260551859
 10
7.731006654124087
 20
-0.1401477064979506
  0
LWPOLYLINE
  5
23D
330
18
100
AcDbEntity
  8
ADP1DETAIL
100
AcDbPolyline
 90
        2
 70
     0
 43
0.0
 10
7.430172154228502
 20
-1.266519812151133
 10
7.461973172086041
 20
-1.275289225026448
  0
ARC
  5
241
330
18
100
AcDbEntity
  8
ADP1DETAIL
100
AcDbCircle
 10
7.380757527330201
 20
-1.27163675741924
 30
0.0
 40
0.045
100
AcDbArc
 50
205.4368546409622
 51
298.6413947501542
  0
LWPOLYLINE
  5
242
330
18
100
AcDbEntity
  8
ADP1DETAIL
100
AcDbPolyline
 90
        2
 70
     0
 43
0.0
 10
7.420358055765619
 20
-1.300996216005952
 10
7.428895975267325
 20
-1.269132266634665
  0
LWPOLYLINE
  5
246
330
18
100
AcDbEntity
  8
ADP1DETAIL
100
AcDbPolyline
 90
        2
 70
     0
 43
0.0
 10
7.420358055765621
 20
-1.300996216005952
 10
7.428895975267325
 20
-1.269132266634665
  0
LWPOLYLINE
  5
24A
330
18
100
AcDbEntity
  8
ADP1DETAIL
100
AcDbPolyline
 90
        2
 70
     0
 43
0.0
 10
7.420358055765621
 20
-1.300996216005953
 10
7.428895975267327
 20
-1.269132266634665
  0
ARC
  5
24E
330
18
100
AcDbEntity
  8
ADP1DETAIL
100
AcDbCircle
 10
7.380700117817724
 20
-1.271516053705809
 30
0.0
 40
0.045
100
AcDbArc
 50
120.0687664065322
 51
205.4368546409617
  0
LINE
  5
24F
330
18
100
AcDbEntity
  8
ADP1DETAIL
100
AcDbLine
 10
7.340062453818307
 20
-1.290844278266557
 30
0.0
 11
7.340119863330786
 21
-1.290964981979987
 31
0.0
  0
LINE
  5
250
330
18
100
AcDbEntity
  8
ADP1DETAIL
100
AcDbLine
 10
7.402327199734379
 20
-1.311130418079863
 30
0.0
 11
7.420358055765619
 21
-1.300996216005952
 31
0.0
  0
LWPOLYLINE
  5
251
330
18
100
AcDbEntity
  8
ADP1DETAIL
100
AcDbPolyline
 90
        2
 70
     0
 43
0.0
 10
7.77559321374229
 20
-0.9013212484467771
 10
7.763413845859835
 20
-0.8706639436575862
  0
LWPOLYLINE
  5
255
330
18
100
AcDbEntity
  8
ADP1DETAIL
100
AcDbPolyline
 90
        2
 70
     0
 43
0.0
 10
7.698652521261792
 20
-0.9965660307559341
 10
7.731006654124081
 20
-0.990130393593782
  0
LWPOLYLINE
  5
259
330
18
100
AcDbEntity
  8
ADP1DETAIL
100
AcDbPolyline
 90
        2
 70
     0
 43
0.0
 10
7.73128607479559
 20
-0.9896810486023813
 10
7.722748155293889
 20
-0.9578170992310919
  0
LWPOLYLINE
  5
25D
330
18
100
AcDbEntity
  8
ADP1DETAIL
100
AcDbPolyline
 90
        2
 70
     0
 43
0.0
 10
7.73128607479559
 20
-0.9896810486023813
 10
7.722748155293889
 20
-0.9578170992310933
  0
LWPOLYLINE
  5
261
330
18
100
AcDbEntity
  8
ADP1DETAIL
100
AcDbPolyline
 90
        2
 70
     0
 43
0.0
 10
7.754725148069079
 20
-0.9461457515611272
 10
7.744348949491261
 20
-0.9148321468177076
  0
LWPOLYLINE
  5
265
330
18
100
AcDbEntity
  8
ADP1DETAIL
100
AcDbPolyline
 90
        2
 70
     0
 43
0.0
 10
7.722547131452277
 20
-0.9549165578015356
 10
7.754472327220767
 20
-0.9466105831990619
  0
LWPOLYLINE
  5
269
330
18
100
AcDbEntity
  8
ADP1DETAIL
100
AcDbPolyline
 90
        2
 70
     0
 43
0.0
 10
7.743979614265004
 20
-0.9119482011420549
 10
7.775367848182899
 20
-0.9017999938881173
  0
LWPOLYLINE
  5
26D
330
18
100
AcDbEntity
  8
ADP1DETAIL
100
AcDbPolyline
 90
        2
 70
     0
 43
0.0
 10
7.705355304326319
 20
-1.031779829906121
 10
7.698684553517713
 20
-0.9994733534253448
  0
LWPOLYLINE
  5
271
330
18
100
AcDbEntity
  8
ADP1DETAIL
100
AcDbPolyline
 90
        2
 70
     0
 43
0.0
 10
7.672376635490778
 20
-1.036755691372602
 10
7.705050229302715
 20
-1.032212167809775
  0
LWPOLYLINE
  5
275
330
18
100
AcDbEntity
  8
ADP1DETAIL
100
AcDbPolyline
 90
        2
 70
     0
 43
0.0
 10
7.73128607479559
 20
-0.9896810486023833
 10
7.72274815529389
 20
-0.9578170992310941
  0
LWPOLYLINE
  5
279
330
18
100
AcDbEntity
  8
ADP1DETAIL
100
AcDbPolyline
 90
        2
 70
     0
 43
0.0
 10
7.698652521261793
 20
-0.9965660307559364
 10
7.731006654124081
 20
-0.990130393593783
  0
LWPOLYLINE
  5
27D
330
18
100
AcDbEntity
  8
ADP1DETAIL
100
AcDbPolyline
 90
        2
 70
     0
 43
0.0
 10
7.613044430969129
 20
-1.11221701892047
 10
7.64602456851923
 20
-1.111497389759138
  0
LWPOLYLINE
  5
281
330
18
100
AcDbEntity
  8
ADP1DETAIL
100
AcDbPolyline
 90
        2
 70
     0
 43
0.0
 10
7.646377772101786
 20
-1.11110339221824
 10
7.643502679523512
 20
-1.078240933673268
  0
LWPOLYLINE
  5
285
330
18
100
AcDbEntity
  8
ADP1DETAIL
100
AcDbPolyline
 90
        2
 70
     0
 43
0.0
 10
7.646377772101786
 20
-1.111103392218239
 10
7.643502679523511
 20
-1.07824093367327
  0
LWPOLYLINE
  5
289
330
18
100
AcDbEntity
  8
ADP1DETAIL
100
AcDbPolyline
 90
        2
 70
     0
 43
0.0
 10
7.643808383419242
 20
-1.075349550561745
 10
7.676690881081951
 20
-1.072713514443764
  0
LWPOLYLINE
  5
28D
330
18
100
AcDbEntity
  8
ADP1DETAIL
100
AcDbPolyline
 90
        2
 70
     0
 43
0.0
 10
7.578590121343809
 20
-1.183043723395507
 10
7.579549567690811
 20
-1.150069691163148
  0
LWPOLYLINE
  5
291
330
18
100
AcDbEntity
  8
ADP1DETAIL
100
AcDbPolyline
 90
        2
 70
     0
 43
0.0
 10
7.613530571646672
 20
-1.148059767401038
 10
7.61257112529967
 20
-1.115085735168678
  0
LWPOLYLINE
  5
295
330
18
100
AcDbEntity
  8
ADP1DETAIL
100
AcDbPolyline
 90
        2
 70
     0
 43
0.0
 10
7.580188873617432
 20
-1.14723334860597
 10
7.61315505670907
 20
-1.148432561398577
  0
LWPOLYLINE
  5
299
330
18
100
AcDbEntity
  8
ADP1DETAIL
100
AcDbPolyline
 90
        2
 70
     0
 43
0.0
 10
7.646377772101784
 20
-1.111103392218239
 10
7.643502679523511
 20
-1.078240933673268
  0
LWPOLYLINE
  5
29D
330
18
100
AcDbEntity
  8
ADP1DETAIL
100
AcDbPolyline
 90
        2
 70
     0
 43
0.0
 10
7.613044430969127
 20
-1.112217018920469
 10
7.64602456851923
 20
-1.111497389759137
  0
LWPOLYLINE
  5
2A1
330
18
100
AcDbEntity
  8
ADP1DETAIL
100
AcDbPolyline
 90
        2
 70
     0
 43
0.0
 10
7.677020578180341
 20
-1.072299646522466
 10
7.672239567773988
 20
-1.039659957822239
  0
LWPOLYLINE
  5
2A5
330
18
100
AcDbEntity
  8
ADP1DETAIL
100
AcDbPolyline
 90
        2
 70
     0
 43
0.0
 10
7.470217407140237
 20
-1.240024365131516
 10
7.502474518720031
 20
-1.246929876805684
  0
LWPOLYLINE
  5
2A9
330
18
100
AcDbEntity
  8
ADP1DETAIL
100
AcDbPolyline
 90
        2
 70
     0
 43
0.0
 10
7.462424537182254
 20
-1.275013079443669
 10
7.469095287990862
 20
-1.242706602962894
  0
LWPOLYLINE
  5
2AD
330
18
100
AcDbEntity
  8
ADP1DETAIL
100
AcDbPolyline
 90
        2
 70
     0
 43
0.0
 10
7.508654336588191
 20
-1.211245319835558
 10
7.541258394035402
 20
-1.216263564242964
  0
LWPOLYLINE
  5
2B1
330
18
100
AcDbEntity
  8
ADP1DETAIL
100
AcDbPolyline
 90
        2
 70
     0
 43
0.0
 10
7.541674648616876
 20
-1.215936885568476
 10
7.544549741195153
 20
-1.183074427023505
  0
LWPOLYLINE
  5
2B5
330
18
100
AcDbEntity
  8
ADP1DETAIL
100
AcDbPolyline
 90
        2
 70
     0
 43
0.0
 10
7.541674648616876
 20
-1.215936885568476
 10
7.544549741195153
 20
-1.183074427023506
  0
LWPOLYLINE
  5
2B9
330
18
100
AcDbEntity
  8
ADP1DETAIL
100
AcDbPolyline
 90
        2
 70
     0
 43
0.0
 10
7.502909063740272
 20
-1.246627953871232
 10
7.507690074146625
 20
-1.213988265171003
  0
LWPOLYLINE
  5
2BD
330
18
100
AcDbEntity
  8
ADP1DETAIL
100
AcDbPolyline
 90
        2
 70
     0
 43
0.0
 10
7.541674648616879
 20
-1.215936885568475
 10
7.544549741195158
 20
-1.183074427023505
  0
LWPOLYLINE
  5
2C1
330
18
100
AcDbEntity
  8
ADP1DETAIL
100
AcDbPolyline
 90
        2
 70
     0
 43
0.0
 10
7.508654336588197
 20
-1.211245319835557
 10
7.541258394035407
 20
-1.216263564242963
  0
LWPOLYLINE
  5
2C5
330
18
100
AcDbEntity
  8
ADP1DETAIL
100
AcDbPolyline
 90
        2
 70
     0
 43
0.0
 10
7.545352884170048
 20
-1.180280055442747
 10
7.57819356567484
 20
-1.183394052432806
  0
LINE
  5
2C9
330
18
100
AcDbEntity
  8
ADP1DETAIL
100
AcDbLine
 10
7.943533005788451
 20
-1.248630418079863
 30
0.0
 11
8.006033005788452
 21
-1.311130418079863
 31
0.0
  0
LWPOLYLINE
  5
2CA
330
18
100
AcDbEntity
  8
ADP1DETAIL
100
AcDbPolyline
 90
        2
 70
     0
 43
0.0
 10
7.809342816974368
 20
-0.8084151607729426
 10
7.79368670576826
 20
-0.7793790880210116
  0
LWPOLYLINE
  5
2CE
330
18
100
AcDbEntity
  8
ADP1DETAIL
100
AcDbPolyline
 90
        2
 70
     0
 43
0.0
 10
7.779176691253905
 20
-0.8226403727051094
 10
7.809174554209677
 20
-0.8089168324534126
  0
LWPOLYLINE
  5
2D2
330
18
100
AcDbEntity
  8
ADP1DETAIL
100
AcDbPolyline
 90
        2
 70
     0
 43
0.0
 10
7.792822189662915
 20
-0.7766030903493507
 10
7.821971348082389
 20
-0.7611585475464729
  0
LWPOLYLINE
  5
2D6
330
18
100
AcDbEntity
  8
ADP1DETAIL
100
AcDbPolyline
 90
        2
 70
     0
 43
0.0
 10
7.821866232070886
 20
-0.3686009607432741
 10
7.79378960566596
 20
-0.3512830397170219
  0
LWPOLYLINE
  5
2DA
330
18
100
AcDbEntity
  8
ADP1DETAIL
100
AcDbPolyline
 90
        2
 70
     0
 43
0.0
 10
7.802854206829291
 20
-0.3960034185109802
 10
7.821971348082389
 20
-0.3691195525452657
  0
LWPOLYLINE
  5
2DE
330
18
100
AcDbEntity
  8
ADP1DETAIL
100
AcDbPolyline
 90
        2
 70
     0
 43
0.0
 10
7.809039462606232
 20
-0.3208496651640922
 10
7.780003389854298
 20
-0.305193553957984
  0
LWPOLYLINE
  5
2E2
330
18
100
AcDbEntity
  8
ADP1DETAIL
100
AcDbPolyline
 90
        2
 70
     0
 43
0.0
 10
7.791652913920918
 20
-0.3493112132651901
 10
7.809174554209677
 20
-0.3213612676383259
  0
LWPOLYLINE
  5
2E6
330
18
100
AcDbEntity
  8
ADP1DETAIL
100
AcDbPolyline
 90
        2
 70
     0
 43
0.0
 10
7.803767772142229
 20
-0.7298502806185667
 10
7.831969594500257
 20
-0.7127369947084988
  0
LWPOLYLINE
  5
2EA
330
18
100
AcDbEntity
  8
ADP1DETAIL
100
AcDbPolyline
 90
        2
 70
     0
 43
0.0
 10
7.803767772142231
 20
-0.7298502806185683
 10
7.831969594500257
 20
-0.7127369947084992
  0
LWPOLYLINE
  5
2EE
330
18
100
AcDbEntity
  8
ADP1DETAIL
100
AcDbPolyline
 90
        2
 70
     0
 43
0.0
 10
7.762877448962429
 20
-0.8678063520951127
 10
7.793622513181864
 20
-0.8558502505107208
  0
LWPOLYLINE
  5
2F2
330
18
100
AcDbEntity
  8
ADP1DETAIL
100
AcDbPolyline
 90
        2
 70
     0
 43
0.0
 10
7.793819660886617
 20
-0.855359211189002
 10
7.779878334825154
 20
-0.8254619409691059
  0
LWPOLYLINE
  5
2F6
330
18
100
AcDbEntity
  8
ADP1DETAIL
100
AcDbPolyline
 90
        2
 70
     0
 43
0.0
 10
7.793819660886617
 20
-0.855359211189002
 10
7.779878334825154
 20
-0.8254619409691075
  0
LWPOLYLINE
  5
2FA
330
18
100
AcDbEntity
  8
ADP1DETAIL
100
AcDbPolyline
 90
        2
 70
     0
 43
0.0
 10
7.793819660886615
 20
-0.8553592111890013
 10
7.77987833482515
 20
-0.8254619409691049
  0
LWPOLYLINE
  5
2FE
330
18
100
AcDbEntity
  8
ADP1DETAIL
100
AcDbPolyline
 90
        2
 70
     0
 43
0.0
 10
7.762877448962427
 20
-0.8678063520951116
 10
7.793622513181862
 20
-0.8558502505107192
  0
LWPOLYLINE
  5
302
330
18
100
AcDbEntity
  8
ADP1DETAIL
100
AcDbPolyline
 90
        2
 70
     0
 43
0.0
 10
7.754250449124992
 20
-0.1831871452203435
 10
7.722936844381569
 20
-0.1728109466425243
  0
LWPOLYLINE
  5
306
330
18
100
AcDbEntity
  8
ADP1DETAIL
100
AcDbPolyline
 90
        2
 70
     0
 43
0.0
 10
7.742070337142905
 20
-0.2142354409481568
 10
7.754472327220771
 20
-0.1836675168926729
  0
LWPOLYLINE
  5
30A
330
18
100
AcDbEntity
  8
ADP1DETAIL
100
AcDbPolyline
 90
        2
 70
     0
 43
0.0
 10
7.777755661541833
 20
-0.3033493011003723
 10
7.793622513181865
 20
-0.2744278495810137
  0
LWPOLYLINE
  5
30E
330
18
100
AcDbEntity
  8
ADP1DETAIL
100
AcDbPolyline
 90
        2
 70
     0
 43
0.0
 10
7.793457903093699
 20
-0.2739249675353632
 10
7.763560632873803
 20
-0.2599836414738952
  0
LWPOLYLINE
  5
312
330
18
100
AcDbEntity
  8
ADP1DETAIL
100
AcDbPolyline
 90
        2
 70
     0
 43
0.0
 10
7.793457903093697
 20
-0.2739249675353639
 10
7.763560632873801
 20
-0.2599836414738974
  0
LWPOLYLINE
  5
316
330
18
100
AcDbEntity
  8
ADP1DETAIL
100
AcDbPolyline
 90
        2
 70
     0
 43
0.0
 10
7.761209473595014
 20
-0.2582732025783956
 10
7.775367848182904
 20
-0.2284781062036174
  0
LWPOLYLINE
  5
31A
330
18
100
AcDbEntity
  8
ADP1DETAIL
100
AcDbPolyline
 90
        2
 70
     0
 43
0.0
 10
7.793457903093695
 20
-0.2739249675353663
 10
7.763560632873801
 20
-0.2599836414738976
  0
LWPOLYLINE
  5
31E
330
18
100
AcDbEntity
  8
ADP1DETAIL
100
AcDbPolyline
 90
        2
 70
     0
 43
0.0
 10
7.777755661541831
 20
-0.3033493011003745
 10
7.793622513181865
 20
-0.2744278495810148
  0
LWPOLYLINE
  5
322
330
18
100
AcDbEntity
  8
ADP1DETAIL
100
AcDbPolyline
 90
        2
 70
     0
 43
0.0
 10
7.775174276598443
 20
-0.2279856461802083
 10
7.744516971809256
 20
-0.215806278297753
  0
LWPOLYLINE
  5
326
330
18
100
AcDbEntity
  8
ADP1DETAIL
100
AcDbPolyline
 90
        2
 70
     0
 43
0.0
 10
7.822110156559082
 20
-0.7606479410054242
 10
7.804792235532829
 20
-0.732571314600494
  0
LWPOLYLINE
  5
32A
330
18
100
AcDbEntity
  8
ADP1DETAIL
100
AcDbPolyline
 90
        2
 70
     0
 43
0.0
 10
7.811321638637439
 20
-0.4432679251952645
 10
7.831969594500257
 20
-0.4175411053832368
  0
LWPOLYLINE
  5
32E
330
18
100
AcDbEntity
  8
ADP1DETAIL
100
AcDbPolyline
 90
        2
 70
     0
 43
0.0
 10
7.831894809760015
 20
-0.4170172790039939
 10
7.804872632118396
 20
-0.3980961465204882
  0
LWPOLYLINE
  5
332
330
18
100
AcDbEntity
  8
ADP1DETAIL
100
AcDbPolyline
 90
        2
 70
     0
 43
0.0
 10
7.831894809760013
 20
-0.4170172790039941
 10
7.804872632118394
 20
-0.3980961465204902
  0
LWPOLYLINE
  5
336
330
18
100
AcDbEntity
  8
ADP1DETAIL
100
AcDbPolyline
 90
        2
 70
     0
 43
0.0
 10
7.820081059022884
 20
-0.5868895417489741
 10
7.844882741417965
 20
-0.5651390500458669
  0
LWPOLYLINE
  5
33A
330
18
100
AcDbEntity
  8
ADP1DETAIL
100
AcDbPolyline
 90
        2
 70
     0
 43
0.0
 10
7.844900054322135
 20
-0.5646101955324956
 10
7.821574024452552
 20
-0.5412841656629086
  0
LWPOLYLINE
  5
33E
330
18
100
AcDbEntity
  8
ADP1DETAIL
100
AcDbPolyline
 90
        2
 70
     0
 43
0.0
 10
7.844900054322135
 20
-0.5646101955324956
 10
7.821574024452552
 20
-0.5412841656629104
  0
LWPOLYLINE
  5
342
330
18
100
AcDbEntity
  8
ADP1DETAIL
100
AcDbPolyline
 90
        2
 70
     0
 43
0.0
 10
7.843431238697514
 20
-0.5151879856967239
 10
7.818788384762701
 20
-0.4932577077937668
  0
LWPOLYLINE
  5
346
330
18
100
AcDbEntity
  8
ADP1DETAIL
100
AcDbPolyline
 90
        2
 70
     0
 43
0.0
 10
7.819949661984171
 20
-0.5388727350209896
 10
7.843444705239237
 20
-0.5157169521278147
  0
LWPOLYLINE
  5
34A
330
18
100
AcDbEntity
  8
ADP1DETAIL
100
AcDbPolyline
 90
        2
 70
     0
 43
0.0
 10
7.839091262141183
 20
-0.4659347944510768
 10
7.813214967758344
 20
-0.4454744736333025
  0
LWPOLYLINE
  5
34E
330
18
100
AcDbEntity
  8
ADP1DETAIL
100
AcDbPolyline
 90
        2
 70
     0
 43
0.0
 10
7.817026558236424
 20
-0.4909448051886456
 10
7.839135462562284
 20
-0.4664620829449189
  0
LWPOLYLINE
  5
352
330
18
100
AcDbEntity
  8
ADP1DETAIL
100
AcDbPolyline
 90
        2
 70
     0
 43
0.0
 10
7.831894809760015
 20
-0.4170172790039933
 10
7.804872632118398
 20
-0.3980961465204873
  0
LWPOLYLINE
  5
356
330
18
100
AcDbEntity
  8
ADP1DETAIL
100
AcDbPolyline
 90
        2
 70
     0
 43
0.0
 10
7.811321638637442
 20
-0.4432679251952634
 10
7.831969594500259
 20
-0.417541105383235
  0
LWPOLYLINE
  5
35A
330
18
100
AcDbEntity
  8
ADP1DETAIL
100
AcDbPolyline
 90
        2
 70
     0
 43
0.0
 10
7.832078479005009
 20
-0.7122191810377743
 10
7.813157346521506
 20
-0.6851970033961534
  0
LWPOLYLINE
  5
35E
330
18
100
AcDbEntity
  8
ADP1DETAIL
100
AcDbPolyline
 90
        2
 70
     0
 43
0.0
 10
7.832078479005009
 20
-0.7122191810377743
 10
7.813157346521506
 20
-0.6851970033961552
  0
LWPOLYLINE
  5
362
330
18
100
AcDbEntity
  8
ADP1DETAIL
100
AcDbPolyline
 90
        2
 70
     0
 43
0.0
 10
7.83921405466439
 20
-0.6632927484639659
 10
7.818753733846618
 20
-0.6374164540811292
  0
LWPOLYLINE
  5
366
330
18
100
AcDbEntity
  8
ADP1DETAIL
100
AcDbPolyline
 90
        2
 70
     0
 43
0.0
 10
7.811976402305482
 20
-0.6825401402216356
 10
7.83913546256228
 20
-0.6638160171468171
  0
LWPOLYLINE
  5
36A
330
18
100
AcDbEntity
  8
ADP1DETAIL
100
AcDbPolyline
 90
        2
 70
     0
 43
0.0
 10
7.84349273900791
 20
-0.6140341948445354
 10
7.821562461104953
 20
-0.5893913409097214
  0
LWPOLYLINE
  5
36E
330
18
100
AcDbEntity
  8
ADP1DETAIL
100
AcDbPolyline
 90
        2
 70
     0
 43
0.0
 10
7.817420304746578
 20
-0.6348327516979904
 10
7.843444705239237
 20
-0.6145611479639215
  0
LWPOLYLINE
  5
372
330
18
100
AcDbEntity
  8
ADP1DETAIL
100
AcDbPolyline
 90
        2
 70
     0
 43
0.0
 10
7.844900054322133
 20
-0.5646101955324965
 10
7.82157402445255
 20
-0.54128416566291
  0
LWPOLYLINE
  5
376
330
18
100
AcDbEntity
  8
ADP1DETAIL
100
AcDbPolyline
 90
        2
 70
     0
 43
0.0
 10
7.820081059022884
 20
-0.5868895417489753
 10
7.844882741417963
 20
-0.5651390500458666
  0
LWPOLYLINE
  5
37A
330
18
100
AcDbEntity
  8
ADP1DETAIL
100
AcDbPolyline
 90
        2
 70
     0
 43
0.0
 10
7.832078479005009
 20
-0.7122191810377759
 10
7.813157346521506
 20
-0.6851970033961552
  0
LWPOLYLINE
  5
37E
330
18
100
AcDbEntity
  8
ADP1DETAIL
100
AcDbPolyline
 90
        2
 70
     0
 43
0.0
 10
7.461540834182391
 20
0.1453161999583195
 10
7.429234357701615
 20
0.1386454491497124
  0
LWPOLYLINE
  5
382
330
18
100
AcDbEntity
  8
ADP1DETAIL
100
AcDbPolyline
 90
        2
 70
     0
 43
0.0
 10
7.112301144497907
 20
0.2519372979374816
 10
7.093577021423088
 20
0.2790963581942796
  0
LWPOLYLINE
  5
386
330
18
100
AcDbEntity
  8
ADP1DETAIL
100
AcDbPolyline
 90
        2
 70
     0
 43
0.0
 10
7.014239115383318
 20
0.2584175921865017
 10
6.992488623680211
 20
0.2832192745815827
  0
LWPOLYLINE
  5
38A
330
18
100
AcDbEntity
  8
ADP1DETAIL
100
AcDbPolyline
 90
        2
 70
     0
 43
0.0
 10
6.99195976916684
 20
0.2832365874857534
 10
6.968633739297253
 20
0.2599105576161689
  0
LWPOLYLINE
  5
38E
330
18
100
AcDbEntity
  8
ADP1DETAIL
100
AcDbPolyline
 90
        2
 70
     0
 43
0.0
 10
6.99195976916684
 20
0.2832365874857525
 10
6.968633739297255
 20
0.2599105576161684
  0
LWPOLYLINE
  5
392
330
18
100
AcDbEntity
  8
ADP1DETAIL
100
AcDbPolyline
 90
        2
 70
     0
 43
0.0
 10
7.014239115383322
 20
0.2584175921865017
 10
6.992488623680214
 20
0.2832192745815827
  0
LWPOLYLINE
  5
396
330
18
100
AcDbEntity
  8
ADP1DETAIL
100
AcDbPolyline
 90
        2
 70
     0
 43
0.0
 10
6.991959769166843
 20
0.283236587485753
 10
6.968633739297256
 20
0.2599105576161693
  0
LWPOLYLINE
  5
39A
330
18
100
AcDbEntity
  8
ADP1DETAIL
100
AcDbPolyline
 90
        2
 70
     0
 43
0.0
 10
7.01423911538332
 20
0.2584175921865017
 10
6.992488623680213
 20
0.2832192745815822
  0
LWPOLYLINE
  5
39E
330
18
100
AcDbEntity
  8
ADP1DETAIL
100
AcDbPolyline
 90
        2
 70
     0
 43
0.0
 10
7.014239115383324
 20
0.2584175921865004
 10
6.992488623680216
 20
0.2832192745815827
  0
LWPOLYLINE
  5
3A2
330
18
100
AcDbEntity
  8
ADP1DETAIL
100
AcDbPolyline
 90
        2
 70
     0
 43
0.0
 10
6.991959769166841
 20
0.283236587485753
 10
6.968633739297255
 20
0.2599105576161689
  0
LWPOLYLINE
  5
3A6
330
18
100
AcDbEntity
  8
ADP1DETAIL
100
AcDbPolyline
 90
        2
 70
     0
 43
0.0
 10
6.991959769166841
 20
0.283236587485753
 10
6.968633739297256
 20
0.2599105576161684
  0
LWPOLYLINE
  5
3AA
330
18
100
AcDbEntity
  8
ADP1DETAIL
100
AcDbPolyline
 90
        2
 70
     0
 43
0.0
 10
6.991959769166845
 20
0.2832365874857525
 10
6.968633739297258
 20
0.2599105576161693
  0
LWPOLYLINE
  5
3AE
330
18
100
AcDbEntity
  8
ADP1DETAIL
100
AcDbPolyline
 90
        2
 70
     0
 43
0.0
 10
7.093053752740237
 20
0.2791749502963907
 10
7.0671774583574
 20
0.2587146294786176
  0
LWPOLYLINE
  5
3B2
330
18
100
AcDbEntity
  8
ADP1DETAIL
100
AcDbPolyline
 90
        2
 70
     0
 43
0.0
 10
7.043795199120806
 20
0.2834536346399097
 10
7.019152345185993
 20
0.2615233567369528
  0
LWPOLYLINE
  5
3B6
330
18
100
AcDbEntity
  8
ADP1DETAIL
100
AcDbPolyline
 90
        2
 70
     0
 43
0.0
 10
7.064593755974261
 20
0.2573812003785769
 10
7.044322152240193
 20
0.2834056008712351
  0
LWPOLYLINE
  5
3BA
330
18
100
AcDbEntity
  8
ADP1DETAIL
100
AcDbPolyline
 90
        2
 70
     0
 43
0.0
 10
6.920705809464914
 20
0.2569874538684229
 10
6.896223087221187
 20
0.27909635819428
  0
LWPOLYLINE
  5
3BE
330
18
100
AcDbEntity
  8
ADP1DETAIL
100
AcDbPolyline
 90
        2
 70
     0
 43
0.0
 10
6.895695798727345
 20
0.2790521577731799
 10
6.875235477909571
 20
0.253175863390342
  0
LWPOLYLINE
  5
3C2
330
18
100
AcDbEntity
  8
ADP1DETAIL
100
AcDbPolyline
 90
        2
 70
     0
 43
0.0
 10
6.968633739297258
 20
0.2599105576161693
 10
6.945477956404083
 20
0.2834056008712355
  0
LWPOLYLINE
  5
3C6
330
18
100
AcDbEntity
  8
ADP1DETAIL
100
AcDbPolyline
 90
        2
 70
     0
 43
0.0
 10
6.944948989972992
 20
0.2833921343295129
 10
6.923018712070035
 20
0.2587492803947007
  0
LWPOLYLINE
  5
3CA
330
18
100
AcDbEntity
  8
ADP1DETAIL
100
AcDbPolyline
 90
        2
 70
     0
 43
0.0
 10
6.84677828328026
 20
0.2718557053920136
 10
6.827857150796754
 20
0.2448335277503943
  0
LWPOLYLINE
  5
3CE
330
18
100
AcDbEntity
  8
ADP1DETAIL
100
AcDbPolyline
 90
        2
 70
     0
 43
0.0
 10
6.846778283280261
 20
0.2718557053920128
 10
6.827857150796756
 20
0.2448335277503943
  0
LWPOLYLINE
  5
3D2
330
18
100
AcDbEntity
  8
ADP1DETAIL
100
AcDbPolyline
 90
        2
 70
     0
 43
0.0
 10
6.798361965019541
 20
0.2618271277028863
 10
6.781044043993288
 20
0.2337505012979579
  0
LWPOLYLINE
  5
3D6
330
18
100
AcDbEntity
  8
ADP1DETAIL
100
AcDbPolyline
 90
        2
 70
     0
 43
0.0
 10
6.825764422787246
 20
0.2428151024612917
 10
6.798880556821533
 20
0.2619322437143872
  0
LWPOLYLINE
  5
3DA
330
18
100
AcDbEntity
  8
ADP1DETAIL
100
AcDbPolyline
 90
        2
 70
     0
 43
0.0
 10
6.779072217541457
 20
0.231613809552917
 10
6.751122271914592
 20
0.2491354498416771
  0
LWPOLYLINE
  5
3DE
330
18
100
AcDbEntity
  8
ADP1DETAIL
100
AcDbPolyline
 90
        2
 70
     0
 43
0.0
 10
6.846778283280261
 20
0.2718557053920128
 10
6.827857150796756
 20
0.2448335277503943
  0
LWPOLYLINE
  5
3E2
330
18
100
AcDbEntity
  8
ADP1DETAIL
100
AcDbPolyline
 90
        2
 70
     0
 43
0.0
 10
6.873028929471532
 20
0.2512825342694391
 10
6.847302109659503
 20
0.2719304901322572
  0
LWPOLYLINE
  5
3E6
330
18
100
AcDbEntity
  8
ADP1DETAIL
100
AcDbPolyline
 90
        2
 70
     0
 43
0.0
 10
6.873028929471532
 20
0.2512825342694391
 10
6.847302109659503
 20
0.2719304901322572
  0
LWPOLYLINE
  5
3EA
330
18
100
AcDbEntity
  8
ADP1DETAIL
100
AcDbPolyline
 90
        2
 70
     0
 43
0.0
 10
7.238176165049212
 20
0.2493037126063671
 10
7.209140092297282
 20
0.2336476014002606
  0
LWPOLYLINE
  5
3EE
330
18
100
AcDbEntity
  8
ADP1DETAIL
100
AcDbPolyline
 90
        2
 70
     0
 43
0.0
 10
7.297567356371382
 20
0.2028383445944271
 10
7.28561125478699
 20
0.2335834088138613
  0
LWPOLYLINE
  5
3F2
330
18
100
AcDbEntity
  8
ADP1DETAIL
100
AcDbPolyline
 90
        2
 70
     0
 43
0.0
 10
7.285120215465273
 20
0.2337805565186173
 10
7.255222945245376
 20
0.2198392304571515
  0
LWPOLYLINE
  5
3F6
330
18
100
AcDbEntity
  8
ADP1DETAIL
100
AcDbPolyline
 90
        2
 70
     0
 43
0.0
 10
7.285120215465273
 20
0.2337805565186155
 10
7.255222945245378
 20
0.219839230457151
  0
LWPOLYLINE
  5
3FA
330
18
100
AcDbEntity
  8
ADP1DETAIL
100
AcDbPolyline
 90
        2
 70
     0
 43
0.0
 10
7.25240137698138
 20
0.219137586885902
 10
7.238677836729683
 20
0.2491354498416749
  0
LWPOLYLINE
  5
3FE
330
18
100
AcDbEntity
  8
ADP1DETAIL
100
AcDbPolyline
 90
        2
 70
     0
 43
0.0
 10
7.426327035032207
 20
0.138613416893794
 10
7.419891397870053
 20
0.1709675497560812
  0
LWPOLYLINE
  5
402
330
18
100
AcDbEntity
  8
ADP1DETAIL
100
AcDbPolyline
 90
        2
 70
     0
 43
0.0
 10
7.419442052878652
 20
0.1712469704275916
 10
7.387578103507363
 20
0.1627090509258902
  0
LWPOLYLINE
  5
406
330
18
100
AcDbEntity
  8
ADP1DETAIL
100
AcDbPolyline
 90
        2
 70
     0
 43
0.0
 10
7.419442052878652
 20
0.1712469704275912
 10
7.387578103507365
 20
0.1627090509258893
  0
LWPOLYLINE
  5
40A
330
18
100
AcDbEntity
  8
ADP1DETAIL
100
AcDbPolyline
 90
        2
 70
     0
 43
0.0
 10
7.375906755837398
 20
0.1946860437010805
 10
7.344593151093979
 20
0.1843098451232619
  0
LWPOLYLINE
  5
40E
330
18
100
AcDbEntity
  8
ADP1DETAIL
100
AcDbPolyline
 90
        2
 70
     0
 43
0.0
 10
7.384677562077808
 20
0.1625080270842782
 10
7.376371587475333
 20
0.194433222852767
  0
LWPOLYLINE
  5
412
330
18
100
AcDbEntity
  8
ADP1DETAIL
100
AcDbPolyline
 90
        2
 70
     0
 43
0.0
 10
7.331082252723048
 20
0.2155541093742905
 10
7.300424947933857
 20
0.2033747414918356
  0
LWPOLYLINE
  5
416
330
18
100
AcDbEntity
  8
ADP1DETAIL
100
AcDbPolyline
 90
        2
 70
     0
 43
0.0
 10
7.341709205418325
 20
0.1839405098970048
 10
7.331560998164389
 20
0.2153287438148999
  0
LWPOLYLINE
  5
41A
330
18
100
AcDbEntity
  8
ADP1DETAIL
100
AcDbPolyline
 90
        2
 70
     0
 43
0.0
 10
7.285120215465273
 20
0.2337805565186168
 10
7.255222945245376
 20
0.2198392304571519
  0
LWPOLYLINE
  5
41E
330
18
100
AcDbEntity
  8
ADP1DETAIL
100
AcDbPolyline
 90
        2
 70
     0
 43
0.0
 10
7.297567356371382
 20
0.2028383445944279
 10
7.28561125478699
 20
0.2335834088138631
  0
LWPOLYLINE
  5
422
330
18
100
AcDbEntity
  8
ADP1DETAIL
100
AcDbPolyline
 90
        2
 70
     0
 43
0.0
 10
7.419442052878652
 20
0.1712469704275912
 10
7.387578103507363
 20
0.1627090509258897
  0
LWPOLYLINE
  5
426
330
18
100
AcDbEntity
  8
ADP1DETAIL
100
AcDbPolyline
 90
        2
 70
     0
 43
0.0
 10
7.426327035032207
 20
0.1386134168937936
 10
7.419891397870053
 20
0.1709675497560816
  0
LWPOLYLINE
  5
42A
330
18
100
AcDbEntity
  8
ADP1DETAIL
100
AcDbPolyline
 90
        2
 70
     0
 43
0.0
 10
7.159611284894838
 20
0.2437286677742296
 10
7.142497998984771
 20
0.2719304901322563
  0
LWPOLYLINE
  5
42E
330
18
100
AcDbEntity
  8
ADP1DETAIL
100
AcDbPolyline
 90
        2
 70
     0
 43
0.0
 10
7.141980185314046
 20
0.2720393746370084
 10
7.114958007672424
 20
0.2531182421535059
  0
LWPOLYLINE
  5
432
330
18
100
AcDbEntity
  8
ADP1DETAIL
100
AcDbPolyline
 90
        2
 70
     0
 43
0.0
 10
7.141980185314045
 20
0.2720393746370076
 10
7.114958007672425
 20
0.253118242153505
  0
LWPOLYLINE
  5
436
330
18
100
AcDbEntity
  8
ADP1DETAIL
100
AcDbPolyline
 90
        2
 70
     0
 43
0.0
 10
7.190408945281694
 20
0.2620710521910796
 10
7.162332318876764
 20
0.2447531311648277
  0
LWPOLYLINE
  5
43A
330
18
100
AcDbEntity
  8
ADP1DETAIL
100
AcDbPolyline
 90
        2
 70
     0
 43
0.0
 10
7.141980185314046
 20
0.2720393746370076
 10
7.114958007672425
 20
0.2531182421535054
  0
LWPOLYLINE
  5
43E
330
18
100
AcDbEntity
  8
ADP1DETAIL
100
AcDbPolyline
 90
        2
 70
     0
 43
0.0
 10
7.159611284894838
 20
0.2437286677742296
 10
7.142497998984771
 20
0.2719304901322568
  0
LWPOLYLINE
  5
442
330
18
100
AcDbEntity
  8
ADP1DETAIL
100
AcDbPolyline
 90
        2
 70
     0
 43
0.0
 10
7.206364094625621
 20
0.2327830852949133
 10
7.190919551822743
 20
0.2619322437143858
  0
LWPOLYLINE
  5
446
330
18
100
AcDbEntity
  8
ADP1DETAIL
100
AcDbPolyline
 90
        2
 70
     0
 43
0.0
 10
7.730757220282223
 20
-0.1396810486023816
 10
7.698893270910934
 20
-0.1311431291006773
  0
LWPOLYLINE
  5
44A
330
18
100
AcDbEntity
  8
ADP1DETAIL
100
AcDbPolyline
 90
        2
 70
     0
 43
0.0
 10
7.730757220282223
 20
-0.1396810486023816
 10
7.698893270910936
 20
-0.1311431291006788
  0
LWPOLYLINE
  5
44E
330
18
100
AcDbEntity
  8
ADP1DETAIL
100
AcDbPolyline
 90
        2
 70
     0
 43
0.0
 10
7.704774083719939
 20
-0.0976145671857487
 10
7.672467607239164
 20
-0.0909438163771419
  0
LWPOLYLINE
  5
452
330
18
100
AcDbEntity
  8
ADP1DETAIL
100
AcDbPolyline
 90
        2
 70
     0
 43
0.0
 10
7.696280816427403
 20
-0.1298669501395016
 10
7.705050229302718
 20
-0.0980659322819617
  0
LWPOLYLINE
  5
456
330
18
100
AcDbEntity
  8
ADP1DETAIL
100
AcDbPolyline
 90
        2
 70
     0
 43
0.0
 10
7.676388958147503
 20
-0.0571300406277313
 10
7.643749269447274
 20
-0.0523490302213785
  0
LWPOLYLINE
  5
45A
330
18
100
AcDbEntity
  8
ADP1DETAIL
100
AcDbPolyline
 90
        2
 70
     0
 43
0.0
 10
7.669785369407787
 20
-0.0898216972277661
 10
7.676690881081954
 20
-0.0575645856479721
  0
LWPOLYLINE
  5
45E
330
18
100
AcDbEntity
  8
ADP1DETAIL
100
AcDbPolyline
 90
        2
 70
     0
 43
0.0
 10
7.730757220282225
 20
-0.1396810486023816
 10
7.698893270910938
 20
-0.1311431291006764
  0
LWPOLYLINE
  5
462
330
18
100
AcDbEntity
  8
ADP1DETAIL
100
AcDbPolyline
 90
        2
 70
     0
 43
0.0
 10
7.641006324111828
 20
-0.0513847677798089
 10
7.646024568519234
 20
-0.0187807103326003
  0
LWPOLYLINE
  5
466
330
18
100
AcDbEntity
  8
ADP1DETAIL
100
AcDbPolyline
 90
        2
 70
     0
 43
0.0
 10
7.641006324111828
 20
-0.0513847677798076
 10
7.646024568519234
 20
-0.0187807103325968
  0
LWPOLYLINE
  5
46A
330
18
100
AcDbEntity
  8
ADP1DETAIL
100
AcDbPolyline
 90
        2
 70
     0
 43
0.0
 10
7.612804727671777
 20
0.0185510169758079
 10
7.579830695439417
 20
0.0195104633228103
  0
LWPOLYLINE
  5
46E
330
18
100
AcDbEntity
  8
ADP1DETAIL
100
AcDbPolyline
 90
        2
 70
     0
 43
0.0
 10
7.576994352882239
 20
0.0201497692494299
 10
7.578193565674848
 20
0.0531159523410687
  0
LWPOLYLINE
  5
472
330
18
100
AcDbEntity
  8
ADP1DETAIL
100
AcDbPolyline
 90
        2
 70
     0
 43
0.0
 10
7.645697889844747
 20
-0.0183644557511249
 10
7.612835431299775
 20
-0.0154893631728479
  0
LWPOLYLINE
  5
476
330
18
100
AcDbEntity
  8
ADP1DETAIL
100
AcDbPolyline
 90
        2
 70
     0
 43
0.0
 10
7.645697889844745
 20
-0.0183644557511258
 10
7.612835431299776
 20
-0.0154893631728492
  0
LWPOLYLINE
  5
47A
330
18
100
AcDbEntity
  8
ADP1DETAIL
100
AcDbPolyline
 90
        2
 70
     0
 43
0.0
 10
7.645697889844747
 20
-0.0183644557511231
 10
7.612835431299775
 20
-0.0154893631728457
  0
LWPOLYLINE
  5
47E
330
18
100
AcDbEntity
  8
ADP1DETAIL
100
AcDbPolyline
 90
        2
 70
     0
 43
0.0
 10
7.610041059719018
 20
-0.0146862201979534
 10
7.613155056709077
 20
0.0181544613068385
  0
LWPOLYLINE
  5
482
330
18
100
AcDbEntity
  8
ADP1DETAIL
100
AcDbPolyline
 90
        2
 70
     0
 43
0.0
 10
7.541978023196739
 20
0.0530053266011286
 10
7.541258394035407
 20
0.0859854641512308
  0
LWPOLYLINE
  5
486
330
18
100
AcDbEntity
  8
ADP1DETAIL
100
AcDbPolyline
 90
        2
 70
     0
 43
0.0
 10
7.540864396494509
 20
0.0863386677337861
 10
7.508001937949538
 20
0.0834635751555117
  0
LWPOLYLINE
  5
48A
330
18
100
AcDbEntity
  8
ADP1DETAIL
100
AcDbPolyline
 90
        2
 70
     0
 43
0.0
 10
7.540864396494509
 20
0.0863386677337861
 10
7.50800193794954
 20
0.0834635751555109
  0
LWPOLYLINE
  5
48E
330
18
100
AcDbEntity
  8
ADP1DETAIL
100
AcDbPolyline
 90
        2
 70
     0
 43
0.0
 10
7.502060650798735
 20
0.1169814738123414
 10
7.469420962098508
 20
0.1122004634059888
  0
LWPOLYLINE
  5
492
330
18
100
AcDbEntity
  8
ADP1DETAIL
100
AcDbPolyline
 90
        2
 70
     0
 43
0.0
 10
7.505110554838015
 20
0.0837692790512423
 10
7.502474518720033
 20
0.1166517767139501
  0
LWPOLYLINE
  5
496
330
18
100
AcDbEntity
  8
ADP1DETAIL
100
AcDbPolyline
 90
        2
 70
     0
 43
0.0
 10
7.466516695648872
 20
0.1123375311227783
 10
7.461973172086045
 20
0.1450111249347143
  0
LWPOLYLINE
  5
49A
330
18
100
AcDbEntity
  8
ADP1DETAIL
100
AcDbPolyline
 90
        2
 70
     0
 43
0.0
 10
7.540864396494509
 20
0.086338667733783
 10
7.508001937949538
 20
0.0834635751555091
  0
LWPOLYLINE
  5
49E
330
18
100
AcDbEntity
  8
ADP1DETAIL
100
AcDbPolyline
 90
        2
 70
     0
 43
0.0
 10
7.541978023196739
 20
0.0530053266011263
 10
7.541258394035407
 20
0.0859854641512286
  0
LWPOLYLINE
  5
4A2
330
18
100
AcDbEntity
  8
ADP1DETAIL
100
AcDbPolyline
 90
        2
 70
     0
 43
0.0
 10
7.577820771677307
 20
0.0534914672786706
 10
7.544846739444947
 20
0.0525320209316691
  0
LINE
  5
4A6
330
18
100
AcDbEntity
  8
ADP1DETAIL
100
AcDbLine
 10
8.006033005788451
 20
0.2801170138731631
 30
0.0
 11
7.943533005788451
 21
0.2176170138731631
 31
0.0
  0
LINE
  5
4A7
330
18
100
AcDbEntity
  8
ADP1DETAIL
100
AcDbLine
 10
12.94353300578845
 20
0.2176170138731631
 30
0.0
 11
12.94353300578845
 21
-1.248630418079863
 31
0.0
  0
LINE
  5
4A8
330
18
100
AcDbEntity
  8
ADP1DETAIL
100
AcDbLine
 10
12.88103300578845
 20
0.2801170138731631
 30
0.0
 11
12.88103300578845
 21
-1.311130418079863
 31
0.0
  0
LINE
  5
4A9
330
18
100
AcDbEntity
  8
ADP1DETAIL
100
AcDbLine
 10
12.94353300578845
 20
-1.248630418079863
 30
0.0
 11
12.88103300578845
 21
-1.311130418079863
 31
0.0
  0
LINE
  5
4AA
330
18
100
AcDbEntity
  8
ADP1DETAIL
100
AcDbLine
 10
12.88103300578845
 20
0.2801170138731631
 30
0.0
 11
12.94353300578845
 21
0.2176170138731631
 31
0.0
  0
TEXT
  5
4B8
330
18
100
AcDbEntity
  8
ADPDIM
100
AcDbText
 10
3.15045332991732
 20
-2.302082200593499
 30
0.0
 40
0.125
  1
J U L I U S  B L U M  &  C O . ,  I N C .      ( 8 0 0 )  5 2 6 - 6 2 9 3        W W W . J U L I U S B L U M . C O M        P A R T  N o .  7 2 6 3
 41
1.25
  7
ARIAL_WIDE
 72
     1
 11
9.676182354473937
 21
-2.177082200593499
 31
0.0
100
AcDbText
 73
     3
  0
ENDSEC
  0
SECTION
  2
OBJECTS
  0
DICTIONARY
  5
C
330
0
100
AcDbDictionary
  3
ACAD_GROUP
350
D
  3
ACAD_LAYOUT
350
4B1
  3
ACAD_MLINESTYLE
350
E
  3
ACAD_PLOTSETTINGS
350
4B2
  3
ACAD_PLOTSTYLENAME
350
4AF
  3
ACDBHEADERROUNDTRIPXREC
350
5FC
  3
ACDBVARIABLEDICTIONARY
350
512
  0
DICTIONARY
  5
50C
330
18
100
AcDbDictionary
280
     1
  3
ACAD_LAYOUTSELFREF
360
61D
  0
DICTIONARY
  5
50A
330
15
100
AcDbDictionary
280
     1
  3
ACAD_LAYOUTSELFREF
360
61C
  0
DICTIONARY
  5
D
102
{ACAD_REACTORS
330
C
102
}
330
C
100
AcDbDictionary
  0
DICTIONARY
  5
4B1
102
{ACAD_REACTORS
330
C
102
}
330
C
100
AcDbDictionary
  0
DICTIONARY
  5
E
102
{ACAD_REACTORS
330
C
102
}
330
C
100
AcDbDictionary
  3
STANDARD
350
1B
  0
DICTIONARY
  5
4B2
102
{ACAD_REACTORS
330
C
102
}
330
C
100
AcDbDictionary
  0
ACDBDICTIONARYWDFLT
  5
4AF
102
{ACAD_REACTORS
330
C
102
}
330
C
100
AcDbDictionary
281
     1
  3
Normal
350
4B0
100
AcDbDictionaryWithDefault
340
4B0
  0
DICTIONARY
  5
5FC
102
{ACAD_REACTORS
330
C
102
}
330
C
100
AcDbDictionary
  3
CEPSNTYPE
350
606
  3
FINGERPRINTGUID
350
607
  3
HYPERLINKBASE
350
5FF
  3
INSUNITS
350
605
  3
LAYOUTDICT
350
601
  3
LWETCUNION
350
604
  3
PLOTSETDICT
350
602
  3
PLOTSTYLNAMDICT
350
603
  3
PSVPSCALE
350
609
  3
PUCSBASE
350
60C
  3
PUCSORGBACK
350
612
  3
PUCSORGBOTTOM
350
60E
  3
PUCSORGFRONT
350
611
  3
PUCSORGLEFT
350
60F
  3
PUCSORGRIGHT
350
610
  3
PUCSORGTOP
350
60D
  3
PUCSORTHOREF
350
60A
  3
PUCSORTHOVIEW
350
60B
  3
STYLESHEET
350
600
  3
TSTACKALIGN
350
5FD
  3
TSTACKSIZE
350
5FE
  3
UCSBASE
350
615
  3
UCSORGBACK
350
61B
  3
UCSORGBOTTOM
350
617
  3
UCSORGFRONT
350
61A
  3
UCSORGLEFT
350
618
  3
UCSORGRIGHT
350
619
  3
UCSORGTOP
350
616
  3
UCSORTHOREF
350
613
  3
UCSORTHOVIEW
350
614
  3
VERSIONGUID
350
608
  0
DICTIONARY
  5
512
102
{ACAD_REACTORS
330
C
102
}
330
C
100
AcDbDictionary
  3
DIMASSOC
350
513
  0
XRECORD
  5
61D
102
{ACAD_REACTORS
330
50C
102
}
330
50C
100
AcDbXrecord
340
18
  0
XRECORD
  5
61C
102
{ACAD_REACTORS
330
50A
102
}
330
50A
100
AcDbXrecord
340
15
  0
MLINESTYLE
  5
1B
102
{ACAD_REACTORS
330
E
102
}
330
E
100
AcDbMlineStyle
  2
STANDARD
 70
     0
  3

 62
     0
 51
90.0
 52
90.0
 71
     2
 49
0.5
 62
   256
  6
BYLAYER
 49
-0.5
 62
   256
  6
BYLAYER
  0
ACDBPLACEHOLDER
  5
4B0
102
{ACAD_REACTORS
330
4AF
102
}
330
4AF
100
AcDbPlaceHolder
280
     0
  0
XRECORD
  5
606
102
{ACAD_REACTORS
330
5FC
102
}
330
5FC
100
AcDbXrecord
 90
        0
  0
XRECORD
  5
607
102
{ACAD_REACTORS
330
5FC
102
}
330
5FC
100
AcDbXrecord
  1
{88DF56F9-7717-4535-8743-E43F7A520EE5}
  0
XRECORD
  5
5FF
102
{ACAD_REACTORS
330
5FC
102
}
330
5FC
100
AcDbXrecord
  1

  0
XRECORD
  5
605
102
{ACAD_REACTORS
330
5FC
102
}
330
5FC
100
AcDbXrecord
 90
        0
  0
XRECORD
  5
601
102
{ACAD_REACTORS
330
5FC
102
}
330
5FC
100
AcDbXrecord
340
4B1
  0
XRECORD
  5
604
102
{ACAD_REACTORS
330
5FC
102
}
330
5FC
100
AcDbXrecord
 90
    14877
  0
XRECORD
  5
602
102
{ACAD_REACTORS
330
5FC
102
}
330
5FC
100
AcDbXrecord
340
4B2
  0
XRECORD
  5
603
102
{ACAD_REACTORS
330
5FC
102
}
330
5FC
100
AcDbXrecord
340
4AF
  0
XRECORD
  5
609
102
{ACAD_REACTORS
330
5FC
102
}
330
5FC
100
AcDbXrecord
 40
0.0
  0
XRECORD
  5
60C
102
{ACAD_REACTORS
330
5FC
102
}
330
5FC
100
AcDbXrecord
340
0
  0
XRECORD
  5
612
102
{ACAD_REACTORS
330
5FC
102
}
330
5FC
100
AcDbXrecord
 10
0.0
 20
0.0
 30
0.0
  0
XRECORD
  5
60E
102
{ACAD_REACTORS
330
5FC
102
}
330
5FC
100
AcDbXrecord
 10
0.0
 20
0.0
 30
0.0
  0
XRECORD
  5
611
102
{ACAD_REACTORS
330
5FC
102
}
330
5FC
100
AcDbXrecord
 10
0.0
 20
0.0
 30
0.0
  0
XRECORD
  5
60F
102
{ACAD_REACTORS
330
5FC
102
}
330
5FC
100
AcDbXrecord
 10
0.0
 20
0.0
 30
0.0
  0
XRECORD
  5
610
102
{ACAD_REACTORS
330
5FC
102
}
330
5FC
100
AcDbXrecord
 10
0.0
 20
0.0
 30
0.0
  0
XRECORD
  5
60D
102
{ACAD_REACTORS
330
5FC
102
}
330
5FC
100
AcDbXrecord
 10
0.0
 20
0.0
 30
0.0
  0
XRECORD
  5
60A
102
{ACAD_REACTORS
330
5FC
102
}
330
5FC
100
AcDbXrecord
340
0
  0
XRECORD
  5
60B
102
{ACAD_REACTORS
330
5FC
102
}
330
5FC
100
AcDbXrecord
 70
     0
  0
XRECORD
  5
600
102
{ACAD_REACTORS
330
5FC
102
}
330
5FC
100
AcDbXrecord
  1

  0
XRECORD
  5
5FD
102
{ACAD_REACTORS
330
5FC
102
}
330
5FC
100
AcDbXrecord
 90
        1
  0
XRECORD
  5
5FE
102
{ACAD_REACTORS
330
5FC
102
}
330
5FC
100
AcDbXrecord
 90
       70
  0
XRECORD
  5
615
102
{ACAD_REACTORS
330
5FC
102
}
330
5FC
100
AcDbXrecord
340
0
  0
XRECORD
  5
61B
102
{ACAD_REACTORS
330
5FC
102
}
330
5FC
100
AcDbXrecord
 10
0.0
 20
0.0
 30
0.0
  0
XRECORD
  5
617
102
{ACAD_REACTORS
330
5FC
102
}
330
5FC
100
AcDbXrecord
 10
0.0
 20
0.0
 30
0.0
  0
XRECORD
  5
61A
102
{ACAD_REACTORS
330
5FC
102
}
330
5FC
100
AcDbXrecord
 10
0.0
 20
0.0
 30
0.0
  0
XRECORD
  5
618
102
{ACAD_REACTORS
330
5FC
102
}
330
5FC
100
AcDbXrecord
 10
0.0
 20
0.0
 30
0.0
  0
XRECORD
  5
619
102
{ACAD_REACTORS
330
5FC
102
}
330
5FC
100
AcDbXrecord
 10
0.0
 20
0.0
 30
0.0
  0
XRECORD
  5
616
102
{ACAD_REACTORS
330
5FC
102
}
330
5FC
100
AcDbXrecord
 10
0.0
 20
0.0
 30
0.0
  0
XRECORD
  5
613
102
{ACAD_REACTORS
330
5FC
102
}
330
5FC
100
AcDbXrecord
340
0
  0
XRECORD
  5
614
102
{ACAD_REACTORS
330
5FC
102
}
330
5FC
100
AcDbXrecord
 70
     0
  0
XRECORD
  5
608
102
{ACAD_REACTORS
330
5FC
102
}
330
5FC
100
AcDbXrecord
  1
{D1C2CAEF-A57F-450C-AE4E-5B56DF35E1AE}
  0
DICTIONARYVAR
  5
513
102
{ACAD_REACTORS
330
512
102
}
330
512
100
DictionaryVariables
280
     0
  1
1
  0
ENDSEC
  0
EOF
