  0
SECTION
  2
HEADER
  9
$ACADVER
  1
AC1014
  9
$ACADMAINTVER
 70
     9
  9
$DWGCODEPAGE
  3
ANSI_1252
  9
$INSBASE
 10
1.153058621593157
 20
0.0633374846484658
 30
0.0
  9
$EXTMIN
 10
-3.596092422292551
 20
-0.9559514717864017
 30
0.0
  9
$EXTMAX
 10
9.455365626820681
 20
2.021993296943757
 30
0.0
  9
$LIMMIN
 10
0.0
 20
0.0
  9
$LIMMAX
 10
36.0
 20
36.0
  9
$ORTHOMODE
 70
     1
  9
$REGENMODE
 70
     1
  9
$FILLMODE
 70
     1
  9
$QTEXTMODE
 70
     0
  9
$MIRRTEXT
 70
     1
  9
$DRAGMODE
 70
     0
  9
$LTSCALE
 40
1.0
  9
$OSMODE
 70
    37
  9
$ATTMODE
 70
     1
  9
$TEXTSIZE
 40
0.125
  9
$TRACEWID
 40
0.05
  9
$TEXTSTYLE
  7
STANDARD
  9
$CLAYER
  8
ADPDIM
  9
$CELTYPE
  6
BYLAYER
  9
$CECOLOR
 62
   256
  9
$CELTSCALE
 40
1.0
  9
$DELOBJ
 70
     1
  9
$DISPSILH
 70
     0
  9
$DIMSCALE
 40
1.0
  9
$DIMASZ
 40
0.125
  9
$DIMEXO
 40
0.0625
  9
$DIMDLI
 40
0.38
  9
$DIMRND
 40
0.0
  9
$DIMDLE
 40
0.0
  9
$DIMEXE
 40
0.18
  9
$DIMTP
 40
0.0
  9
$DIMTM
 40
0.0
  9
$DIMTXT
 40
0.125
  9
$DIMCEN
 40
0.1875
  9
$DIMTSZ
 40
0.125
  9
$DIMTOL
 70
     0
  9
$DIMLIM
 70
     0
  9
$DIMTIH
 70
     0
  9
$DIMTOH
 70
     0
  9
$DIMSE1
 70
     0
  9
$DIMSE2
 70
     0
  9
$DIMTAD
 70
     0
  9
$DIMZIN
 70
     3
  9
$DIMBLK
  1

  9
$DIMASO
 70
     1
  9
$DIMSHO
 70
     1
  9
$DIMPOST
  1

  9
$DIMAPOST
  1

  9
$DIMALT
 70
     0
  9
$DIMALTD
 70
     1
  9
$DIMALTF
 40
25.4
  9
$DIMLFAC
 40
1.0
  9
$DIMTOFL
 70
     0
  9
$DIMTVP
 40
0.0
  9
$DIMTIX
 70
     0
  9
$DIMSOXD
 70
     0
  9
$DIMSAH
 70
     0
  9
$DIMBLK1
  1

  9
$DIMBLK2
  1

  9
$DIMSTYLE
  2
ADPDIM
  9
$DIMCLRD
 70
     0
  9
$DIMCLRE
 70
     0
  9
$DIMCLRT
 70
     0
  9
$DIMTFAC
 40
1.0
  9
$DIMGAP
 40
0.125
  9
$DIMJUST
 70
     0
  9
$DIMSD1
 70
     0
  9
$DIMSD2
 70
     0
  9
$DIMTOLJ
 70
     1
  9
$DIMTZIN
 70
     0
  9
$DIMALTZ
 70
     0
  9
$DIMALTTZ
 70
     0
  9
$DIMFIT
 70
     3
  9
$DIMUPT
 70
     0
  9
$DIMUNIT
 70
     2
  9
$DIMDEC
 70
     4
  9
$DIMTDEC
 70
     4
  9
$DIMALTU
 70
     2
  9
$DIMALTTD
 70
     2
  9
$DIMTXSTY
  7
STANDARD
  9
$DIMAUNIT
 70
     0
  9
$LUNITS
 70
     5
  9
$LUPREC
 70
     4
  9
$SKETCHINC
 40
0.1
  9
$FILLETRAD
 40
0.01
  9
$AUNITS
 70
     0
  9
$AUPREC
 70
     0
  9
$MENU
  1
acad
  9
$ELEVATION
 40
0.0
  9
$PELEVATION
 40
0.0
  9
$THICKNESS
 40
0.0
  9
$LIMCHECK
 70
     0
  9
$BLIPMODE
 70
     0
  9
$CHAMFERA
 40
0.0
  9
$CHAMFERB
 40
0.0
  9
$CHAMFERC
 40
0.0
  9
$CHAMFERD
 40
0.0
  9
$SKPOLY
 70
     0
  9
$TDCREATE
 40
2450213.484269282
  9
$TDUPDATE
 40
2452297.100438368
  9
$TDINDWG
 40
0.0191494907
  9
$TDUSRTIMER
 40
0.0191494907
  9
$USRTIMER
 70
     1
  9
$ANGBASE
 50
0.0
  9
$ANGDIR
 70
     0
  9
$PDMODE
 70
     0
  9
$PDSIZE
 40
0.0
  9
$PLINEWID
 40
0.0
  9
$COORDS
 70
     2
  9
$SPLFRAME
 70
     0
  9
$SPLINETYPE
 70
     6
  9
$SPLINESEGS
 70
     8
  9
$ATTDIA
 70
     0
  9
$ATTREQ
 70
     1
  9
$HANDLING
 70
 22529
  9
$HANDSEED
  5
21B
  9
$SURFTAB1
 70
     6
  9
$SURFTAB2
 70
     6
  9
$SURFTYPE
 70
     6
  9
$SURFU
 70
     6
  9
$SURFV
 70
     6
  9
$UCSNAME
  2

  9
$UCSORG
 10
0.0
 20
0.0
 30
0.0
  9
$UCSXDIR
 10
1.0
 20
0.0
 30
0.0
  9
$UCSYDIR
 10
0.0
 20
1.0
 30
0.0
  9
$PUCSNAME
  2

  9
$PUCSORG
 10
0.0
 20
0.0
 30
0.0
  9
$PUCSXDIR
 10
1.0
 20
0.0
 30
0.0
  9
$PUCSYDIR
 10
0.0
 20
1.0
 30
0.0
  9
$USERI1
 70
     0
  9
$USERI2
 70
     0
  9
$USERI3
 70
     0
  9
$USERI4
 70
     0
  9
$USERI5
 70
     0
  9
$USERR1
 40
0.0
  9
$USERR2
 40
0.0
  9
$USERR3
 40
0.0
  9
$USERR4
 40
0.0
  9
$USERR5
 40
0.0
  9
$WORLDVIEW
 70
     1
  9
$SHADEDGE
 70
     3
  9
$SHADEDIF
 70
    70
  9
$TILEMODE
 70
     1
  9
$MAXACTVP
 70
    15
  9
$PINSBASE
 10
0.0004882947541773
 20
1.000276130627782
 30
0.0
  9
$PLIMCHECK
 70
     0
  9
$PEXTMIN
 10
1.000000000000000E+20
 20
1.000000000000000E+20
 30
1.000000000000000E+20
  9
$PEXTMAX
 10
-1.000000000000000E+20
 20
-1.000000000000000E+20
 30
-1.000000000000000E+20
  9
$PLIMMIN
 10
0.0
 20
0.0
  9
$PLIMMAX
 10
12.0
 20
9.0
  9
$UNITMODE
 70
     0
  9
$VISRETAIN
 70
     0
  9
$PLINEGEN
 70
     0
  9
$PSLTSCALE
 70
     1
  9
$TREEDEPTH
 70
  3020
  9
$PICKSTYLE
 70
     1
  9
$CMLSTYLE
  2
STANDARD
  9
$CMLJUST
 70
     0
  9
$CMLSCALE
 40
1.0
  9
$PROXYGRAPHICS
 70
     1
  9
$MEASUREMENT
 70
     0
  0
ENDSEC
  0
SECTION
  2
CLASSES
  0
CLASS
  1
ACDBDICTIONARYWDFLT
  2
AcDbDictionaryWithDefault
  3
AutoCAD 2000
 90
        0
280
     0
281
     0
  0
CLASS
  1
ACDBPLACEHOLDER
  2
AcDbPlaceHolder
  3
AutoCAD 2000
 90
        0
280
     0
281
     0
  0
CLASS
  1
LAYOUT
  2
AcDbLayout
  3
AutoCAD 2000
 90
        0
280
     0
281
     0
  0
CLASS
  1
DICTIONARYVAR
  2
AcDbDictionaryVar
  3
AutoCAD 2000
 90
        0
280
     0
281
     0
  0
CLASS
  1
LONG_TRANSACTION
  2
AcDbLongTransaction
  3
AutoCAD 2000
 90
        0
280
     0
281
     0
  0
CLASS
  1
LWPOLYLINE
  2
AcDbPolyline
  3
AutoCAD 2000
 90
        0
280
     0
281
     1
  0
CLASS
  1
HATCH
  2
AcDbHatch
  3
AutoCAD 2000
 90
        0
280
     0
281
     1
  0
CLASS
  1
XRECORD
  2
AcDbXrecord
  3
AutoCAD 2000
 90
        0
280
     0
281
     0
  0
CLASS
  1
LONG_TRANSACTION
  2
AcDbLongTransaction
  3
AutoCAD 2000
 90
        0
280
     0
281
     0
  0
CLASS
  1
LWPOLYLINE
  2
AcDbPolyline
  3
AutoCAD 2000
 90
        0
280
     0
281
     1
  0
CLASS
  1
HATCH
  2
AcDbHatch
  3
AutoCAD 2000
 90
        0
280
     0
281
     1
  0
CLASS
  1
XRECORD
  2
AcDbXrecord
  3
AutoCAD 2000
 90
        0
280
     0
281
     0
  0
CLASS
  1
LONG_TRANSACTION
  2
AcDbLongTransaction
  3
AutoCAD 2000
 90
        0
280
     0
281
     0
  0
CLASS
  1
LWPOLYLINE
  2
AcDbPolyline
  3
AutoCAD 2000
 90
        0
280
     0
281
     1
  0
CLASS
  1
HATCH
  2
AcDbHatch
  3
AutoCAD 2000
 90
        0
280
     0
281
     1
  0
CLASS
  1
XRECORD
  2
AcDbXrecord
  3
AutoCAD 2000
 90
        0
280
     0
281
     0
  0
CLASS
  1
LONG_TRANSACTION
  2
AcDbLongTransaction
  3
AutoCAD 2000
 90
        0
280
     0
281
     0
  0
CLASS
  1
LWPOLYLINE
  2
AcDbPolyline
  3
AutoCAD 2000
 90
        0
280
     0
281
     1
  0
CLASS
  1
HATCH
  2
AcDbHatch
  3
AutoCAD 2000
 90
        0
280
     0
281
     1
  0
CLASS
  1
XRECORD
  2
AcDbXrecord
  3
AutoCAD 2000
 90
        0
280
     0
281
     0
  0
CLASS
  1
LONG_TRANSACTION
  2
AcDbLongTransaction
  3
AutoCAD 2000
 90
        0
280
     0
281
     0
  0
CLASS
  1
LWPOLYLINE
  2
AcDbPolyline
  3
AutoCAD 2000
 90
        0
280
     0
281
     1
  0
CLASS
  1
HATCH
  2
AcDbHatch
  3
AutoCAD 2000
 90
        0
280
     0
281
     1
  0
CLASS
  1
XRECORD
  2
AcDbXrecord
  3
AutoCAD 2000
 90
        0
280
     0
281
     0
  0
ENDSEC
  0
SECTION
  2
TABLES
  0
TABLE
  2
VPORT
  5
8
330
0
100
AcDbSymbolTable
 70
     2
  0
VPORT
  5
1F8
330
8
100
AcDbSymbolTableRecord
100
AcDbViewportTableRecord
  2
*ACTIVE
 70
     0
 10
0.0
 20
0.0
 11
1.0
 21
1.0
 12
2.940478713698199
 22
0.5334772515682614
 13
0.0
 23
0.0
 14
0.5740882589684922
 24
0.5740882589684922
 15
0.5
 25
0.5
 16
0.0
 26
0.0
 36
1.0
 17
0.0
 27
0.0
 37
0.0
 40
8.36422710550928
 41
1.570528967254408
 42
50.0
 43
0.0
 44
0.0
 50
0.0
 51
0.0
 71
     0
 72
   100
 73
     1
 74
     1
 75
     0
 76
     0
 77
     0
 78
     0
  0
ENDTAB
  0
TABLE
  2
LTYPE
  5
5
330
0
100
AcDbSymbolTable
 70
     2
  0
LTYPE
  5
12
330
5
100
AcDbSymbolTableRecord
100
AcDbLinetypeTableRecord
  2
BYBLOCK
 70
     0
  3

 72
    65
 73
     0
 40
0.0
  0
LTYPE
  5
13
330
5
100
AcDbSymbolTableRecord
100
AcDbLinetypeTableRecord
  2
BYLAYER
 70
     0
  3

 72
    65
 73
     0
 40
0.0
  0
LTYPE
  5
14
330
5
100
AcDbSymbolTableRecord
100
AcDbLinetypeTableRecord
  2
CONTINUOUS
 70
     0
  3
Solid line
 72
    65
 73
     0
 40
0.0
  0
LTYPE
  5
64
330
5
100
AcDbSymbolTableRecord
100
AcDbLinetypeTableRecord
  2
HIDDEN2
 70
     0
  3
_ _ _ _ _ _ _ _ _ _ _ _ _ _ _ _ _ _ _ _ _ _ _ _
 72
    65
 73
     2
 40
0.1875
 49
0.125
 74
     0
 49
-0.0625
 74
     0
  0
ENDTAB
  0
TABLE
  2
LAYER
  5
2
330
0
100
AcDbSymbolTable
 70
     5
  0
LAYER
  5
F
330
2
100
AcDbSymbolTableRecord
100
AcDbLayerTableRecord
  2
0
 70
     0
 62
     7
  6
CONTINUOUS
  0
LAYER
  5
66
330
2
100
AcDbSymbolTableRecord
100
AcDbLayerTableRecord
  2
ADP2DETAIL
 70
     0
 62
     5
  6
CONTINUOUS
  0
LAYER
  5
67
330
2
100
AcDbSymbolTableRecord
100
AcDbLayerTableRecord
  2
ADPDIM
 70
     0
 62
     3
  6
CONTINUOUS
  0
LAYER
  5
69
330
2
100
AcDbSymbolTableRecord
100
AcDbLayerTableRecord
  2
ADP1DETAIL
 70
     0
 62
     7
  6
CONTINUOUS
  0
LAYER
  5
6B
330
2
100
AcDbSymbolTableRecord
100
AcDbLayerTableRecord
  2
DEFPOINTS
 70
     0
 62
     7
  6
CONTINUOUS
  0
ENDTAB
  0
TABLE
  2
STYLE
  5
3
330
0
100
AcDbSymbolTable
 70
     2
  0
STYLE
  5
10
330
3
100
AcDbSymbolTableRecord
100
AcDbTextStyleTableRecord
  2
STANDARD
 70
     0
 40
0.0
 41
1.0
 50
0.0
 71
     0
 42
0.125
  3
txt
  4

  0
STYLE
  5
A5
330
3
100
AcDbSymbolTableRecord
100
AcDbTextStyleTableRecord
  2
ARIAL_WIDE
 70
     0
 40
0.0
 41
1.25
 50
0.0
 71
     0
 42
0.2
  3
ARIAL.TTF
  4

1001
ACAD
1000
Arial
1071
       34
  0
ENDTAB
  0
TABLE
  2
VIEW
  5
6
330
0
100
AcDbSymbolTable
 70
     0
  0
ENDTAB
  0
TABLE
  2
UCS
  5
7
330
0
100
AcDbSymbolTable
 70
     0
  0
ENDTAB
  0
TABLE
  2
APPID
  5
9
330
0
100
AcDbSymbolTable
 70
     1
  0
APPID
  5
11
330
9
100
AcDbSymbolTableRecord
100
AcDbRegAppTableRecord
  2
ACAD
 70
     0
  0
ENDTAB
  0
TABLE
  2
DIMSTYLE
  5
A
330
0
100
AcDbSymbolTable
 70
     1
  0
DIMSTYLE
105
65
102
{ACAD_REACTORS
330
89
330
8A
102
}
330
A
100
AcDbSymbolTableRecord
100
AcDbDimStyleTableRecord
  2
ADPDIM
 70
     0
  3

  4

  5

  6

  7

 40
1.0
 41
0.125
 42
0.0625
 43
0.38
 44
0.18
 45
0.0
 46
0.0
 47
0.0
 48
0.0
140
0.125
141
0.1875
142
0.125
143
25.4
144
1.0
145
0.0
146
1.0
147
0.125
 71
     0
 72
     0
 73
     0
 74
     0
 75
     0
 76
     0
 77
     0
 78
     3
170
     0
171
     1
172
     0
173
     0
174
     0
175
     0
176
     0
177
     0
178
     0
270
     5
271
     4
272
     4
273
     5
274
     1
340
10
275
     0
280
     0
281
     0
282
     0
283
     1
284
     3
285
     3
286
     3
287
     5
288
     0
  0
ENDTAB
  0
TABLE
  2
BLOCK_RECORD
  5
1
330
0
100
AcDbSymbolTable
 70
     2
  0
BLOCK_RECORD
  5
18
102
{ACAD_XDICTIONARY
360
FD
102
}
330
1
100
AcDbSymbolTableRecord
100
AcDbBlockTableRecord
  2
*MODEL_SPACE
  0
BLOCK_RECORD
  5
15
102
{ACAD_XDICTIONARY
360
FB
102
}
330
1
100
AcDbSymbolTableRecord
100
AcDbBlockTableRecord
  2
*PAPER_SPACE
  0
BLOCK_RECORD
  5
4E
330
1
100
AcDbSymbolTableRecord
100
AcDbBlockTableRecord
  2
*D0
  0
BLOCK_RECORD
  5
50
330
1
100
AcDbSymbolTableRecord
100
AcDbBlockTableRecord
  2
*D1
  0
ENDTAB
  0
ENDSEC
  0
SECTION
  2
BLOCKS
  0
BLOCK
  5
6E
330
18
100
AcDbEntity
  8
0
100
AcDbBlockBegin
  2
*MODEL_SPACE
 70
     0
 10
0.0
 20
0.0
 30
0.0
  3
*MODEL_SPACE
  1

  0
ENDBLK
  5
6F
330
18
100
AcDbEntity
  8
0
100
AcDbBlockEnd
  0
BLOCK
  5
6C
330
15
100
AcDbEntity
 67
     1
  8
0
100
AcDbBlockBegin
  2
*PAPER_SPACE
 70
     0
 10
0.0
 20
0.0
 30
0.0
  3
*PAPER_SPACE
  1

  0
ENDBLK
  5
6D
330
15
100
AcDbEntity
 67
     1
  8
0
100
AcDbBlockEnd
  0
BLOCK
  5
71
330
4E
100
AcDbEntity
  8
0
100
AcDbBlockBegin
  2
*D0
 70
     1
 10
0.0
 20
0.0
 30
0.0
  3
*D0
  1

  0
LINE
  5
72
330
4E
100
AcDbEntity
  8
0
  6
BYBLOCK
 62
     0
100
AcDbLine
 10
1.153058621593157
 20
0.0008374846484658
 30
0.0
 11
1.153058621593157
 21
-0.3497845502008304
 31
0.0
  0
LINE
  5
73
330
4E
100
AcDbEntity
  8
0
  6
BYBLOCK
 62
     0
100
AcDbLine
 10
3.153058621593157
 20
0.0008374846484658
 30
0.0
 11
3.153058621593157
 21
-0.3497845502008304
 31
0.0
  0
LINE
  5
74
330
4E
100
AcDbEntity
  8
0
  6
BYBLOCK
 62
     0
100
AcDbLine
 10
1.153058621593157
 20
-0.1697845502008304
 30
0.0
 11
1.98639195492649
 21
-0.1697845502008304
 31
0.0
  0
LINE
  5
75
330
4E
100
AcDbEntity
  8
0
  6
BYBLOCK
 62
     0
100
AcDbLine
 10
3.153058621593157
 20
-0.1697845502008304
 30
0.0
 11
2.319725288259823
 21
-0.1697845502008304
 31
0.0
  0
LINE
  5
76
330
4E
100
AcDbEntity
  8
0
  6
BYBLOCK
 62
     0
100
AcDbLine
 10
1.028058621593157
 20
-0.2947845502008304
 30
0.0
 11
1.278058621593157
 21
-0.0447845502008304
 31
0.0
  0
LINE
  5
77
330
4E
100
AcDbEntity
  8
0
  6
BYBLOCK
 62
     0
100
AcDbLine
 10
3.028058621593157
 20
-0.2947845502008304
 30
0.0
 11
3.278058621593157
 21
-0.0447845502008304
 31
0.0
  0
TEXT
  5
78
330
4E
100
AcDbEntity
  8
0
  6
BYBLOCK
 62
     0
100
AcDbText
 10
2.11139195492649
 20
-0.2322845502008304
 30
0.0
 40
0.125
  1
2
 72
     1
 11
2.153058621593157
 21
-0.1697845502008304
 31
0.0
100
AcDbText
 73
     2
  0
POINT
  5
79
330
4E
100
AcDbEntity
  8
DEFPOINTS
  6
BYBLOCK
 62
     0
100
AcDbPoint
 10
1.153058621593157
 20
0.0633374846484658
 30
0.0
  0
POINT
  5
7A
330
4E
100
AcDbEntity
  8
DEFPOINTS
  6
BYBLOCK
 62
     0
100
AcDbPoint
 10
3.153058621593157
 20
0.0633374846484658
 30
0.0
  0
POINT
  5
7B
330
4E
100
AcDbEntity
  8
DEFPOINTS
  6
BYBLOCK
 62
     0
100
AcDbPoint
 10
3.153058621593157
 20
-0.1697845502008304
 30
0.0
  0
ENDBLK
  5
7C
330
4E
100
AcDbEntity
  8
0
100
AcDbBlockEnd
  0
BLOCK
  5
7D
330
50
100
AcDbEntity
  8
0
100
AcDbBlockBegin
  2
*D1
 70
     1
 10
0.0
 20
0.0
 30
0.0
  3
*D1
  1

  0
LINE
  5
7E
330
50
100
AcDbEntity
  8
0
  6
BYBLOCK
 62
     0
100
AcDbLine
 10
1.090558621593157
 20
0.0633374846484658
 30
0.0
 11
0.7456322686506561
 21
0.0633374846484658
 31
0.0
  0
LINE
  5
7F
330
50
100
AcDbEntity
  8
0
  6
BYBLOCK
 62
     0
100
AcDbLine
 10
1.090558621593157
 20
1.730337484648465
 30
0.0
 11
0.7456322686506561
 21
1.730337484648465
 31
0.0
  0
LINE
  5
80
330
50
100
AcDbEntity
  8
0
  6
BYBLOCK
 62
     0
100
AcDbLine
 10
0.9256322686506559
 20
0.0633374846484658
 30
0.0
 11
0.9256322686506559
 21
0.542670817981799
 31
0.0
  0
LINE
  5
81
330
50
100
AcDbEntity
  8
0
  6
BYBLOCK
 62
     0
100
AcDbLine
 10
0.925632268650656
 20
1.730337484648465
 30
0.0
 11
0.925632268650656
 21
1.251004151315132
 31
0.0
  0
LINE
  5
82
330
50
100
AcDbEntity
  8
0
  6
BYBLOCK
 62
     0
100
AcDbLine
 10
1.050632268650655
 20
-0.0616625153515343
 30
0.0
 11
0.8006322686506559
 21
0.1883374846484658
 31
0.0
  0
LINE
  5
83
330
50
100
AcDbEntity
  8
0
  6
BYBLOCK
 62
     0
100
AcDbLine
 10
1.050632268650655
 20
1.605337484648465
 30
0.0
 11
0.800632268650656
 21
1.855337484648465
 31
0.0
  0
TEXT
  5
84
330
50
100
AcDbEntity
  8
0
  6
BYBLOCK
 62
     0
100
AcDbText
 10
0.9881322686506559
 20
0.667670817981799
 30
0.0
 40
0.125
  1
1.667
 50
90.0
 72
     1
 11
0.9256322686506559
 21
0.8968374846484655
 31
0.0
100
AcDbText
 73
     2
  0
POINT
  5
85
330
50
100
AcDbEntity
  8
DEFPOINTS
  6
BYBLOCK
 62
     0
100
AcDbPoint
 10
1.153058621593157
 20
0.0633374846484658
 30
0.0
  0
POINT
  5
86
330
50
100
AcDbEntity
  8
DEFPOINTS
  6
BYBLOCK
 62
     0
100
AcDbPoint
 10
1.153058621593157
 20
1.730337484648465
 30
0.0
  0
POINT
  5
87
330
50
100
AcDbEntity
  8
DEFPOINTS
  6
BYBLOCK
 62
     0
100
AcDbPoint
 10
0.925632268650656
 20
1.730337484648465
 30
0.0
  0
ENDBLK
  5
88
330
50
100
AcDbEntity
  8
0
100
AcDbBlockEnd
  0
ENDSEC
  0
SECTION
  2
ENTITIES
  0
DIMENSION
  5
89
330
18
100
AcDbEntity
  8
ADPDIM
100
AcDbDimension
  2
*D1
 10
0.925632268650656
 20
1.730337484648465
 30
0.0
 11
0.9256322686506559
 21
0.8968374846484655
 31
0.0
  1
1.667
  3
ADPDIM
100
AcDbAlignedDimension
 13
1.153058621593157
 23
0.0633374846484658
 33
0.0
 14
1.153058621593157
 24
1.730337484648465
 34
0.0
 50
90.0
100
AcDbRotatedDimension
  0
DIMENSION
  5
8A
330
18
100
AcDbEntity
  8
ADPDIM
100
AcDbDimension
  2
*D0
 10
3.153058621593157
 20
-0.1697845502008304
 30
0.0
 11
2.153058621593157
 21
-0.1697845502008304
 31
0.0
  3
ADPDIM
100
AcDbAlignedDimension
 13
1.153058621593157
 23
0.0633374846484658
 33
0.0
 14
3.153058621593157
 24
0.0633374846484658
 34
0.0
100
AcDbRotatedDimension
  0
SOLID
  5
8B
330
18
100
AcDbEntity
  8
ADPDIM
100
AcDbTrace
 10
2.360816295355877
 20
1.20533165560248
 30
0.0
 11
2.325875473767491
 21
1.228030776683256
 31
0.0
 12
2.275248521319356
 22
1.111858751377712
 32
0.0
 13
2.275248521319356
 23
1.111858751377712
 33
0.0
  0
LINE
  5
8C
330
18
100
AcDbEntity
  8
ADP2DETAIL
  6
HIDDEN2
100
AcDbLine
 10
4.599587398499407
 20
1.146837484648465
 30
0.0
 11
4.599587398499407
 21
0.6468374846484659
 31
0.0
  0
CIRCLE
  5
8D
330
18
100
AcDbEntity
  8
ADP1DETAIL
100
AcDbCircle
 10
4.599587398499407
 20
0.8968374846484657
 30
0.0
 40
0.8334999999999999
  0
CIRCLE
  5
8E
330
18
100
AcDbEntity
  8
ADP1DETAIL
100
AcDbCircle
 10
2.153058621593157
 20
0.8968374846484657
 30
0.0
 40
0.25
  0
LWPOLYLINE
  5
8F
330
18
100
AcDbEntity
  8
ADP1DETAIL
100
AcDbPolyline
 90
        4
 70
     1
 43
0.0
 10
1.153058621593157
 20
0.0633374846484658
 10
1.153058621593157
 20
1.730337484648465
 10
3.153058621593157
 20
1.730337484648465
 10
3.153058621593157
 20
0.0633374846484658
  0
LINE
  5
95
330
18
100
AcDbEntity
  8
ADP2DETAIL
  6
HIDDEN2
100
AcDbLine
 10
4.599587398499407
 20
0.6468374846484659
 30
0.0
 11
3.804463351573395
 21
0.6468374846484659
 31
0.0
  0
LINE
  5
96
330
18
100
AcDbEntity
  8
ADP2DETAIL
  6
HIDDEN2
100
AcDbLine
 10
3.804463351573395
 20
1.146837484648465
 30
0.0
 11
4.599587398499407
 21
1.146837484648465
 31
0.0
  0
TEXT
  5
97
330
18
100
AcDbEntity
  8
ADPDIM
100
AcDbText
 10
3.343694650696386
 20
1.896993296943757
 30
0.0
 40
0.125
  1
1/2 tapped hole
100
AcDbText
  0
LINE
  5
98
330
18
100
AcDbEntity
  8
ADPDIM
100
AcDbLine
 10
2.343345884561684
 20
1.216681216142868
 30
0.0
 11
2.743865263037018
 21
1.953201833667993
 31
0.0
  0
LINE
  5
99
330
18
100
AcDbEntity
  8
ADPDIM
100
AcDbLine
 10
2.743865263037018
 20
1.953201833667993
 30
0.0
 11
3.259343561534836
 21
1.953201833667993
 31
0.0
  0
TEXT
  5
A7
330
18
100
AcDbEntity
  8
ADPDIM
100
AcDbText
 10
-3.596092422292551
 20
-0.9189460147604808
 30
0.0
 40
0.125
  1
J U L I U S  B L U M  &  C O . ,  I N C .      ( 8 0 0 )  5 2 6 - 6 2 9 3        W W W . J U L I U S B L U M . C O M        P A R T  N o .  7 2 6 2
 41
1.25
  7
ARIAL_WIDE
 72
     1
 11
2.929636602264064
 21
-0.7939460147604809
 31
0.0
100
AcDbText
 73
     3
  0
ENDSEC
  0
SECTION
  2
OBJECTS
  0
DICTIONARY
  5
C
330
0
100
AcDbDictionary
  3
ACAD_GROUP
350
D
  3
ACAD_LAYOUT
350
9F
  3
ACAD_MLINESTYLE
350
E
  3
ACAD_PLOTSETTINGS
350
A0
  3
ACAD_PLOTSTYLENAME
350
9D
  3
ACDBHEADERROUNDTRIPXREC
350
1F9
  3
ACDBVARIABLEDICTIONARY
350
105
  0
DICTIONARY
  5
FD
330
18
100
AcDbDictionary
280
     1
  3
ACAD_LAYOUTSELFREF
360
21A
  0
DICTIONARY
  5
FB
330
15
100
AcDbDictionary
280
     1
  3
ACAD_LAYOUTSELFREF
360
219
  0
DICTIONARY
  5
D
102
{ACAD_REACTORS
330
C
102
}
330
C
100
AcDbDictionary
  0
DICTIONARY
  5
9F
102
{ACAD_REACTORS
330
C
102
}
330
C
100
AcDbDictionary
  0
DICTIONARY
  5
E
102
{ACAD_REACTORS
330
C
102
}
330
C
100
AcDbDictionary
  3
STANDARD
350
1B
  0
DICTIONARY
  5
A0
102
{ACAD_REACTORS
330
C
102
}
330
C
100
AcDbDictionary
  0
ACDBDICTIONARYWDFLT
  5
9D
102
{ACAD_REACTORS
330
C
102
}
330
C
100
AcDbDictionary
281
     1
  3
Normal
350
9E
100
AcDbDictionaryWithDefault
340
9E
  0
DICTIONARY
  5
1F9
102
{ACAD_REACTORS
330
C
102
}
330
C
100
AcDbDictionary
  3
CEPSNTYPE
350
203
  3
FINGERPRINTGUID
350
204
  3
HYPERLINKBASE
350
1FC
  3
INSUNITS
350
202
  3
LAYOUTDICT
350
1FE
  3
LWETCUNION
350
201
  3
PLOTSETDICT
350
1FF
  3
PLOTSTYLNAMDICT
350
200
  3
PSVPSCALE
350
206
  3
PUCSBASE
350
209
  3
PUCSORGBACK
350
20F
  3
PUCSORGBOTTOM
350
20B
  3
PUCSORGFRONT
350
20E
  3
PUCSORGLEFT
350
20C
  3
PUCSORGRIGHT
350
20D
  3
PUCSORGTOP
350
20A
  3
PUCSORTHOREF
350
207
  3
PUCSORTHOVIEW
350
208
  3
STYLESHEET
350
1FD
  3
TSTACKALIGN
350
1FA
  3
TSTACKSIZE
350
1FB
  3
UCSBASE
350
212
  3
UCSORGBACK
350
218
  3
UCSORGBOTTOM
350
214
  3
UCSORGFRONT
350
217
  3
UCSORGLEFT
350
215
  3
UCSORGRIGHT
350
216
  3
UCSORGTOP
350
213
  3
UCSORTHOREF
350
210
  3
UCSORTHOVIEW
350
211
  3
VERSIONGUID
350
205
  0
DICTIONARY
  5
105
102
{ACAD_REACTORS
330
C
102
}
330
C
100
AcDbDictionary
  3
DIMASSOC
350
106
  0
XRECORD
  5
21A
102
{ACAD_REACTORS
330
FD
102
}
330
FD
100
AcDbXrecord
340
18
  0
XRECORD
  5
219
102
{ACAD_REACTORS
330
FB
102
}
330
FB
100
AcDbXrecord
340
15
  0
MLINESTYLE
  5
1B
102
{ACAD_REACTORS
330
E
102
}
330
E
100
AcDbMlineStyle
  2
STANDARD
 70
     0
  3

 62
     0
 51
90.0
 52
90.0
 71
     2
 49
0.5
 62
   256
  6
BYLAYER
 49
-0.5
 62
   256
  6
BYLAYER
  0
ACDBPLACEHOLDER
  5
9E
102
{ACAD_REACTORS
330
9D
102
}
330
9D
100
AcDbPlaceHolder
280
     0
  0
XRECORD
  5
203
102
{ACAD_REACTORS
330
1F9
102
}
330
1F9
100
AcDbXrecord
 90
        0
  0
XRECORD
  5
204
102
{ACAD_REACTORS
330
1F9
102
}
330
1F9
100
AcDbXrecord
  1
{F80D0F0F-5E7A-4DD4-B14A-748AE2EBCFEC}
  0
XRECORD
  5
1FC
102
{ACAD_REACTORS
330
1F9
102
}
330
1F9
100
AcDbXrecord
  1

  0
XRECORD
  5
202
102
{ACAD_REACTORS
330
1F9
102
}
330
1F9
100
AcDbXrecord
 90
        0
  0
XRECORD
  5
1FE
102
{ACAD_REACTORS
330
1F9
102
}
330
1F9
100
AcDbXrecord
340
9F
  0
XRECORD
  5
201
102
{ACAD_REACTORS
330
1F9
102
}
330
1F9
100
AcDbXrecord
 90
    14877
  0
XRECORD
  5
1FF
102
{ACAD_REACTORS
330
1F9
102
}
330
1F9
100
AcDbXrecord
340
A0
  0
XRECORD
  5
200
102
{ACAD_REACTORS
330
1F9
102
}
330
1F9
100
AcDbXrecord
340
9D
  0
XRECORD
  5
206
102
{ACAD_REACTORS
330
1F9
102
}
330
1F9
100
AcDbXrecord
 40
0.0
  0
XRECORD
  5
209
102
{ACAD_REACTORS
330
1F9
102
}
330
1F9
100
AcDbXrecord
340
0
  0
XRECORD
  5
20F
102
{ACAD_REACTORS
330
1F9
102
}
330
1F9
100
AcDbXrecord
 10
0.0
 20
0.0
 30
0.0
  0
XRECORD
  5
20B
102
{ACAD_REACTORS
330
1F9
102
}
330
1F9
100
AcDbXrecord
 10
0.0
 20
0.0
 30
0.0
  0
XRECORD
  5
20E
102
{ACAD_REACTORS
330
1F9
102
}
330
1F9
100
AcDbXrecord
 10
0.0
 20
0.0
 30
0.0
  0
XRECORD
  5
20C
102
{ACAD_REACTORS
330
1F9
102
}
330
1F9
100
AcDbXrecord
 10
0.0
 20
0.0
 30
0.0
  0
XRECORD
  5
20D
102
{ACAD_REACTORS
330
1F9
102
}
330
1F9
100
AcDbXrecord
 10
0.0
 20
0.0
 30
0.0
  0
XRECORD
  5
20A
102
{ACAD_REACTORS
330
1F9
102
}
330
1F9
100
AcDbXrecord
 10
0.0
 20
0.0
 30
0.0
  0
XRECORD
  5
207
102
{ACAD_REACTORS
330
1F9
102
}
330
1F9
100
AcDbXrecord
340
0
  0
XRECORD
  5
208
102
{ACAD_REACTORS
330
1F9
102
}
330
1F9
100
AcDbXrecord
 70
     0
  0
XRECORD
  5
1FD
102
{ACAD_REACTORS
330
1F9
102
}
330
1F9
100
AcDbXrecord
  1

  0
XRECORD
  5
1FA
102
{ACAD_REACTORS
330
1F9
102
}
330
1F9
100
AcDbXrecord
 90
        1
  0
XRECORD
  5
1FB
102
{ACAD_REACTORS
330
1F9
102
}
330
1F9
100
AcDbXrecord
 90
       70
  0
XRECORD
  5
212
102
{ACAD_REACTORS
330
1F9
102
}
330
1F9
100
AcDbXrecord
340
0
  0
XRECORD
  5
218
102
{ACAD_REACTORS
330
1F9
102
}
330
1F9
100
AcDbXrecord
 10
0.0
 20
0.0
 30
0.0
  0
XRECORD
  5
214
102
{ACAD_REACTORS
330
1F9
102
}
330
1F9
100
AcDbXrecord
 10
0.0
 20
0.0
 30
0.0
  0
XRECORD
  5
217
102
{ACAD_REACTORS
330
1F9
102
}
330
1F9
100
AcDbXrecord
 10
0.0
 20
0.0
 30
0.0
  0
XRECORD
  5
215
102
{ACAD_REACTORS
330
1F9
102
}
330
1F9
100
AcDbXrecord
 10
0.0
 20
0.0
 30
0.0
  0
XRECORD
  5
216
102
{ACAD_REACTORS
330
1F9
102
}
330
1F9
100
AcDbXrecord
 10
0.0
 20
0.0
 30
0.0
  0
XRECORD
  5
213
102
{ACAD_REACTORS
330
1F9
102
}
330
1F9
100
AcDbXrecord
 10
0.0
 20
0.0
 30
0.0
  0
XRECORD
  5
210
102
{ACAD_REACTORS
330
1F9
102
}
330
1F9
100
AcDbXrecord
340
0
  0
XRECORD
  5
211
102
{ACAD_REACTORS
330
1F9
102
}
330
1F9
100
AcDbXrecord
 70
     0
  0
XRECORD
  5
205
102
{ACAD_REACTORS
330
1F9
102
}
330
1F9
100
AcDbXrecord
  1
{3DA0FCFE-A447-4741-9F21-7844C33DBEFB}
  0
DICTIONARYVAR
  5
106
102
{ACAD_REACTORS
330
105
102
}
330
105
100
DictionaryVariables
280
     0
  1
1
  0
ENDSEC
  0
EOF
