  0
SECTION
  2
HEADER
  9
$ACADVER
  1
AC1014
  9
$ACADMAINTVER
 70
     9
  9
$DWGCODEPAGE
  3
ANSI_1252
  9
$INSBASE
 10
-141.6623267852876
 20
109.4716128342841
 30
0.0
  9
$EXTMIN
 10
-150.9896417135703
 20
104.0307324355055
 30
0.0
  9
$EXTMAX
 10
-131.4124546399005
 20
115.4915293886327
 30
0.0
  9
$LIMMIN
 10
0.0
 20
0.0
  9
$LIMMAX
 10
36.0
 20
36.0
  9
$ORTHOMODE
 70
     1
  9
$REGENMODE
 70
     1
  9
$FILLMODE
 70
     1
  9
$QTEXTMODE
 70
     0
  9
$MIRRTEXT
 70
     1
  9
$DRAGMODE
 70
     0
  9
$LTSCALE
 40
1.0
  9
$OSMODE
 70
    37
  9
$ATTMODE
 70
     1
  9
$TEXTSIZE
 40
0.2
  9
$TRACEWID
 40
0.05
  9
$TEXTSTYLE
  7
STANDARD
  9
$CLAYER
  8
0
  9
$CELTYPE
  6
BYLAYER
  9
$CECOLOR
 62
   256
  9
$CELTSCALE
 40
1.0
  9
$DELOBJ
 70
     1
  9
$DISPSILH
 70
     0
  9
$DIMSCALE
 40
1.0
  9
$DIMASZ
 40
0.125
  9
$DIMEXO
 40
0.0625
  9
$DIMDLI
 40
0.38
  9
$DIMRND
 40
0.0
  9
$DIMDLE
 40
0.0
  9
$DIMEXE
 40
0.18
  9
$DIMTP
 40
0.0
  9
$DIMTM
 40
0.0
  9
$DIMTXT
 40
0.125
  9
$DIMCEN
 40
0.1875
  9
$DIMTSZ
 40
0.125
  9
$DIMTOL
 70
     0
  9
$DIMLIM
 70
     0
  9
$DIMTIH
 70
     0
  9
$DIMTOH
 70
     0
  9
$DIMSE1
 70
     0
  9
$DIMSE2
 70
     0
  9
$DIMTAD
 70
     0
  9
$DIMZIN
 70
     3
  9
$DIMBLK
  1

  9
$DIMASO
 70
     1
  9
$DIMSHO
 70
     1
  9
$DIMPOST
  1

  9
$DIMAPOST
  1

  9
$DIMALT
 70
     0
  9
$DIMALTD
 70
     1
  9
$DIMALTF
 40
25.4
  9
$DIMLFAC
 40
1.0
  9
$DIMTOFL
 70
     0
  9
$DIMTVP
 40
0.0
  9
$DIMTIX
 70
     0
  9
$DIMSOXD
 70
     0
  9
$DIMSAH
 70
     0
  9
$DIMBLK1
  1

  9
$DIMBLK2
  1

  9
$DIMSTYLE
  2
STANDARD
  9
$DIMCLRD
 70
     0
  9
$DIMCLRE
 70
     0
  9
$DIMCLRT
 70
     0
  9
$DIMTFAC
 40
1.0
  9
$DIMGAP
 40
0.125
  9
$DIMJUST
 70
     0
  9
$DIMSD1
 70
     0
  9
$DIMSD2
 70
     0
  9
$DIMTOLJ
 70
     1
  9
$DIMTZIN
 70
     0
  9
$DIMALTZ
 70
     0
  9
$DIMALTTZ
 70
     0
  9
$DIMFIT
 70
     3
  9
$DIMUPT
 70
     0
  9
$DIMUNIT
 70
     2
  9
$DIMDEC
 70
     4
  9
$DIMTDEC
 70
     4
  9
$DIMALTU
 70
     2
  9
$DIMALTTD
 70
     2
  9
$DIMTXSTY
  7
STANDARD
  9
$DIMAUNIT
 70
     0
  9
$LUNITS
 70
     5
  9
$LUPREC
 70
     4
  9
$SKETCHINC
 40
0.1
  9
$FILLETRAD
 40
0.062
  9
$AUNITS
 70
     0
  9
$AUPREC
 70
     0
  9
$MENU
  1
acad
  9
$ELEVATION
 40
0.0
  9
$PELEVATION
 40
0.0
  9
$THICKNESS
 40
0.0
  9
$LIMCHECK
 70
     0
  9
$BLIPMODE
 70
     0
  9
$CHAMFERA
 40
0.0
  9
$CHAMFERB
 40
0.0
  9
$CHAMFERC
 40
0.0
  9
$CHAMFERD
 40
0.0
  9
$SKPOLY
 70
     0
  9
$TDCREATE
 40
2450387.552497685
  9
$TDUPDATE
 40
2452297.100087523
  9
$TDINDWG
 40
0.0223934028
  9
$TDUSRTIMER
 40
0.0223934028
  9
$USRTIMER
 70
     1
  9
$ANGBASE
 50
0.0
  9
$ANGDIR
 70
     0
  9
$PDMODE
 70
     0
  9
$PDSIZE
 40
0.0
  9
$PLINEWID
 40
0.0
  9
$COORDS
 70
     2
  9
$SPLFRAME
 70
     0
  9
$SPLINETYPE
 70
     6
  9
$SPLINESEGS
 70
     8
  9
$ATTDIA
 70
     0
  9
$ATTREQ
 70
     1
  9
$HANDLING
 70
 22529
  9
$HANDSEED
  5
568
  9
$SURFTAB1
 70
     6
  9
$SURFTAB2
 70
     6
  9
$SURFTYPE
 70
     6
  9
$SURFU
 70
     6
  9
$SURFV
 70
     6
  9
$UCSNAME
  2

  9
$UCSORG
 10
0.0
 20
0.0
 30
0.0
  9
$UCSXDIR
 10
1.0
 20
0.0
 30
0.0
  9
$UCSYDIR
 10
0.0
 20
1.0
 30
0.0
  9
$PUCSNAME
  2

  9
$PUCSORG
 10
0.0
 20
0.0
 30
0.0
  9
$PUCSXDIR
 10
1.0
 20
0.0
 30
0.0
  9
$PUCSYDIR
 10
0.0
 20
1.0
 30
0.0
  9
$USERI1
 70
     0
  9
$USERI2
 70
     0
  9
$USERI3
 70
     0
  9
$USERI4
 70
     0
  9
$USERI5
 70
     0
  9
$USERR1
 40
0.0
  9
$USERR2
 40
0.0
  9
$USERR3
 40
0.0
  9
$USERR4
 40
0.0
  9
$USERR5
 40
0.0
  9
$WORLDVIEW
 70
     1
  9
$SHADEDGE
 70
     3
  9
$SHADEDIF
 70
    70
  9
$TILEMODE
 70
     1
  9
$MAXACTVP
 70
    15
  9
$PINSBASE
 10
0.0
 20
0.0
 30
0.0
  9
$PLIMCHECK
 70
     0
  9
$PEXTMIN
 10
1.000000000000000E+20
 20
1.000000000000000E+20
 30
1.000000000000000E+20
  9
$PEXTMAX
 10
-1.000000000000000E+20
 20
-1.000000000000000E+20
 30
-1.000000000000000E+20
  9
$PLIMMIN
 10
0.0
 20
0.0
  9
$PLIMMAX
 10
12.0
 20
9.0
  9
$UNITMODE
 70
     0
  9
$VISRETAIN
 70
     0
  9
$PLINEGEN
 70
     0
  9
$PSLTSCALE
 70
     1
  9
$TREEDEPTH
 70
  3020
  9
$PICKSTYLE
 70
     1
  9
$CMLSTYLE
  2
STANDARD
  9
$CMLJUST
 70
     0
  9
$CMLSCALE
 40
1.0
  9
$PROXYGRAPHICS
 70
     1
  9
$MEASUREMENT
 70
     0
  0
ENDSEC
  0
SECTION
  2
CLASSES
  0
CLASS
  1
ACDBDICTIONARYWDFLT
  2
AcDbDictionaryWithDefault
  3
AutoCAD 2000
 90
        0
280
     0
281
     0
  0
CLASS
  1
ACDBPLACEHOLDER
  2
AcDbPlaceHolder
  3
AutoCAD 2000
 90
        0
280
     0
281
     0
  0
CLASS
  1
LAYOUT
  2
AcDbLayout
  3
AutoCAD 2000
 90
        0
280
     0
281
     0
  0
CLASS
  1
DICTIONARYVAR
  2
AcDbDictionaryVar
  3
AutoCAD 2000
 90
        0
280
     0
281
     0
  0
CLASS
  1
LONG_TRANSACTION
  2
AcDbLongTransaction
  3
AutoCAD 2000
 90
        0
280
     0
281
     0
  0
CLASS
  1
LWPOLYLINE
  2
AcDbPolyline
  3
AutoCAD 2000
 90
        0
280
     0
281
     1
  0
CLASS
  1
HATCH
  2
AcDbHatch
  3
AutoCAD 2000
 90
        0
280
     0
281
     1
  0
CLASS
  1
XRECORD
  2
AcDbXrecord
  3
AutoCAD 2000
 90
        0
280
     0
281
     0
  0
CLASS
  1
LONG_TRANSACTION
  2
AcDbLongTransaction
  3
AutoCAD 2000
 90
        0
280
     0
281
     0
  0
CLASS
  1
LWPOLYLINE
  2
AcDbPolyline
  3
AutoCAD 2000
 90
        0
280
     0
281
     1
  0
CLASS
  1
HATCH
  2
AcDbHatch
  3
AutoCAD 2000
 90
        0
280
     0
281
     1
  0
CLASS
  1
XRECORD
  2
AcDbXrecord
  3
AutoCAD 2000
 90
        0
280
     0
281
     0
  0
CLASS
  1
LONG_TRANSACTION
  2
AcDbLongTransaction
  3
AutoCAD 2000
 90
        0
280
     0
281
     0
  0
CLASS
  1
LWPOLYLINE
  2
AcDbPolyline
  3
AutoCAD 2000
 90
        0
280
     0
281
     1
  0
CLASS
  1
HATCH
  2
AcDbHatch
  3
AutoCAD 2000
 90
        0
280
     0
281
     1
  0
CLASS
  1
XRECORD
  2
AcDbXrecord
  3
AutoCAD 2000
 90
        0
280
     0
281
     0
  0
CLASS
  1
LONG_TRANSACTION
  2
AcDbLongTransaction
  3
AutoCAD 2000
 90
        0
280
     0
281
     0
  0
CLASS
  1
LWPOLYLINE
  2
AcDbPolyline
  3
AutoCAD 2000
 90
        0
280
     0
281
     1
  0
CLASS
  1
HATCH
  2
AcDbHatch
  3
AutoCAD 2000
 90
        0
280
     0
281
     1
  0
CLASS
  1
XRECORD
  2
AcDbXrecord
  3
AutoCAD 2000
 90
        0
280
     0
281
     0
  0
CLASS
  1
LONG_TRANSACTION
  2
AcDbLongTransaction
  3
AutoCAD 2000
 90
        0
280
     0
281
     0
  0
CLASS
  1
LWPOLYLINE
  2
AcDbPolyline
  3
AutoCAD 2000
 90
        0
280
     0
281
     1
  0
CLASS
  1
HATCH
  2
AcDbHatch
  3
AutoCAD 2000
 90
        0
280
     0
281
     1
  0
CLASS
  1
XRECORD
  2
AcDbXrecord
  3
AutoCAD 2000
 90
        0
280
     0
281
     0
  0
ENDSEC
  0
SECTION
  2
TABLES
  0
TABLE
  2
VPORT
  5
8
330
0
100
AcDbSymbolTable
 70
     2
  0
VPORT
  5
545
330
8
100
AcDbSymbolTableRecord
100
AcDbViewportTableRecord
  2
*ACTIVE
 70
     0
 10
0.0
 20
0.0
 11
1.0
 21
1.0
 12
-141.1900744658026
 22
109.7622841312765
 13
0.0
 23
0.0
 14
0.5740882589684922
 24
0.5740882589684922
 15
0.5
 25
0.5
 16
0.0
 26
0.0
 36
1.0
 17
0.0
 27
0.0
 37
0.0
 40
12.55235177415246
 41
1.570528967254408
 42
50.0
 43
0.0
 44
0.0
 50
0.0
 51
0.0
 71
     0
 72
   100
 73
     1
 74
     0
 75
     0
 76
     0
 77
     0
 78
     0
  0
ENDTAB
  0
TABLE
  2
LTYPE
  5
5
330
0
100
AcDbSymbolTable
 70
     2
  0
LTYPE
  5
12
330
5
100
AcDbSymbolTableRecord
100
AcDbLinetypeTableRecord
  2
BYBLOCK
 70
     0
  3

 72
    65
 73
     0
 40
0.0
  0
LTYPE
  5
13
330
5
100
AcDbSymbolTableRecord
100
AcDbLinetypeTableRecord
  2
BYLAYER
 70
     0
  3

 72
    65
 73
     0
 40
0.0
  0
LTYPE
  5
14
330
5
100
AcDbSymbolTableRecord
100
AcDbLinetypeTableRecord
  2
CONTINUOUS
 70
     0
  3
Solid line
 72
    65
 73
     0
 40
0.0
  0
LTYPE
  5
39B
330
5
100
AcDbSymbolTableRecord
100
AcDbLinetypeTableRecord
  2
CENTER2
 70
     0
  3
___ _ ___ _ ___ _ ___ _ ___ _ ___ _ ___ _ ___ _
 72
    65
 73
     4
 40
1.125
 49
0.75
 74
     0
 49
-0.125
 74
     0
 49
0.125
 74
     0
 49
-0.125
 74
     0
  0
ENDTAB
  0
TABLE
  2
LAYER
  5
2
330
0
100
AcDbSymbolTable
 70
     5
  0
LAYER
  5
F
330
2
100
AcDbSymbolTableRecord
100
AcDbLayerTableRecord
  2
0
 70
     0
 62
     7
  6
CONTINUOUS
  0
LAYER
  5
39C
330
2
100
AcDbSymbolTableRecord
100
AcDbLayerTableRecord
  2
ADP1DETAIL
 70
     0
 62
     7
  6
CONTINUOUS
  0
LAYER
  5
39D
330
2
100
AcDbSymbolTableRecord
100
AcDbLayerTableRecord
  2
DEFPOINTS
 70
     0
 62
     7
  6
CONTINUOUS
  0
LAYER
  5
3A1
330
2
100
AcDbSymbolTableRecord
100
AcDbLayerTableRecord
  2
ADP3DETAIL
 70
     0
 62
     1
  6
CONTINUOUS
  0
LAYER
  5
3A6
330
2
100
AcDbSymbolTableRecord
100
AcDbLayerTableRecord
  2
ADPDIM
 70
     0
 62
     3
  6
CONTINUOUS
  0
ENDTAB
  0
TABLE
  2
STYLE
  5
3
330
0
100
AcDbSymbolTable
 70
     2
  0
STYLE
  5
10
330
3
100
AcDbSymbolTableRecord
100
AcDbTextStyleTableRecord
  2
STANDARD
 70
     0
 40
0.0
 41
1.0
 50
0.0
 71
     0
 42
0.2
  3
txt
  4

  0
STYLE
  5
401
330
3
100
AcDbSymbolTableRecord
100
AcDbTextStyleTableRecord
  2
ARIAL_WIDE
 70
     0
 40
0.0
 41
1.25
 50
0.0
 71
     0
 42
0.2
  3
ARIAL.TTF
  4

1001
ACAD
1000
Arial
1071
       34
  0
ENDTAB
  0
TABLE
  2
VIEW
  5
6
330
0
100
AcDbSymbolTable
 70
     0
  0
ENDTAB
  0
TABLE
  2
UCS
  5
7
330
0
100
AcDbSymbolTable
 70
     0
  0
ENDTAB
  0
TABLE
  2
APPID
  5
9
330
0
100
AcDbSymbolTable
 70
     1
  0
APPID
  5
11
330
9
100
AcDbSymbolTableRecord
100
AcDbRegAppTableRecord
  2
ACAD
 70
     0
  0
ENDTAB
  0
TABLE
  2
DIMSTYLE
  5
A
330
0
100
AcDbSymbolTable
 70
     1
  0
DIMSTYLE
105
3F5
330
A
100
AcDbSymbolTableRecord
100
AcDbDimStyleTableRecord
  2
STANDARD
 70
     0
  3

  4

  5

  6

  7

 40
1.0
 41
0.18
 42
0.0625
 43
0.38
 44
0.18
 45
0.0
 46
0.0
 47
0.0
 48
0.0
140
0.18
141
0.09
142
0.0
143
25.4
144
1.0
145
0.0
146
1.0
147
0.09
 71
     0
 72
     0
 73
     1
 74
     1
 75
     0
 76
     0
 77
     0
 78
     0
170
     0
171
     2
172
     0
173
     0
174
     0
175
     0
176
     0
177
     0
178
     0
270
     2
271
     4
272
     4
273
     2
274
     2
340
10
275
     0
280
     0
281
     0
282
     0
283
     1
284
     0
285
     0
286
     0
287
     3
288
     0
  0
ENDTAB
  0
TABLE
  2
BLOCK_RECORD
  5
1
330
0
100
AcDbSymbolTable
 70
     5
  0
BLOCK_RECORD
  5
18
102
{ACAD_XDICTIONARY
360
456
102
}
330
1
100
AcDbSymbolTableRecord
100
AcDbBlockTableRecord
  2
*MODEL_SPACE
  0
BLOCK_RECORD
  5
15
102
{ACAD_XDICTIONARY
360
454
102
}
330
1
100
AcDbSymbolTableRecord
100
AcDbBlockTableRecord
  2
*PAPER_SPACE
  0
BLOCK_RECORD
  5
37C
330
1
100
AcDbSymbolTableRecord
100
AcDbBlockTableRecord
  2
*D0
  0
BLOCK_RECORD
  5
395
330
1
100
AcDbSymbolTableRecord
100
AcDbBlockTableRecord
  2
*D1
  0
BLOCK_RECORD
  5
396
330
1
100
AcDbSymbolTableRecord
100
AcDbBlockTableRecord
  2
*D2
  0
BLOCK_RECORD
  5
397
330
1
100
AcDbSymbolTableRecord
100
AcDbBlockTableRecord
  2
*D3
  0
BLOCK_RECORD
  5
399
330
1
100
AcDbSymbolTableRecord
100
AcDbBlockTableRecord
  2
*D4
  0
ENDTAB
  0
ENDSEC
  0
SECTION
  2
BLOCKS
  0
BLOCK
  5
3A9
330
18
100
AcDbEntity
  8
0
100
AcDbBlockBegin
  2
*MODEL_SPACE
 70
     0
 10
0.0
 20
0.0
 30
0.0
  3
*MODEL_SPACE
  1

  0
ENDBLK
  5
3AA
330
18
100
AcDbEntity
  8
0
100
AcDbBlockEnd
  0
BLOCK
  5
3A7
330
15
100
AcDbEntity
 67
     1
  8
0
100
AcDbBlockBegin
  2
*PAPER_SPACE
 70
     0
 10
0.0
 20
0.0
 30
0.0
  3
*PAPER_SPACE
  1

  0
ENDBLK
  5
3A8
330
15
100
AcDbEntity
 67
     1
  8
0
100
AcDbBlockEnd
  0
BLOCK
  5
3AC
330
37C
100
AcDbEntity
  8
0
100
AcDbBlockBegin
  2
*D0
 70
     1
 10
0.0
 20
0.0
 30
0.0
  3
*D0
  1

  0
LINE
  5
3AD
330
37C
100
AcDbEntity
  8
0
  6
BYBLOCK
 62
     0
100
AcDbLine
 10
-141.7812108529873
 20
105.6307973738931
 30
0.0
 11
-141.7812108529873
 21
105.7482973738931
 31
0.0
  0
LINE
  5
3AE
330
37C
100
AcDbEntity
  8
0
  6
BYBLOCK
 62
     0
100
AcDbLine
 10
-141.6722108529873
 20
105.6307973738931
 30
0.0
 11
-141.6722108529873
 21
105.7482973738931
 31
0.0
  0
LINE
  5
3AF
330
37C
100
AcDbEntity
  8
0
  6
BYBLOCK
 62
     0
100
AcDbLine
 10
-141.7812108529873
 20
105.5682973738931
 30
0.0
 11
-142.0312108529873
 21
105.5682973738931
 31
0.0
  0
LINE
  5
3B0
330
37C
100
AcDbEntity
  8
0
  6
BYBLOCK
 62
     0
100
AcDbLine
 10
-141.6722108529873
 20
105.5682973738931
 30
0.0
 11
-141.4222108529873
 21
105.5682973738931
 31
0.0
  0
LINE
  5
3B1
330
37C
100
AcDbEntity
  8
0
  6
BYBLOCK
 62
     0
100
AcDbLine
 10
-141.9062108529873
 20
105.4432973738931
 30
0.0
 11
-141.6562108529873
 21
105.6932973738931
 31
0.0
  0
LINE
  5
3B2
330
37C
100
AcDbEntity
  8
0
  6
BYBLOCK
 62
     0
100
AcDbLine
 10
-141.7972108529873
 20
105.4432973738931
 30
0.0
 11
-141.5472108529873
 21
105.6932973738931
 31
0.0
  0
TEXT
  5
3B3
330
37C
100
AcDbEntity
  8
0
  6
BYBLOCK
 62
     0
100
AcDbText
 10
-141.2972108529873
 20
105.5057973738931
 30
0.0
 40
0.125
  1
0.109
 72
     1
 11
-141.0888775196539
 21
105.5682973738931
 31
0.0
100
AcDbText
 73
     2
  0
POINT
  5
3B4
330
37C
100
AcDbEntity
  8
DEFPOINTS
  6
BYBLOCK
 62
     0
100
AcDbPoint
 10
-141.7812108529873
 20
105.5682973738931
 30
0.0
  0
POINT
  5
3B5
330
37C
100
AcDbEntity
  8
DEFPOINTS
  6
BYBLOCK
 62
     0
100
AcDbPoint
 10
-141.6722108529873
 20
105.5682973738931
 30
0.0
  0
POINT
  5
3B6
330
37C
100
AcDbEntity
  8
DEFPOINTS
  6
BYBLOCK
 62
     0
100
AcDbPoint
 10
-141.6722108529873
 20
105.5682973738931
 30
0.0
  0
ENDBLK
  5
3B7
330
37C
100
AcDbEntity
  8
0
100
AcDbBlockEnd
  0
BLOCK
  5
3B8
330
395
100
AcDbEntity
  8
0
100
AcDbBlockBegin
  2
*D1
 70
     1
 10
0.0
 20
0.0
 30
0.0
  3
*D1
  1

  0
LINE
  5
3B9
330
395
100
AcDbEntity
  8
0
  6
BYBLOCK
 62
     0
100
AcDbLine
 10
-140.287212979408
 20
114.3698124643272
 30
0.0
 11
-141.1373297378369
 21
115.4579122956654
 31
0.0
  0
LINE
  5
3BA
330
395
100
AcDbEntity
  8
0
  6
BYBLOCK
 62
     0
100
AcDbLine
 10
-142.6512452402282
 20
112.5228280383502
 30
0.0
 11
-143.5013619986571
 21
113.6109278696884
 31
0.0
  0
LINE
  5
3BB
330
395
100
AcDbEntity
  8
0
  6
BYBLOCK
 62
     0
100
AcDbLine
 10
-141.0265106722783
 20
115.3160703600162
 30
0.0
 11
-142.0771916770872
 21
114.4951883929153
 31
0.0
  0
LINE
  5
3BC
330
395
100
AcDbEntity
  8
0
  6
BYBLOCK
 62
     0
100
AcDbLine
 10
-143.3905429330985
 20
113.4690859340392
 30
0.0
 11
-142.3398619282895
 21
114.2899679011401
 31
0.0
  0
LINE
  5
3BD
330
395
100
AcDbEntity
  8
0
  6
BYBLOCK
 62
     0
100
AcDbLine
 10
-141.0480543320634
 20
115.1406113313996
 30
0.0
 11
-141.0049670124932
 21
115.4915293886327
 31
0.0
  0
LINE
  5
3BE
330
395
100
AcDbEntity
  8
0
  6
BYBLOCK
 62
     0
100
AcDbLine
 10
-143.4120865928836
 20
113.2936269054226
 30
0.0
 11
-143.3689992733133
 21
113.6445449626557
 31
0.0
  0
TEXT
  5
3BF
330
395
100
AcDbEntity
  8
0
  6
BYBLOCK
 62
     0
100
AcDbText
 10
-142.2028817418808
 20
114.3176749134554
 30
0.0
 40
0.125
  1
3
 50
38.00000000000028
 72
     1
 11
-142.2085268026884
 21
114.3925781470277
 31
0.0
100
AcDbText
 73
     2
  0
POINT
  5
3C0
330
395
100
AcDbEntity
  8
DEFPOINTS
  6
BYBLOCK
 62
     0
100
AcDbPoint
 10
-140.2487341372002
 20
114.3205617922268
 30
0.0
  0
POINT
  5
3C1
330
395
100
AcDbEntity
  8
DEFPOINTS
  6
BYBLOCK
 62
     0
100
AcDbPoint
 10
-142.6127663980203
 20
112.4735773662498
 30
0.0
  0
POINT
  5
3C2
330
395
100
AcDbEntity
  8
DEFPOINTS
  6
BYBLOCK
 62
     0
100
AcDbPoint
 10
-143.3905429330985
 20
113.4690859340392
 30
0.0
  0
ENDBLK
  5
3C3
330
395
100
AcDbEntity
  8
0
100
AcDbBlockEnd
  0
BLOCK
  5
3C4
330
396
100
AcDbEntity
  8
0
100
AcDbBlockBegin
  2
*D2
 70
     1
 10
0.0
 20
0.0
 30
0.0
  3
*D2
  1

  0
LINE
  5
3C5
330
396
100
AcDbEntity
  8
0
  6
BYBLOCK
 62
     0
100
AcDbLine
 10
-142.328633183689
 20
112.2828104324054
 30
0.0
 11
-139.6273731682695
 21
111.0164126144596
 31
0.0
  0
LINE
  5
3C6
330
396
100
AcDbEntity
  8
0
  6
BYBLOCK
 62
     0
100
AcDbLine
 10
-142.4948731096544
 20
112.2226914918373
 30
0.0
 11
-142.1623932577237
 21
112.3429293729734
 31
0.0
  0
TEXT
  5
3C7
330
396
100
AcDbEntity
  8
0
  6
BYBLOCK
 62
     0
100
AcDbText
 10
-139.5407239813521
 20
110.9067624051276
 30
0.0
 40
0.125
  1
R3
 50
334.8819970288079
 72
     1
 11
-139.4198775406138
 21
110.9191350445121
 31
0.0
100
AcDbText
 73
     2
  0
POINT
  5
3C8
330
396
100
AcDbEntity
  8
DEFPOINTS
  6
BYBLOCK
 62
     0
100
AcDbPoint
 10
-142.328633183689
 20
112.2828104324054
 30
0.0
  0
POINT
  5
3C9
330
396
100
AcDbEntity
  8
DEFPOINTS
  6
BYBLOCK
 62
     0
100
AcDbPoint
 10
-139.6123267852877
 20
111.0093586076378
 30
0.0
  0
ENDBLK
  5
3CA
330
396
100
AcDbEntity
  8
0
100
AcDbBlockEnd
  0
BLOCK
  5
3CB
330
397
100
AcDbEntity
  8
0
100
AcDbBlockBegin
  2
*D3
 70
     1
 10
0.0
 20
0.0
 30
0.0
  3
*D3
  1

  0
LINE
  5
3CC
330
397
100
AcDbEntity
  8
0
  6
BYBLOCK
 62
     0
100
AcDbLine
 10
-143.5623267852877
 20
109.4091128342842
 30
0.0
 11
-143.5623267852877
 21
108.6436924100101
 31
0.0
  0
LINE
  5
3CD
330
397
100
AcDbEntity
  8
0
  6
BYBLOCK
 62
     0
100
AcDbLine
 10
-141.6623267852876
 20
109.4091128342842
 30
0.0
 11
-141.6623267852876
 21
108.6436924100101
 31
0.0
  0
LINE
  5
3CE
330
397
100
AcDbEntity
  8
0
  6
BYBLOCK
 62
     0
100
AcDbLine
 10
-143.5623267852877
 20
108.8236924100101
 30
0.0
 11
-142.945660118621
 21
108.8236924100101
 31
0.0
  0
LINE
  5
3CF
330
397
100
AcDbEntity
  8
0
  6
BYBLOCK
 62
     0
100
AcDbLine
 10
-141.6623267852876
 20
108.8236924100101
 30
0.0
 11
-142.2789934519543
 21
108.8236924100101
 31
0.0
  0
LINE
  5
3D0
330
397
100
AcDbEntity
  8
0
  6
BYBLOCK
 62
     0
100
AcDbLine
 10
-143.6873267852877
 20
108.6986924100101
 30
0.0
 11
-143.4373267852876
 21
108.9486924100101
 31
0.0
  0
LINE
  5
3D1
330
397
100
AcDbEntity
  8
0
  6
BYBLOCK
 62
     0
100
AcDbLine
 10
-141.7873267852876
 20
108.6986924100101
 30
0.0
 11
-141.5373267852876
 21
108.9486924100101
 31
0.0
  0
TEXT
  5
3D2
330
397
100
AcDbEntity
  8
0
  6
BYBLOCK
 62
     0
100
AcDbText
 10
-142.820660118621
 20
108.7611924100101
 30
0.0
 40
0.125
  1
1.900
 72
     1
 11
-142.6123267852876
 21
108.8236924100101
 31
0.0
100
AcDbText
 73
     2
  0
POINT
  5
3D3
330
397
100
AcDbEntity
  8
DEFPOINTS
  6
BYBLOCK
 62
     0
100
AcDbPoint
 10
-143.5623267852877
 20
109.4716128342841
 30
0.0
  0
POINT
  5
3D4
330
397
100
AcDbEntity
  8
DEFPOINTS
  6
BYBLOCK
 62
     0
100
AcDbPoint
 10
-141.6623267852876
 20
109.4716128342841
 30
0.0
  0
POINT
  5
3D5
330
397
100
AcDbEntity
  8
DEFPOINTS
  6
BYBLOCK
 62
     0
100
AcDbPoint
 10
-141.6623267852876
 20
108.8236924100101
 30
0.0
  0
ENDBLK
  5
3D6
330
397
100
AcDbEntity
  8
0
100
AcDbBlockEnd
  0
BLOCK
  5
3D7
330
399
100
AcDbEntity
  8
0
100
AcDbBlockBegin
  2
*D4
 70
     1
 10
0.0
 20
0.0
 30
0.0
  3
*D4
  1

  0
LINE
  5
3D8
330
399
100
AcDbEntity
  8
0
  6
BYBLOCK
 62
     0
100
AcDbLine
 10
-143.6248267852876
 20
109.4716128342841
 30
0.0
 11
-144.1574208563972
 21
109.4716128342841
 31
0.0
  0
LINE
  5
3D9
330
399
100
AcDbEntity
  8
0
  6
BYBLOCK
 62
     0
100
AcDbLine
 10
-142.6675520182683
 20
112.4716128342842
 30
0.0
 11
-144.1574208563972
 21
112.4716128342842
 31
0.0
  0
LINE
  5
3DA
330
399
100
AcDbEntity
  8
0
  6
BYBLOCK
 62
     0
100
AcDbLine
 10
-143.9774208563972
 20
109.4716128342841
 30
0.0
 11
-143.9774208563972
 21
110.8049461676175
 31
0.0
  0
LINE
  5
3DB
330
399
100
AcDbEntity
  8
0
  6
BYBLOCK
 62
     0
100
AcDbLine
 10
-143.9774208563972
 20
112.4716128342842
 30
0.0
 11
-143.9774208563972
 21
111.1382795009508
 31
0.0
  0
LINE
  5
3DC
330
399
100
AcDbEntity
  8
0
  6
BYBLOCK
 62
     0
100
AcDbLine
 10
-143.8524208563972
 20
109.3466128342841
 30
0.0
 11
-144.1024208563972
 21
109.5966128342842
 31
0.0
  0
LINE
  5
3DD
330
399
100
AcDbEntity
  8
0
  6
BYBLOCK
 62
     0
100
AcDbLine
 10
-143.8524208563972
 20
112.3466128342842
 30
0.0
 11
-144.1024208563972
 21
112.5966128342842
 31
0.0
  0
TEXT
  5
3DE
330
399
100
AcDbEntity
  8
0
  6
BYBLOCK
 62
     0
100
AcDbText
 10
-143.9149208563972
 20
110.9299461676175
 30
0.0
 40
0.125
  1
3
 50
90.0
 72
     1
 11
-143.9774208563972
 21
110.9716128342842
 31
0.0
100
AcDbText
 73
     2
  0
POINT
  5
3DF
330
399
100
AcDbEntity
  8
DEFPOINTS
  6
BYBLOCK
 62
     0
100
AcDbPoint
 10
-143.5623267852877
 20
109.4716128342841
 30
0.0
  0
POINT
  5
3E0
330
399
100
AcDbEntity
  8
DEFPOINTS
  6
BYBLOCK
 62
     0
100
AcDbPoint
 10
-142.6050520182683
 20
112.4716128342842
 30
0.0
  0
POINT
  5
3E1
330
399
100
AcDbEntity
  8
DEFPOINTS
  6
BYBLOCK
 62
     0
100
AcDbPoint
 10
-143.9774208563972
 20
112.4716128342842
 30
0.0
  0
ENDBLK
  5
3E2
330
399
100
AcDbEntity
  8
0
100
AcDbBlockEnd
  0
ENDSEC
  0
SECTION
  2
ENTITIES
  0
ARC
  5
3E3
330
18
100
AcDbEntity
  8
ADP1DETAIL
100
AcDbCircle
 10
-139.6123267852876
 20
110.9105331652936
 30
0.0
 40
3.95
100
AcDbArc
 50
125.0521026195022
 51
180.0
  0
LINE
  5
3E4
330
18
100
AcDbEntity
  8
ADP1DETAIL
100
AcDbLine
 10
-140.7008118968136
 20
114.97202560159
 30
0.0
 11
-139.6096017972272
 21
113.4166283794758
 31
0.0
  0
LINE
  5
3E5
330
18
100
AcDbEntity
  8
ADP3DETAIL
  6
CENTER2
100
AcDbLine
 10
-141.3343047747046
 20
113.3674617729093
 30
0.0
 11
-139.6818791475451
 21
114.5257546129304
 31
0.0
  0
DIMENSION
  5
3E6
330
18
100
AcDbEntity
  8
ADPDIM
100
AcDbDimension
  2
*D1
 10
-143.3905429330985
 20
113.4690859340392
 30
0.0
 11
-142.2085268026884
 21
114.3925781470277
 31
0.0
 70
     1
100
AcDbAlignedDimension
 13
-140.2487341372002
 23
114.3205617922268
 33
0.0
 14
-142.6127663980203
 24
112.4735773662498
 34
0.0
  0
LINE
  5
3E7
330
18
100
AcDbEntity
  8
ADP1DETAIL
100
AcDbLine
 10
-140.778437265178
 20
112.608211955364
 30
0.0
 11
-139.6110171183441
 21
113.4156373609608
 31
0.0
  0
DIMENSION
  5
3E8
330
18
100
AcDbEntity
  8
ADPDIM
100
AcDbDimension
  2
*D2
 10
-139.6123267852877
 20
111.0093586076378
 30
0.0
 11
-139.4198775406138
 21
110.9191350445121
 31
0.0
 70
     4
100
AcDbRadialDimension
 15
-142.328633183689
 25
112.2828104324054
 35
0.0
 40
-2.983382158591496
  0
LINE
  5
3E9
330
18
100
AcDbEntity
  8
ADP3DETAIL
  6
CENTER2
100
AcDbLine
 10
-142.6123267852877
 20
109.0407279932178
 30
0.0
 11
-142.6123267852877
 21
110.9108804483927
 31
0.0
  0
DIMENSION
  5
3EA
330
18
100
AcDbEntity
  8
ADPDIM
100
AcDbDimension
  2
*D3
 10
-141.6623267852876
 20
108.8236924100101
 30
0.0
 11
-142.6123267852876
 21
108.8236924100101
 31
0.0
  1
1.900
100
AcDbAlignedDimension
 13
-143.5623267852877
 23
109.4716128342841
 33
0.0
 14
-141.6623267852876
 24
109.4716128342841
 34
0.0
100
AcDbRotatedDimension
  0
DIMENSION
  5
3EB
330
18
100
AcDbEntity
  8
ADPDIM
100
AcDbDimension
  2
*D4
 10
-143.9774208563972
 20
112.4716128342842
 30
0.0
 11
-143.9774208563972
 21
110.9716128342842
 31
0.0
100
AcDbAlignedDimension
 13
-143.5623267852877
 23
109.4716128342841
 33
0.0
 14
-142.6050520182683
 24
112.4716128342842
 34
0.0
 50
90.0
100
AcDbRotatedDimension
  0
ARC
  5
3EC
330
18
100
AcDbEntity
  8
ADP3DETAIL
  6
CENTER2
100
AcDbCircle
 10
-139.6123267852876
 20
110.9108804483927
 30
0.0
 40
3.0
100
AcDbArc
 50
125.0291182612622
 51
180.0
  0
ARC
  5
3ED
330
18
100
AcDbEntity
  8
ADP1DETAIL
100
AcDbCircle
 10
-139.6123267852876
 20
110.922185161778
 30
0.0
 40
2.049999999999999
100
AcDbArc
 50
124.6689834922905
 51
180.0
  0
LINE
  5
3EE
330
18
100
AcDbEntity
  8
ADP1DETAIL
100
AcDbLine
 10
-141.6623267852876
 20
109.4716128342841
 30
0.0
 11
-143.5623267852877
 21
109.4716128342841
 31
0.0
  0
LINE
  5
3EF
330
18
100
AcDbEntity
  8
ADP1DETAIL
100
AcDbLine
 10
-143.5623267852877
 20
109.4716128342841
 30
0.0
 11
-143.5623267852877
 21
110.9105331652936
 31
0.0
  0
LINE
  5
3F0
330
18
100
AcDbEntity
  8
ADP1DETAIL
100
AcDbLine
 10
-141.6623267852876
 20
110.922185161778
 30
0.0
 11
-141.6623267852876
 21
109.4716128342841
 31
0.0
  0
LINE
  5
3F1
330
18
100
AcDbEntity
  8
ADP1DETAIL
100
AcDbLine
 10
-141.8808951502173
 20
114.1441221270573
 30
0.0
 11
-140.7008118968136
 21
114.97202560159
 31
0.0
  0
DIMENSION
  5
3F2
330
18
100
AcDbEntity
  8
ADPDIM
100
AcDbDimension
  2
*D0
 10
-141.6722108529873
 20
105.5682973738931
 30
0.0
 11
-141.0888775196539
 21
105.5682973738931
 31
0.0
  1
0.109
100
AcDbAlignedDimension
 13
-141.7812108529873
 23
105.5682973738931
 33
0.0
 14
-141.6722108529873
 24
105.5682973738931
 34
0.0
100
AcDbRotatedDimension
  0
CIRCLE
  5
3F3
330
18
100
AcDbEntity
  8
0
100
AcDbCircle
 10
-142.6166226177166
 20
105.5682973738931
 30
0.0
 40
0.841
  0
CIRCLE
  5
3F4
330
18
100
AcDbEntity
  8
0
100
AcDbCircle
 10
-142.6166226177166
 20
105.5682973738931
 30
0.0
 40
0.95
  0
TEXT
  5
402
330
18
100
AcDbEntity
  8
ADPDIM
100
AcDbText
 10
-150.9896417135703
 20
104.0862406210444
 30
0.0
 40
0.1875
  1
J U L I U S  B L U M  &  C O . ,  I N C .      ( 8 0 0 )  5 2 6 - 6 2 9 3        W W W . J U L I U S B L U M . C O M        P A R T  N o .  7 2 2 8
 41
1.25
  7
ARIAL_WIDE
 72
     1
 11
-141.2010481767354
 21
104.2737406210444
 31
0.0
100
AcDbText
 73
     3
  0
ENDSEC
  0
SECTION
  2
OBJECTS
  0
DICTIONARY
  5
C
330
0
100
AcDbDictionary
  3
ACAD_GROUP
350
D
  3
ACAD_LAYOUT
350
3FB
  3
ACAD_MLINESTYLE
350
E
  3
ACAD_PLOTSETTINGS
350
3FC
  3
ACAD_PLOTSTYLENAME
350
3F9
  3
ACDBHEADERROUNDTRIPXREC
350
546
  3
ACDBVARIABLEDICTIONARY
350
45C
  0
DICTIONARY
  5
456
330
18
100
AcDbDictionary
280
     1
  3
ACAD_LAYOUTSELFREF
360
567
  0
DICTIONARY
  5
454
330
15
100
AcDbDictionary
280
     1
  3
ACAD_LAYOUTSELFREF
360
566
  0
DICTIONARY
  5
D
102
{ACAD_REACTORS
330
C
102
}
330
C
100
AcDbDictionary
  0
DICTIONARY
  5
3FB
102
{ACAD_REACTORS
330
C
102
}
330
C
100
AcDbDictionary
  0
DICTIONARY
  5
E
102
{ACAD_REACTORS
330
C
102
}
330
C
100
AcDbDictionary
  3
STANDARD
350
1B
  0
DICTIONARY
  5
3FC
102
{ACAD_REACTORS
330
C
102
}
330
C
100
AcDbDictionary
  0
ACDBDICTIONARYWDFLT
  5
3F9
102
{ACAD_REACTORS
330
C
102
}
330
C
100
AcDbDictionary
281
     1
  3
Normal
350
3FA
100
AcDbDictionaryWithDefault
340
3FA
  0
DICTIONARY
  5
546
102
{ACAD_REACTORS
330
C
102
}
330
C
100
AcDbDictionary
  3
CEPSNTYPE
350
550
  3
FINGERPRINTGUID
350
551
  3
HYPERLINKBASE
350
549
  3
INSUNITS
350
54F
  3
LAYOUTDICT
350
54B
  3
LWETCUNION
350
54E
  3
PLOTSETDICT
350
54C
  3
PLOTSTYLNAMDICT
350
54D
  3
PSVPSCALE
350
553
  3
PUCSBASE
350
556
  3
PUCSORGBACK
350
55C
  3
PUCSORGBOTTOM
350
558
  3
PUCSORGFRONT
350
55B
  3
PUCSORGLEFT
350
559
  3
PUCSORGRIGHT
350
55A
  3
PUCSORGTOP
350
557
  3
PUCSORTHOREF
350
554
  3
PUCSORTHOVIEW
350
555
  3
STYLESHEET
350
54A
  3
TSTACKALIGN
350
547
  3
TSTACKSIZE
350
548
  3
UCSBASE
350
55F
  3
UCSORGBACK
350
565
  3
UCSORGBOTTOM
350
561
  3
UCSORGFRONT
350
564
  3
UCSORGLEFT
350
562
  3
UCSORGRIGHT
350
563
  3
UCSORGTOP
350
560
  3
UCSORTHOREF
350
55D
  3
UCSORTHOVIEW
350
55E
  3
VERSIONGUID
350
552
  0
DICTIONARY
  5
45C
102
{ACAD_REACTORS
330
C
102
}
330
C
100
AcDbDictionary
  3
DIMASSOC
350
45D
  0
XRECORD
  5
567
102
{ACAD_REACTORS
330
456
102
}
330
456
100
AcDbXrecord
340
18
  0
XRECORD
  5
566
102
{ACAD_REACTORS
330
454
102
}
330
454
100
AcDbXrecord
340
15
  0
MLINESTYLE
  5
1B
102
{ACAD_REACTORS
330
E
102
}
330
E
100
AcDbMlineStyle
  2
STANDARD
 70
     0
  3

 62
     0
 51
90.0
 52
90.0
 71
     2
 49
0.5
 62
   256
  6
BYLAYER
 49
-0.5
 62
   256
  6
BYLAYER
  0
ACDBPLACEHOLDER
  5
3FA
102
{ACAD_REACTORS
330
3F9
102
}
330
3F9
100
AcDbPlaceHolder
280
     0
  0
XRECORD
  5
550
102
{ACAD_REACTORS
330
546
102
}
330
546
100
AcDbXrecord
 90
        0
  0
XRECORD
  5
551
102
{ACAD_REACTORS
330
546
102
}
330
546
100
AcDbXrecord
  1
{D195C1AA-25C8-400D-860B-86CEEAB7752E}
  0
XRECORD
  5
549
102
{ACAD_REACTORS
330
546
102
}
330
546
100
AcDbXrecord
  1

  0
XRECORD
  5
54F
102
{ACAD_REACTORS
330
546
102
}
330
546
100
AcDbXrecord
 90
        0
  0
XRECORD
  5
54B
102
{ACAD_REACTORS
330
546
102
}
330
546
100
AcDbXrecord
340
3FB
  0
XRECORD
  5
54E
102
{ACAD_REACTORS
330
546
102
}
330
546
100
AcDbXrecord
 90
    14877
  0
XRECORD
  5
54C
102
{ACAD_REACTORS
330
546
102
}
330
546
100
AcDbXrecord
340
3FC
  0
XRECORD
  5
54D
102
{ACAD_REACTORS
330
546
102
}
330
546
100
AcDbXrecord
340
3F9
  0
XRECORD
  5
553
102
{ACAD_REACTORS
330
546
102
}
330
546
100
AcDbXrecord
 40
0.0
  0
XRECORD
  5
556
102
{ACAD_REACTORS
330
546
102
}
330
546
100
AcDbXrecord
340
0
  0
XRECORD
  5
55C
102
{ACAD_REACTORS
330
546
102
}
330
546
100
AcDbXrecord
 10
0.0
 20
0.0
 30
0.0
  0
XRECORD
  5
558
102
{ACAD_REACTORS
330
546
102
}
330
546
100
AcDbXrecord
 10
0.0
 20
0.0
 30
0.0
  0
XRECORD
  5
55B
102
{ACAD_REACTORS
330
546
102
}
330
546
100
AcDbXrecord
 10
0.0
 20
0.0
 30
0.0
  0
XRECORD
  5
559
102
{ACAD_REACTORS
330
546
102
}
330
546
100
AcDbXrecord
 10
0.0
 20
0.0
 30
0.0
  0
XRECORD
  5
55A
102
{ACAD_REACTORS
330
546
102
}
330
546
100
AcDbXrecord
 10
0.0
 20
0.0
 30
0.0
  0
XRECORD
  5
557
102
{ACAD_REACTORS
330
546
102
}
330
546
100
AcDbXrecord
 10
0.0
 20
0.0
 30
0.0
  0
XRECORD
  5
554
102
{ACAD_REACTORS
330
546
102
}
330
546
100
AcDbXrecord
340
0
  0
XRECORD
  5
555
102
{ACAD_REACTORS
330
546
102
}
330
546
100
AcDbXrecord
 70
     0
  0
XRECORD
  5
54A
102
{ACAD_REACTORS
330
546
102
}
330
546
100
AcDbXrecord
  1

  0
XRECORD
  5
547
102
{ACAD_REACTORS
330
546
102
}
330
546
100
AcDbXrecord
 90
        1
  0
XRECORD
  5
548
102
{ACAD_REACTORS
330
546
102
}
330
546
100
AcDbXrecord
 90
       70
  0
XRECORD
  5
55F
102
{ACAD_REACTORS
330
546
102
}
330
546
100
AcDbXrecord
340
0
  0
XRECORD
  5
565
102
{ACAD_REACTORS
330
546
102
}
330
546
100
AcDbXrecord
 10
0.0
 20
0.0
 30
0.0
  0
XRECORD
  5
561
102
{ACAD_REACTORS
330
546
102
}
330
546
100
AcDbXrecord
 10
0.0
 20
0.0
 30
0.0
  0
XRECORD
  5
564
102
{ACAD_REACTORS
330
546
102
}
330
546
100
AcDbXrecord
 10
0.0
 20
0.0
 30
0.0
  0
XRECORD
  5
562
102
{ACAD_REACTORS
330
546
102
}
330
546
100
AcDbXrecord
 10
0.0
 20
0.0
 30
0.0
  0
XRECORD
  5
563
102
{ACAD_REACTORS
330
546
102
}
330
546
100
AcDbXrecord
 10
0.0
 20
0.0
 30
0.0
  0
XRECORD
  5
560
102
{ACAD_REACTORS
330
546
102
}
330
546
100
AcDbXrecord
 10
0.0
 20
0.0
 30
0.0
  0
XRECORD
  5
55D
102
{ACAD_REACTORS
330
546
102
}
330
546
100
AcDbXrecord
340
0
  0
XRECORD
  5
55E
102
{ACAD_REACTORS
330
546
102
}
330
546
100
AcDbXrecord
 70
     0
  0
XRECORD
  5
552
102
{ACAD_REACTORS
330
546
102
}
330
546
100
AcDbXrecord
  1
{ED716A84-4152-40CB-AF6E-C9C7C748F7F6}
  0
DICTIONARYVAR
  5
45D
102
{ACAD_REACTORS
330
45C
102
}
330
45C
100
DictionaryVariables
280
     0
  1
1
  0
ENDSEC
  0
EOF
