  0
SECTION
  2
HEADER
  9
$ACADVER
  1
AC1014
  9
$ACADMAINTVER
 70
     9
  9
$DWGCODEPAGE
  3
ANSI_1252
  9
$INSBASE
 10
-44.44424256824342
 20
25.45951754439544
 30
0.0
  9
$EXTMIN
 10
-56.41085123288632
 20
22.23302477729022
 30
0.0
  9
$EXTMAX
 10
-36.83366415921648
 20
28.14518777935768
 30
0.0
  9
$LIMMIN
 10
0.0
 20
0.0
  9
$LIMMAX
 10
36.0
 20
36.0
  9
$ORTHOMODE
 70
     1
  9
$REGENMODE
 70
     1
  9
$FILLMODE
 70
     1
  9
$QTEXTMODE
 70
     0
  9
$MIRRTEXT
 70
     1
  9
$DRAGMODE
 70
     0
  9
$LTSCALE
 40
1.0
  9
$OSMODE
 70
    37
  9
$ATTMODE
 70
     1
  9
$TEXTSIZE
 40
0.2
  9
$TRACEWID
 40
0.05
  9
$TEXTSTYLE
  7
STANDARD
  9
$CLAYER
  8
0
  9
$CELTYPE
  6
BYLAYER
  9
$CECOLOR
 62
   256
  9
$CELTSCALE
 40
1.0
  9
$DELOBJ
 70
     1
  9
$DISPSILH
 70
     0
  9
$DIMSCALE
 40
1.0
  9
$DIMASZ
 40
0.125
  9
$DIMEXO
 40
0.0625
  9
$DIMDLI
 40
0.38
  9
$DIMRND
 40
0.0
  9
$DIMDLE
 40
0.0
  9
$DIMEXE
 40
0.18
  9
$DIMTP
 40
0.0
  9
$DIMTM
 40
0.0
  9
$DIMTXT
 40
0.125
  9
$DIMCEN
 40
0.1875
  9
$DIMTSZ
 40
0.125
  9
$DIMTOL
 70
     0
  9
$DIMLIM
 70
     0
  9
$DIMTIH
 70
     0
  9
$DIMTOH
 70
     0
  9
$DIMSE1
 70
     0
  9
$DIMSE2
 70
     0
  9
$DIMTAD
 70
     0
  9
$DIMZIN
 70
     3
  9
$DIMBLK
  1

  9
$DIMASO
 70
     1
  9
$DIMSHO
 70
     1
  9
$DIMPOST
  1

  9
$DIMAPOST
  1

  9
$DIMALT
 70
     0
  9
$DIMALTD
 70
     1
  9
$DIMALTF
 40
25.4
  9
$DIMLFAC
 40
1.0
  9
$DIMTOFL
 70
     0
  9
$DIMTVP
 40
0.0
  9
$DIMTIX
 70
     0
  9
$DIMSOXD
 70
     0
  9
$DIMSAH
 70
     0
  9
$DIMBLK1
  1

  9
$DIMBLK2
  1

  9
$DIMSTYLE
  2
STANDARD
  9
$DIMCLRD
 70
     0
  9
$DIMCLRE
 70
     0
  9
$DIMCLRT
 70
     0
  9
$DIMTFAC
 40
1.0
  9
$DIMGAP
 40
0.125
  9
$DIMJUST
 70
     0
  9
$DIMSD1
 70
     0
  9
$DIMSD2
 70
     0
  9
$DIMTOLJ
 70
     1
  9
$DIMTZIN
 70
     0
  9
$DIMALTZ
 70
     0
  9
$DIMALTTZ
 70
     0
  9
$DIMFIT
 70
     3
  9
$DIMUPT
 70
     0
  9
$DIMUNIT
 70
     2
  9
$DIMDEC
 70
     4
  9
$DIMTDEC
 70
     4
  9
$DIMALTU
 70
     2
  9
$DIMALTTD
 70
     2
  9
$DIMTXSTY
  7
STANDARD
  9
$DIMAUNIT
 70
     0
  9
$LUNITS
 70
     5
  9
$LUPREC
 70
     4
  9
$SKETCHINC
 40
0.1
  9
$FILLETRAD
 40
0.062
  9
$AUNITS
 70
     0
  9
$AUPREC
 70
     0
  9
$MENU
  1
acad
  9
$ELEVATION
 40
0.0
  9
$PELEVATION
 40
0.0
  9
$THICKNESS
 40
0.0
  9
$LIMCHECK
 70
     0
  9
$BLIPMODE
 70
     0
  9
$CHAMFERA
 40
0.0
  9
$CHAMFERB
 40
0.0
  9
$CHAMFERC
 40
0.0
  9
$CHAMFERD
 40
0.0
  9
$SKPOLY
 70
     0
  9
$TDCREATE
 40
2450387.516528935
  9
$TDUPDATE
 40
2452297.099705578
  9
$TDINDWG
 40
0.0278061806
  9
$TDUSRTIMER
 40
0.0278061806
  9
$USRTIMER
 70
     1
  9
$ANGBASE
 50
0.0
  9
$ANGDIR
 70
     0
  9
$PDMODE
 70
     0
  9
$PDSIZE
 40
0.0
  9
$PLINEWID
 40
0.0
  9
$COORDS
 70
     2
  9
$SPLFRAME
 70
     0
  9
$SPLINETYPE
 70
     6
  9
$SPLINESEGS
 70
     8
  9
$ATTDIA
 70
     0
  9
$ATTREQ
 70
     1
  9
$HANDLING
 70
 22529
  9
$HANDSEED
  5
44D
  9
$SURFTAB1
 70
     6
  9
$SURFTAB2
 70
     6
  9
$SURFTYPE
 70
     6
  9
$SURFU
 70
     6
  9
$SURFV
 70
     6
  9
$UCSNAME
  2

  9
$UCSORG
 10
0.0
 20
0.0
 30
0.0
  9
$UCSXDIR
 10
1.0
 20
0.0
 30
0.0
  9
$UCSYDIR
 10
0.0
 20
1.0
 30
0.0
  9
$PUCSNAME
  2

  9
$PUCSORG
 10
0.0
 20
0.0
 30
0.0
  9
$PUCSXDIR
 10
1.0
 20
0.0
 30
0.0
  9
$PUCSYDIR
 10
0.0
 20
1.0
 30
0.0
  9
$USERI1
 70
     0
  9
$USERI2
 70
     0
  9
$USERI3
 70
     0
  9
$USERI4
 70
     0
  9
$USERI5
 70
     0
  9
$USERR1
 40
0.0
  9
$USERR2
 40
0.0
  9
$USERR3
 40
0.0
  9
$USERR4
 40
0.0
  9
$USERR5
 40
0.0
  9
$WORLDVIEW
 70
     1
  9
$SHADEDGE
 70
     3
  9
$SHADEDIF
 70
    70
  9
$TILEMODE
 70
     1
  9
$MAXACTVP
 70
    15
  9
$PINSBASE
 10
0.0
 20
0.0
 30
0.0
  9
$PLIMCHECK
 70
     0
  9
$PEXTMIN
 10
1.000000000000000E+20
 20
1.000000000000000E+20
 30
1.000000000000000E+20
  9
$PEXTMAX
 10
-1.000000000000000E+20
 20
-1.000000000000000E+20
 30
-1.000000000000000E+20
  9
$PLIMMIN
 10
0.0
 20
0.0
  9
$PLIMMAX
 10
12.0
 20
9.0
  9
$UNITMODE
 70
     0
  9
$VISRETAIN
 70
     0
  9
$PLINEGEN
 70
     0
  9
$PSLTSCALE
 70
     1
  9
$TREEDEPTH
 70
  3020
  9
$PICKSTYLE
 70
     1
  9
$CMLSTYLE
  2
STANDARD
  9
$CMLJUST
 70
     0
  9
$CMLSCALE
 40
1.0
  9
$PROXYGRAPHICS
 70
     1
  9
$MEASUREMENT
 70
     0
  0
ENDSEC
  0
SECTION
  2
CLASSES
  0
CLASS
  1
ACDBDICTIONARYWDFLT
  2
AcDbDictionaryWithDefault
  3
AutoCAD 2000
 90
        0
280
     0
281
     0
  0
CLASS
  1
ACDBPLACEHOLDER
  2
AcDbPlaceHolder
  3
AutoCAD 2000
 90
        0
280
     0
281
     0
  0
CLASS
  1
LAYOUT
  2
AcDbLayout
  3
AutoCAD 2000
 90
        0
280
     0
281
     0
  0
CLASS
  1
DICTIONARYVAR
  2
AcDbDictionaryVar
  3
AutoCAD 2000
 90
        0
280
     0
281
     0
  0
CLASS
  1
LONG_TRANSACTION
  2
AcDbLongTransaction
  3
AutoCAD 2000
 90
        0
280
     0
281
     0
  0
CLASS
  1
LWPOLYLINE
  2
AcDbPolyline
  3
AutoCAD 2000
 90
        0
280
     0
281
     1
  0
CLASS
  1
HATCH
  2
AcDbHatch
  3
AutoCAD 2000
 90
        0
280
     0
281
     1
  0
CLASS
  1
XRECORD
  2
AcDbXrecord
  3
AutoCAD 2000
 90
        0
280
     0
281
     0
  0
CLASS
  1
LONG_TRANSACTION
  2
AcDbLongTransaction
  3
AutoCAD 2000
 90
        0
280
     0
281
     0
  0
CLASS
  1
LWPOLYLINE
  2
AcDbPolyline
  3
AutoCAD 2000
 90
        0
280
     0
281
     1
  0
CLASS
  1
HATCH
  2
AcDbHatch
  3
AutoCAD 2000
 90
        0
280
     0
281
     1
  0
CLASS
  1
XRECORD
  2
AcDbXrecord
  3
AutoCAD 2000
 90
        0
280
     0
281
     0
  0
CLASS
  1
LONG_TRANSACTION
  2
AcDbLongTransaction
  3
AutoCAD 2000
 90
        0
280
     0
281
     0
  0
CLASS
  1
LWPOLYLINE
  2
AcDbPolyline
  3
AutoCAD 2000
 90
        0
280
     0
281
     1
  0
CLASS
  1
HATCH
  2
AcDbHatch
  3
AutoCAD 2000
 90
        0
280
     0
281
     1
  0
CLASS
  1
XRECORD
  2
AcDbXrecord
  3
AutoCAD 2000
 90
        0
280
     0
281
     0
  0
CLASS
  1
LONG_TRANSACTION
  2
AcDbLongTransaction
  3
AutoCAD 2000
 90
        0
280
     0
281
     0
  0
CLASS
  1
LWPOLYLINE
  2
AcDbPolyline
  3
AutoCAD 2000
 90
        0
280
     0
281
     1
  0
CLASS
  1
HATCH
  2
AcDbHatch
  3
AutoCAD 2000
 90
        0
280
     0
281
     1
  0
CLASS
  1
XRECORD
  2
AcDbXrecord
  3
AutoCAD 2000
 90
        0
280
     0
281
     0
  0
CLASS
  1
LONG_TRANSACTION
  2
AcDbLongTransaction
  3
AutoCAD 2000
 90
        0
280
     0
281
     0
  0
CLASS
  1
LWPOLYLINE
  2
AcDbPolyline
  3
AutoCAD 2000
 90
        0
280
     0
281
     1
  0
CLASS
  1
HATCH
  2
AcDbHatch
  3
AutoCAD 2000
 90
        0
280
     0
281
     1
  0
CLASS
  1
XRECORD
  2
AcDbXrecord
  3
AutoCAD 2000
 90
        0
280
     0
281
     0
  0
ENDSEC
  0
SECTION
  2
TABLES
  0
TABLE
  2
VPORT
  5
8
330
0
100
AcDbSymbolTable
 70
     2
  0
VPORT
  5
42A
330
8
100
AcDbSymbolTableRecord
100
AcDbViewportTableRecord
  2
*ACTIVE
 70
     0
 10
0.0
 20
0.0
 11
1.0
 21
1.0
 12
-46.60577734465462
 22
25.18917855898521
 13
0.0
 23
0.0
 14
0.5740882589684922
 24
0.5740882589684922
 15
0.5
 25
0.5
 16
0.0
 26
0.0
 36
1.0
 17
0.0
 27
0.0
 37
0.0
 40
12.55123673522282
 41
1.570528967254408
 42
50.0
 43
0.0
 44
0.0
 50
0.0
 51
0.0
 71
     0
 72
   100
 73
     1
 74
     0
 75
     0
 76
     0
 77
     0
 78
     0
  0
ENDTAB
  0
TABLE
  2
LTYPE
  5
5
330
0
100
AcDbSymbolTable
 70
     2
  0
LTYPE
  5
12
330
5
100
AcDbSymbolTableRecord
100
AcDbLinetypeTableRecord
  2
BYBLOCK
 70
     0
  3

 72
    65
 73
     0
 40
0.0
  0
LTYPE
  5
13
330
5
100
AcDbSymbolTableRecord
100
AcDbLinetypeTableRecord
  2
BYLAYER
 70
     0
  3

 72
    65
 73
     0
 40
0.0
  0
LTYPE
  5
14
330
5
100
AcDbSymbolTableRecord
100
AcDbLinetypeTableRecord
  2
CONTINUOUS
 70
     0
  3
Solid line
 72
    65
 73
     0
 40
0.0
  0
LTYPE
  5
281
330
5
100
AcDbSymbolTableRecord
100
AcDbLinetypeTableRecord
  2
CENTER2
 70
     0
  3
___ _ ___ _ ___ _ ___ _ ___ _ ___ _ ___ _ ___ _
 72
    65
 73
     4
 40
1.125
 49
0.75
 74
     0
 49
-0.125
 74
     0
 49
0.125
 74
     0
 49
-0.125
 74
     0
  0
ENDTAB
  0
TABLE
  2
LAYER
  5
2
330
0
100
AcDbSymbolTable
 70
     5
  0
LAYER
  5
F
330
2
100
AcDbSymbolTableRecord
100
AcDbLayerTableRecord
  2
0
 70
     0
 62
     7
  6
CONTINUOUS
  0
LAYER
  5
282
330
2
100
AcDbSymbolTableRecord
100
AcDbLayerTableRecord
  2
ADP1DETAIL
 70
     0
 62
     7
  6
CONTINUOUS
  0
LAYER
  5
283
330
2
100
AcDbSymbolTableRecord
100
AcDbLayerTableRecord
  2
DEFPOINTS
 70
     0
 62
     7
  6
CONTINUOUS
  0
LAYER
  5
287
330
2
100
AcDbSymbolTableRecord
100
AcDbLayerTableRecord
  2
ADP3DETAIL
 70
     0
 62
     1
  6
CONTINUOUS
  0
LAYER
  5
28A
330
2
100
AcDbSymbolTableRecord
100
AcDbLayerTableRecord
  2
ADPDIM
 70
     0
 62
     3
  6
CONTINUOUS
  0
ENDTAB
  0
TABLE
  2
STYLE
  5
3
330
0
100
AcDbSymbolTable
 70
     2
  0
STYLE
  5
10
330
3
100
AcDbSymbolTableRecord
100
AcDbTextStyleTableRecord
  2
STANDARD
 70
     0
 40
0.0
 41
1.0
 50
0.0
 71
     0
 42
0.2
  3
txt
  4

  0
STYLE
  5
2E6
330
3
100
AcDbSymbolTableRecord
100
AcDbTextStyleTableRecord
  2
ARIAL_WIDE
 70
     0
 40
0.0
 41
1.25
 50
0.0
 71
     0
 42
0.2
  3
ARIAL.TTF
  4

1001
ACAD
1000
Arial
1071
       34
  0
ENDTAB
  0
TABLE
  2
VIEW
  5
6
330
0
100
AcDbSymbolTable
 70
     0
  0
ENDTAB
  0
TABLE
  2
UCS
  5
7
330
0
100
AcDbSymbolTable
 70
     0
  0
ENDTAB
  0
TABLE
  2
APPID
  5
9
330
0
100
AcDbSymbolTable
 70
     1
  0
APPID
  5
11
330
9
100
AcDbSymbolTableRecord
100
AcDbRegAppTableRecord
  2
ACAD
 70
     0
  0
ENDTAB
  0
TABLE
  2
DIMSTYLE
  5
A
330
0
100
AcDbSymbolTable
 70
     1
  0
DIMSTYLE
105
2DA
330
A
100
AcDbSymbolTableRecord
100
AcDbDimStyleTableRecord
  2
STANDARD
 70
     0
  3

  4

  5

  6

  7

 40
1.0
 41
0.18
 42
0.0625
 43
0.38
 44
0.18
 45
0.0
 46
0.0
 47
0.0
 48
0.0
140
0.18
141
0.09
142
0.0
143
25.4
144
1.0
145
0.0
146
1.0
147
0.09
 71
     0
 72
     0
 73
     1
 74
     1
 75
     0
 76
     0
 77
     0
 78
     0
170
     0
171
     2
172
     0
173
     0
174
     0
175
     0
176
     0
177
     0
178
     0
270
     2
271
     4
272
     4
273
     2
274
     2
340
10
275
     0
280
     0
281
     0
282
     0
283
     1
284
     0
285
     0
286
     0
287
     3
288
     0
  0
ENDTAB
  0
TABLE
  2
BLOCK_RECORD
  5
1
330
0
100
AcDbSymbolTable
 70
     5
  0
BLOCK_RECORD
  5
18
102
{ACAD_XDICTIONARY
360
33B
102
}
330
1
100
AcDbSymbolTableRecord
100
AcDbBlockTableRecord
  2
*MODEL_SPACE
  0
BLOCK_RECORD
  5
15
102
{ACAD_XDICTIONARY
360
339
102
}
330
1
100
AcDbSymbolTableRecord
100
AcDbBlockTableRecord
  2
*PAPER_SPACE
  0
BLOCK_RECORD
  5
25D
330
1
100
AcDbSymbolTableRecord
100
AcDbBlockTableRecord
  2
*D0
  0
BLOCK_RECORD
  5
27C
330
1
100
AcDbSymbolTableRecord
100
AcDbBlockTableRecord
  2
*D1
  0
BLOCK_RECORD
  5
27D
330
1
100
AcDbSymbolTableRecord
100
AcDbBlockTableRecord
  2
*D2
  0
BLOCK_RECORD
  5
27E
330
1
100
AcDbSymbolTableRecord
100
AcDbBlockTableRecord
  2
*D3
  0
BLOCK_RECORD
  5
27F
330
1
100
AcDbSymbolTableRecord
100
AcDbBlockTableRecord
  2
*D4
  0
ENDTAB
  0
ENDSEC
  0
SECTION
  2
BLOCKS
  0
BLOCK
  5
28D
330
18
100
AcDbEntity
  8
0
100
AcDbBlockBegin
  2
*MODEL_SPACE
 70
     0
 10
0.0
 20
0.0
 30
0.0
  3
*MODEL_SPACE
  1

  0
ENDBLK
  5
28E
330
18
100
AcDbEntity
  8
0
100
AcDbBlockEnd
  0
BLOCK
  5
28B
330
15
100
AcDbEntity
 67
     1
  8
0
100
AcDbBlockBegin
  2
*PAPER_SPACE
 70
     0
 10
0.0
 20
0.0
 30
0.0
  3
*PAPER_SPACE
  1

  0
ENDBLK
  5
28C
330
15
100
AcDbEntity
 67
     1
  8
0
100
AcDbBlockEnd
  0
BLOCK
  5
290
330
25D
100
AcDbEntity
  8
0
100
AcDbBlockBegin
  2
*D0
 70
     1
 10
0.0
 20
0.0
 30
0.0
  3
*D0
  1

  0
LINE
  5
291
330
25D
100
AcDbEntity
  8
0
  6
BYBLOCK
 62
     0
100
AcDbLine
 10
-39.79126135500692
 20
27.24453932860459
 30
0.0
 11
-39.6737613983004
 21
27.24464019469309
 31
0.0
  0
LINE
  5
292
330
25D
100
AcDbEntity
  8
0
  6
BYBLOCK
 62
     0
100
AcDbLine
 10
-39.79135492439965
 20
27.35353928844297
 30
0.0
 11
-39.67385496769313
 21
27.35364015453148
 31
0.0
  0
LINE
  5
293
330
25D
100
AcDbEntity
  8
0
  6
BYBLOCK
 62
     0
100
AcDbLine
 10
-39.85376133197846
 20
27.24448567642986
 30
0.0
 11
-39.85354672327952
 21
26.99448576854366
 31
0.0
  0
LINE
  5
294
330
25D
100
AcDbEntity
  8
0
  6
BYBLOCK
 62
     0
100
AcDbLine
 10
-39.8538549013712
 20
27.35348563626824
 30
0.0
 11
-39.85406951007014
 21
27.60348554415443
 31
0.0
  0
LINE
  5
295
330
25D
100
AcDbEntity
  8
0
  6
BYBLOCK
 62
     0
100
AcDbLine
 10
-39.97886859027103
 20
27.36937832602349
 30
0.0
 11
-39.72865407368589
 21
27.11959302683623
 31
0.0
  0
LINE
  5
296
330
25D
100
AcDbEntity
  8
0
  6
BYBLOCK
 62
     0
100
AcDbLine
 10
-39.97896215966376
 20
27.47837828586187
 30
0.0
 11
-39.72874764307862
 21
27.22859298667461
 31
0.0
  0
TEXT
  5
297
330
25D
100
AcDbEntity
  8
0
  6
BYBLOCK
 62
     0
100
AcDbText
 10
-39.91703447255605
 20
28.14509835906646
 30
0.0
 40
0.125
  1
0.109
 50
270.0491846968248
 72
     1
 11
-39.85435565500205
 21
27.93681875466936
 31
0.0
100
AcDbText
 73
     2
  0
POINT
  5
298
330
25D
100
AcDbEntity
  8
DEFPOINTS
  6
BYBLOCK
 62
     0
100
AcDbPoint
 10
-39.85376133197847
 20
27.24448567642986
 30
0.0
  0
POINT
  5
299
330
25D
100
AcDbEntity
  8
DEFPOINTS
  6
BYBLOCK
 62
     0
100
AcDbPoint
 10
-39.85385490137121
 20
27.35348563626824
 30
0.0
  0
POINT
  5
29A
330
25D
100
AcDbEntity
  8
DEFPOINTS
  6
BYBLOCK
 62
     0
100
AcDbPoint
 10
-39.8538549013712
 20
27.35348563626824
 30
0.0
  0
ENDBLK
  5
29B
330
25D
100
AcDbEntity
  8
0
100
AcDbBlockEnd
  0
BLOCK
  5
29C
330
27C
100
AcDbEntity
  8
0
100
AcDbBlockBegin
  2
*D1
 70
     1
 10
0.0
 20
0.0
 30
0.0
  3
*D1
  1

  0
LINE
  5
29D
330
27C
100
AcDbEntity
  8
0
  6
BYBLOCK
 62
     0
100
AcDbLine
 10
-54.42938175196844
 20
26.10413857660775
 30
0.0
 11
-54.61502675544015
 21
27.63967800600163
 31
0.0
  0
LINE
  5
29E
330
27C
100
AcDbEntity
  8
0
  6
BYBLOCK
 62
     0
100
AcDbLine
 10
-51.45140173168783
 20
26.46417303786669
 30
0.0
 11
-51.63704673515954
 21
27.99971246726056
 31
0.0
  0
LINE
  5
29F
330
27C
100
AcDbEntity
  8
0
  6
BYBLOCK
 62
     0
100
AcDbLine
 10
-54.59342227490689
 20
27.46097924713384
 30
0.0
 11
-53.26989407853304
 21
27.6209923291214
 31
0.0
  0
LINE
  5
2A0
330
27C
100
AcDbEntity
  8
0
  6
BYBLOCK
 62
     0
100
AcDbLine
 10
-51.61544225462627
 20
27.82101370839277
 30
0.0
 11
-52.93897045100011
 21
27.66100062640522
 31
0.0
  0
LINE
  5
2A1
330
27C
100
AcDbEntity
  8
0
  6
BYBLOCK
 62
     0
100
AcDbLine
 10
-54.70251552375031
 20
27.32187977532755
 30
0.0
 11
-54.48432902606347
 21
27.60007871894013
 31
0.0
  0
LINE
  5
2A2
330
27C
100
AcDbEntity
  8
0
  6
BYBLOCK
 62
     0
100
AcDbLine
 10
-51.72453550346969
 20
27.68191423658649
 30
0.0
 11
-51.50634900578285
 21
27.96011318019906
 31
0.0
  0
TEXT
  5
2A3
330
27C
100
AcDbEntity
  8
0
  6
BYBLOCK
 62
     0
100
AcDbText
 10
-53.13829616246748
 20
27.5739472604404
 30
0.0
 40
0.125
  1
3
 50
6.893539160431799
 72
     1
 11
-53.10443226476658
 21
27.64099647776331
 31
0.0
100
AcDbText
 73
     2
  0
POINT
  5
2A4
330
27C
100
AcDbEntity
  8
DEFPOINTS
  6
BYBLOCK
 62
     0
100
AcDbPoint
 10
-54.42188019622772
 20
26.04209039644533
 30
0.0
  0
POINT
  5
2A5
330
27C
100
AcDbEntity
  8
DEFPOINTS
  6
BYBLOCK
 62
     0
100
AcDbPoint
 10
-51.44390017594711
 20
26.40212485770426
 30
0.0
  0
POINT
  5
2A6
330
27C
100
AcDbEntity
  8
DEFPOINTS
  6
BYBLOCK
 62
     0
100
AcDbPoint
 10
-51.61544225462627
 20
27.82101370839277
 30
0.0
  0
ENDBLK
  5
2A7
330
27C
100
AcDbEntity
  8
0
100
AcDbBlockEnd
  0
BLOCK
  5
2A8
330
27D
100
AcDbEntity
  8
0
100
AcDbBlockBegin
  2
*D2
 70
     1
 10
0.0
 20
0.0
 30
0.0
  3
*D2
  1

  0
LINE
  5
2A9
330
27D
100
AcDbEntity
  8
0
  6
BYBLOCK
 62
     0
100
AcDbLine
 10
-44.44597035629782
 20
27.42201675880276
 30
0.0
 11
-44.44597035629782
 21
28.01601022502923
 31
0.0
  0
LINE
  5
2AA
330
27D
100
AcDbEntity
  8
0
  6
BYBLOCK
 62
     0
100
AcDbLine
 10
-51.44531171795731
 20
26.81706872956318
 30
0.0
 11
-51.44531171795731
 21
28.01601022502923
 31
0.0
  0
LINE
  5
2AB
330
27D
100
AcDbEntity
  8
0
  6
BYBLOCK
 62
     0
100
AcDbLine
 10
-44.44597035629782
 20
27.83601022502923
 30
0.0
 11
-47.77897437046091
 21
27.83601022502923
 31
0.0
  0
LINE
  5
2AC
330
27D
100
AcDbEntity
  8
0
  6
BYBLOCK
 62
     0
100
AcDbLine
 10
-51.44531171795731
 20
27.83601022502923
 30
0.0
 11
-48.11230770379424
 21
27.83601022502923
 31
0.0
  0
LINE
  5
2AD
330
27D
100
AcDbEntity
  8
0
  6
BYBLOCK
 62
     0
100
AcDbLine
 10
-44.57097035629782
 20
27.71101022502923
 30
0.0
 11
-44.32097035629783
 21
27.96101022502923
 31
0.0
  0
LINE
  5
2AE
330
27D
100
AcDbEntity
  8
0
  6
BYBLOCK
 62
     0
100
AcDbLine
 10
-51.57031171795731
 20
27.71101022502923
 30
0.0
 11
-51.3203117179573
 21
27.96101022502923
 31
0.0
  0
TEXT
  5
2AF
330
27D
100
AcDbEntity
  8
0
  6
BYBLOCK
 62
     0
100
AcDbText
 10
-47.98730770379424
 20
27.77351022502923
 30
0.0
 40
0.125
  1
7
 72
     1
 11
-47.94564103712757
 21
27.83601022502923
 31
0.0
100
AcDbText
 73
     2
  0
POINT
  5
2B0
330
27D
100
AcDbEntity
  8
DEFPOINTS
  6
BYBLOCK
 62
     0
100
AcDbPoint
 10
-44.44597035629782
 20
27.35951675880276
 30
0.0
  0
POINT
  5
2B1
330
27D
100
AcDbEntity
  8
DEFPOINTS
  6
BYBLOCK
 62
     0
100
AcDbPoint
 10
-51.44531171795731
 20
26.75456872956317
 30
0.0
  0
POINT
  5
2B2
330
27D
100
AcDbEntity
  8
DEFPOINTS
  6
BYBLOCK
 62
     0
100
AcDbPoint
 10
-51.44531171795731
 20
27.83601022502923
 30
0.0
  0
ENDBLK
  5
2B3
330
27D
100
AcDbEntity
  8
0
100
AcDbBlockEnd
  0
BLOCK
  5
2B4
330
27E
100
AcDbEntity
  8
0
100
AcDbBlockBegin
  2
*D3
 70
     1
 10
0.0
 20
0.0
 30
0.0
  3
*D3
  1

  0
LINE
  5
2B5
330
27E
100
AcDbEntity
  8
0
  6
BYBLOCK
 62
     0
100
AcDbLine
 10
-51.4439001759471
 20
26.40212485770426
 30
0.0
 11
-51.19615625383611
 21
23.38938833244665
 31
0.0
  0
LINE
  5
2B6
330
27E
100
AcDbEntity
  8
0
  6
BYBLOCK
 62
     0
100
AcDbLine
 10
-51.57872411899823
 20
26.51645991086009
 30
0.0
 11
-51.30907623289598
 21
26.28778980454843
 31
0.0
  0
TEXT
  5
2B7
330
27E
100
AcDbEntity
  8
0
  6
BYBLOCK
 62
     0
100
AcDbText
 10
-51.2482015579402
 20
23.25968661186935
 30
0.0
 40
0.125
  1
R3
 50
274.7009802444078
 72
     1
 11
-51.17737477143208
 21
23.1609925859236
 31
0.0
100
AcDbText
 73
     2
  0
POINT
  5
2B8
330
27E
100
AcDbEntity
  8
DEFPOINTS
  6
BYBLOCK
 62
     0
100
AcDbPoint
 10
-51.4439001759471
 20
26.40212485770426
 30
0.0
  0
POINT
  5
2B9
330
27E
100
AcDbEntity
  8
DEFPOINTS
  6
BYBLOCK
 62
     0
100
AcDbPoint
 10
-51.19803349720351
 20
23.41221690322077
 30
0.0
  0
ENDBLK
  5
2BA
330
27E
100
AcDbEntity
  8
0
100
AcDbBlockEnd
  0
BLOCK
  5
2BB
330
27F
100
AcDbEntity
  8
0
100
AcDbBlockBegin
  2
*D4
 70
     1
 10
0.0
 20
0.0
 30
0.0
  3
*D4
  1

  0
LINE
  5
2BC
330
27F
100
AcDbEntity
  8
0
  6
BYBLOCK
 62
     0
100
AcDbLine
 10
-44.38347035629782
 20
27.35951675880276
 30
0.0
 11
-43.56900743540498
 21
27.35951675880276
 31
0.0
  0
LINE
  5
2BD
330
27F
100
AcDbEntity
  8
0
  6
BYBLOCK
 62
     0
100
AcDbLine
 10
-44.38347035629782
 20
25.45951754439544
 30
0.0
 11
-43.56900743540498
 21
25.45951754439544
 31
0.0
  0
LINE
  5
2BE
330
27F
100
AcDbEntity
  8
0
  6
BYBLOCK
 62
     0
100
AcDbLine
 10
-43.74900743540497
 20
27.35951675880276
 30
0.0
 11
-43.74900743540497
 21
26.74285048493243
 31
0.0
  0
LINE
  5
2BF
330
27F
100
AcDbEntity
  8
0
  6
BYBLOCK
 62
     0
100
AcDbLine
 10
-43.74900743540497
 20
25.45951754439544
 30
0.0
 11
-43.74900743540497
 21
26.07618381826577
 31
0.0
  0
LINE
  5
2C0
330
27F
100
AcDbEntity
  8
0
  6
BYBLOCK
 62
     0
100
AcDbLine
 10
-43.62400743540497
 20
27.23451675880276
 30
0.0
 11
-43.87400743540498
 21
27.48451675880276
 31
0.0
  0
LINE
  5
2C1
330
27F
100
AcDbEntity
  8
0
  6
BYBLOCK
 62
     0
100
AcDbLine
 10
-43.62400743540497
 20
25.33451754439544
 30
0.0
 11
-43.87400743540498
 21
25.58451754439544
 31
0.0
  0
TEXT
  5
2C2
330
27F
100
AcDbEntity
  8
0
  6
BYBLOCK
 62
     0
100
AcDbText
 10
-43.68650743540498
 20
26.20118381826577
 30
0.0
 40
0.125
  1
1.900
 50
90.0
 72
     1
 11
-43.74900743540497
 21
26.4095171515991
 31
0.0
100
AcDbText
 73
     2
  0
POINT
  5
2C3
330
27F
100
AcDbEntity
  8
DEFPOINTS
  6
BYBLOCK
 62
     0
100
AcDbPoint
 10
-44.44597035629782
 20
27.35951675880276
 30
0.0
  0
POINT
  5
2C4
330
27F
100
AcDbEntity
  8
DEFPOINTS
  6
BYBLOCK
 62
     0
100
AcDbPoint
 10
-44.44597035629782
 20
25.45951754439544
 30
0.0
  0
POINT
  5
2C5
330
27F
100
AcDbEntity
  8
DEFPOINTS
  6
BYBLOCK
 62
     0
100
AcDbPoint
 10
-43.74900743540497
 20
25.45951754439544
 30
0.0
  0
ENDBLK
  5
2C6
330
27F
100
AcDbEntity
  8
0
100
AcDbBlockEnd
  0
ENDSEC
  0
SECTION
  2
ENTITIES
  0
DIMENSION
  5
2C7
330
18
100
AcDbEntity
  8
ADPDIM
100
AcDbDimension
  2
*D2
 10
-51.44531171795731
 20
27.83601022502923
 30
0.0
 11
-47.94564103712757
 21
27.83601022502923
 31
0.0
100
AcDbAlignedDimension
 13
-44.44597035629782
 23
27.35951675880276
 33
0.0
 14
-51.44531171795731
 24
26.75456872956317
 34
0.0
100
AcDbRotatedDimension
  0
DIMENSION
  5
2C8
330
18
100
AcDbEntity
  8
ADPDIM
100
AcDbDimension
  2
*D1
 10
-51.61544225462627
 20
27.82101370839277
 30
0.0
 11
-53.10443226476658
 21
27.64099647776331
 31
0.0
 70
     1
100
AcDbAlignedDimension
 13
-54.42188019622773
 23
26.04209039644533
 33
0.0
 14
-51.44390017594711
 24
26.40212485770426
 34
0.0
  0
LINE
  5
2C9
330
18
100
AcDbEntity
  8
ADP1DETAIL
100
AcDbLine
 10
-54.53765607246262
 20
26.98500924050458
 30
0.0
 11
-51.68663525452775
 21
27.33507057975975
 31
0.0
  0
LINE
  5
2CA
330
18
100
AcDbEntity
  8
ADP1DETAIL
100
AcDbLine
 10
-51.38952399468223
 20
25.45728258696739
 30
0.0
 11
-54.30610431999284
 21
25.09917155238607
 31
0.0
  0
LINE
  5
2CB
330
18
100
AcDbEntity
  8
ADP3DETAIL
  6
CENTER2
100
AcDbLine
 10
-54.84955328702873
 20
25.98957874378133
 30
0.0
 11
-51.6260032922046
 21
26.38538091444437
 31
0.0
  0
LINE
  5
2CC
330
18
100
AcDbEntity
  8
ADP1DETAIL
100
AcDbLine
 10
-54.30610431999284
 20
25.09917155238607
 30
0.0
 11
-54.53765607246262
 21
26.98500924050458
 31
0.0
  0
LINE
  5
2CD
330
18
100
AcDbEntity
  8
ADP1DETAIL
100
AcDbLine
 10
-51.32193658652977
 20
27.35743198701251
 30
0.0
 11
-44.44424256824342
 21
27.35951675880276
 31
0.0
  0
LINE
  5
2CE
330
18
100
AcDbEntity
  8
ADP1DETAIL
100
AcDbLine
 10
-51.13569643056897
 20
25.47255908261066
 30
0.0
 11
-44.44424256824342
 21
25.45951754439544
 31
0.0
  0
LINE
  5
2CF
330
18
100
AcDbEntity
  8
ADP3DETAIL
  6
CENTER2
100
AcDbLine
 10
-51.34156762943318
 20
26.40772348089595
 30
0.0
 11
-44.27978700594169
 21
26.40769101205653
 31
0.0
  0
DIMENSION
  5
2D0
330
18
100
AcDbEntity
  8
ADPDIM
100
AcDbDimension
  2
*D3
 10
-51.19803349720351
 20
23.41221690322077
 30
0.0
 11
-51.17737477143208
 21
23.1609925859236
 31
0.0
 70
     4
100
AcDbRadialDimension
 15
-51.4439001759471
 25
26.40212485770426
 35
0.0
 40
-3.022905625646328
  0
ARC
  5
2D1
330
18
100
AcDbEntity
  8
ADP3DETAIL
  6
CENTER2
100
AcDbCircle
 10
-51.26039526198916
 20
23.40774245952041
 30
0.0
 40
3.0
100
AcDbArc
 50
90.01374976804639
 51
96.99999999999997
  0
ARC
  5
2D2
330
18
100
AcDbEntity
  8
ADP1DETAIL
100
AcDbCircle
 10
-51.3784315938675
 20
24.35741524810847
 30
0.0
 40
3.0
100
AcDbArc
 50
90.01736753930215
 51
94.0
  0
ARC
  5
2D3
330
18
100
AcDbEntity
  8
ADP1DETAIL
100
AcDbCircle
 10
-51.32102722431231
 20
24.35743212483579
 30
0.0
 40
3.0
100
AcDbArc
 50
90.01736753930215
 51
97.00000000000002
  0
ARC
  5
2D4
330
18
100
AcDbEntity
  8
ADP1DETAIL
100
AcDbCircle
 10
-51.13969184070167
 20
23.42256297610267
 30
0.0
 40
2.049999999999999
100
AcDbArc
 50
89.88833156929045
 51
96.99999999999997
  0
DIMENSION
  5
2D5
330
18
100
AcDbEntity
  8
ADPDIM
100
AcDbDimension
  2
*D4
 10
-43.74900743540497
 20
25.45951754439544
 30
0.0
 11
-43.74900743540497
 21
26.4095171515991
 31
0.0
  1
1.900
100
AcDbAlignedDimension
 13
-44.44597035629782
 23
27.35951675880276
 33
0.0
 14
-44.44597035629782
 24
25.45951754439544
 34
0.0
 50
90.0
100
AcDbRotatedDimension
  0
LINE
  5
2D6
330
18
100
AcDbEntity
  8
ADP1DETAIL
100
AcDbLine
 10
-44.44597035629782
 20
27.35951675880276
 30
0.0
 11
-44.44424256824342
 21
25.45951754439544
 31
0.0
  0
DIMENSION
  5
2D7
330
18
100
AcDbEntity
  8
ADPDIM
100
AcDbDimension
  2
*D0
 10
-39.8538549013712
 20
27.35348563626824
 30
0.0
 11
-39.85435565500205
 21
27.93681875466936
 31
0.0
  1
0.109
100
AcDbAlignedDimension
 13
-39.85376133197846
 23
27.24448567642985
 33
0.0
 14
-39.8538549013712
 24
27.35348563626823
 34
0.0
 50
90.04918469682484
100
AcDbRotatedDimension
  0
CIRCLE
  5
2D8
330
18
100
AcDbEntity
  8
ADP1DETAIL
100
AcDbCircle
 10
-39.85304418545083
 20
26.40907421951232
 30
0.0
 40
0.95
  0
CIRCLE
  5
2D9
330
18
100
AcDbEntity
  8
ADP1DETAIL
100
AcDbCircle
 10
-39.85304418545083
 20
26.40907421951232
 30
0.0
 40
0.841
  0
TEXT
  5
2E7
330
18
100
AcDbEntity
  8
ADPDIM
100
AcDbText
 10
-56.41085123288632
 20
22.28853296282911
 30
0.0
 40
0.1875
  1
J U L I U S  B L U M  &  C O . ,  I N C .      ( 8 0 0 )  5 2 6 - 6 2 9 3        W W W . J U L I U S B L U M . C O M        P A R T  N o .  7 2 0 6
 41
1.25
  7
ARIAL_WIDE
 72
     1
 11
-46.6222576960514
 21
22.4760329628291
 31
0.0
100
AcDbText
 73
     3
  0
ENDSEC
  0
SECTION
  2
OBJECTS
  0
DICTIONARY
  5
C
330
0
100
AcDbDictionary
  3
ACAD_GROUP
350
D
  3
ACAD_LAYOUT
350
2E0
  3
ACAD_MLINESTYLE
350
E
  3
ACAD_PLOTSETTINGS
350
2E1
  3
ACAD_PLOTSTYLENAME
350
2DE
  3
ACDBHEADERROUNDTRIPXREC
350
42B
  3
ACDBVARIABLEDICTIONARY
350
341
  0
DICTIONARY
  5
33B
330
18
100
AcDbDictionary
280
     1
  3
ACAD_LAYOUTSELFREF
360
44C
  0
DICTIONARY
  5
339
330
15
100
AcDbDictionary
280
     1
  3
ACAD_LAYOUTSELFREF
360
44B
  0
DICTIONARY
  5
D
102
{ACAD_REACTORS
330
C
102
}
330
C
100
AcDbDictionary
  0
DICTIONARY
  5
2E0
102
{ACAD_REACTORS
330
C
102
}
330
C
100
AcDbDictionary
  0
DICTIONARY
  5
E
102
{ACAD_REACTORS
330
C
102
}
330
C
100
AcDbDictionary
  3
STANDARD
350
1B
  0
DICTIONARY
  5
2E1
102
{ACAD_REACTORS
330
C
102
}
330
C
100
AcDbDictionary
  0
ACDBDICTIONARYWDFLT
  5
2DE
102
{ACAD_REACTORS
330
C
102
}
330
C
100
AcDbDictionary
281
     1
  3
Normal
350
2DF
100
AcDbDictionaryWithDefault
340
2DF
  0
DICTIONARY
  5
42B
102
{ACAD_REACTORS
330
C
102
}
330
C
100
AcDbDictionary
  3
CEPSNTYPE
350
435
  3
FINGERPRINTGUID
350
436
  3
HYPERLINKBASE
350
42E
  3
INSUNITS
350
434
  3
LAYOUTDICT
350
430
  3
LWETCUNION
350
433
  3
PLOTSETDICT
350
431
  3
PLOTSTYLNAMDICT
350
432
  3
PSVPSCALE
350
438
  3
PUCSBASE
350
43B
  3
PUCSORGBACK
350
441
  3
PUCSORGBOTTOM
350
43D
  3
PUCSORGFRONT
350
440
  3
PUCSORGLEFT
350
43E
  3
PUCSORGRIGHT
350
43F
  3
PUCSORGTOP
350
43C
  3
PUCSORTHOREF
350
439
  3
PUCSORTHOVIEW
350
43A
  3
STYLESHEET
350
42F
  3
TSTACKALIGN
350
42C
  3
TSTACKSIZE
350
42D
  3
UCSBASE
350
444
  3
UCSORGBACK
350
44A
  3
UCSORGBOTTOM
350
446
  3
UCSORGFRONT
350
449
  3
UCSORGLEFT
350
447
  3
UCSORGRIGHT
350
448
  3
UCSORGTOP
350
445
  3
UCSORTHOREF
350
442
  3
UCSORTHOVIEW
350
443
  3
VERSIONGUID
350
437
  0
DICTIONARY
  5
341
102
{ACAD_REACTORS
330
C
102
}
330
C
100
AcDbDictionary
  3
DIMASSOC
350
342
  0
XRECORD
  5
44C
102
{ACAD_REACTORS
330
33B
102
}
330
33B
100
AcDbXrecord
340
18
  0
XRECORD
  5
44B
102
{ACAD_REACTORS
330
339
102
}
330
339
100
AcDbXrecord
340
15
  0
MLINESTYLE
  5
1B
102
{ACAD_REACTORS
330
E
102
}
330
E
100
AcDbMlineStyle
  2
STANDARD
 70
     0
  3

 62
     0
 51
90.0
 52
90.0
 71
     2
 49
0.5
 62
   256
  6
BYLAYER
 49
-0.5
 62
   256
  6
BYLAYER
  0
ACDBPLACEHOLDER
  5
2DF
102
{ACAD_REACTORS
330
2DE
102
}
330
2DE
100
AcDbPlaceHolder
280
     0
  0
XRECORD
  5
435
102
{ACAD_REACTORS
330
42B
102
}
330
42B
100
AcDbXrecord
 90
        0
  0
XRECORD
  5
436
102
{ACAD_REACTORS
330
42B
102
}
330
42B
100
AcDbXrecord
  1
{B4D4EB55-D490-4341-A50B-9200C6FF7A81}
  0
XRECORD
  5
42E
102
{ACAD_REACTORS
330
42B
102
}
330
42B
100
AcDbXrecord
  1

  0
XRECORD
  5
434
102
{ACAD_REACTORS
330
42B
102
}
330
42B
100
AcDbXrecord
 90
        0
  0
XRECORD
  5
430
102
{ACAD_REACTORS
330
42B
102
}
330
42B
100
AcDbXrecord
340
2E0
  0
XRECORD
  5
433
102
{ACAD_REACTORS
330
42B
102
}
330
42B
100
AcDbXrecord
 90
    14877
  0
XRECORD
  5
431
102
{ACAD_REACTORS
330
42B
102
}
330
42B
100
AcDbXrecord
340
2E1
  0
XRECORD
  5
432
102
{ACAD_REACTORS
330
42B
102
}
330
42B
100
AcDbXrecord
340
2DE
  0
XRECORD
  5
438
102
{ACAD_REACTORS
330
42B
102
}
330
42B
100
AcDbXrecord
 40
0.0
  0
XRECORD
  5
43B
102
{ACAD_REACTORS
330
42B
102
}
330
42B
100
AcDbXrecord
340
0
  0
XRECORD
  5
441
102
{ACAD_REACTORS
330
42B
102
}
330
42B
100
AcDbXrecord
 10
0.0
 20
0.0
 30
0.0
  0
XRECORD
  5
43D
102
{ACAD_REACTORS
330
42B
102
}
330
42B
100
AcDbXrecord
 10
0.0
 20
0.0
 30
0.0
  0
XRECORD
  5
440
102
{ACAD_REACTORS
330
42B
102
}
330
42B
100
AcDbXrecord
 10
0.0
 20
0.0
 30
0.0
  0
XRECORD
  5
43E
102
{ACAD_REACTORS
330
42B
102
}
330
42B
100
AcDbXrecord
 10
0.0
 20
0.0
 30
0.0
  0
XRECORD
  5
43F
102
{ACAD_REACTORS
330
42B
102
}
330
42B
100
AcDbXrecord
 10
0.0
 20
0.0
 30
0.0
  0
XRECORD
  5
43C
102
{ACAD_REACTORS
330
42B
102
}
330
42B
100
AcDbXrecord
 10
0.0
 20
0.0
 30
0.0
  0
XRECORD
  5
439
102
{ACAD_REACTORS
330
42B
102
}
330
42B
100
AcDbXrecord
340
0
  0
XRECORD
  5
43A
102
{ACAD_REACTORS
330
42B
102
}
330
42B
100
AcDbXrecord
 70
     0
  0
XRECORD
  5
42F
102
{ACAD_REACTORS
330
42B
102
}
330
42B
100
AcDbXrecord
  1

  0
XRECORD
  5
42C
102
{ACAD_REACTORS
330
42B
102
}
330
42B
100
AcDbXrecord
 90
        1
  0
XRECORD
  5
42D
102
{ACAD_REACTORS
330
42B
102
}
330
42B
100
AcDbXrecord
 90
       70
  0
XRECORD
  5
444
102
{ACAD_REACTORS
330
42B
102
}
330
42B
100
AcDbXrecord
340
0
  0
XRECORD
  5
44A
102
{ACAD_REACTORS
330
42B
102
}
330
42B
100
AcDbXrecord
 10
0.0
 20
0.0
 30
0.0
  0
XRECORD
  5
446
102
{ACAD_REACTORS
330
42B
102
}
330
42B
100
AcDbXrecord
 10
0.0
 20
0.0
 30
0.0
  0
XRECORD
  5
449
102
{ACAD_REACTORS
330
42B
102
}
330
42B
100
AcDbXrecord
 10
0.0
 20
0.0
 30
0.0
  0
XRECORD
  5
447
102
{ACAD_REACTORS
330
42B
102
}
330
42B
100
AcDbXrecord
 10
0.0
 20
0.0
 30
0.0
  0
XRECORD
  5
448
102
{ACAD_REACTORS
330
42B
102
}
330
42B
100
AcDbXrecord
 10
0.0
 20
0.0
 30
0.0
  0
XRECORD
  5
445
102
{ACAD_REACTORS
330
42B
102
}
330
42B
100
AcDbXrecord
 10
0.0
 20
0.0
 30
0.0
  0
XRECORD
  5
442
102
{ACAD_REACTORS
330
42B
102
}
330
42B
100
AcDbXrecord
340
0
  0
XRECORD
  5
443
102
{ACAD_REACTORS
330
42B
102
}
330
42B
100
AcDbXrecord
 70
     0
  0
XRECORD
  5
437
102
{ACAD_REACTORS
330
42B
102
}
330
42B
100
AcDbXrecord
  1
{96CB8AB5-446F-4BF1-8915-2B09F372456A}
  0
DICTIONARYVAR
  5
342
102
{ACAD_REACTORS
330
341
102
}
330
341
100
DictionaryVariables
280
     0
  1
1
  0
ENDSEC
  0
EOF
