  0
SECTION
  2
HEADER
  9
$ACADVER
  1
AC1014
  9
$ACADMAINTVER
 70
     9
  9
$DWGCODEPAGE
  3
ANSI_1252
  9
$INSBASE
 10
10.70536696424004
 20
4.589185300700754
 30
0.0
  9
$EXTMIN
 10
-6.16777277994883
 20
-1.338059501254101
 30
0.0
  9
$EXTMAX
 10
19.93514331827763
 20
13.87564220480192
 30
0.0
  9
$LIMMIN
 10
0.0
 20
0.0
  9
$LIMMAX
 10
36.0
 20
36.0
  9
$ORTHOMODE
 70
     1
  9
$REGENMODE
 70
     1
  9
$FILLMODE
 70
     1
  9
$QTEXTMODE
 70
     0
  9
$MIRRTEXT
 70
     1
  9
$DRAGMODE
 70
     0
  9
$LTSCALE
 40
1.0
  9
$OSMODE
 70
    37
  9
$ATTMODE
 70
     1
  9
$TEXTSIZE
 40
0.2
  9
$TRACEWID
 40
0.05
  9
$TEXTSTYLE
  7
STANDARD
  9
$CLAYER
  8
0
  9
$CELTYPE
  6
BYLAYER
  9
$CECOLOR
 62
   256
  9
$CELTSCALE
 40
1.0
  9
$DELOBJ
 70
     1
  9
$DISPSILH
 70
     0
  9
$DIMSCALE
 40
1.0
  9
$DIMASZ
 40
0.125
  9
$DIMEXO
 40
0.0625
  9
$DIMDLI
 40
0.38
  9
$DIMRND
 40
0.0
  9
$DIMDLE
 40
0.0
  9
$DIMEXE
 40
0.18
  9
$DIMTP
 40
0.0
  9
$DIMTM
 40
0.0
  9
$DIMTXT
 40
0.125
  9
$DIMCEN
 40
0.1875
  9
$DIMTSZ
 40
0.125
  9
$DIMTOL
 70
     0
  9
$DIMLIM
 70
     0
  9
$DIMTIH
 70
     0
  9
$DIMTOH
 70
     0
  9
$DIMSE1
 70
     0
  9
$DIMSE2
 70
     0
  9
$DIMTAD
 70
     0
  9
$DIMZIN
 70
     3
  9
$DIMBLK
  1

  9
$DIMASO
 70
     1
  9
$DIMSHO
 70
     1
  9
$DIMPOST
  1

  9
$DIMAPOST
  1

  9
$DIMALT
 70
     0
  9
$DIMALTD
 70
     1
  9
$DIMALTF
 40
25.4
  9
$DIMLFAC
 40
1.0
  9
$DIMTOFL
 70
     0
  9
$DIMTVP
 40
0.0
  9
$DIMTIX
 70
     0
  9
$DIMSOXD
 70
     0
  9
$DIMSAH
 70
     0
  9
$DIMBLK1
  1

  9
$DIMBLK2
  1

  9
$DIMSTYLE
  2
STANDARD
  9
$DIMCLRD
 70
     0
  9
$DIMCLRE
 70
     0
  9
$DIMCLRT
 70
     0
  9
$DIMTFAC
 40
1.0
  9
$DIMGAP
 40
0.125
  9
$DIMJUST
 70
     0
  9
$DIMSD1
 70
     0
  9
$DIMSD2
 70
     0
  9
$DIMTOLJ
 70
     1
  9
$DIMTZIN
 70
     0
  9
$DIMALTZ
 70
     0
  9
$DIMALTTZ
 70
     0
  9
$DIMFIT
 70
     3
  9
$DIMUPT
 70
     0
  9
$DIMUNIT
 70
     2
  9
$DIMDEC
 70
     4
  9
$DIMTDEC
 70
     4
  9
$DIMALTU
 70
     2
  9
$DIMALTTD
 70
     2
  9
$DIMTXSTY
  7
STANDARD
  9
$DIMAUNIT
 70
     0
  9
$LUNITS
 70
     5
  9
$LUPREC
 70
     4
  9
$SKETCHINC
 40
0.1
  9
$FILLETRAD
 40
0.062
  9
$AUNITS
 70
     0
  9
$AUPREC
 70
     0
  9
$MENU
  1
acad
  9
$ELEVATION
 40
0.0
  9
$PELEVATION
 40
0.0
  9
$THICKNESS
 40
0.0
  9
$LIMCHECK
 70
     0
  9
$BLIPMODE
 70
     0
  9
$CHAMFERA
 40
0.0
  9
$CHAMFERB
 40
0.0
  9
$CHAMFERC
 40
0.0
  9
$CHAMFERD
 40
0.0
  9
$SKPOLY
 70
     0
  9
$TDCREATE
 40
2450387.504161065
  9
$TDUPDATE
 40
2452297.099364688
  9
$TDINDWG
 40
0.0300800000
  9
$TDUSRTIMER
 40
0.0300800000
  9
$USRTIMER
 70
     1
  9
$ANGBASE
 50
0.0
  9
$ANGDIR
 70
     0
  9
$PDMODE
 70
     0
  9
$PDSIZE
 40
0.0
  9
$PLINEWID
 40
0.0
  9
$COORDS
 70
     2
  9
$SPLFRAME
 70
     0
  9
$SPLINETYPE
 70
     6
  9
$SPLINESEGS
 70
     8
  9
$ATTDIA
 70
     0
  9
$ATTREQ
 70
     1
  9
$HANDLING
 70
 22529
  9
$HANDSEED
  5
347
  9
$SURFTAB1
 70
     6
  9
$SURFTAB2
 70
     6
  9
$SURFTYPE
 70
     6
  9
$SURFU
 70
     6
  9
$SURFV
 70
     6
  9
$UCSNAME
  2

  9
$UCSORG
 10
0.0
 20
0.0
 30
0.0
  9
$UCSXDIR
 10
1.0
 20
0.0
 30
0.0
  9
$UCSYDIR
 10
0.0
 20
1.0
 30
0.0
  9
$PUCSNAME
  2

  9
$PUCSORG
 10
0.0
 20
0.0
 30
0.0
  9
$PUCSXDIR
 10
1.0
 20
0.0
 30
0.0
  9
$PUCSYDIR
 10
0.0
 20
1.0
 30
0.0
  9
$USERI1
 70
     0
  9
$USERI2
 70
     0
  9
$USERI3
 70
     0
  9
$USERI4
 70
     0
  9
$USERI5
 70
     0
  9
$USERR1
 40
0.0
  9
$USERR2
 40
0.0
  9
$USERR3
 40
0.0
  9
$USERR4
 40
0.0
  9
$USERR5
 40
0.0
  9
$WORLDVIEW
 70
     1
  9
$SHADEDGE
 70
     3
  9
$SHADEDIF
 70
    70
  9
$TILEMODE
 70
     1
  9
$MAXACTVP
 70
    15
  9
$PINSBASE
 10
0.0
 20
0.0
 30
0.0
  9
$PLIMCHECK
 70
     0
  9
$PEXTMIN
 10
1.000000000000000E+20
 20
1.000000000000000E+20
 30
1.000000000000000E+20
  9
$PEXTMAX
 10
-1.000000000000000E+20
 20
-1.000000000000000E+20
 30
-1.000000000000000E+20
  9
$PLIMMIN
 10
0.0
 20
0.0
  9
$PLIMMAX
 10
12.0
 20
9.0
  9
$UNITMODE
 70
     0
  9
$VISRETAIN
 70
     0
  9
$PLINEGEN
 70
     0
  9
$PSLTSCALE
 70
     1
  9
$TREEDEPTH
 70
  3020
  9
$PICKSTYLE
 70
     1
  9
$CMLSTYLE
  2
STANDARD
  9
$CMLJUST
 70
     0
  9
$CMLSCALE
 40
1.0
  9
$PROXYGRAPHICS
 70
     1
  9
$MEASUREMENT
 70
     0
  0
ENDSEC
  0
SECTION
  2
CLASSES
  0
CLASS
  1
ACDBDICTIONARYWDFLT
  2
AcDbDictionaryWithDefault
  3
AutoCAD 2000
 90
        0
280
     0
281
     0
  0
CLASS
  1
ACDBPLACEHOLDER
  2
AcDbPlaceHolder
  3
AutoCAD 2000
 90
        0
280
     0
281
     0
  0
CLASS
  1
LAYOUT
  2
AcDbLayout
  3
AutoCAD 2000
 90
        0
280
     0
281
     0
  0
CLASS
  1
DICTIONARYVAR
  2
AcDbDictionaryVar
  3
AutoCAD 2000
 90
        0
280
     0
281
     0
  0
CLASS
  1
LONG_TRANSACTION
  2
AcDbLongTransaction
  3
AutoCAD 2000
 90
        0
280
     0
281
     0
  0
CLASS
  1
LWPOLYLINE
  2
AcDbPolyline
  3
AutoCAD 2000
 90
        0
280
     0
281
     1
  0
CLASS
  1
HATCH
  2
AcDbHatch
  3
AutoCAD 2000
 90
        0
280
     0
281
     1
  0
CLASS
  1
XRECORD
  2
AcDbXrecord
  3
AutoCAD 2000
 90
        0
280
     0
281
     0
  0
CLASS
  1
LONG_TRANSACTION
  2
AcDbLongTransaction
  3
AutoCAD 2000
 90
        0
280
     0
281
     0
  0
CLASS
  1
LWPOLYLINE
  2
AcDbPolyline
  3
AutoCAD 2000
 90
        0
280
     0
281
     1
  0
CLASS
  1
HATCH
  2
AcDbHatch
  3
AutoCAD 2000
 90
        0
280
     0
281
     1
  0
CLASS
  1
XRECORD
  2
AcDbXrecord
  3
AutoCAD 2000
 90
        0
280
     0
281
     0
  0
CLASS
  1
LONG_TRANSACTION
  2
AcDbLongTransaction
  3
AutoCAD 2000
 90
        0
280
     0
281
     0
  0
CLASS
  1
LWPOLYLINE
  2
AcDbPolyline
  3
AutoCAD 2000
 90
        0
280
     0
281
     1
  0
CLASS
  1
HATCH
  2
AcDbHatch
  3
AutoCAD 2000
 90
        0
280
     0
281
     1
  0
CLASS
  1
XRECORD
  2
AcDbXrecord
  3
AutoCAD 2000
 90
        0
280
     0
281
     0
  0
CLASS
  1
LONG_TRANSACTION
  2
AcDbLongTransaction
  3
AutoCAD 2000
 90
        0
280
     0
281
     0
  0
CLASS
  1
LWPOLYLINE
  2
AcDbPolyline
  3
AutoCAD 2000
 90
        0
280
     0
281
     1
  0
CLASS
  1
HATCH
  2
AcDbHatch
  3
AutoCAD 2000
 90
        0
280
     0
281
     1
  0
CLASS
  1
XRECORD
  2
AcDbXrecord
  3
AutoCAD 2000
 90
        0
280
     0
281
     0
  0
CLASS
  1
LONG_TRANSACTION
  2
AcDbLongTransaction
  3
AutoCAD 2000
 90
        0
280
     0
281
     0
  0
CLASS
  1
LWPOLYLINE
  2
AcDbPolyline
  3
AutoCAD 2000
 90
        0
280
     0
281
     1
  0
CLASS
  1
HATCH
  2
AcDbHatch
  3
AutoCAD 2000
 90
        0
280
     0
281
     1
  0
CLASS
  1
XRECORD
  2
AcDbXrecord
  3
AutoCAD 2000
 90
        0
280
     0
281
     0
  0
ENDSEC
  0
SECTION
  2
TABLES
  0
TABLE
  2
VPORT
  5
8
330
0
100
AcDbSymbolTable
 70
     2
  0
VPORT
  5
324
330
8
100
AcDbSymbolTableRecord
100
AcDbViewportTableRecord
  2
*ACTIVE
 70
     0
 10
0.0
 20
0.0
 11
1.0
 21
1.0
 12
6.905463607997803
 22
6.268720641125821
 13
0.0
 23
0.0
 14
0.5740882589684922
 24
0.5740882589684922
 15
0.5
 25
0.5
 16
0.0
 26
0.0
 36
1.0
 17
0.0
 27
0.0
 37
0.0
 40
16.73005947871806
 41
1.570528967254408
 42
50.0
 43
0.0
 44
0.0
 50
0.0
 51
0.0
 71
     0
 72
   100
 73
     1
 74
     0
 75
     0
 76
     0
 77
     0
 78
     0
  0
ENDTAB
  0
TABLE
  2
LTYPE
  5
5
330
0
100
AcDbSymbolTable
 70
     2
  0
LTYPE
  5
12
330
5
100
AcDbSymbolTableRecord
100
AcDbLinetypeTableRecord
  2
BYBLOCK
 70
     0
  3

 72
    65
 73
     0
 40
0.0
  0
LTYPE
  5
13
330
5
100
AcDbSymbolTableRecord
100
AcDbLinetypeTableRecord
  2
BYLAYER
 70
     0
  3

 72
    65
 73
     0
 40
0.0
  0
LTYPE
  5
14
330
5
100
AcDbSymbolTableRecord
100
AcDbLinetypeTableRecord
  2
CONTINUOUS
 70
     0
  3
Solid line
 72
    65
 73
     0
 40
0.0
  0
LTYPE
  5
17E
330
5
100
AcDbSymbolTableRecord
100
AcDbLinetypeTableRecord
  2
CENTER2
 70
     0
  3
___ _ ___ _ ___ _ ___ _ ___ _ ___ _ ___ _ ___ _
 72
    65
 73
     4
 40
1.125
 49
0.75
 74
     0
 49
-0.125
 74
     0
 49
0.125
 74
     0
 49
-0.125
 74
     0
  0
ENDTAB
  0
TABLE
  2
LAYER
  5
2
330
0
100
AcDbSymbolTable
 70
     5
  0
LAYER
  5
F
330
2
100
AcDbSymbolTableRecord
100
AcDbLayerTableRecord
  2
0
 70
     0
 62
     7
  6
CONTINUOUS
  0
LAYER
  5
17F
330
2
100
AcDbSymbolTableRecord
100
AcDbLayerTableRecord
  2
ADP1DETAIL
 70
     0
 62
     7
  6
CONTINUOUS
  0
LAYER
  5
180
330
2
100
AcDbSymbolTableRecord
100
AcDbLayerTableRecord
  2
DEFPOINTS
 70
     0
 62
     7
  6
CONTINUOUS
  0
LAYER
  5
184
330
2
100
AcDbSymbolTableRecord
100
AcDbLayerTableRecord
  2
ADP3DETAIL
 70
     0
 62
     1
  6
CONTINUOUS
  0
LAYER
  5
185
330
2
100
AcDbSymbolTableRecord
100
AcDbLayerTableRecord
  2
ADPDIM
 70
     0
 62
     3
  6
CONTINUOUS
  0
ENDTAB
  0
TABLE
  2
STYLE
  5
3
330
0
100
AcDbSymbolTable
 70
     2
  0
STYLE
  5
10
330
3
100
AcDbSymbolTableRecord
100
AcDbTextStyleTableRecord
  2
STANDARD
 70
     0
 40
0.0
 41
1.0
 50
0.0
 71
     0
 42
0.2
  3
txt
  4

  0
STYLE
  5
1E0
330
3
100
AcDbSymbolTableRecord
100
AcDbTextStyleTableRecord
  2
ARIAL_WIDE
 70
     0
 40
0.0
 41
1.25
 50
0.0
 71
     0
 42
0.2
  3
ARIAL.TTF
  4

1001
ACAD
1000
Arial
1071
       34
  0
ENDTAB
  0
TABLE
  2
VIEW
  5
6
330
0
100
AcDbSymbolTable
 70
     0
  0
ENDTAB
  0
TABLE
  2
UCS
  5
7
330
0
100
AcDbSymbolTable
 70
     0
  0
ENDTAB
  0
TABLE
  2
APPID
  5
9
330
0
100
AcDbSymbolTable
 70
     1
  0
APPID
  5
11
330
9
100
AcDbSymbolTableRecord
100
AcDbRegAppTableRecord
  2
ACAD
 70
     0
  0
ENDTAB
  0
TABLE
  2
DIMSTYLE
  5
A
330
0
100
AcDbSymbolTable
 70
     1
  0
DIMSTYLE
105
1D4
330
A
100
AcDbSymbolTableRecord
100
AcDbDimStyleTableRecord
  2
STANDARD
 70
     0
  3

  4

  5

  6

  7

 40
1.0
 41
0.18
 42
0.0625
 43
0.38
 44
0.18
 45
0.0
 46
0.0
 47
0.0
 48
0.0
140
0.18
141
0.09
142
0.0
143
25.4
144
1.0
145
0.0
146
1.0
147
0.09
 71
     0
 72
     0
 73
     1
 74
     1
 75
     0
 76
     0
 77
     0
 78
     0
170
     0
171
     2
172
     0
173
     0
174
     0
175
     0
176
     0
177
     0
178
     0
270
     2
271
     4
272
     4
273
     2
274
     2
340
10
275
     0
280
     0
281
     0
282
     0
283
     1
284
     0
285
     0
286
     0
287
     3
288
     0
  0
ENDTAB
  0
TABLE
  2
BLOCK_RECORD
  5
1
330
0
100
AcDbSymbolTable
 70
     5
  0
BLOCK_RECORD
  5
18
102
{ACAD_XDICTIONARY
360
235
102
}
330
1
100
AcDbSymbolTableRecord
100
AcDbBlockTableRecord
  2
*MODEL_SPACE
  0
BLOCK_RECORD
  5
15
102
{ACAD_XDICTIONARY
360
233
102
}
330
1
100
AcDbSymbolTableRecord
100
AcDbBlockTableRecord
  2
*PAPER_SPACE
  0
BLOCK_RECORD
  5
175
330
1
100
AcDbSymbolTableRecord
100
AcDbBlockTableRecord
  2
*D0
  0
BLOCK_RECORD
  5
179
330
1
100
AcDbSymbolTableRecord
100
AcDbBlockTableRecord
  2
*D1
  0
BLOCK_RECORD
  5
17A
330
1
100
AcDbSymbolTableRecord
100
AcDbBlockTableRecord
  2
*D2
  0
BLOCK_RECORD
  5
17B
330
1
100
AcDbSymbolTableRecord
100
AcDbBlockTableRecord
  2
*D3
  0
BLOCK_RECORD
  5
17C
330
1
100
AcDbSymbolTableRecord
100
AcDbBlockTableRecord
  2
*D4
  0
ENDTAB
  0
ENDSEC
  0
SECTION
  2
BLOCKS
  0
BLOCK
  5
188
330
18
100
AcDbEntity
  8
0
100
AcDbBlockBegin
  2
*MODEL_SPACE
 70
     0
 10
0.0
 20
0.0
 30
0.0
  3
*MODEL_SPACE
  1

  0
ENDBLK
  5
189
330
18
100
AcDbEntity
  8
0
100
AcDbBlockEnd
  0
BLOCK
  5
186
330
15
100
AcDbEntity
 67
     1
  8
0
100
AcDbBlockBegin
  2
*PAPER_SPACE
 70
     0
 10
0.0
 20
0.0
 30
0.0
  3
*PAPER_SPACE
  1

  0
ENDBLK
  5
187
330
15
100
AcDbEntity
 67
     1
  8
0
100
AcDbBlockEnd
  0
BLOCK
  5
18B
330
175
100
AcDbEntity
  8
0
100
AcDbBlockBegin
  2
*D0
 70
     1
 10
0.0
 20
0.0
 30
0.0
  3
*D0
  1

  0
LINE
  5
18C
330
175
100
AcDbEntity
  8
0
  6
BYBLOCK
 62
     0
100
AcDbLine
 10
10.58265623929498
 20
0.5498137683266569
 30
0.0
 11
10.58265623929498
 21
0.6673137683266568
 31
0.0
  0
LINE
  5
18D
330
175
100
AcDbEntity
  8
0
  6
BYBLOCK
 62
     0
100
AcDbLine
 10
10.69165623929498
 20
0.5498137683266569
 30
0.0
 11
10.69165623929498
 21
0.6673137683266568
 31
0.0
  0
LINE
  5
18E
330
175
100
AcDbEntity
  8
0
  6
BYBLOCK
 62
     0
100
AcDbLine
 10
10.58265623929498
 20
0.4873137683266569
 30
0.0
 11
10.33265623929498
 21
0.4873137683266569
 31
0.0
  0
LINE
  5
18F
330
175
100
AcDbEntity
  8
0
  6
BYBLOCK
 62
     0
100
AcDbLine
 10
10.69165623929498
 20
0.4873137683266569
 30
0.0
 11
10.94165623929498
 21
0.4873137683266569
 31
0.0
  0
LINE
  5
190
330
175
100
AcDbEntity
  8
0
  6
BYBLOCK
 62
     0
100
AcDbLine
 10
10.45765623929498
 20
0.3623137683266568
 30
0.0
 11
10.70765623929498
 21
0.6123137683266569
 31
0.0
  0
LINE
  5
191
330
175
100
AcDbEntity
  8
0
  6
BYBLOCK
 62
     0
100
AcDbLine
 10
10.56665623929498
 20
0.3623137683266568
 30
0.0
 11
10.81665623929498
 21
0.6123137683266569
 31
0.0
  0
TEXT
  5
192
330
175
100
AcDbEntity
  8
0
  6
BYBLOCK
 62
     0
100
AcDbText
 10
11.06665623929498
 20
0.4248137683266569
 30
0.0
 40
0.125
  1
0.109
 72
     1
 11
11.27498957262831
 21
0.4873137683266569
 31
0.0
100
AcDbText
 73
     2
  0
POINT
  5
193
330
175
100
AcDbEntity
  8
DEFPOINTS
  6
BYBLOCK
 62
     0
100
AcDbPoint
 10
10.58265623929498
 20
0.4873137683266569
 30
0.0
  0
POINT
  5
194
330
175
100
AcDbEntity
  8
DEFPOINTS
  6
BYBLOCK
 62
     0
100
AcDbPoint
 10
10.69165623929498
 20
0.4873137683266569
 30
0.0
  0
POINT
  5
195
330
175
100
AcDbEntity
  8
DEFPOINTS
  6
BYBLOCK
 62
     0
100
AcDbPoint
 10
10.69165623929498
 20
0.4873137683266569
 30
0.0
  0
ENDBLK
  5
196
330
175
100
AcDbEntity
  8
0
100
AcDbBlockEnd
  0
BLOCK
  5
197
330
179
100
AcDbEntity
  8
0
100
AcDbBlockBegin
  2
*D1
 70
     1
 10
0.0
 20
0.0
 30
0.0
  3
*D1
  1

  0
LINE
  5
198
330
179
100
AcDbEntity
  8
0
  6
BYBLOCK
 62
     0
100
AcDbLine
 10
8.885084999267958
 20
10.40020195013446
 30
0.0
 11
7.381850694426518
 21
8.416085367608641
 31
0.0
  0
LINE
  5
199
330
179
100
AcDbEntity
  8
0
  6
BYBLOCK
 62
     0
100
AcDbLine
 10
8.909232819904008
 20
10.22508232599561
 30
0.0
 11
8.860937178631907
 21
10.57532157427329
 31
0.0
  0
TEXT
  5
19A
330
179
100
AcDbEntity
  8
0
  6
BYBLOCK
 62
     0
100
AcDbText
 10
6.953590177861405
 20
7.74732884161245
 30
0.0
 40
0.125
  1
R2 1/2
 50
52.85119091270739
 72
     1
 11
7.105069054671402
 21
8.050761718854671
 31
0.0
100
AcDbText
 73
     2
  0
POINT
  5
19B
330
179
100
AcDbEntity
  8
DEFPOINTS
  6
BYBLOCK
 62
     0
100
AcDbPoint
 10
8.885084999267958
 20
10.40020195013446
 30
0.0
  0
POINT
  5
19C
330
179
100
AcDbEntity
  8
DEFPOINTS
  6
BYBLOCK
 62
     0
100
AcDbPoint
 10
7.375366964240056
 20
8.407527502385534
 30
0.0
  0
ENDBLK
  5
19D
330
179
100
AcDbEntity
  8
0
100
AcDbBlockEnd
  0
BLOCK
  5
19E
330
17A
100
AcDbEntity
  8
0
100
AcDbBlockBegin
  2
*D2
 70
     1
 10
0.0
 20
0.0
 30
0.0
  3
*D2
  1

  0
LINE
  5
19F
330
17A
100
AcDbEntity
  8
0
  6
BYBLOCK
 62
     0
100
AcDbLine
 10
2.848108705859481
 20
8.827872070426268
 30
0.0
 11
2.206886182571681
 21
9.984668124193103
 31
0.0
  0
LINE
  5
1A0
330
17A
100
AcDbEntity
  8
0
  6
BYBLOCK
 62
     0
100
AcDbLine
 10
9.845066362974646
 20
12.70634903239696
 30
0.0
 11
9.203843839686847
 21
13.86314508616379
 31
0.0
  0
LINE
  5
1A1
330
17A
100
AcDbEntity
  8
0
  6
BYBLOCK
 62
     0
100
AcDbLine
 10
2.294151914216021
 20
9.827236576908012
 30
0.0
 11
5.646860791583705
 21
11.68567345451896
 31
0.0
  0
LINE
  5
1A2
330
17A
100
AcDbEntity
  8
0
  6
BYBLOCK
 62
     0
100
AcDbLine
 10
9.291109571331187
 20
13.7057135388787
 30
0.0
 11
5.938400693963503
 21
11.84727666126774
 31
0.0
  0
LINE
  5
1A3
330
17A
100
AcDbEntity
  8
0
  6
BYBLOCK
 62
     0
100
AcDbLine
 10
2.245425653354389
 20
9.657307910984794
 30
0.0
 11
2.342878175077654
 21
9.997165242831227
 31
0.0
  0
LINE
  5
1A4
330
17A
100
AcDbEntity
  8
0
  6
BYBLOCK
 62
     0
100
AcDbLine
 10
9.242383310469556
 20
13.53578487295548
 30
0.0
 11
9.33983583219282
 21
13.87564220480192
 31
0.0
  0
TEXT
  5
1A5
330
17A
100
AcDbEntity
  8
0
  6
BYBLOCK
 62
     0
100
AcDbText
 10
5.786488856241525
 20
11.69161092535355
 30
0.0
 40
0.125
  1
8
 50
28.99999999999998
 72
     1
 11
5.792630742773604
 21
11.76647505789335
 31
0.0
100
AcDbText
 73
     2
  0
POINT
  5
1A6
330
17A
100
AcDbEntity
  8
DEFPOINTS
  6
BYBLOCK
 62
     0
100
AcDbPoint
 10
2.878409307124877
 20
8.773208338730055
 30
0.0
  0
POINT
  5
1A7
330
17A
100
AcDbEntity
  8
DEFPOINTS
  6
BYBLOCK
 62
     0
100
AcDbPoint
 10
9.875366964240043
 20
12.65168530070075
 30
0.0
  0
POINT
  5
1A8
330
17A
100
AcDbEntity
  8
DEFPOINTS
  6
BYBLOCK
 62
     0
100
AcDbPoint
 10
9.291109571331187
 20
13.7057135388787
 30
0.0
  0
ENDBLK
  5
1A9
330
17A
100
AcDbEntity
  8
0
100
AcDbBlockEnd
  0
BLOCK
  5
1AA
330
17B
100
AcDbEntity
  8
0
100
AcDbBlockBegin
  2
*D3
 70
     1
 10
0.0
 20
0.0
 30
0.0
  3
*D3
  1

  0
LINE
  5
1AB
330
17B
100
AcDbEntity
  8
0
  6
BYBLOCK
 62
     0
100
AcDbLine
 10
10.76786696424004
 20
4.651685300700754
 30
0.0
 11
11.32703797938884
 21
4.651685300700754
 31
0.0
  0
LINE
  5
1AC
330
17B
100
AcDbEntity
  8
0
  6
BYBLOCK
 62
     0
100
AcDbLine
 10
10.07292000861239
 20
12.65168530070075
 30
0.0
 11
11.32703797938884
 21
12.65168530070075
 31
0.0
  0
LINE
  5
1AD
330
17B
100
AcDbEntity
  8
0
  6
BYBLOCK
 62
     0
100
AcDbLine
 10
11.14703797938884
 20
4.651685300700754
 30
0.0
 11
11.14703797938884
 21
8.485018634034089
 31
0.0
  0
LINE
  5
1AE
330
17B
100
AcDbEntity
  8
0
  6
BYBLOCK
 62
     0
100
AcDbLine
 10
11.14703797938884
 20
12.65168530070075
 30
0.0
 11
11.14703797938884
 21
8.818351967367421
 31
0.0
  0
LINE
  5
1AF
330
17B
100
AcDbEntity
  8
0
  6
BYBLOCK
 62
     0
100
AcDbLine
 10
11.27203797938884
 20
4.526685300700754
 30
0.0
 11
11.02203797938884
 21
4.776685300700754
 31
0.0
  0
LINE
  5
1B0
330
17B
100
AcDbEntity
  8
0
  6
BYBLOCK
 62
     0
100
AcDbLine
 10
11.27203797938884
 20
12.52668530070075
 30
0.0
 11
11.02203797938884
 21
12.77668530070075
 31
0.0
  0
TEXT
  5
1B1
330
17B
100
AcDbEntity
  8
0
  6
BYBLOCK
 62
     0
100
AcDbText
 10
11.20953797938884
 20
8.610018634034089
 30
0.0
 40
0.125
  1
8
 50
90.0
 72
     1
 11
11.14703797938884
 21
8.651685300700755
 31
0.0
100
AcDbText
 73
     2
  0
POINT
  5
1B2
330
17B
100
AcDbEntity
  8
DEFPOINTS
  6
BYBLOCK
 62
     0
100
AcDbPoint
 10
10.70536696424004
 20
4.651685300700754
 30
0.0
  0
POINT
  5
1B3
330
17B
100
AcDbEntity
  8
DEFPOINTS
  6
BYBLOCK
 62
     0
100
AcDbPoint
 10
10.01042000861239
 20
12.65168530070075
 30
0.0
  0
POINT
  5
1B4
330
17B
100
AcDbEntity
  8
DEFPOINTS
  6
BYBLOCK
 62
     0
100
AcDbPoint
 10
11.14703797938884
 20
12.65168530070075
 30
0.0
  0
ENDBLK
  5
1B5
330
17B
100
AcDbEntity
  8
0
100
AcDbBlockEnd
  0
BLOCK
  5
1B6
330
17C
100
AcDbEntity
  8
0
100
AcDbBlockBegin
  2
*D4
 70
     1
 10
0.0
 20
0.0
 30
0.0
  3
*D4
  1

  0
LINE
  5
1B7
330
17C
100
AcDbEntity
  8
0
  6
BYBLOCK
 62
     0
100
AcDbLine
 10
9.04536696424005
 20
4.589185300700754
 30
0.0
 11
9.04536696424005
 21
3.549977231715467
 31
0.0
  0
LINE
  5
1B8
330
17C
100
AcDbEntity
  8
0
  6
BYBLOCK
 62
     0
100
AcDbLine
 10
10.70536696424004
 20
4.589185300700754
 30
0.0
 11
10.70536696424004
 21
3.549977231715467
 31
0.0
  0
LINE
  5
1B9
330
17C
100
AcDbEntity
  8
0
  6
BYBLOCK
 62
     0
100
AcDbLine
 10
9.04536696424005
 20
3.729977231715467
 30
0.0
 11
9.531616964240049
 21
3.729977231715467
 31
0.0
  0
LINE
  5
1BA
330
17C
100
AcDbEntity
  8
0
  6
BYBLOCK
 62
     0
100
AcDbLine
 10
10.70536696424004
 20
3.729977231715467
 30
0.0
 11
10.21911696424004
 21
3.729977231715467
 31
0.0
  0
LINE
  5
1BB
330
17C
100
AcDbEntity
  8
0
  6
BYBLOCK
 62
     0
100
AcDbLine
 10
8.92036696424005
 20
3.604977231715467
 30
0.0
 11
9.17036696424005
 21
3.854977231715467
 31
0.0
  0
LINE
  5
1BC
330
17C
100
AcDbEntity
  8
0
  6
BYBLOCK
 62
     0
100
AcDbLine
 10
10.58036696424004
 20
3.604977231715467
 30
0.0
 11
10.83036696424004
 21
3.854977231715467
 31
0.0
  0
TEXT
  5
1BD
330
17C
100
AcDbEntity
  8
0
  6
BYBLOCK
 62
     0
100
AcDbText
 10
9.656616964240049
 20
3.667477231715467
 30
0.0
 40
0.125
  1
1.660
 72
     1
 11
9.875366964240049
 21
3.729977231715467
 31
0.0
100
AcDbText
 73
     2
  0
POINT
  5
1BE
330
17C
100
AcDbEntity
  8
DEFPOINTS
  6
BYBLOCK
 62
     0
100
AcDbPoint
 10
9.04536696424005
 20
4.651685300700754
 30
0.0
  0
POINT
  5
1BF
330
17C
100
AcDbEntity
  8
DEFPOINTS
  6
BYBLOCK
 62
     0
100
AcDbPoint
 10
10.70536696424004
 20
4.651685300700754
 30
0.0
  0
POINT
  5
1C0
330
17C
100
AcDbEntity
  8
DEFPOINTS
  6
BYBLOCK
 62
     0
100
AcDbPoint
 10
10.70536696424004
 20
3.729977231715467
 30
0.0
  0
ENDBLK
  5
1C1
330
17C
100
AcDbEntity
  8
0
100
AcDbBlockEnd
  0
ENDSEC
  0
SECTION
  2
ENTITIES
  0
ARC
  5
1C2
330
18
100
AcDbEntity
  8
ADP1DETAIL
100
AcDbCircle
 10
7.345366964240048
 20
8.356597608805753
 30
0.0
 40
1.7
100
AcDbArc
 50
0.0
 51
118.9999999999999
  0
ARC
  5
1C3
330
18
100
AcDbEntity
  8
ADP1DETAIL
100
AcDbCircle
 10
7.40536696424005
 20
8.458457395965311
 30
0.0
 40
3.299999999999999
100
AcDbArc
 50
0.0
 51
119.0
  0
ARC
  5
1C4
330
18
100
AcDbEntity
  8
ADP3DETAIL
  6
CENTER2
100
AcDbCircle
 10
7.375366964240056
 20
8.407527502385534
 30
0.0
 40
2.5
100
AcDbArc
 50
0.0000000000000382
 51
119.0
  0
DIMENSION
  5
1C5
330
18
100
AcDbEntity
  8
ADPDIM
100
AcDbDimension
  2
*D2
 10
9.291109571331187
 20
13.7057135388787
 30
0.0
 11
5.792630742773604
 21
11.76647505789335
 31
0.0
 70
     1
100
AcDbAlignedDimension
 13
2.878409307124877
 23
8.773208338730057
 33
0.0
 14
9.875366964240043
 24
12.65168530070075
 34
0.0
  0
DIMENSION
  5
1C6
330
18
100
AcDbEntity
  8
ADPDIM
100
AcDbDimension
  2
*D1
 10
7.375366964240056
 20
8.407527502385534
 30
0.0
 11
7.105069054671402
 21
8.050761718854671
 31
0.0
 70
     4
100
AcDbRadialDimension
 15
8.885084999267958
 25
10.40020195013446
 35
0.0
 40
-2.489263342498349
  0
LINE
  5
1C7
330
18
100
AcDbEntity
  8
ADP1DETAIL
100
AcDbLine
 10
5.805495217427134
 20
11.34470242952531
 30
0.0
 11
2.476017322320421
 21
9.499142695655752
 31
0.0
  0
LINE
  5
1C8
330
18
100
AcDbEntity
  8
ADP1DETAIL
100
AcDbLine
 10
6.521190609821273
 20
9.843451110942726
 30
0.0
 11
3.280801291929334
 21
8.047273981804359
 31
0.0
  0
LINE
  5
1C9
330
18
100
AcDbEntity
  8
ADP3DETAIL
  6
CENTER2
100
AcDbLine
 10
2.343575811781269
 20
8.476745291240973
 30
0.0
 11
6.163342913624211
 21
10.59407677023402
 31
0.0
  0
LINE
  5
1CA
330
18
100
AcDbEntity
  8
ADP1DETAIL
100
AcDbLine
 10
2.476017322320421
 20
9.499142695655752
 30
0.0
 11
3.280801291929334
 21
8.047273981804359
 31
0.0
  0
LINE
  5
1CB
330
18
100
AcDbEntity
  8
ADP1DETAIL
100
AcDbLine
 10
10.70536696424004
 20
8.458457395965311
 30
0.0
 11
10.70536696424004
 21
4.651685300700754
 31
0.0
  0
LINE
  5
1CC
330
18
100
AcDbEntity
  8
ADP1DETAIL
100
AcDbLine
 10
9.04536696424005
 20
4.651685300700754
 30
0.0
 11
9.04536696424005
 21
8.356597608805753
 31
0.0
  0
LINE
  5
1CD
330
18
100
AcDbEntity
  8
ADP3DETAIL
  6
CENTER2
100
AcDbLine
 10
9.875366964240056
 20
8.407527502385537
 30
0.0
 11
9.875366964240049
 21
3.898002060243725
 31
0.0
  0
DIMENSION
  5
1CE
330
18
100
AcDbEntity
  8
ADPDIM
100
AcDbDimension
  2
*D3
 10
11.14703797938884
 20
12.65168530070075
 30
0.0
 11
11.14703797938884
 21
8.651685300700755
 31
0.0
100
AcDbAlignedDimension
 13
10.70536696424004
 23
4.651685300700754
 33
0.0
 14
10.01042000861239
 24
12.65168530070075
 34
0.0
 50
90.0
100
AcDbRotatedDimension
  0
CIRCLE
  5
1CF
330
18
100
AcDbEntity
  8
ADP1DETAIL
100
AcDbCircle
 10
9.875366964240049
 20
0.4873137683266569
 30
0.0
 40
0.7209999999999992
  0
CIRCLE
  5
1D0
330
18
100
AcDbEntity
  8
ADP1DETAIL
100
AcDbCircle
 10
9.875366964240049
 20
0.4873137683266569
 30
0.0
 40
0.8299999999999998
  0
DIMENSION
  5
1D1
330
18
100
AcDbEntity
  8
ADPDIM
100
AcDbDimension
  2
*D0
 10
10.69165623929498
 20
0.4873137683266569
 30
0.0
 11
11.27498957262831
 21
0.4873137683266569
 31
0.0
  1
0.109
100
AcDbAlignedDimension
 13
10.58265623929498
 23
0.4873137683266569
 33
0.0
 14
10.69165623929498
 24
0.4873137683266569
 34
0.0
100
AcDbRotatedDimension
  0
DIMENSION
  5
1D2
330
18
100
AcDbEntity
  8
ADPDIM
100
AcDbDimension
  2
*D4
 10
10.70536696424004
 20
3.729977231715467
 30
0.0
 11
9.875366964240049
 21
3.729977231715467
 31
0.0
  1
1.660
100
AcDbAlignedDimension
 13
9.04536696424005
 23
4.651685300700754
 33
0.0
 14
10.70536696424004
 24
4.651685300700754
 34
0.0
100
AcDbRotatedDimension
  0
LINE
  5
1D3
330
18
100
AcDbEntity
  8
ADP1DETAIL
100
AcDbLine
 10
10.70536696424004
 20
4.651685300700754
 30
0.0
 11
9.04536696424005
 21
4.651685300700754
 31
0.0
  0
TEXT
  5
1E1
330
18
100
AcDbEntity
  8
ADPDIM
100
AcDbText
 10
-6.16777277994883
 20
-1.264048587202259
 30
0.0
 40
0.25
  1
J U L I U S  B L U M  &  C O . ,  I N C .      ( 8 0 0 )  5 2 6 - 6 2 9 3        W W W . J U L I U S B L U M . C O M        P A R T  N o .  7 1 7 9
 41
1.25
  7
ARIAL_WIDE
 72
     1
 11
6.883685269164402
 21
-1.014048587202259
 31
0.0
100
AcDbText
 73
     3
  0
ENDSEC
  0
SECTION
  2
OBJECTS
  0
DICTIONARY
  5
C
330
0
100
AcDbDictionary
  3
ACAD_GROUP
350
D
  3
ACAD_LAYOUT
350
1DA
  3
ACAD_MLINESTYLE
350
E
  3
ACAD_PLOTSETTINGS
350
1DB
  3
ACAD_PLOTSTYLENAME
350
1D8
  3
ACDBHEADERROUNDTRIPXREC
350
325
  3
ACDBVARIABLEDICTIONARY
350
23B
  0
DICTIONARY
  5
235
330
18
100
AcDbDictionary
280
     1
  3
ACAD_LAYOUTSELFREF
360
346
  0
DICTIONARY
  5
233
330
15
100
AcDbDictionary
280
     1
  3
ACAD_LAYOUTSELFREF
360
345
  0
DICTIONARY
  5
D
102
{ACAD_REACTORS
330
C
102
}
330
C
100
AcDbDictionary
  0
DICTIONARY
  5
1DA
102
{ACAD_REACTORS
330
C
102
}
330
C
100
AcDbDictionary
  0
DICTIONARY
  5
E
102
{ACAD_REACTORS
330
C
102
}
330
C
100
AcDbDictionary
  3
STANDARD
350
1B
  0
DICTIONARY
  5
1DB
102
{ACAD_REACTORS
330
C
102
}
330
C
100
AcDbDictionary
  0
ACDBDICTIONARYWDFLT
  5
1D8
102
{ACAD_REACTORS
330
C
102
}
330
C
100
AcDbDictionary
281
     1
  3
Normal
350
1D9
100
AcDbDictionaryWithDefault
340
1D9
  0
DICTIONARY
  5
325
102
{ACAD_REACTORS
330
C
102
}
330
C
100
AcDbDictionary
  3
CEPSNTYPE
350
32F
  3
FINGERPRINTGUID
350
330
  3
HYPERLINKBASE
350
328
  3
INSUNITS
350
32E
  3
LAYOUTDICT
350
32A
  3
LWETCUNION
350
32D
  3
PLOTSETDICT
350
32B
  3
PLOTSTYLNAMDICT
350
32C
  3
PSVPSCALE
350
332
  3
PUCSBASE
350
335
  3
PUCSORGBACK
350
33B
  3
PUCSORGBOTTOM
350
337
  3
PUCSORGFRONT
350
33A
  3
PUCSORGLEFT
350
338
  3
PUCSORGRIGHT
350
339
  3
PUCSORGTOP
350
336
  3
PUCSORTHOREF
350
333
  3
PUCSORTHOVIEW
350
334
  3
STYLESHEET
350
329
  3
TSTACKALIGN
350
326
  3
TSTACKSIZE
350
327
  3
UCSBASE
350
33E
  3
UCSORGBACK
350
344
  3
UCSORGBOTTOM
350
340
  3
UCSORGFRONT
350
343
  3
UCSORGLEFT
350
341
  3
UCSORGRIGHT
350
342
  3
UCSORGTOP
350
33F
  3
UCSORTHOREF
350
33C
  3
UCSORTHOVIEW
350
33D
  3
VERSIONGUID
350
331
  0
DICTIONARY
  5
23B
102
{ACAD_REACTORS
330
C
102
}
330
C
100
AcDbDictionary
  3
DIMASSOC
350
23C
  0
XRECORD
  5
346
102
{ACAD_REACTORS
330
235
102
}
330
235
100
AcDbXrecord
340
18
  0
XRECORD
  5
345
102
{ACAD_REACTORS
330
233
102
}
330
233
100
AcDbXrecord
340
15
  0
MLINESTYLE
  5
1B
102
{ACAD_REACTORS
330
E
102
}
330
E
100
AcDbMlineStyle
  2
STANDARD
 70
     0
  3

 62
     0
 51
90.0
 52
90.0
 71
     2
 49
0.5
 62
   256
  6
BYLAYER
 49
-0.5
 62
   256
  6
BYLAYER
  0
ACDBPLACEHOLDER
  5
1D9
102
{ACAD_REACTORS
330
1D8
102
}
330
1D8
100
AcDbPlaceHolder
280
     0
  0
XRECORD
  5
32F
102
{ACAD_REACTORS
330
325
102
}
330
325
100
AcDbXrecord
 90
        0
  0
XRECORD
  5
330
102
{ACAD_REACTORS
330
325
102
}
330
325
100
AcDbXrecord
  1
{AB0722D8-8FC0-4918-9D19-A2143039A19D}
  0
XRECORD
  5
328
102
{ACAD_REACTORS
330
325
102
}
330
325
100
AcDbXrecord
  1

  0
XRECORD
  5
32E
102
{ACAD_REACTORS
330
325
102
}
330
325
100
AcDbXrecord
 90
        0
  0
XRECORD
  5
32A
102
{ACAD_REACTORS
330
325
102
}
330
325
100
AcDbXrecord
340
1DA
  0
XRECORD
  5
32D
102
{ACAD_REACTORS
330
325
102
}
330
325
100
AcDbXrecord
 90
    14877
  0
XRECORD
  5
32B
102
{ACAD_REACTORS
330
325
102
}
330
325
100
AcDbXrecord
340
1DB
  0
XRECORD
  5
32C
102
{ACAD_REACTORS
330
325
102
}
330
325
100
AcDbXrecord
340
1D8
  0
XRECORD
  5
332
102
{ACAD_REACTORS
330
325
102
}
330
325
100
AcDbXrecord
 40
0.0
  0
XRECORD
  5
335
102
{ACAD_REACTORS
330
325
102
}
330
325
100
AcDbXrecord
340
0
  0
XRECORD
  5
33B
102
{ACAD_REACTORS
330
325
102
}
330
325
100
AcDbXrecord
 10
0.0
 20
0.0
 30
0.0
  0
XRECORD
  5
337
102
{ACAD_REACTORS
330
325
102
}
330
325
100
AcDbXrecord
 10
0.0
 20
0.0
 30
0.0
  0
XRECORD
  5
33A
102
{ACAD_REACTORS
330
325
102
}
330
325
100
AcDbXrecord
 10
0.0
 20
0.0
 30
0.0
  0
XRECORD
  5
338
102
{ACAD_REACTORS
330
325
102
}
330
325
100
AcDbXrecord
 10
0.0
 20
0.0
 30
0.0
  0
XRECORD
  5
339
102
{ACAD_REACTORS
330
325
102
}
330
325
100
AcDbXrecord
 10
0.0
 20
0.0
 30
0.0
  0
XRECORD
  5
336
102
{ACAD_REACTORS
330
325
102
}
330
325
100
AcDbXrecord
 10
0.0
 20
0.0
 30
0.0
  0
XRECORD
  5
333
102
{ACAD_REACTORS
330
325
102
}
330
325
100
AcDbXrecord
340
0
  0
XRECORD
  5
334
102
{ACAD_REACTORS
330
325
102
}
330
325
100
AcDbXrecord
 70
     0
  0
XRECORD
  5
329
102
{ACAD_REACTORS
330
325
102
}
330
325
100
AcDbXrecord
  1

  0
XRECORD
  5
326
102
{ACAD_REACTORS
330
325
102
}
330
325
100
AcDbXrecord
 90
        1
  0
XRECORD
  5
327
102
{ACAD_REACTORS
330
325
102
}
330
325
100
AcDbXrecord
 90
       70
  0
XRECORD
  5
33E
102
{ACAD_REACTORS
330
325
102
}
330
325
100
AcDbXrecord
340
0
  0
XRECORD
  5
344
102
{ACAD_REACTORS
330
325
102
}
330
325
100
AcDbXrecord
 10
0.0
 20
0.0
 30
0.0
  0
XRECORD
  5
340
102
{ACAD_REACTORS
330
325
102
}
330
325
100
AcDbXrecord
 10
0.0
 20
0.0
 30
0.0
  0
XRECORD
  5
343
102
{ACAD_REACTORS
330
325
102
}
330
325
100
AcDbXrecord
 10
0.0
 20
0.0
 30
0.0
  0
XRECORD
  5
341
102
{ACAD_REACTORS
330
325
102
}
330
325
100
AcDbXrecord
 10
0.0
 20
0.0
 30
0.0
  0
XRECORD
  5
342
102
{ACAD_REACTORS
330
325
102
}
330
325
100
AcDbXrecord
 10
0.0
 20
0.0
 30
0.0
  0
XRECORD
  5
33F
102
{ACAD_REACTORS
330
325
102
}
330
325
100
AcDbXrecord
 10
0.0
 20
0.0
 30
0.0
  0
XRECORD
  5
33C
102
{ACAD_REACTORS
330
325
102
}
330
325
100
AcDbXrecord
340
0
  0
XRECORD
  5
33D
102
{ACAD_REACTORS
330
325
102
}
330
325
100
AcDbXrecord
 70
     0
  0
XRECORD
  5
331
102
{ACAD_REACTORS
330
325
102
}
330
325
100
AcDbXrecord
  1
{DA72AB9A-D9E0-4031-ABFA-1C021CF3D31C}
  0
DICTIONARYVAR
  5
23C
102
{ACAD_REACTORS
330
23B
102
}
330
23B
100
DictionaryVariables
280
     0
  1
1
  0
ENDSEC
  0
EOF
