  0
SECTION
  2
HEADER
  9
$ACADVER
  1
AC1014
  9
$ACADMAINTVER
 70
     9
  9
$DWGCODEPAGE
  3
ANSI_1252
  9
$INSBASE
 10
6.764473453250827
 20
-1.3169417446656
 30
0.0
  9
$EXTMIN
 10
2.684545855944643
 20
-2.322281854378235
 30
0.0
  9
$EXTMAX
 10
15.73600390505787
 20
0.4145854585901115
 30
0.0
  9
$LIMMIN
 10
0.0
 20
0.0
  9
$LIMMAX
 10
36.0
 20
36.0
  9
$ORTHOMODE
 70
     1
  9
$REGENMODE
 70
     1
  9
$FILLMODE
 70
     1
  9
$QTEXTMODE
 70
     0
  9
$MIRRTEXT
 70
     1
  9
$DRAGMODE
 70
     0
  9
$LTSCALE
 40
1.0
  9
$OSMODE
 70
    37
  9
$ATTMODE
 70
     1
  9
$TEXTSIZE
 40
0.2
  9
$TRACEWID
 40
0.05
  9
$TEXTSTYLE
  7
STANDARD
  9
$CLAYER
  8
ADPDIM
  9
$CELTYPE
  6
BYLAYER
  9
$CECOLOR
 62
   256
  9
$CELTSCALE
 40
1.0
  9
$DELOBJ
 70
     1
  9
$DISPSILH
 70
     0
  9
$DIMSCALE
 40
1.0
  9
$DIMASZ
 40
0.125
  9
$DIMEXO
 40
0.0625
  9
$DIMDLI
 40
0.38
  9
$DIMRND
 40
0.0
  9
$DIMDLE
 40
0.0
  9
$DIMEXE
 40
0.18
  9
$DIMTP
 40
0.0
  9
$DIMTM
 40
0.0
  9
$DIMTXT
 40
0.125
  9
$DIMCEN
 40
0.1875
  9
$DIMTSZ
 40
0.125
  9
$DIMTOL
 70
     0
  9
$DIMLIM
 70
     0
  9
$DIMTIH
 70
     0
  9
$DIMTOH
 70
     0
  9
$DIMSE1
 70
     0
  9
$DIMSE2
 70
     0
  9
$DIMTAD
 70
     0
  9
$DIMZIN
 70
     3
  9
$DIMBLK
  1

  9
$DIMASO
 70
     1
  9
$DIMSHO
 70
     1
  9
$DIMPOST
  1

  9
$DIMAPOST
  1

  9
$DIMALT
 70
     0
  9
$DIMALTD
 70
     1
  9
$DIMALTF
 40
25.4
  9
$DIMLFAC
 40
1.0
  9
$DIMTOFL
 70
     0
  9
$DIMTVP
 40
0.0
  9
$DIMTIX
 70
     0
  9
$DIMSOXD
 70
     0
  9
$DIMSAH
 70
     0
  9
$DIMBLK1
  1

  9
$DIMBLK2
  1

  9
$DIMSTYLE
  2
STANDARD
  9
$DIMCLRD
 70
     0
  9
$DIMCLRE
 70
     0
  9
$DIMCLRT
 70
     0
  9
$DIMTFAC
 40
1.0
  9
$DIMGAP
 40
0.125
  9
$DIMJUST
 70
     0
  9
$DIMSD1
 70
     0
  9
$DIMSD2
 70
     0
  9
$DIMTOLJ
 70
     1
  9
$DIMTZIN
 70
     0
  9
$DIMALTZ
 70
     0
  9
$DIMALTTZ
 70
     0
  9
$DIMFIT
 70
     3
  9
$DIMUPT
 70
     0
  9
$DIMUNIT
 70
     2
  9
$DIMDEC
 70
     4
  9
$DIMTDEC
 70
     4
  9
$DIMALTU
 70
     2
  9
$DIMALTTD
 70
     2
  9
$DIMTXSTY
  7
STANDARD
  9
$DIMAUNIT
 70
     0
  9
$LUNITS
 70
     5
  9
$LUPREC
 70
     4
  9
$SKETCHINC
 40
0.1
  9
$FILLETRAD
 40
0.0
  9
$AUNITS
 70
     0
  9
$AUPREC
 70
     0
  9
$MENU
  1
acad
  9
$ELEVATION
 40
0.0
  9
$PELEVATION
 40
0.0
  9
$THICKNESS
 40
0.0
  9
$LIMCHECK
 70
     0
  9
$BLIPMODE
 70
     0
  9
$CHAMFERA
 40
0.0
  9
$CHAMFERB
 40
0.0
  9
$CHAMFERC
 40
0.0
  9
$CHAMFERD
 40
0.0
  9
$SKPOLY
 70
     0
  9
$TDCREATE
 40
2450224.624902581
  9
$TDUPDATE
 40
2452297.099258888
  9
$TDINDWG
 40
0.0309200810
  9
$TDUSRTIMER
 40
0.0309200810
  9
$USRTIMER
 70
     1
  9
$ANGBASE
 50
0.0
  9
$ANGDIR
 70
     0
  9
$PDMODE
 70
     0
  9
$PDSIZE
 40
0.0
  9
$PLINEWID
 40
0.0
  9
$COORDS
 70
     2
  9
$SPLFRAME
 70
     0
  9
$SPLINETYPE
 70
     6
  9
$SPLINESEGS
 70
     8
  9
$ATTDIA
 70
     0
  9
$ATTREQ
 70
     1
  9
$HANDLING
 70
 22529
  9
$HANDSEED
  5
466
  9
$SURFTAB1
 70
     6
  9
$SURFTAB2
 70
     6
  9
$SURFTYPE
 70
     6
  9
$SURFU
 70
     6
  9
$SURFV
 70
     6
  9
$UCSNAME
  2

  9
$UCSORG
 10
0.0
 20
0.0
 30
0.0
  9
$UCSXDIR
 10
1.0
 20
0.0
 30
0.0
  9
$UCSYDIR
 10
0.0
 20
1.0
 30
0.0
  9
$PUCSNAME
  2

  9
$PUCSORG
 10
0.0
 20
0.0
 30
0.0
  9
$PUCSXDIR
 10
1.0
 20
0.0
 30
0.0
  9
$PUCSYDIR
 10
0.0
 20
1.0
 30
0.0
  9
$USERI1
 70
     0
  9
$USERI2
 70
     0
  9
$USERI3
 70
     0
  9
$USERI4
 70
     0
  9
$USERI5
 70
     0
  9
$USERR1
 40
0.0
  9
$USERR2
 40
0.0
  9
$USERR3
 40
0.0
  9
$USERR4
 40
0.0
  9
$USERR5
 40
0.0
  9
$WORLDVIEW
 70
     1
  9
$SHADEDGE
 70
     3
  9
$SHADEDIF
 70
    70
  9
$TILEMODE
 70
     1
  9
$MAXACTVP
 70
    15
  9
$PINSBASE
 10
0.0008545056916773
 20
1.250276130627782
 30
0.0
  9
$PLIMCHECK
 70
     0
  9
$PEXTMIN
 10
1.000000000000000E+20
 20
1.000000000000000E+20
 30
1.000000000000000E+20
  9
$PEXTMAX
 10
-1.000000000000000E+20
 20
-1.000000000000000E+20
 30
-1.000000000000000E+20
  9
$PLIMMIN
 10
0.0
 20
0.0
  9
$PLIMMAX
 10
12.0
 20
9.0
  9
$UNITMODE
 70
     0
  9
$VISRETAIN
 70
     0
  9
$PLINEGEN
 70
     0
  9
$PSLTSCALE
 70
     1
  9
$TREEDEPTH
 70
  3020
  9
$PICKSTYLE
 70
     1
  9
$CMLSTYLE
  2
STANDARD
  9
$CMLJUST
 70
     0
  9
$CMLSCALE
 40
1.0
  9
$PROXYGRAPHICS
 70
     1
  9
$MEASUREMENT
 70
     0
  0
ENDSEC
  0
SECTION
  2
CLASSES
  0
CLASS
  1
ACDBDICTIONARYWDFLT
  2
AcDbDictionaryWithDefault
  3
AutoCAD 2000
 90
        0
280
     0
281
     0
  0
CLASS
  1
ACDBPLACEHOLDER
  2
AcDbPlaceHolder
  3
AutoCAD 2000
 90
        0
280
     0
281
     0
  0
CLASS
  1
LAYOUT
  2
AcDbLayout
  3
AutoCAD 2000
 90
        0
280
     0
281
     0
  0
CLASS
  1
DICTIONARYVAR
  2
AcDbDictionaryVar
  3
AutoCAD 2000
 90
        0
280
     0
281
     0
  0
CLASS
  1
LONG_TRANSACTION
  2
AcDbLongTransaction
  3
AutoCAD 2000
 90
        0
280
     0
281
     0
  0
CLASS
  1
LWPOLYLINE
  2
AcDbPolyline
  3
AutoCAD 2000
 90
        0
280
     0
281
     1
  0
CLASS
  1
HATCH
  2
AcDbHatch
  3
AutoCAD 2000
 90
        0
280
     0
281
     1
  0
CLASS
  1
XRECORD
  2
AcDbXrecord
  3
AutoCAD 2000
 90
        0
280
     0
281
     0
  0
CLASS
  1
LONG_TRANSACTION
  2
AcDbLongTransaction
  3
AutoCAD 2000
 90
        0
280
     0
281
     0
  0
CLASS
  1
LWPOLYLINE
  2
AcDbPolyline
  3
AutoCAD 2000
 90
        0
280
     0
281
     1
  0
CLASS
  1
HATCH
  2
AcDbHatch
  3
AutoCAD 2000
 90
        0
280
     0
281
     1
  0
CLASS
  1
XRECORD
  2
AcDbXrecord
  3
AutoCAD 2000
 90
        0
280
     0
281
     0
  0
CLASS
  1
LONG_TRANSACTION
  2
AcDbLongTransaction
  3
AutoCAD 2000
 90
        0
280
     0
281
     0
  0
CLASS
  1
LWPOLYLINE
  2
AcDbPolyline
  3
AutoCAD 2000
 90
        0
280
     0
281
     1
  0
CLASS
  1
HATCH
  2
AcDbHatch
  3
AutoCAD 2000
 90
        0
280
     0
281
     1
  0
CLASS
  1
XRECORD
  2
AcDbXrecord
  3
AutoCAD 2000
 90
        0
280
     0
281
     0
  0
CLASS
  1
LONG_TRANSACTION
  2
AcDbLongTransaction
  3
AutoCAD 2000
 90
        0
280
     0
281
     0
  0
CLASS
  1
LWPOLYLINE
  2
AcDbPolyline
  3
AutoCAD 2000
 90
        0
280
     0
281
     1
  0
CLASS
  1
HATCH
  2
AcDbHatch
  3
AutoCAD 2000
 90
        0
280
     0
281
     1
  0
CLASS
  1
XRECORD
  2
AcDbXrecord
  3
AutoCAD 2000
 90
        0
280
     0
281
     0
  0
CLASS
  1
LONG_TRANSACTION
  2
AcDbLongTransaction
  3
AutoCAD 2000
 90
        0
280
     0
281
     0
  0
CLASS
  1
LWPOLYLINE
  2
AcDbPolyline
  3
AutoCAD 2000
 90
        0
280
     0
281
     1
  0
CLASS
  1
HATCH
  2
AcDbHatch
  3
AutoCAD 2000
 90
        0
280
     0
281
     1
  0
CLASS
  1
XRECORD
  2
AcDbXrecord
  3
AutoCAD 2000
 90
        0
280
     0
281
     0
  0
ENDSEC
  0
SECTION
  2
TABLES
  0
TABLE
  2
VPORT
  5
8
330
0
100
AcDbSymbolTable
 70
     2
  0
VPORT
  5
443
330
8
100
AcDbSymbolTableRecord
100
AcDbViewportTableRecord
  2
*ACTIVE
 70
     0
 10
0.0
 20
0.0
 11
1.0
 21
1.0
 12
9.220100297434001
 22
-0.9542038433395525
 13
0.0
 23
0.0
 14
0.5740882589684922
 24
0.5740882589684922
 15
0.5
 25
0.5
 16
0.0
 26
0.0
 36
1.0
 17
0.0
 27
0.0
 37
0.0
 40
8.365595802020571
 41
1.570528967254408
 42
50.0
 43
0.0
 44
0.0
 50
0.0
 51
0.0
 71
     0
 72
   100
 73
     1
 74
     0
 75
     0
 76
     0
 77
     0
 78
     0
  0
ENDTAB
  0
TABLE
  2
LTYPE
  5
5
330
0
100
AcDbSymbolTable
 70
     2
  0
LTYPE
  5
12
330
5
100
AcDbSymbolTableRecord
100
AcDbLinetypeTableRecord
  2
BYBLOCK
 70
     0
  3

 72
    65
 73
     0
 40
0.0
  0
LTYPE
  5
13
330
5
100
AcDbSymbolTableRecord
100
AcDbLinetypeTableRecord
  2
BYLAYER
 70
     0
  3

 72
    65
 73
     0
 40
0.0
  0
LTYPE
  5
14
330
5
100
AcDbSymbolTableRecord
100
AcDbLinetypeTableRecord
  2
CONTINUOUS
 70
     0
  3
Solid line
 72
    65
 73
     0
 40
0.0
  0
LTYPE
  5
3B
330
5
100
AcDbSymbolTableRecord
100
AcDbLinetypeTableRecord
  2
HIDDEN2
 70
     0
  3
_ _ _ _ _ _ _ _ _ _ _ _ _ _ _ _ _ _ _ _ _ _ _ _
 72
    65
 73
     2
 40
0.1875
 49
0.125
 74
     0
 49
-0.0625
 74
     0
  0
ENDTAB
  0
TABLE
  2
LAYER
  5
2
330
0
100
AcDbSymbolTable
 70
     5
  0
LAYER
  5
F
330
2
100
AcDbSymbolTableRecord
100
AcDbLayerTableRecord
  2
0
 70
     0
 62
     7
  6
CONTINUOUS
  0
LAYER
  5
3C
330
2
100
AcDbSymbolTableRecord
100
AcDbLayerTableRecord
  2
ADP2DETAIL
 70
     0
 62
     5
  6
CONTINUOUS
  0
LAYER
  5
3D
330
2
100
AcDbSymbolTableRecord
100
AcDbLayerTableRecord
  2
ADPDIM
 70
     0
 62
     3
  6
CONTINUOUS
  0
LAYER
  5
3F
330
2
100
AcDbSymbolTableRecord
100
AcDbLayerTableRecord
  2
ADP1DETAIL
 70
     0
 62
     7
  6
CONTINUOUS
  0
LAYER
  5
41
330
2
100
AcDbSymbolTableRecord
100
AcDbLayerTableRecord
  2
DEFPOINTS
 70
     0
 62
     7
  6
CONTINUOUS
  0
ENDTAB
  0
TABLE
  2
STYLE
  5
3
330
0
100
AcDbSymbolTable
 70
     2
  0
STYLE
  5
10
330
3
100
AcDbSymbolTableRecord
100
AcDbTextStyleTableRecord
  2
STANDARD
 70
     0
 40
0.0
 41
1.0
 50
0.0
 71
     0
 42
0.2
  3
txt
  4

  0
STYLE
  5
2FF
330
3
100
AcDbSymbolTableRecord
100
AcDbTextStyleTableRecord
  2
ARIAL_WIDE
 70
     0
 40
0.0
 41
1.25
 50
0.0
 71
     0
 42
0.2
  3
ARIAL.TTF
  4

1001
ACAD
1000
Arial
1071
       34
  0
ENDTAB
  0
TABLE
  2
VIEW
  5
6
330
0
100
AcDbSymbolTable
 70
     0
  0
ENDTAB
  0
TABLE
  2
UCS
  5
7
330
0
100
AcDbSymbolTable
 70
     0
  0
ENDTAB
  0
TABLE
  2
APPID
  5
9
330
0
100
AcDbSymbolTable
 70
     1
  0
APPID
  5
11
330
9
100
AcDbSymbolTableRecord
100
AcDbRegAppTableRecord
  2
ACAD
 70
     0
  0
ENDTAB
  0
TABLE
  2
DIMSTYLE
  5
A
330
0
100
AcDbSymbolTable
 70
     1
  0
DIMSTYLE
105
2F3
330
A
100
AcDbSymbolTableRecord
100
AcDbDimStyleTableRecord
  2
STANDARD
 70
     0
  3

  4

  5

  6

  7

 40
1.0
 41
0.18
 42
0.0625
 43
0.38
 44
0.18
 45
0.0
 46
0.0
 47
0.0
 48
0.0
140
0.18
141
0.09
142
0.0
143
25.4
144
1.0
145
0.0
146
1.0
147
0.09
 71
     0
 72
     0
 73
     1
 74
     1
 75
     0
 76
     0
 77
     0
 78
     0
170
     0
171
     2
172
     0
173
     0
174
     0
175
     0
176
     0
177
     0
178
     0
270
     2
271
     4
272
     4
273
     2
274
     2
340
10
275
     0
280
     0
281
     0
282
     0
283
     1
284
     0
285
     0
286
     0
287
     3
288
     0
  0
ENDTAB
  0
TABLE
  2
BLOCK_RECORD
  5
1
330
0
100
AcDbSymbolTable
 70
     2
  0
BLOCK_RECORD
  5
18
102
{ACAD_XDICTIONARY
360
354
102
}
330
1
100
AcDbSymbolTableRecord
100
AcDbBlockTableRecord
  2
*MODEL_SPACE
  0
BLOCK_RECORD
  5
15
102
{ACAD_XDICTIONARY
360
352
102
}
330
1
100
AcDbSymbolTableRecord
100
AcDbBlockTableRecord
  2
*PAPER_SPACE
  0
BLOCK_RECORD
  5
24
330
1
100
AcDbSymbolTableRecord
100
AcDbBlockTableRecord
  2
*D0
  0
BLOCK_RECORD
  5
27
330
1
100
AcDbSymbolTableRecord
100
AcDbBlockTableRecord
  2
*D1
  0
ENDTAB
  0
ENDSEC
  0
SECTION
  2
BLOCKS
  0
BLOCK
  5
44
330
18
100
AcDbEntity
  8
0
100
AcDbBlockBegin
  2
*MODEL_SPACE
 70
     0
 10
0.0
 20
0.0
 30
0.0
  3
*MODEL_SPACE
  1

  0
ENDBLK
  5
45
330
18
100
AcDbEntity
  8
0
100
AcDbBlockEnd
  0
BLOCK
  5
42
330
15
100
AcDbEntity
 67
     1
  8
0
100
AcDbBlockBegin
  2
*PAPER_SPACE
 70
     0
 10
0.0
 20
0.0
 30
0.0
  3
*PAPER_SPACE
  1

  0
ENDBLK
  5
43
330
15
100
AcDbEntity
 67
     1
  8
0
100
AcDbBlockEnd
  0
BLOCK
  5
47
330
24
100
AcDbEntity
  8
0
100
AcDbBlockBegin
  2
*D0
 70
     1
 10
0.0
 20
0.0
 30
0.0
  3
*D0
  1

  0
LINE
  5
48
330
24
100
AcDbEntity
  8
0
  6
BYBLOCK
 62
     0
100
AcDbLine
 10
7.943533005788451
 20
0.0002726239807384
 30
0.0
 11
7.943533005788451
 21
0.4145854585901115
 31
0.0
  0
LINE
  5
49
330
24
100
AcDbEntity
  8
0
  6
BYBLOCK
 62
     0
100
AcDbLine
 10
12.94353300578845
 20
0.0002726239807384
 30
0.0
 11
12.94353300578845
 21
0.4145854585901115
 31
0.0
  0
LINE
  5
4A
330
24
100
AcDbEntity
  8
0
  6
BYBLOCK
 62
     0
100
AcDbLine
 10
7.943533005788451
 20
0.2345854585901114
 30
0.0
 11
10.27686633912178
 21
0.2345854585901114
 31
0.0
  0
LINE
  5
4B
330
24
100
AcDbEntity
  8
0
  6
BYBLOCK
 62
     0
100
AcDbLine
 10
12.94353300578845
 20
0.2345854585901114
 30
0.0
 11
10.61019967245511
 21
0.2345854585901114
 31
0.0
  0
LINE
  5
4C
330
24
100
AcDbEntity
  8
0
  6
BYBLOCK
 62
     0
100
AcDbLine
 10
7.818533005788451
 20
0.1095854585901115
 30
0.0
 11
8.068533005788451
 21
0.3595854585901115
 31
0.0
  0
LINE
  5
4D
330
24
100
AcDbEntity
  8
0
  6
BYBLOCK
 62
     0
100
AcDbLine
 10
12.81853300578845
 20
0.1095854585901115
 30
0.0
 11
13.06853300578845
 21
0.3595854585901115
 31
0.0
  0
TEXT
  5
4E
330
24
100
AcDbEntity
  8
0
  6
BYBLOCK
 62
     0
100
AcDbText
 10
10.40186633912178
 20
0.1720854585901115
 30
0.0
 40
0.125
  1
5
 72
     1
 11
10.44353300578845
 21
0.2345854585901114
 31
0.0
100
AcDbText
 73
     2
  0
POINT
  5
4F
330
24
100
AcDbEntity
  8
DEFPOINTS
  6
BYBLOCK
 62
     0
100
AcDbPoint
 10
7.943533005788451
 20
-0.0622273760192617
 30
0.0
  0
POINT
  5
50
330
24
100
AcDbEntity
  8
DEFPOINTS
  6
BYBLOCK
 62
     0
100
AcDbPoint
 10
12.94353300578845
 20
-0.0622273760192617
 30
0.0
  0
POINT
  5
51
330
24
100
AcDbEntity
  8
DEFPOINTS
  6
BYBLOCK
 62
     0
100
AcDbPoint
 10
12.94353300578845
 20
0.2345854585901114
 30
0.0
  0
ENDBLK
  5
52
330
24
100
AcDbEntity
  8
0
100
AcDbBlockEnd
  0
BLOCK
  5
53
330
27
100
AcDbEntity
  8
0
100
AcDbBlockBegin
  2
*D1
 70
     1
 10
0.0
 20
0.0
 30
0.0
  3
*D1
  1

  0
LINE
  5
54
330
27
100
AcDbEntity
  8
0
  6
BYBLOCK
 62
     0
100
AcDbLine
 10
8.293987809194913
 20
2.151349686657367
 30
0.0
 11
8.293987809194913
 21
3.169492291458603
 31
0.0
  0
LINE
  5
55
330
27
100
AcDbEntity
  8
0
  6
BYBLOCK
 62
     0
100
AcDbLine
 10
9.735987809194913
 20
2.151349686657367
 30
0.0
 11
9.735987809194913
 21
3.169492291458603
 31
0.0
  0
LINE
  5
56
330
27
100
AcDbEntity
  8
0
  6
BYBLOCK
 62
     0
100
AcDbLine
 10
8.293987809194913
 20
2.989492291458604
 30
0.0
 11
8.660821142528247
 21
2.989492291458604
 31
0.0
  0
LINE
  5
57
330
27
100
AcDbEntity
  8
0
  6
BYBLOCK
 62
     0
100
AcDbLine
 10
9.735987809194913
 20
2.989492291458604
 30
0.0
 11
9.369154475861579
 21
2.989492291458604
 31
0.0
  0
LINE
  5
58
330
27
100
AcDbEntity
  8
0
  6
BYBLOCK
 62
     0
100
AcDbLine
 10
8.168987809194913
 20
2.864492291458604
 30
0.0
 11
8.418987809194913
 21
3.114492291458604
 31
0.0
  0
LINE
  5
59
330
27
100
AcDbEntity
  8
0
  6
BYBLOCK
 62
     0
100
AcDbLine
 10
9.610987809194913
 20
2.864492291458604
 30
0.0
 11
9.860987809194913
 21
3.114492291458604
 31
0.0
  0
TEXT
  5
5A
330
27
100
AcDbEntity
  8
0
  6
BYBLOCK
 62
     0
100
AcDbText
 10
8.785821142528247
 20
2.926992291458604
 30
0.0
 40
0.125
  1
1.442
 72
     1
 11
9.014987809194913
 21
2.989492291458604
 31
0.0
100
AcDbText
 73
     2
  0
POINT
  5
5B
330
27
100
AcDbEntity
  8
DEFPOINTS
  6
BYBLOCK
 62
     0
100
AcDbPoint
 10
8.293987809194913
 20
2.088849686657367
 30
0.0
  0
POINT
  5
5C
330
27
100
AcDbEntity
  8
DEFPOINTS
  6
BYBLOCK
 62
     0
100
AcDbPoint
 10
9.735987809194913
 20
2.088849686657367
 30
0.0
  0
POINT
  5
5D
330
27
100
AcDbEntity
  8
DEFPOINTS
  6
BYBLOCK
 62
     0
100
AcDbPoint
 10
9.735987809194913
 20
2.989492291458604
 30
0.0
  0
ENDBLK
  5
5E
330
27
100
AcDbEntity
  8
0
100
AcDbBlockEnd
  0
ENDSEC
  0
SECTION
  2
ENTITIES
  0
DIMENSION
  5
5F
330
18
100
AcDbEntity
  8
ADPDIM
100
AcDbDimension
  2
*D1
 10
7.808984741895161
 20
0.2036186831444331
 30
0.0
 11
7.087984741895161
 21
0.2036186831444331
 31
0.0
 12
-1.927003067299751
 22
-2.785873608314171
 32
0.0
  1
1.442
100
AcDbAlignedDimension
 13
6.366984741895161
 23
-0.6970239216568035
 33
0.0
 14
7.808984741895161
 24
-0.6970239216568035
 34
0.0
100
AcDbRotatedDimension
  0
ARC
  5
60
330
18
100
AcDbEntity
  8
ADP1DETAIL
100
AcDbCircle
 10
6.703648951501326
 20
-1.255398306622946
 30
0.0
 40
0.062
100
AcDbArc
 50
234.2829156746323
 51
329.681397995058
  0
ARC
  5
61
330
18
100
AcDbEntity
  8
ADP1DETAIL
100
AcDbCircle
 10
7.088362166388035
 20
-0.7303499515263875
 30
0.0
 40
0.581
100
AcDbArc
 50
306.3039330046803
 51
233.6960669953195
  0
ARC
  5
62
330
18
100
AcDbEntity
  8
ADP1DETAIL
100
AcDbCircle
 10
6.707662121241918
 20
-1.248535705504384
 30
0.0
 40
0.062
100
AcDbArc
 50
329.681397995058
 51
53.6960669953194
  0
LWPOLYLINE
  5
63
330
18
100
AcDbEntity
  8
ADP1DETAIL
100
AcDbPolyline
 90
        2
 70
     0
 43
0.0
 10
6.779955790523773
 20
-0.0949636869791725
 10
6.748718470966538
 20
-0.0843600458199925
  0
LWPOLYLINE
  5
67
330
18
100
AcDbEntity
  8
ADP1DETAIL
100
AcDbPolyline
 90
        2
 70
     0
 43
0.0
 10
6.452372260681642
 20
-0.3807062561048902
 10
6.46297590184082
 20
-0.4119435756621259
  0
LWPOLYLINE
  5
6B
330
18
100
AcDbEntity
  8
ADP1DETAIL
100
AcDbPolyline
 90
        2
 70
     0
 43
0.0
 10
6.508581277926885
 20
-1.107747155869999
 10
6.50214564076473
 20
-1.140101288732287
  0
LWPOLYLINE
  5
6F
330
18
100
AcDbEntity
  8
ADP1DETAIL
100
AcDbPolyline
 90
        2
 70
     0
 43
0.0
 10
6.663874924822882
 20
-1.27355249518147
 10
6.668180721259141
 20
-1.306258266170746
  0
LWPOLYLINE
  5
73
330
18
100
AcDbEntity
  8
ADP1DETAIL
100
AcDbPolyline
 90
        2
 70
     0
 43
0.0
 10
6.631169153833605
 20
-1.277858291617729
 10
6.663874924822882
 20
-1.27355249518147
  0
LWPOLYLINE
  5
77
330
18
100
AcDbEntity
  8
ADP1DETAIL
100
AcDbPolyline
 90
        2
 70
     0
 43
0.0
 10
6.628602607138188
 20
-1.244605252154272
 10
6.630760124767177
 20
-1.277522610138079
  0
LWPOLYLINE
  5
7B
330
18
100
AcDbEntity
  8
ADP1DETAIL
100
AcDbPolyline
 90
        2
 70
     0
 43
0.0
 10
6.595685249154382
 20
-1.246762769783259
 10
6.628602607138188
 20
-1.244605252154272
  0
LWPOLYLINE
  5
7F
330
18
100
AcDbEntity
  8
ADP1DETAIL
100
AcDbPolyline
 90
        2
 70
     0
 43
0.0
 10
6.595299050469775
 20
-1.213413067444647
 10
6.595299050469775
 20
-1.246401055242533
  0
LWPOLYLINE
  5
83
330
18
100
AcDbEntity
  8
ADP1DETAIL
100
AcDbPolyline
 90
        2
 70
     0
 43
0.0
 10
6.562311062671889
 20
-1.213413067444646
 10
6.595299050469775
 20
-1.213413067444647
  0
LWPOLYLINE
  5
87
330
18
100
AcDbEntity
  8
ADP1DETAIL
100
AcDbPolyline
 90
        2
 70
     0
 43
0.0
 10
6.564106865760152
 20
-1.180109510776234
 10
6.561949348131164
 20
-1.213026868760041
  0
LWPOLYLINE
  5
8B
330
18
100
AcDbEntity
  8
ADP1DETAIL
100
AcDbPolyline
 90
        2
 70
     0
 43
0.0
 10
6.531189507776344
 20
-1.177951993147246
 10
6.564106865760152
 20
-1.180109510776234
  0
LWPOLYLINE
  5
8F
330
18
100
AcDbEntity
  8
ADP1DETAIL
100
AcDbPolyline
 90
        2
 70
     0
 43
0.0
 10
6.535159622732953
 20
-1.144837193091542
 10
6.530853826296693
 20
-1.177542964080817
  0
LWPOLYLINE
  5
93
330
18
100
AcDbEntity
  8
ADP1DETAIL
100
AcDbPolyline
 90
        2
 70
     0
 43
0.0
 10
6.502453851743676
 20
-1.140531396655281
 10
6.535159622732953
 20
-1.144837193091542
  0
LWPOLYLINE
  5
97
330
18
100
AcDbEntity
  8
ADP1DETAIL
100
AcDbPolyline
 90
        2
 70
     0
 43
0.0
 10
6.414825424374581
 20
-0.539876325431192
 10
6.38625698892188
 20
-0.5563703193301349
  0
LWPOLYLINE
  5
9B
330
18
100
AcDbEntity
  8
ADP1DETAIL
100
AcDbPolyline
 90
        2
 70
     0
 43
0.0
 10
6.386136834282996
 20
-0.5568856344722756
 10
6.404463978350716
 20
-0.5843141438972256
  0
LWPOLYLINE
  5
9F
330
18
100
AcDbEntity
  8
ADP1DETAIL
100
AcDbPolyline
 90
        2
 70
     0
 43
0.0
 10
6.404463978350716
 20
-0.5843141438972256
 10
6.377035468925766
 20
-0.6026412879649448
  0
LWPOLYLINE
  5
A3
330
18
100
AcDbEntity
  8
ADP1DETAIL
100
AcDbPolyline
 90
        2
 70
     0
 43
0.0
 10
6.38625698892188
 20
-0.8843295837226389
 10
6.414825424374581
 20
-0.9008235776215819
  0
LWPOLYLINE
  5
A7
330
18
100
AcDbEntity
  8
ADP1DETAIL
100
AcDbPolyline
 90
        2
 70
     0
 43
0.0
 10
6.404463978350715
 20
-0.8563857591555489
 10
6.386136834282996
 20
-0.8838142685804978
  0
LWPOLYLINE
  5
AB
330
18
100
AcDbEntity
  8
ADP1DETAIL
100
AcDbPolyline
 90
        2
 70
     0
 43
0.0
 10
6.377035468925766
 20
-0.8380586150878293
 10
6.404463978350715
 20
-0.8563857591555489
  0
LWPOLYLINE
  5
AF
330
18
100
AcDbEntity
  8
ADP1DETAIL
100
AcDbPolyline
 90
        2
 70
     0
 43
0.0
 10
6.398331430475638
 20
-0.511307889978491
 10
6.414825424374581
 20
-0.539876325431192
  0
LWPOLYLINE
  5
B3
330
18
100
AcDbEntity
  8
ADP1DETAIL
100
AcDbPolyline
 90
        2
 70
     0
 43
0.0
 10
6.414825424374581
 20
-0.9008235776215819
 10
6.398331430475638
 20
-0.9293920130742826
  0
LWPOLYLINE
  5
B7
330
18
100
AcDbEntity
  8
ADP1DETAIL
100
AcDbPolyline
 90
        2
 70
     0
 43
0.0
 10
6.376949274770024
 20
-0.6031633582671839
 10
6.397031089361987
 20
-0.629334488576124
  0
LWPOLYLINE
  5
BB
330
18
100
AcDbEntity
  8
ADP1DETAIL
100
AcDbPolyline
 90
        2
 70
     0
 43
0.0
 10
6.397031089361987
 20
-0.629334488576124
 10
6.370859959053047
 20
-0.6494163031680871
  0
LWPOLYLINE
  5
BF
330
18
100
AcDbEntity
  8
ADP1DETAIL
100
AcDbPolyline
 90
        2
 70
     0
 43
0.0
 10
6.370808094477053
 20
-0.6499428930452408
 10
6.392558586180161
 20
-0.674744575440323
  0
LWPOLYLINE
  5
C3
330
18
100
AcDbEntity
  8
ADP1DETAIL
100
AcDbPolyline
 90
        2
 70
     0
 43
0.0
 10
6.392558586180161
 20
-0.674744575440323
 10
6.36775690378508
 20
-0.696495067143431
  0
LWPOLYLINE
  5
C7
330
18
100
AcDbEntity
  8
ADP1DETAIL
100
AcDbPolyline
 90
        2
 70
     0
 43
0.0
 10
6.36773959088091
 20
-0.6970239216568018
 10
6.391065620750494
 20
-0.7203499515263868
  0
LWPOLYLINE
  5
CB
330
18
100
AcDbEntity
  8
ADP1DETAIL
100
AcDbPolyline
 90
        2
 70
     0
 43
0.0
 10
6.391065620750494
 20
-0.7203499515263868
 10
6.36773959088091
 20
-0.7436759813959709
  0
LWPOLYLINE
  5
CF
330
18
100
AcDbEntity
  8
ADP1DETAIL
100
AcDbPolyline
 90
        2
 70
     0
 43
0.0
 10
6.36773959088091
 20
-0.6970239216568026
 10
6.391065620750494
 20
-0.7203499515263876
  0
LWPOLYLINE
  5
D3
330
18
100
AcDbEntity
  8
ADP1DETAIL
100
AcDbPolyline
 90
        2
 70
     0
 43
0.0
 10
6.397031089361987
 20
-0.811365414476652
 10
6.376949274770023
 20
-0.8375365447855905
  0
LWPOLYLINE
  5
D7
330
18
100
AcDbEntity
  8
ADP1DETAIL
100
AcDbPolyline
 90
        2
 70
     0
 43
0.0
 10
6.370859959053047
 20
-0.7912835998846873
 10
6.397031089361987
 20
-0.811365414476652
  0
LWPOLYLINE
  5
DB
330
18
100
AcDbEntity
  8
ADP1DETAIL
100
AcDbPolyline
 90
        2
 70
     0
 43
0.0
 10
6.392558586180161
 20
-0.7659553276124514
 10
6.370808094477053
 20
-0.7907570100075332
  0
LWPOLYLINE
  5
DF
330
18
100
AcDbEntity
  8
ADP1DETAIL
100
AcDbPolyline
 90
        2
 70
     0
 43
0.0
 10
6.367756903785079
 20
-0.744204835909343
 10
6.392558586180161
 20
-0.7659553276124514
  0
LWPOLYLINE
  5
E3
330
18
100
AcDbEntity
  8
ADP1DETAIL
100
AcDbPolyline
 90
        2
 70
     0
 43
0.0
 10
6.391065620750494
 20
-0.7203499515263876
 10
6.36773959088091
 20
-0.7436759813959717
  0
LWPOLYLINE
  5
E7
330
18
100
AcDbEntity
  8
ADP1DETAIL
100
AcDbPolyline
 90
        2
 70
     0
 43
0.0
 10
6.46297590184082
 20
-0.4119435756621259
 10
6.431738582283585
 20
-0.4225472168213055
  0
LWPOLYLINE
  5
EB
330
18
100
AcDbEntity
  8
ADP1DETAIL
100
AcDbPolyline
 90
        2
 70
     0
 43
0.0
 10
6.431520203385376
 20
-0.4230291893202936
 10
6.444144159782688
 20
-0.4535061160654932
  0
LWPOLYLINE
  5
EF
330
18
100
AcDbEntity
  8
ADP1DETAIL
100
AcDbPolyline
 90
        2
 70
     0
 43
0.0
 10
6.444144159782688
 20
-0.4535061160654932
 10
6.413667233037489
 20
-0.4661300724628058
  0
LWPOLYLINE
  5
F3
330
18
100
AcDbEntity
  8
ADP1DETAIL
100
AcDbPolyline
 90
        2
 70
     0
 43
0.0
 10
6.413480844214902
 20
-0.4666252956849759
 10
6.428071058130989
 20
-0.4962113227389135
  0
LWPOLYLINE
  5
F7
330
18
100
AcDbEntity
  8
ADP1DETAIL
100
AcDbPolyline
 90
        2
 70
     0
 43
0.0
 10
6.428071058130989
 20
-0.4962113227389135
 10
6.398485031077052
 20
-0.5108015366550008
  0
LWPOLYLINE
  5
FB
330
18
100
AcDbEntity
  8
ADP1DETAIL
100
AcDbPolyline
 90
        2
 70
     0
 43
0.0
 10
6.452621694523503
 20
-1.060460304843454
 10
6.48448564389479
 20
-1.068998224345157
  0
LWPOLYLINE
  5
FF
330
18
100
AcDbEntity
  8
ADP1DETAIL
100
AcDbPolyline
 90
        2
 70
     0
 43
0.0
 10
6.476227145064596
 20
-1.101311518707845
 10
6.508581277926885
 20
-1.107747155869999
  0
LWPOLYLINE
  5
103
330
18
100
AcDbEntity
  8
ADP1DETAIL
100
AcDbPolyline
 90
        2
 70
     0
 43
0.0
 10
6.48448564389479
 20
-1.068998224345157
 10
6.475947724393087
 20
-1.100862173716444
  0
LWPOLYLINE
  5
107
330
18
100
AcDbEntity
  8
ADP1DETAIL
100
AcDbPolyline
 90
        2
 70
     0
 43
0.0
 10
6.46297590184082
 20
-1.028756327390649
 10
6.452372260681641
 20
-1.059993646947884
  0
LWPOLYLINE
  5
10B
330
18
100
AcDbEntity
  8
ADP1DETAIL
100
AcDbPolyline
 90
        2
 70
     0
 43
0.0
 10
6.431738582283585
 20
-1.018152686231469
 10
6.46297590184082
 20
-1.028756327390649
  0
LWPOLYLINE
  5
10F
330
18
100
AcDbEntity
  8
ADP1DETAIL
100
AcDbPolyline
 90
        2
 70
     0
 43
0.0
 10
6.444144159782688
 20
-0.9871937869872823
 10
6.431520203385375
 20
-1.017670713732481
  0
LWPOLYLINE
  5
113
330
18
100
AcDbEntity
  8
ADP1DETAIL
100
AcDbPolyline
 90
        2
 70
     0
 43
0.0
 10
6.413667233037489
 20
-0.9745698305899693
 10
6.444144159782688
 20
-0.9871937869872823
  0
LWPOLYLINE
  5
117
330
18
100
AcDbEntity
  8
ADP1DETAIL
100
AcDbPolyline
 90
        2
 70
     0
 43
0.0
 10
6.428071058130989
 20
-0.9444885803138603
 10
6.413480844214901
 20
-0.9740746073677971
  0
LWPOLYLINE
  5
11B
330
18
100
AcDbEntity
  8
ADP1DETAIL
100
AcDbPolyline
 90
        2
 70
     0
 43
0.0
 10
6.398485031077051
 20
-0.9298983663977725
 10
6.428071058130989
 20
-0.9444885803138603
  0
LWPOLYLINE
  5
11F
330
18
100
AcDbEntity
  8
ADP1DETAIL
100
AcDbPolyline
 90
        2
 70
     0
 43
0.0
 10
6.748251813070968
 20
-0.0846094796618543
 10
6.739713893569265
 20
-0.1164734290331416
  0
LWPOLYLINE
  5
123
330
18
100
AcDbEntity
  8
ADP1DETAIL
100
AcDbPolyline
 90
        2
 70
     0
 43
0.0
 10
6.739713893569265
 20
-0.1164734290331416
 10
6.707849944197978
 20
-0.1079355095314388
  0
LWPOLYLINE
  5
127
330
18
100
AcDbEntity
  8
ADP1DETAIL
100
AcDbPolyline
 90
        2
 70
     0
 43
0.0
 10
6.707400599206577
 20
-0.1082149302029478
 10
6.700964962044423
 20
-0.1405690630652364
  0
LWPOLYLINE
  5
12B
330
18
100
AcDbEntity
  8
ADP1DETAIL
100
AcDbPolyline
 90
        2
 70
     0
 43
0.0
 10
6.700964962044423
 20
-0.1405690630652364
 10
6.668610829182135
 20
-0.1341334259030824
  0
LWPOLYLINE
  5
12F
330
18
100
AcDbEntity
  8
ADP1DETAIL
100
AcDbPolyline
 90
        2
 70
     0
 43
0.0
 10
6.668180721259141
 20
-0.1344416368820281
 10
6.663874924822881
 20
-0.1671474078713044
  0
LWPOLYLINE
  5
133
330
18
100
AcDbEntity
  8
ADP1DETAIL
100
AcDbPolyline
 90
        2
 70
     0
 43
0.0
 10
6.663874924822881
 20
-0.1671474078713044
 10
6.631169153833606
 20
-0.1628416114350449
  0
LWPOLYLINE
  5
137
330
18
100
AcDbEntity
  8
ADP1DETAIL
100
AcDbPolyline
 90
        2
 70
     0
 43
0.0
 10
6.630760124767176
 20
-0.1631772929146961
 10
6.628602607138188
 20
-0.1960946508985031
  0
LWPOLYLINE
  5
13B
330
18
100
AcDbEntity
  8
ADP1DETAIL
100
AcDbPolyline
 90
        2
 70
     0
 43
0.0
 10
6.628602607138188
 20
-0.1960946508985031
 10
6.595685249154382
 20
-0.1939371332695156
  0
LWPOLYLINE
  5
13F
330
18
100
AcDbEntity
  8
ADP1DETAIL
100
AcDbPolyline
 90
        2
 70
     0
 43
0.0
 10
6.595299050469776
 20
-0.1942988478102408
 10
6.595299050469775
 20
-0.2272868356081272
  0
LWPOLYLINE
  5
143
330
18
100
AcDbEntity
  8
ADP1DETAIL
100
AcDbPolyline
 90
        2
 70
     0
 43
0.0
 10
6.595299050469775
 20
-0.2272868356081272
 10
6.56231106267189
 20
-0.2272868356081272
  0
LWPOLYLINE
  5
147
330
18
100
AcDbEntity
  8
ADP1DETAIL
100
AcDbPolyline
 90
        2
 70
     0
 43
0.0
 10
6.561949348131164
 20
-0.2276730342927331
 10
6.56410686576015
 20
-0.2605903922765402
  0
LWPOLYLINE
  5
14B
330
18
100
AcDbEntity
  8
ADP1DETAIL
100
AcDbPolyline
 90
        2
 70
     0
 43
0.0
 10
6.56410686576015
 20
-0.2605903922765402
 10
6.531189507776343
 20
-0.2627479099055284
  0
LWPOLYLINE
  5
14F
330
18
100
AcDbEntity
  8
ADP1DETAIL
100
AcDbPolyline
 90
        2
 70
     0
 43
0.0
 10
6.530853826296693
 20
-0.2631569389719568
 10
6.535159622732952
 20
-0.2958627099612333
  0
LWPOLYLINE
  5
153
330
18
100
AcDbEntity
  8
ADP1DETAIL
100
AcDbPolyline
 90
        2
 70
     0
 43
0.0
 10
6.535159622732952
 20
-0.2958627099612333
 10
6.502453851743676
 20
-0.3001685063974929
  0
LWPOLYLINE
  5
157
330
18
100
AcDbEntity
  8
ADP1DETAIL
100
AcDbPolyline
 90
        2
 70
     0
 43
0.0
 10
6.502145640764732
 20
-0.300598614320486
 10
6.508581277926885
 20
-0.3329527471827745
  0
LWPOLYLINE
  5
15B
330
18
100
AcDbEntity
  8
ADP1DETAIL
100
AcDbPolyline
 90
        2
 70
     0
 43
0.0
 10
6.508581277926885
 20
-0.3329527471827745
 10
6.476227145064597
 20
-0.3393883843449281
  0
LWPOLYLINE
  5
15F
330
18
100
AcDbEntity
  8
ADP1DETAIL
100
AcDbPolyline
 90
        2
 70
     0
 43
0.0
 10
6.475947724393087
 20
-0.3398377293363294
 10
6.484485643894789
 20
-0.3717016787076167
  0
LWPOLYLINE
  5
163
330
18
100
AcDbEntity
  8
ADP1DETAIL
100
AcDbPolyline
 90
        2
 70
     0
 43
0.0
 10
6.484485643894789
 20
-0.3717016787076167
 10
6.452621694523503
 20
-0.3802395982093191
  0
DIMENSION
  5
167
330
18
100
AcDbEntity
  8
ADPDIM
100
AcDbDimension
  2
*D0
 10
12.94353300578845
 20
0.2345854585901114
 30
0.0
 11
10.44353300578845
 21
0.2345854585901114
 31
0.0
100
AcDbAlignedDimension
 13
7.943533005788451
 23
-0.0622273760192617
 33
0.0
 14
12.94353300578845
 24
-0.0622273760192617
 34
0.0
100
AcDbRotatedDimension
  0
LINE
  5
168
330
18
100
AcDbEntity
  8
ADP1DETAIL
100
AcDbLine
 10
8.006033005788451
 20
0.0002726239807384
 30
0.0
 11
12.88103300578845
 21
0.0002726239807384
 31
0.0
  0
LINE
  5
169
330
18
100
AcDbEntity
  8
ADP1DETAIL
100
AcDbLine
 10
12.88103300578845
 20
-1.311130418079863
 30
0.0
 11
8.006033005788452
 21
-1.311130418079863
 31
0.0
  0
LINE
  5
16A
330
18
100
AcDbEntity
  8
ADP2DETAIL
  6
HIDDEN2
100
AcDbLine
 10
12.94353300578845
 20
-1.210983781091214
 30
0.0
 11
7.943533005788451
 21
-1.210983781091214
 31
0.0
  0
LINE
  5
16B
330
18
100
AcDbEntity
  8
ADP1DETAIL
100
AcDbLine
 10
7.943533005788451
 20
-1.248630418079863
 30
0.0
 11
7.943533005788451
 21
-0.0622273760192617
 31
0.0
  0
LINE
  5
16C
330
18
100
AcDbEntity
  8
ADP1DETAIL
100
AcDbLine
 10
8.006033005788452
 20
-1.311130418079863
 30
0.0
 11
8.006033005788451
 21
0.0002726239807384
 31
0.0
  0
LWPOLYLINE
  5
16D
330
18
100
AcDbEntity
  8
ADP1DETAIL
100
AcDbPolyline
 90
        2
 70
     0
 43
0.0
 10
7.713748430935251
 20
-0.4119435756621256
 10
7.724352072094431
 20
-0.3807062561048907
  0
ARC
  5
171
330
18
100
AcDbEntity
  8
ADP1DETAIL
100
AcDbCircle
 10
7.473075381274746
 20
-1.255398306622946
 30
0.0
 40
0.062
100
AcDbArc
 50
210.3186020049415
 51
305.7170843253678
  0
LINE
  5
172
330
18
100
AcDbEntity
  8
ADP1DETAIL
100
AcDbLine
 10
6.757169317026673
 20
-1.28669639720421
 30
0.0
 11
6.761182486767267
 21
-1.279833796085648
 31
0.0
  0
LINE
  5
173
330
18
100
AcDbEntity
  8
ADP1DETAIL
100
AcDbLine
 10
7.415541846008803
 20
-1.279833796085649
 30
0.0
 11
7.419555015749397
 21
-1.28669639720421
 31
0.0
  0
ARC
  5
174
330
18
100
AcDbEntity
  8
ADP1DETAIL
100
AcDbCircle
 10
7.469062211534152
 20
-1.248535705504384
 30
0.0
 40
0.062
100
AcDbArc
 50
126.3039330046807
 51
210.3186020049416
  0
LWPOLYLINE
  5
175
330
18
100
AcDbEntity
  8
ADP1DETAIL
100
AcDbPolyline
 90
        2
 70
     0
 43
0.0
 10
7.674578692011339
 20
-1.140101288732288
 10
7.668143054849186
 20
-1.10774715587
  0
LWPOLYLINE
  5
179
330
18
100
AcDbEntity
  8
ADP1DETAIL
100
AcDbPolyline
 90
        2
 70
     0
 43
0.0
 10
7.641564710043119
 20
-1.144837193091541
 10
7.674270481032395
 20
-1.140531396655282
  0
LWPOLYLINE
  5
17D
330
18
100
AcDbEntity
  8
ADP1DETAIL
100
AcDbPolyline
 90
        2
 70
     0
 43
0.0
 10
7.645870506479377
 20
-1.177542964080818
 10
7.641564710043119
 20
-1.144837193091541
  0
LWPOLYLINE
  5
181
330
18
100
AcDbEntity
  8
ADP1DETAIL
100
AcDbPolyline
 90
        2
 70
     0
 43
0.0
 10
7.612617467015921
 20
-1.180109510776234
 10
7.645534824999727
 20
-1.177951993147246
  0
LWPOLYLINE
  5
185
330
18
100
AcDbEntity
  8
ADP1DETAIL
100
AcDbPolyline
 90
        2
 70
     0
 43
0.0
 10
7.614774984644907
 20
-1.213026868760041
 10
7.612617467015921
 20
-1.180109510776234
  0
LWPOLYLINE
  5
189
330
18
100
AcDbEntity
  8
ADP1DETAIL
100
AcDbPolyline
 90
        2
 70
     0
 43
0.0
 10
7.581425282306295
 20
-1.213413067444647
 10
7.614413270104181
 20
-1.213413067444647
  0
LWPOLYLINE
  5
18D
330
18
100
AcDbEntity
  8
ADP1DETAIL
100
AcDbPolyline
 90
        2
 70
     0
 43
0.0
 10
7.581425282306295
 20
-1.246401055242534
 10
7.581425282306295
 20
-1.213413067444647
  0
LWPOLYLINE
  5
191
330
18
100
AcDbEntity
  8
ADP1DETAIL
100
AcDbPolyline
 90
        2
 70
     0
 43
0.0
 10
7.548121725637883
 20
-1.244605252154271
 10
7.581039083621689
 20
-1.246762769783259
  0
LWPOLYLINE
  5
195
330
18
100
AcDbEntity
  8
ADP1DETAIL
100
AcDbPolyline
 90
        2
 70
     0
 43
0.0
 10
7.545964208008895
 20
-1.277522610138078
 10
7.548121725637883
 20
-1.244605252154271
  0
LWPOLYLINE
  5
199
330
18
100
AcDbEntity
  8
ADP1DETAIL
100
AcDbPolyline
 90
        2
 70
     0
 43
0.0
 10
7.51284940795319
 20
-1.27355249518147
 10
7.545555178942465
 20
-1.27785829161773
  0
LWPOLYLINE
  5
19D
330
18
100
AcDbEntity
  8
ADP1DETAIL
100
AcDbPolyline
 90
        2
 70
     0
 43
0.0
 10
7.508543611516929
 20
-1.306258266170746
 10
7.51284940795319
 20
-1.27355249518147
  0
LINE
  5
1A1
330
18
100
AcDbEntity
  8
ADP1DETAIL
100
AcDbLine
 10
7.943533005788451
 20
-1.248630418079863
 30
0.0
 11
8.006033005788452
 21
-1.311130418079863
 31
0.0
  0
LWPOLYLINE
  5
1A2
330
18
100
AcDbEntity
  8
ADP1DETAIL
100
AcDbPolyline
 90
        2
 70
     0
 43
0.0
 10
7.785658712025576
 20
-0.7203499515263882
 10
7.808984741895161
 20
-0.6970239216568042
  0
LWPOLYLINE
  5
1A6
330
18
100
AcDbEntity
  8
ADP1DETAIL
100
AcDbPolyline
 90
        2
 70
     0
 43
0.0
 10
7.808984741895161
 20
-0.7436759813959732
 10
7.785658712025576
 20
-0.7203499515263882
  0
LWPOLYLINE
  5
1AA
330
18
100
AcDbEntity
  8
ADP1DETAIL
100
AcDbPolyline
 90
        2
 70
     0
 43
0.0
 10
7.78416574659591
 20
-0.7659553276124522
 10
7.808967428990991
 20
-0.7442048359093441
  0
LWPOLYLINE
  5
1AE
330
18
100
AcDbEntity
  8
ADP1DETAIL
100
AcDbPolyline
 90
        2
 70
     0
 43
0.0
 10
7.805916238299017
 20
-0.7907570100075344
 10
7.78416574659591
 20
-0.7659553276124522
  0
LWPOLYLINE
  5
1B2
330
18
100
AcDbEntity
  8
ADP1DETAIL
100
AcDbPolyline
 90
        2
 70
     0
 43
0.0
 10
7.779693243414084
 20
-0.811365414476651
 10
7.805864373723023
 20
-0.7912835998846881
  0
LWPOLYLINE
  5
1B6
330
18
100
AcDbEntity
  8
ADP1DETAIL
100
AcDbPolyline
 90
        2
 70
     0
 43
0.0
 10
7.808984741895161
 20
-0.7436759813959727
 10
7.785658712025577
 20
-0.7203499515263877
  0
LWPOLYLINE
  5
1BA
330
18
100
AcDbEntity
  8
ADP1DETAIL
100
AcDbPolyline
 90
        2
 70
     0
 43
0.0
 10
7.805864373723025
 20
-0.6494163031680881
 10
7.779693243414085
 20
-0.6293344885761233
  0
LWPOLYLINE
  5
1BE
330
18
100
AcDbEntity
  8
ADP1DETAIL
100
AcDbPolyline
 90
        2
 70
     0
 43
0.0
 10
7.784165746595911
 20
-0.674744575440324
 10
7.805916238299019
 20
-0.6499428930452421
  0
LWPOLYLINE
  5
1C2
330
18
100
AcDbEntity
  8
ADP1DETAIL
100
AcDbPolyline
 90
        2
 70
     0
 43
0.0
 10
7.808967428990992
 20
-0.6964950671434324
 10
7.784165746595911
 20
-0.674744575440324
  0
LWPOLYLINE
  5
1C6
330
18
100
AcDbEntity
  8
ADP1DETAIL
100
AcDbPolyline
 90
        2
 70
     0
 43
0.0
 10
7.785658712025577
 20
-0.7203499515263877
 10
7.808984741895161
 20
-0.6970239216568036
  0
LWPOLYLINE
  5
1CA
330
18
100
AcDbEntity
  8
ADP1DETAIL
100
AcDbPolyline
 90
        2
 70
     0
 43
0.0
 10
7.799775058006047
 20
-0.837536544785591
 10
7.779693243414084
 20
-0.811365414476651
  0
LWPOLYLINE
  5
1CE
330
18
100
AcDbEntity
  8
ADP1DETAIL
100
AcDbPolyline
 90
        2
 70
     0
 43
0.0
 10
7.772260354425355
 20
-0.8563857591555494
 10
7.799688863850304
 20
-0.8380586150878302
  0
LWPOLYLINE
  5
1D2
330
18
100
AcDbEntity
  8
ADP1DETAIL
100
AcDbPolyline
 90
        2
 70
     0
 43
0.0
 10
7.799688863850306
 20
-0.602641287964946
 10
7.772260354425356
 20
-0.5843141438972263
  0
LWPOLYLINE
  5
1D6
330
18
100
AcDbEntity
  8
ADP1DETAIL
100
AcDbPolyline
 90
        2
 70
     0
 43
0.0
 10
7.779693243414085
 20
-0.6293344885761233
 10
7.799775058006049
 20
-0.6031633582671848
  0
LWPOLYLINE
  5
1DA
330
18
100
AcDbEntity
  8
ADP1DETAIL
100
AcDbPolyline
 90
        2
 70
     0
 43
0.0
 10
7.724352072094429
 20
-1.059993646947884
 10
7.71374843093525
 20
-1.028756327390649
  0
LWPOLYLINE
  5
1DE
330
18
100
AcDbEntity
  8
ADP1DETAIL
100
AcDbPolyline
 90
        2
 70
     0
 43
0.0
 10
7.790587498493074
 20
-0.8838142685804994
 10
7.772260354425355
 20
-0.8563857591555494
  0
LWPOLYLINE
  5
1E2
330
18
100
AcDbEntity
  8
ADP1DETAIL
100
AcDbPolyline
 90
        2
 70
     0
 43
0.0
 10
7.76189890840149
 20
-0.900823577621583
 10
7.79046734385419
 20
-0.8843295837226403
  0
LWPOLYLINE
  5
1E6
330
18
100
AcDbEntity
  8
ADP1DETAIL
100
AcDbPolyline
 90
        2
 70
     0
 43
0.0
 10
7.778392902300433
 20
-0.929392013074284
 10
7.76189890840149
 20
-0.900823577621583
  0
LWPOLYLINE
  5
1EA
330
18
100
AcDbEntity
  8
ADP1DETAIL
100
AcDbPolyline
 90
        2
 70
     0
 43
0.0
 10
7.748653274645082
 20
-0.9444885803138616
 10
7.778239301699019
 20
-0.9298983663977743
  0
LWPOLYLINE
  5
1EE
330
18
100
AcDbEntity
  8
ADP1DETAIL
100
AcDbPolyline
 90
        2
 70
     0
 43
0.0
 10
7.763243488561169
 20
-0.9740746073677991
 10
7.748653274645082
 20
-0.9444885803138616
  0
LWPOLYLINE
  5
1F2
330
18
100
AcDbEntity
  8
ADP1DETAIL
100
AcDbPolyline
 90
        2
 70
     0
 43
0.0
 10
7.732580172993382
 20
-0.9871937869872818
 10
7.763057099738581
 20
-0.9745698305899693
  0
LWPOLYLINE
  5
1F6
330
18
100
AcDbEntity
  8
ADP1DETAIL
100
AcDbPolyline
 90
        2
 70
     0
 43
0.0
 10
7.745204129390694
 20
-1.017670713732481
 10
7.732580172993382
 20
-0.9871937869872818
  0
LWPOLYLINE
  5
1FA
330
18
100
AcDbEntity
  8
ADP1DETAIL
100
AcDbPolyline
 90
        2
 70
     0
 43
0.0
 10
7.71374843093525
 20
-1.028756327390649
 10
7.744985750492485
 20
-1.018152686231469
  0
LWPOLYLINE
  5
1FE
330
18
100
AcDbEntity
  8
ADP1DETAIL
100
AcDbPolyline
 90
        2
 70
     0
 43
0.0
 10
7.692238688881282
 20
-1.068998224345158
 10
7.724102638252568
 20
-1.060460304843455
  0
LWPOLYLINE
  5
202
330
18
100
AcDbEntity
  8
ADP1DETAIL
100
AcDbPolyline
 90
        2
 70
     0
 43
0.0
 10
7.700776608382984
 20
-1.100862173716445
 10
7.692238688881282
 20
-1.068998224345158
  0
LWPOLYLINE
  5
206
330
18
100
AcDbEntity
  8
ADP1DETAIL
100
AcDbPolyline
 90
        2
 70
     0
 43
0.0
 10
7.668143054849186
 20
-1.10774715587
 10
7.700497187711474
 20
-1.101311518707846
  0
LWPOLYLINE
  5
20A
330
18
100
AcDbEntity
  8
ADP1DETAIL
100
AcDbPolyline
 90
        2
 70
     0
 43
0.0
 10
7.744985750492487
 20
-0.4225472168213062
 10
7.713748430935251
 20
-0.4119435756621256
  0
LWPOLYLINE
  5
20E
330
18
100
AcDbEntity
  8
ADP1DETAIL
100
AcDbPolyline
 90
        2
 70
     0
 43
0.0
 10
7.732580172993383
 20
-0.4535061160654929
 10
7.745204129390696
 20
-0.4230291893202939
  0
LWPOLYLINE
  5
212
330
18
100
AcDbEntity
  8
ADP1DETAIL
100
AcDbPolyline
 90
        2
 70
     0
 43
0.0
 10
7.763057099738582
 20
-0.4661300724628058
 10
7.732580172993383
 20
-0.4535061160654929
  0
LWPOLYLINE
  5
216
330
18
100
AcDbEntity
  8
ADP1DETAIL
100
AcDbPolyline
 90
        2
 70
     0
 43
0.0
 10
7.748653274645083
 20
-0.496211322738915
 10
7.763243488561171
 20
-0.466625295684978
  0
LWPOLYLINE
  5
21A
330
18
100
AcDbEntity
  8
ADP1DETAIL
100
AcDbPolyline
 90
        2
 70
     0
 43
0.0
 10
7.77823930169902
 20
-0.5108015366550026
 10
7.748653274645083
 20
-0.496211322738915
  0
LWPOLYLINE
  5
21E
330
18
100
AcDbEntity
  8
ADP1DETAIL
100
AcDbPolyline
 90
        2
 70
     0
 43
0.0
 10
7.761898908401491
 20
-0.5398763254311933
 10
7.778392902300434
 20
-0.5113078899784928
  0
LWPOLYLINE
  5
222
330
18
100
AcDbEntity
  8
ADP1DETAIL
100
AcDbPolyline
 90
        2
 70
     0
 43
0.0
 10
7.790467343854191
 20
-0.5563703193301365
 10
7.761898908401491
 20
-0.5398763254311933
  0
LWPOLYLINE
  5
226
330
18
100
AcDbEntity
  8
ADP1DETAIL
100
AcDbPolyline
 90
        2
 70
     0
 43
0.0
 10
7.772260354425356
 20
-0.5843141438972263
 10
7.790587498493076
 20
-0.5568856344722774
  0
LWPOLYLINE
  5
22A
330
18
100
AcDbEntity
  8
ADP1DETAIL
100
AcDbPolyline
 90
        2
 70
     0
 43
0.0
 10
7.468874388578094
 20
-0.1079355095314391
 10
7.437010439206806
 20
-0.1164734290331411
  0
LWPOLYLINE
  5
22E
330
18
100
AcDbEntity
  8
ADP1DETAIL
100
AcDbPolyline
 90
        2
 70
     0
 43
0.0
 10
7.11168819625762
 20
0.0002726239807384
 10
7.088362166388035
 20
-0.0230534058888462
  0
LWPOLYLINE
  5
232
330
18
100
AcDbEntity
  8
ADP1DETAIL
100
AcDbPolyline
 90
        2
 70
     0
 43
0.0
 10
7.111688196257621
 20
0.0002726239807376
 10
7.088362166388036
 20
-0.0230534058888465
  0
LWPOLYLINE
  5
236
330
18
100
AcDbEntity
  8
ADP1DETAIL
100
AcDbPolyline
 90
        2
 70
     0
 43
0.0
 10
7.088362166388035
 20
-0.0230534058888462
 10
7.065036136518451
 20
0.0002726239807384
  0
LWPOLYLINE
  5
23A
330
18
100
AcDbEntity
  8
ADP1DETAIL
100
AcDbPolyline
 90
        2
 70
     0
 43
0.0
 10
7.06450728200508
 20
0.0002553110765691
 10
7.042756790301972
 20
-0.0245463713185127
  0
LWPOLYLINE
  5
23E
330
18
100
AcDbEntity
  8
ADP1DETAIL
100
AcDbPolyline
 90
        2
 70
     0
 43
0.0
 10
7.042756790301972
 20
-0.0245463713185127
 10
7.01795510790689
 20
-0.0027958796154042
  0
LWPOLYLINE
  5
242
330
18
100
AcDbEntity
  8
ADP1DETAIL
100
AcDbPolyline
 90
        2
 70
     0
 43
0.0
 10
7.017428518029736
 20
-0.0028477441913988
 10
6.997346703437771
 20
-0.0290188745003386
  0
LWPOLYLINE
  5
246
330
18
100
AcDbEntity
  8
ADP1DETAIL
100
AcDbPolyline
 90
        2
 70
     0
 43
0.0
 10
6.997346703437771
 20
-0.0290188745003386
 10
6.971175573128832
 20
-0.0089370599083749
  0
LWPOLYLINE
  5
24A
330
18
100
AcDbEntity
  8
ADP1DETAIL
100
AcDbPolyline
 90
        2
 70
     0
 43
0.0
 10
6.970653502826594
 20
-0.0090232540641176
 10
6.952326358758874
 20
-0.0364517634890674
  0
LWPOLYLINE
  5
24E
330
18
100
AcDbEntity
  8
ADP1DETAIL
100
AcDbPolyline
 90
        2
 70
     0
 43
0.0
 10
6.952326358758874
 20
-0.0364517634890674
 10
6.924897849333925
 20
-0.0181246194213478
  0
LWPOLYLINE
  5
252
330
18
100
AcDbEntity
  8
ADP1DETAIL
100
AcDbPolyline
 90
        2
 70
     0
 43
0.0
 10
6.924382534191784
 20
-0.0182447740602317
 10
6.907888540292841
 20
-0.0468132095129326
  0
LWPOLYLINE
  5
256
330
18
100
AcDbEntity
  8
ADP1DETAIL
100
AcDbPolyline
 90
        2
 70
     0
 43
0.0
 10
6.907888540292841
 20
-0.0468132095129326
 10
6.87932010484014
 20
-0.0303192156139892
  0
LWPOLYLINE
  5
25A
330
18
100
AcDbEntity
  8
ADP1DETAIL
100
AcDbPolyline
 90
        2
 70
     0
 43
0.0
 10
6.87881375151665
 20
-0.0304728162154029
 10
6.864223537600563
 20
-0.0600588432693403
  0
LWPOLYLINE
  5
25E
330
18
100
AcDbEntity
  8
ADP1DETAIL
100
AcDbPolyline
 90
        2
 70
     0
 43
0.0
 10
6.864223537600563
 20
-0.0600588432693403
 10
6.834637510546626
 20
-0.0454686293532526
  0
LWPOLYLINE
  5
262
330
18
100
AcDbEntity
  8
ADP1DETAIL
100
AcDbPolyline
 90
        2
 70
     0
 43
0.0
 10
6.834142287324453
 20
-0.0456550181758412
 10
6.82151833092714
 20
-0.0761319449210406
  0
LWPOLYLINE
  5
266
330
18
100
AcDbEntity
  8
ADP1DETAIL
100
AcDbPolyline
 90
        2
 70
     0
 43
0.0
 10
6.82151833092714
 20
-0.0761319449210406
 10
6.791041404181942
 20
-0.0635079885237276
  0
LWPOLYLINE
  5
26A
330
18
100
AcDbEntity
  8
ADP1DETAIL
100
AcDbPolyline
 90
        2
 70
     0
 43
0.0
 10
6.790559431682954
 20
-0.0637263674219368
 10
6.779955790523773
 20
-0.0949636869791725
  0
LWPOLYLINE
  5
26E
330
18
100
AcDbEntity
  8
ADP1DETAIL
100
AcDbPolyline
 90
        2
 70
     0
 43
0.0
 10
7.088362166388036
 20
-0.0230534058888465
 10
7.065036136518452
 20
0.0002726239807376
  0
LWPOLYLINE
  5
272
330
18
100
AcDbEntity
  8
ADP1DETAIL
100
AcDbPolyline
 90
        2
 70
     0
 43
0.0
 10
7.428005861809533
 20
-0.0843600458199938
 10
7.396768542252297
 20
-0.0949636869791726
  0
LWPOLYLINE
  5
276
330
18
100
AcDbEntity
  8
ADP1DETAIL
100
AcDbPolyline
 90
        2
 70
     0
 43
0.0
 10
7.133967542474101
 20
-0.0245463713185132
 10
7.112217050770992
 20
0.0002553110765677
  0
LWPOLYLINE
  5
27A
330
18
100
AcDbEntity
  8
ADP1DETAIL
100
AcDbPolyline
 90
        2
 70
     0
 43
0.0
 10
7.158769224869183
 20
-0.0027958796154057
 10
7.133967542474101
 20
-0.0245463713185132
  0
LWPOLYLINE
  5
27E
330
18
100
AcDbEntity
  8
ADP1DETAIL
100
AcDbPolyline
 90
        2
 70
     0
 43
0.0
 10
7.1793776293383
 20
-0.029018874500339
 10
7.159295814746336
 20
-0.0028477441913997
  0
LWPOLYLINE
  5
282
330
18
100
AcDbEntity
  8
ADP1DETAIL
100
AcDbPolyline
 90
        2
 70
     0
 43
0.0
 10
7.205548759647239
 20
-0.008937059908376
 10
7.1793776293383
 20
-0.029018874500339
  0
LWPOLYLINE
  5
286
330
18
100
AcDbEntity
  8
ADP1DETAIL
100
AcDbPolyline
 90
        2
 70
     0
 43
0.0
 10
7.224397974017198
 20
-0.0364517634890684
 10
7.206070829949479
 20
-0.0090232540641186
  0
LWPOLYLINE
  5
28A
330
18
100
AcDbEntity
  8
ADP1DETAIL
100
AcDbPolyline
 90
        2
 70
     0
 43
0.0
 10
7.251826483442147
 20
-0.0181246194213487
 10
7.224397974017198
 20
-0.0364517634890684
  0
LWPOLYLINE
  5
28E
330
18
100
AcDbEntity
  8
ADP1DETAIL
100
AcDbPolyline
 90
        2
 70
     0
 43
0.0
 10
7.268835792483232
 20
-0.046813209512933
 10
7.252341798584288
 20
-0.0182447740602325
  0
LWPOLYLINE
  5
292
330
18
100
AcDbEntity
  8
ADP1DETAIL
100
AcDbPolyline
 90
        2
 70
     0
 43
0.0
 10
7.297404227935932
 20
-0.0303192156139898
 10
7.268835792483232
 20
-0.046813209512933
  0
LWPOLYLINE
  5
296
330
18
100
AcDbEntity
  8
ADP1DETAIL
100
AcDbPolyline
 90
        2
 70
     0
 43
0.0
 10
7.31250079517551
 20
-0.0600588432693408
 10
7.297910581259422
 20
-0.0304728162154038
  0
LWPOLYLINE
  5
29A
330
18
100
AcDbEntity
  8
ADP1DETAIL
100
AcDbPolyline
 90
        2
 70
     0
 43
0.0
 10
7.342086822229448
 20
-0.045468629353254
 10
7.31250079517551
 20
-0.0600588432693408
  0
LWPOLYLINE
  5
29E
330
18
100
AcDbEntity
  8
ADP1DETAIL
100
AcDbPolyline
 90
        2
 70
     0
 43
0.0
 10
7.35520600184893
 20
-0.0761319449210407
 10
7.342582045451617
 20
-0.0456550181758417
  0
LWPOLYLINE
  5
2A2
330
18
100
AcDbEntity
  8
ADP1DETAIL
100
AcDbPolyline
 90
        2
 70
     0
 43
0.0
 10
7.38568292859413
 20
-0.0635079885237286
 10
7.35520600184893
 20
-0.0761319449210407
  0
LWPOLYLINE
  5
2A6
330
18
100
AcDbEntity
  8
ADP1DETAIL
100
AcDbPolyline
 90
        2
 70
     0
 43
0.0
 10
7.396768542252297
 20
-0.0949636869791726
 10
7.386164901093118
 20
-0.0637263674219377
  0
LWPOLYLINE
  5
2AA
330
18
100
AcDbEntity
  8
ADP1DETAIL
100
AcDbPolyline
 90
        2
 70
     0
 43
0.0
 10
7.437010439206806
 20
-0.1164734290331411
 10
7.428472519705104
 20
-0.0846094796618551
  0
LWPOLYLINE
  5
2AE
330
18
100
AcDbEntity
  8
ADP1DETAIL
100
AcDbPolyline
 90
        2
 70
     0
 43
0.0
 10
7.724102638252569
 20
-0.3802395982093204
 10
7.692238688881282
 20
-0.3717016787076175
  0
LWPOLYLINE
  5
2B2
330
18
100
AcDbEntity
  8
ADP1DETAIL
100
AcDbPolyline
 90
        2
 70
     0
 43
0.0
 10
7.475759370731648
 20
-0.1405690630652372
 10
7.469323733569495
 20
-0.1082149302029491
  0
LWPOLYLINE
  5
2B6
330
18
100
AcDbEntity
  8
ADP1DETAIL
100
AcDbPolyline
 90
        2
 70
     0
 43
0.0
 10
7.508113503593937
 20
-0.1341334259030842
 10
7.475759370731648
 20
-0.1405690630652372
  0
LWPOLYLINE
  5
2BA
330
18
100
AcDbEntity
  8
ADP1DETAIL
100
AcDbPolyline
 90
        2
 70
     0
 43
0.0
 10
7.51284940795319
 20
-0.1671474078713042
 10
7.50854361151693
 20
-0.1344416368820283
  0
LWPOLYLINE
  5
2BE
330
18
100
AcDbEntity
  8
ADP1DETAIL
100
AcDbPolyline
 90
        2
 70
     0
 43
0.0
 10
7.545555178942467
 20
-0.1628416114350455
 10
7.51284940795319
 20
-0.1671474078713042
  0
LWPOLYLINE
  5
2C2
330
18
100
AcDbEntity
  8
ADP1DETAIL
100
AcDbPolyline
 90
        2
 70
     0
 43
0.0
 10
7.548121725637884
 20
-0.1960946508985022
 10
7.545964208008895
 20
-0.1631772929146957
  0
LWPOLYLINE
  5
2C6
330
18
100
AcDbEntity
  8
ADP1DETAIL
100
AcDbPolyline
 90
        2
 70
     0
 43
0.0
 10
7.58103908362169
 20
-0.1939371332695159
 10
7.548121725637884
 20
-0.1960946508985022
  0
LWPOLYLINE
  5
2CA
330
18
100
AcDbEntity
  8
ADP1DETAIL
100
AcDbPolyline
 90
        2
 70
     0
 43
0.0
 10
7.581425282306296
 20
-0.2272868356081275
 10
7.581425282306296
 20
-0.1942988478102419
  0
LWPOLYLINE
  5
2CE
330
18
100
AcDbEntity
  8
ADP1DETAIL
100
AcDbPolyline
 90
        2
 70
     0
 43
0.0
 10
7.614413270104183
 20
-0.2272868356081284
 10
7.581425282306296
 20
-0.2272868356081275
  0
LWPOLYLINE
  5
2D2
330
18
100
AcDbEntity
  8
ADP1DETAIL
100
AcDbPolyline
 90
        2
 70
     0
 43
0.0
 10
7.612617467015921
 20
-0.2605903922765403
 10
7.614774984644908
 20
-0.2276730342927338
  0
LWPOLYLINE
  5
2D6
330
18
100
AcDbEntity
  8
ADP1DETAIL
100
AcDbPolyline
 90
        2
 70
     0
 43
0.0
 10
7.645534824999727
 20
-0.2627479099055284
 10
7.612617467015921
 20
-0.2605903922765403
  0
LWPOLYLINE
  5
2DA
330
18
100
AcDbEntity
  8
ADP1DETAIL
100
AcDbPolyline
 90
        2
 70
     0
 43
0.0
 10
7.641564710043119
 20
-0.295862709961233
 10
7.645870506479378
 20
-0.2631569389719579
  0
LWPOLYLINE
  5
2DE
330
18
100
AcDbEntity
  8
ADP1DETAIL
100
AcDbPolyline
 90
        2
 70
     0
 43
0.0
 10
7.674270481032396
 20
-0.3001685063974935
 10
7.641564710043119
 20
-0.295862709961233
  0
LWPOLYLINE
  5
2E2
330
18
100
AcDbEntity
  8
ADP1DETAIL
100
AcDbPolyline
 90
        2
 70
     0
 43
0.0
 10
7.668143054849187
 20
-0.3329527471827754
 10
7.674578692011341
 20
-0.3005986143204873
  0
LWPOLYLINE
  5
2E6
330
18
100
AcDbEntity
  8
ADP1DETAIL
100
AcDbPolyline
 90
        2
 70
     0
 43
0.0
 10
7.700497187711476
 20
-0.3393883843449293
 10
7.668143054849187
 20
-0.3329527471827754
  0
LWPOLYLINE
  5
2EA
330
18
100
AcDbEntity
  8
ADP1DETAIL
100
AcDbPolyline
 90
        2
 70
     0
 43
0.0
 10
7.692238688881282
 20
-0.3717016787076175
 10
7.700776608382985
 20
-0.3398377293363306
  0
LINE
  5
2EE
330
18
100
AcDbEntity
  8
ADP1DETAIL
100
AcDbLine
 10
8.006033005788451
 20
0.0002726239807384
 30
0.0
 11
7.943533005788451
 21
-0.0622273760192617
 31
0.0
  0
LINE
  5
2EF
330
18
100
AcDbEntity
  8
ADP1DETAIL
100
AcDbLine
 10
12.94353300578845
 20
-0.0622273760192617
 30
0.0
 11
12.94353300578845
 21
-1.248630418079863
 31
0.0
  0
LINE
  5
2F0
330
18
100
AcDbEntity
  8
ADP1DETAIL
100
AcDbLine
 10
12.88103300578845
 20
0.0002726239807384
 30
0.0
 11
12.88103300578845
 21
-1.311130418079863
 31
0.0
  0
LINE
  5
2F1
330
18
100
AcDbEntity
  8
ADP1DETAIL
100
AcDbLine
 10
12.94353300578845
 20
-1.248630418079863
 30
0.0
 11
12.88103300578845
 21
-1.311130418079863
 31
0.0
  0
LINE
  5
2F2
330
18
100
AcDbEntity
  8
ADP1DETAIL
100
AcDbLine
 10
12.88103300578845
 20
0.0002726239807384
 30
0.0
 11
12.94353300578845
 21
-0.0622273760192617
 31
0.0
  0
TEXT
  5
300
330
18
100
AcDbEntity
  8
ADPDIM
100
AcDbText
 10
2.684545855944643
 20
-2.285276397352315
 30
0.0
 40
0.125
  1
J U L I U S  B L U M  &  C O . ,  I N C .      ( 8 0 0 )  5 2 6 - 6 2 9 3        W W W . J U L I U S B L U M . C O M        P A R T  N o .  7 1 6 3
 41
1.25
  7
ARIAL_WIDE
 72
     1
 11
9.210274880501259
 21
-2.160276397352315
 31
0.0
100
AcDbText
 73
     3
  0
ENDSEC
  0
SECTION
  2
OBJECTS
  0
DICTIONARY
  5
C
330
0
100
AcDbDictionary
  3
ACAD_GROUP
350
D
  3
ACAD_LAYOUT
350
2F9
  3
ACAD_MLINESTYLE
350
E
  3
ACAD_PLOTSETTINGS
350
2FA
  3
ACAD_PLOTSTYLENAME
350
2F7
  3
ACDBHEADERROUNDTRIPXREC
350
444
  3
ACDBVARIABLEDICTIONARY
350
35A
  0
DICTIONARY
  5
354
330
18
100
AcDbDictionary
280
     1
  3
ACAD_LAYOUTSELFREF
360
465
  0
DICTIONARY
  5
352
330
15
100
AcDbDictionary
280
     1
  3
ACAD_LAYOUTSELFREF
360
464
  0
DICTIONARY
  5
D
102
{ACAD_REACTORS
330
C
102
}
330
C
100
AcDbDictionary
  0
DICTIONARY
  5
2F9
102
{ACAD_REACTORS
330
C
102
}
330
C
100
AcDbDictionary
  0
DICTIONARY
  5
E
102
{ACAD_REACTORS
330
C
102
}
330
C
100
AcDbDictionary
  3
STANDARD
350
1B
  0
DICTIONARY
  5
2FA
102
{ACAD_REACTORS
330
C
102
}
330
C
100
AcDbDictionary
  0
ACDBDICTIONARYWDFLT
  5
2F7
102
{ACAD_REACTORS
330
C
102
}
330
C
100
AcDbDictionary
281
     1
  3
Normal
350
2F8
100
AcDbDictionaryWithDefault
340
2F8
  0
DICTIONARY
  5
444
102
{ACAD_REACTORS
330
C
102
}
330
C
100
AcDbDictionary
  3
CEPSNTYPE
350
44E
  3
FINGERPRINTGUID
350
44F
  3
HYPERLINKBASE
350
447
  3
INSUNITS
350
44D
  3
LAYOUTDICT
350
449
  3
LWETCUNION
350
44C
  3
PLOTSETDICT
350
44A
  3
PLOTSTYLNAMDICT
350
44B
  3
PSVPSCALE
350
451
  3
PUCSBASE
350
454
  3
PUCSORGBACK
350
45A
  3
PUCSORGBOTTOM
350
456
  3
PUCSORGFRONT
350
459
  3
PUCSORGLEFT
350
457
  3
PUCSORGRIGHT
350
458
  3
PUCSORGTOP
350
455
  3
PUCSORTHOREF
350
452
  3
PUCSORTHOVIEW
350
453
  3
STYLESHEET
350
448
  3
TSTACKALIGN
350
445
  3
TSTACKSIZE
350
446
  3
UCSBASE
350
45D
  3
UCSORGBACK
350
463
  3
UCSORGBOTTOM
350
45F
  3
UCSORGFRONT
350
462
  3
UCSORGLEFT
350
460
  3
UCSORGRIGHT
350
461
  3
UCSORGTOP
350
45E
  3
UCSORTHOREF
350
45B
  3
UCSORTHOVIEW
350
45C
  3
VERSIONGUID
350
450
  0
DICTIONARY
  5
35A
102
{ACAD_REACTORS
330
C
102
}
330
C
100
AcDbDictionary
  3
DIMASSOC
350
35B
  0
XRECORD
  5
465
102
{ACAD_REACTORS
330
354
102
}
330
354
100
AcDbXrecord
340
18
  0
XRECORD
  5
464
102
{ACAD_REACTORS
330
352
102
}
330
352
100
AcDbXrecord
340
15
  0
MLINESTYLE
  5
1B
102
{ACAD_REACTORS
330
E
102
}
330
E
100
AcDbMlineStyle
  2
STANDARD
 70
     0
  3

 62
     0
 51
90.0
 52
90.0
 71
     2
 49
0.5
 62
   256
  6
BYLAYER
 49
-0.5
 62
   256
  6
BYLAYER
  0
ACDBPLACEHOLDER
  5
2F8
102
{ACAD_REACTORS
330
2F7
102
}
330
2F7
100
AcDbPlaceHolder
280
     0
  0
XRECORD
  5
44E
102
{ACAD_REACTORS
330
444
102
}
330
444
100
AcDbXrecord
 90
        0
  0
XRECORD
  5
44F
102
{ACAD_REACTORS
330
444
102
}
330
444
100
AcDbXrecord
  1
{D1CC3DF3-CFCA-4D76-8AA1-F5DBBB4FDA4C}
  0
XRECORD
  5
447
102
{ACAD_REACTORS
330
444
102
}
330
444
100
AcDbXrecord
  1

  0
XRECORD
  5
44D
102
{ACAD_REACTORS
330
444
102
}
330
444
100
AcDbXrecord
 90
        0
  0
XRECORD
  5
449
102
{ACAD_REACTORS
330
444
102
}
330
444
100
AcDbXrecord
340
2F9
  0
XRECORD
  5
44C
102
{ACAD_REACTORS
330
444
102
}
330
444
100
AcDbXrecord
 90
    14877
  0
XRECORD
  5
44A
102
{ACAD_REACTORS
330
444
102
}
330
444
100
AcDbXrecord
340
2FA
  0
XRECORD
  5
44B
102
{ACAD_REACTORS
330
444
102
}
330
444
100
AcDbXrecord
340
2F7
  0
XRECORD
  5
451
102
{ACAD_REACTORS
330
444
102
}
330
444
100
AcDbXrecord
 40
0.0
  0
XRECORD
  5
454
102
{ACAD_REACTORS
330
444
102
}
330
444
100
AcDbXrecord
340
0
  0
XRECORD
  5
45A
102
{ACAD_REACTORS
330
444
102
}
330
444
100
AcDbXrecord
 10
0.0
 20
0.0
 30
0.0
  0
XRECORD
  5
456
102
{ACAD_REACTORS
330
444
102
}
330
444
100
AcDbXrecord
 10
0.0
 20
0.0
 30
0.0
  0
XRECORD
  5
459
102
{ACAD_REACTORS
330
444
102
}
330
444
100
AcDbXrecord
 10
0.0
 20
0.0
 30
0.0
  0
XRECORD
  5
457
102
{ACAD_REACTORS
330
444
102
}
330
444
100
AcDbXrecord
 10
0.0
 20
0.0
 30
0.0
  0
XRECORD
  5
458
102
{ACAD_REACTORS
330
444
102
}
330
444
100
AcDbXrecord
 10
0.0
 20
0.0
 30
0.0
  0
XRECORD
  5
455
102
{ACAD_REACTORS
330
444
102
}
330
444
100
AcDbXrecord
 10
0.0
 20
0.0
 30
0.0
  0
XRECORD
  5
452
102
{ACAD_REACTORS
330
444
102
}
330
444
100
AcDbXrecord
340
0
  0
XRECORD
  5
453
102
{ACAD_REACTORS
330
444
102
}
330
444
100
AcDbXrecord
 70
     0
  0
XRECORD
  5
448
102
{ACAD_REACTORS
330
444
102
}
330
444
100
AcDbXrecord
  1

  0
XRECORD
  5
445
102
{ACAD_REACTORS
330
444
102
}
330
444
100
AcDbXrecord
 90
        1
  0
XRECORD
  5
446
102
{ACAD_REACTORS
330
444
102
}
330
444
100
AcDbXrecord
 90
       70
  0
XRECORD
  5
45D
102
{ACAD_REACTORS
330
444
102
}
330
444
100
AcDbXrecord
340
0
  0
XRECORD
  5
463
102
{ACAD_REACTORS
330
444
102
}
330
444
100
AcDbXrecord
 10
0.0
 20
0.0
 30
0.0
  0
XRECORD
  5
45F
102
{ACAD_REACTORS
330
444
102
}
330
444
100
AcDbXrecord
 10
0.0
 20
0.0
 30
0.0
  0
XRECORD
  5
462
102
{ACAD_REACTORS
330
444
102
}
330
444
100
AcDbXrecord
 10
0.0
 20
0.0
 30
0.0
  0
XRECORD
  5
460
102
{ACAD_REACTORS
330
444
102
}
330
444
100
AcDbXrecord
 10
0.0
 20
0.0
 30
0.0
  0
XRECORD
  5
461
102
{ACAD_REACTORS
330
444
102
}
330
444
100
AcDbXrecord
 10
0.0
 20
0.0
 30
0.0
  0
XRECORD
  5
45E
102
{ACAD_REACTORS
330
444
102
}
330
444
100
AcDbXrecord
 10
0.0
 20
0.0
 30
0.0
  0
XRECORD
  5
45B
102
{ACAD_REACTORS
330
444
102
}
330
444
100
AcDbXrecord
340
0
  0
XRECORD
  5
45C
102
{ACAD_REACTORS
330
444
102
}
330
444
100
AcDbXrecord
 70
     0
  0
XRECORD
  5
450
102
{ACAD_REACTORS
330
444
102
}
330
444
100
AcDbXrecord
  1
{A5AD7133-67CD-4137-A49A-5506103E3292}
  0
DICTIONARYVAR
  5
35B
102
{ACAD_REACTORS
330
35A
102
}
330
35A
100
DictionaryVariables
280
     0
  1
1
  0
ENDSEC
  0
EOF
