  0
SECTION
  2
HEADER
  9
$ACADVER
  1
AC1014
  9
$ACADMAINTVER
 70
     9
  9
$DWGCODEPAGE
  3
ANSI_1252
  9
$INSBASE
 10
57.42435682885201
 20
3.552067914522017
 30
0.0
  9
$EXTMIN
 10
45.35167486470487
 20
-0.1963852528673271
 30
0.0
  9
$EXTMAX
 10
64.92886193837472
 20
5.990023856243615
 30
0.0
  9
$LIMMIN
 10
0.0
 20
0.0
  9
$LIMMAX
 10
36.0
 20
36.0
  9
$ORTHOMODE
 70
     1
  9
$REGENMODE
 70
     1
  9
$FILLMODE
 70
     1
  9
$QTEXTMODE
 70
     0
  9
$MIRRTEXT
 70
     1
  9
$DRAGMODE
 70
     0
  9
$LTSCALE
 40
1.0
  9
$OSMODE
 70
    37
  9
$ATTMODE
 70
     1
  9
$TEXTSIZE
 40
0.2
  9
$TRACEWID
 40
0.05
  9
$TEXTSTYLE
  7
STANDARD
  9
$CLAYER
  8
0
  9
$CELTYPE
  6
BYLAYER
  9
$CECOLOR
 62
   256
  9
$CELTSCALE
 40
1.0
  9
$DELOBJ
 70
     1
  9
$DISPSILH
 70
     0
  9
$DIMSCALE
 40
1.0
  9
$DIMASZ
 40
0.125
  9
$DIMEXO
 40
0.0625
  9
$DIMDLI
 40
0.38
  9
$DIMRND
 40
0.0
  9
$DIMDLE
 40
0.0
  9
$DIMEXE
 40
0.18
  9
$DIMTP
 40
0.0
  9
$DIMTM
 40
0.0
  9
$DIMTXT
 40
0.125
  9
$DIMCEN
 40
0.1875
  9
$DIMTSZ
 40
0.125
  9
$DIMTOL
 70
     0
  9
$DIMLIM
 70
     0
  9
$DIMTIH
 70
     0
  9
$DIMTOH
 70
     0
  9
$DIMSE1
 70
     0
  9
$DIMSE2
 70
     0
  9
$DIMTAD
 70
     0
  9
$DIMZIN
 70
     3
  9
$DIMBLK
  1

  9
$DIMASO
 70
     1
  9
$DIMSHO
 70
     1
  9
$DIMPOST
  1

  9
$DIMAPOST
  1

  9
$DIMALT
 70
     0
  9
$DIMALTD
 70
     1
  9
$DIMALTF
 40
25.4
  9
$DIMLFAC
 40
1.0
  9
$DIMTOFL
 70
     0
  9
$DIMTVP
 40
0.0
  9
$DIMTIX
 70
     0
  9
$DIMSOXD
 70
     0
  9
$DIMSAH
 70
     0
  9
$DIMBLK1
  1

  9
$DIMBLK2
  1

  9
$DIMSTYLE
  2
STANDARD
  9
$DIMCLRD
 70
     0
  9
$DIMCLRE
 70
     0
  9
$DIMCLRT
 70
     0
  9
$DIMTFAC
 40
1.0
  9
$DIMGAP
 40
0.125
  9
$DIMJUST
 70
     0
  9
$DIMSD1
 70
     0
  9
$DIMSD2
 70
     0
  9
$DIMTOLJ
 70
     1
  9
$DIMTZIN
 70
     0
  9
$DIMALTZ
 70
     0
  9
$DIMALTTZ
 70
     0
  9
$DIMFIT
 70
     3
  9
$DIMUPT
 70
     0
  9
$DIMUNIT
 70
     2
  9
$DIMDEC
 70
     4
  9
$DIMTDEC
 70
     4
  9
$DIMALTU
 70
     2
  9
$DIMALTTD
 70
     2
  9
$DIMTXSTY
  7
STANDARD
  9
$DIMAUNIT
 70
     0
  9
$LUNITS
 70
     5
  9
$LUPREC
 70
     4
  9
$SKETCHINC
 40
0.1
  9
$FILLETRAD
 40
0.062
  9
$AUNITS
 70
     0
  9
$AUPREC
 70
     0
  9
$MENU
  1
acad
  9
$ELEVATION
 40
0.0
  9
$PELEVATION
 40
0.0
  9
$THICKNESS
 40
0.0
  9
$LIMCHECK
 70
     0
  9
$BLIPMODE
 70
     0
  9
$CHAMFERA
 40
0.0
  9
$CHAMFERB
 40
0.0
  9
$CHAMFERC
 40
0.0
  9
$CHAMFERD
 40
0.0
  9
$SKPOLY
 70
     0
  9
$TDCREATE
 40
2450387.490978970
  9
$TDUPDATE
 40
2452297.098765185
  9
$TDINDWG
 40
0.0370270486
  9
$TDUSRTIMER
 40
0.0370270486
  9
$USRTIMER
 70
     1
  9
$ANGBASE
 50
0.0
  9
$ANGDIR
 70
     0
  9
$PDMODE
 70
     0
  9
$PDSIZE
 40
0.0
  9
$PLINEWID
 40
0.0
  9
$COORDS
 70
     2
  9
$SPLFRAME
 70
     0
  9
$SPLINETYPE
 70
     6
  9
$SPLINESEGS
 70
     8
  9
$ATTDIA
 70
     0
  9
$ATTREQ
 70
     1
  9
$HANDLING
 70
 22529
  9
$HANDSEED
  5
2C0
  9
$SURFTAB1
 70
     6
  9
$SURFTAB2
 70
     6
  9
$SURFTYPE
 70
     6
  9
$SURFU
 70
     6
  9
$SURFV
 70
     6
  9
$UCSNAME
  2

  9
$UCSORG
 10
0.0
 20
0.0
 30
0.0
  9
$UCSXDIR
 10
1.0
 20
0.0
 30
0.0
  9
$UCSYDIR
 10
0.0
 20
1.0
 30
0.0
  9
$PUCSNAME
  2

  9
$PUCSORG
 10
0.0
 20
0.0
 30
0.0
  9
$PUCSXDIR
 10
1.0
 20
0.0
 30
0.0
  9
$PUCSYDIR
 10
0.0
 20
1.0
 30
0.0
  9
$USERI1
 70
     0
  9
$USERI2
 70
     0
  9
$USERI3
 70
     0
  9
$USERI4
 70
     0
  9
$USERI5
 70
     0
  9
$USERR1
 40
0.0
  9
$USERR2
 40
0.0
  9
$USERR3
 40
0.0
  9
$USERR4
 40
0.0
  9
$USERR5
 40
0.0
  9
$WORLDVIEW
 70
     1
  9
$SHADEDGE
 70
     3
  9
$SHADEDIF
 70
    70
  9
$TILEMODE
 70
     1
  9
$MAXACTVP
 70
    15
  9
$PINSBASE
 10
0.0
 20
0.0
 30
0.0
  9
$PLIMCHECK
 70
     0
  9
$PEXTMIN
 10
1.000000000000000E+20
 20
1.000000000000000E+20
 30
1.000000000000000E+20
  9
$PEXTMAX
 10
-1.000000000000000E+20
 20
-1.000000000000000E+20
 30
-1.000000000000000E+20
  9
$PLIMMIN
 10
0.0
 20
0.0
  9
$PLIMMAX
 10
12.0
 20
9.0
  9
$UNITMODE
 70
     0
  9
$VISRETAIN
 70
     0
  9
$PLINEGEN
 70
     0
  9
$PSLTSCALE
 70
     1
  9
$TREEDEPTH
 70
  3020
  9
$PICKSTYLE
 70
     1
  9
$CMLSTYLE
  2
STANDARD
  9
$CMLJUST
 70
     0
  9
$CMLSCALE
 40
1.0
  9
$PROXYGRAPHICS
 70
     1
  9
$MEASUREMENT
 70
     0
  0
ENDSEC
  0
SECTION
  2
CLASSES
  0
CLASS
  1
ACDBDICTIONARYWDFLT
  2
AcDbDictionaryWithDefault
  3
AutoCAD 2000
 90
        0
280
     0
281
     0
  0
CLASS
  1
ACDBPLACEHOLDER
  2
AcDbPlaceHolder
  3
AutoCAD 2000
 90
        0
280
     0
281
     0
  0
CLASS
  1
LAYOUT
  2
AcDbLayout
  3
AutoCAD 2000
 90
        0
280
     0
281
     0
  0
CLASS
  1
DICTIONARYVAR
  2
AcDbDictionaryVar
  3
AutoCAD 2000
 90
        0
280
     0
281
     0
  0
CLASS
  1
LONG_TRANSACTION
  2
AcDbLongTransaction
  3
AutoCAD 2000
 90
        0
280
     0
281
     0
  0
CLASS
  1
LWPOLYLINE
  2
AcDbPolyline
  3
AutoCAD 2000
 90
        0
280
     0
281
     1
  0
CLASS
  1
HATCH
  2
AcDbHatch
  3
AutoCAD 2000
 90
        0
280
     0
281
     1
  0
CLASS
  1
XRECORD
  2
AcDbXrecord
  3
AutoCAD 2000
 90
        0
280
     0
281
     0
  0
CLASS
  1
LONG_TRANSACTION
  2
AcDbLongTransaction
  3
AutoCAD 2000
 90
        0
280
     0
281
     0
  0
CLASS
  1
LWPOLYLINE
  2
AcDbPolyline
  3
AutoCAD 2000
 90
        0
280
     0
281
     1
  0
CLASS
  1
HATCH
  2
AcDbHatch
  3
AutoCAD 2000
 90
        0
280
     0
281
     1
  0
CLASS
  1
XRECORD
  2
AcDbXrecord
  3
AutoCAD 2000
 90
        0
280
     0
281
     0
  0
CLASS
  1
LONG_TRANSACTION
  2
AcDbLongTransaction
  3
AutoCAD 2000
 90
        0
280
     0
281
     0
  0
CLASS
  1
LWPOLYLINE
  2
AcDbPolyline
  3
AutoCAD 2000
 90
        0
280
     0
281
     1
  0
CLASS
  1
HATCH
  2
AcDbHatch
  3
AutoCAD 2000
 90
        0
280
     0
281
     1
  0
CLASS
  1
XRECORD
  2
AcDbXrecord
  3
AutoCAD 2000
 90
        0
280
     0
281
     0
  0
CLASS
  1
LONG_TRANSACTION
  2
AcDbLongTransaction
  3
AutoCAD 2000
 90
        0
280
     0
281
     0
  0
CLASS
  1
LWPOLYLINE
  2
AcDbPolyline
  3
AutoCAD 2000
 90
        0
280
     0
281
     1
  0
CLASS
  1
HATCH
  2
AcDbHatch
  3
AutoCAD 2000
 90
        0
280
     0
281
     1
  0
CLASS
  1
XRECORD
  2
AcDbXrecord
  3
AutoCAD 2000
 90
        0
280
     0
281
     0
  0
CLASS
  1
LONG_TRANSACTION
  2
AcDbLongTransaction
  3
AutoCAD 2000
 90
        0
280
     0
281
     0
  0
CLASS
  1
LWPOLYLINE
  2
AcDbPolyline
  3
AutoCAD 2000
 90
        0
280
     0
281
     1
  0
CLASS
  1
HATCH
  2
AcDbHatch
  3
AutoCAD 2000
 90
        0
280
     0
281
     1
  0
CLASS
  1
XRECORD
  2
AcDbXrecord
  3
AutoCAD 2000
 90
        0
280
     0
281
     0
  0
ENDSEC
  0
SECTION
  2
TABLES
  0
TABLE
  2
VPORT
  5
8
330
0
100
AcDbSymbolTable
 70
     2
  0
VPORT
  5
29D
330
8
100
AcDbSymbolTableRecord
100
AcDbViewportTableRecord
  2
*ACTIVE
 70
     0
 10
0.0
 20
0.0
 11
1.0
 21
1.0
 12
55.15613181569325
 22
2.89679876265072
 13
0.0
 23
0.0
 14
0.5740882589684922
 24
0.5740882589684922
 15
0.5
 25
0.5
 16
0.0
 26
0.0
 36
1.0
 17
0.0
 27
0.0
 37
0.0
 40
12.54857926363894
 41
1.570528967254408
 42
50.0
 43
0.0
 44
0.0
 50
0.0
 51
0.0
 71
     0
 72
   100
 73
     1
 74
     0
 75
     0
 76
     0
 77
     0
 78
     0
  0
ENDTAB
  0
TABLE
  2
LTYPE
  5
5
330
0
100
AcDbSymbolTable
 70
     2
  0
LTYPE
  5
12
330
5
100
AcDbSymbolTableRecord
100
AcDbLinetypeTableRecord
  2
BYBLOCK
 70
     0
  3

 72
    65
 73
     0
 40
0.0
  0
LTYPE
  5
13
330
5
100
AcDbSymbolTableRecord
100
AcDbLinetypeTableRecord
  2
BYLAYER
 70
     0
  3

 72
    65
 73
     0
 40
0.0
  0
LTYPE
  5
14
330
5
100
AcDbSymbolTableRecord
100
AcDbLinetypeTableRecord
  2
CONTINUOUS
 70
     0
  3
Solid line
 72
    65
 73
     0
 40
0.0
  0
LTYPE
  5
F6
330
5
100
AcDbSymbolTableRecord
100
AcDbLinetypeTableRecord
  2
CENTER2
 70
     0
  3
___ _ ___ _ ___ _ ___ _ ___ _ ___ _ ___ _ ___ _
 72
    65
 73
     4
 40
1.125
 49
0.75
 74
     0
 49
-0.125
 74
     0
 49
0.125
 74
     0
 49
-0.125
 74
     0
  0
ENDTAB
  0
TABLE
  2
LAYER
  5
2
330
0
100
AcDbSymbolTable
 70
     5
  0
LAYER
  5
F
330
2
100
AcDbSymbolTableRecord
100
AcDbLayerTableRecord
  2
0
 70
     0
 62
     7
  6
CONTINUOUS
  0
LAYER
  5
F7
330
2
100
AcDbSymbolTableRecord
100
AcDbLayerTableRecord
  2
ADP1DETAIL
 70
     0
 62
     7
  6
CONTINUOUS
  0
LAYER
  5
F8
330
2
100
AcDbSymbolTableRecord
100
AcDbLayerTableRecord
  2
DEFPOINTS
 70
     0
 62
     7
  6
CONTINUOUS
  0
LAYER
  5
FB
330
2
100
AcDbSymbolTableRecord
100
AcDbLayerTableRecord
  2
ADPDIM
 70
     0
 62
     3
  6
CONTINUOUS
  0
LAYER
  5
FC
330
2
100
AcDbSymbolTableRecord
100
AcDbLayerTableRecord
  2
ADP3DETAIL
 70
     0
 62
     1
  6
CONTINUOUS
  0
ENDTAB
  0
TABLE
  2
STYLE
  5
3
330
0
100
AcDbSymbolTable
 70
     2
  0
STYLE
  5
10
330
3
100
AcDbSymbolTableRecord
100
AcDbTextStyleTableRecord
  2
STANDARD
 70
     0
 40
0.0
 41
1.0
 50
0.0
 71
     0
 42
0.2
  3
txt
  4

  0
STYLE
  5
159
330
3
100
AcDbSymbolTableRecord
100
AcDbTextStyleTableRecord
  2
ARIAL_WIDE
 70
     0
 40
0.0
 41
1.25
 50
0.0
 71
     0
 42
0.2
  3
ARIAL.TTF
  4

1001
ACAD
1000
Arial
1071
       34
  0
ENDTAB
  0
TABLE
  2
VIEW
  5
6
330
0
100
AcDbSymbolTable
 70
     0
  0
ENDTAB
  0
TABLE
  2
UCS
  5
7
330
0
100
AcDbSymbolTable
 70
     0
  0
ENDTAB
  0
TABLE
  2
APPID
  5
9
330
0
100
AcDbSymbolTable
 70
     1
  0
APPID
  5
11
330
9
100
AcDbSymbolTableRecord
100
AcDbRegAppTableRecord
  2
ACAD
 70
     0
  0
ENDTAB
  0
TABLE
  2
DIMSTYLE
  5
A
330
0
100
AcDbSymbolTable
 70
     1
  0
DIMSTYLE
105
14D
330
A
100
AcDbSymbolTableRecord
100
AcDbDimStyleTableRecord
  2
STANDARD
 70
     0
  3

  4

  5

  6

  7

 40
1.0
 41
0.18
 42
0.0625
 43
0.38
 44
0.18
 45
0.0
 46
0.0
 47
0.0
 48
0.0
140
0.18
141
0.09
142
0.0
143
25.4
144
1.0
145
0.0
146
1.0
147
0.09
 71
     0
 72
     0
 73
     1
 74
     1
 75
     0
 76
     0
 77
     0
 78
     0
170
     0
171
     2
172
     0
173
     0
174
     0
175
     0
176
     0
177
     0
178
     0
270
     2
271
     4
272
     4
273
     2
274
     2
340
10
275
     0
280
     0
281
     0
282
     0
283
     1
284
     0
285
     0
286
     0
287
     3
288
     0
  0
ENDTAB
  0
TABLE
  2
BLOCK_RECORD
  5
1
330
0
100
AcDbSymbolTable
 70
     5
  0
BLOCK_RECORD
  5
18
102
{ACAD_XDICTIONARY
360
1AE
102
}
330
1
100
AcDbSymbolTableRecord
100
AcDbBlockTableRecord
  2
*MODEL_SPACE
  0
BLOCK_RECORD
  5
15
102
{ACAD_XDICTIONARY
360
1AC
102
}
330
1
100
AcDbSymbolTableRecord
100
AcDbBlockTableRecord
  2
*PAPER_SPACE
  0
BLOCK_RECORD
  5
B8
330
1
100
AcDbSymbolTableRecord
100
AcDbBlockTableRecord
  2
*D0
  0
BLOCK_RECORD
  5
F0
330
1
100
AcDbSymbolTableRecord
100
AcDbBlockTableRecord
  2
*D1
  0
BLOCK_RECORD
  5
F1
330
1
100
AcDbSymbolTableRecord
100
AcDbBlockTableRecord
  2
*D2
  0
BLOCK_RECORD
  5
F2
330
1
100
AcDbSymbolTableRecord
100
AcDbBlockTableRecord
  2
*D3
  0
BLOCK_RECORD
  5
F4
330
1
100
AcDbSymbolTableRecord
100
AcDbBlockTableRecord
  2
*D4
  0
ENDTAB
  0
ENDSEC
  0
SECTION
  2
BLOCKS
  0
BLOCK
  5
FF
330
18
100
AcDbEntity
  8
0
100
AcDbBlockBegin
  2
*MODEL_SPACE
 70
     0
 10
0.0
 20
0.0
 30
0.0
  3
*MODEL_SPACE
  1

  0
ENDBLK
  5
100
330
18
100
AcDbEntity
  8
0
100
AcDbBlockEnd
  0
BLOCK
  5
FD
330
15
100
AcDbEntity
 67
     1
  8
0
100
AcDbBlockBegin
  2
*PAPER_SPACE
 70
     0
 10
0.0
 20
0.0
 30
0.0
  3
*PAPER_SPACE
  1

  0
ENDBLK
  5
FE
330
15
100
AcDbEntity
 67
     1
  8
0
100
AcDbBlockEnd
  0
BLOCK
  5
102
330
B8
100
AcDbEntity
  8
0
100
AcDbBlockBegin
  2
*D0
 70
     1
 10
0.0
 20
0.0
 30
0.0
  3
*D0
  1

  0
LINE
  5
103
330
B8
100
AcDbEntity
  8
0
  6
BYBLOCK
 62
     0
100
AcDbLine
 10
61.71493209096557
 20
5.089357189576949
 30
0.0
 11
61.59743209096557
 21
5.089357189576949
 31
0.0
  0
LINE
  5
104
330
B8
100
AcDbEntity
  8
0
  6
BYBLOCK
 62
     0
100
AcDbLine
 10
61.71493209096557
 20
5.198357189576949
 30
0.0
 11
61.59743209096557
 21
5.198357189576949
 31
0.0
  0
LINE
  5
105
330
B8
100
AcDbEntity
  8
0
  6
BYBLOCK
 62
     0
100
AcDbLine
 10
61.77743209096558
 20
5.089357189576949
 30
0.0
 11
61.77743209096558
 21
4.839357189576949
 31
0.0
  0
LINE
  5
106
330
B8
100
AcDbEntity
  8
0
  6
BYBLOCK
 62
     0
100
AcDbLine
 10
61.77743209096558
 20
5.198357189576949
 30
0.0
 11
61.77743209096558
 21
5.448357189576949
 31
0.0
  0
LINE
  5
107
330
B8
100
AcDbEntity
  8
0
  6
BYBLOCK
 62
     0
100
AcDbLine
 10
61.90243209096557
 20
4.964357189576949
 30
0.0
 11
61.65243209096558
 21
5.214357189576949
 31
0.0
  0
LINE
  5
108
330
B8
100
AcDbEntity
  8
0
  6
BYBLOCK
 62
     0
100
AcDbLine
 10
61.90243209096557
 20
5.073357189576949
 30
0.0
 11
61.65243209096558
 21
5.323357189576949
 31
0.0
  0
TEXT
  5
109
330
B8
100
AcDbEntity
  8
0
  6
BYBLOCK
 62
     0
100
AcDbText
 10
61.83993209096557
 20
5.573357189576949
 30
0.0
 40
0.125
  1
0.109
 50
90.0
 72
     1
 11
61.77743209096558
 21
5.781690522910282
 31
0.0
100
AcDbText
 73
     2
  0
POINT
  5
10A
330
B8
100
AcDbEntity
  8
DEFPOINTS
  6
BYBLOCK
 62
     0
100
AcDbPoint
 10
61.77743209096558
 20
5.089357189576949
 30
0.0
  0
POINT
  5
10B
330
B8
100
AcDbEntity
  8
DEFPOINTS
  6
BYBLOCK
 62
     0
100
AcDbPoint
 10
61.77743209096558
 20
5.198357189576949
 30
0.0
  0
POINT
  5
10C
330
B8
100
AcDbEntity
  8
DEFPOINTS
  6
BYBLOCK
 62
     0
100
AcDbPoint
 10
61.77743209096558
 20
5.198357189576949
 30
0.0
  0
ENDBLK
  5
10D
330
B8
100
AcDbEntity
  8
0
100
AcDbBlockEnd
  0
BLOCK
  5
10E
330
F0
100
AcDbEntity
  8
0
100
AcDbBlockBegin
  2
*D1
 70
     1
 10
0.0
 20
0.0
 30
0.0
  3
*D1
  1

  0
LINE
  5
10F
330
F0
100
AcDbEntity
  8
0
  6
BYBLOCK
 62
     0
100
AcDbLine
 10
57.42435682885201
 20
5.274567914522013
 30
0.0
 11
57.42435682885201
 21
5.794122798981616
 31
0.0
  0
LINE
  5
110
330
F0
100
AcDbEntity
  8
0
  6
BYBLOCK
 62
     0
100
AcDbLine
 10
50.42435682885201
 20
4.681720369830538
 30
0.0
 11
50.42435682885201
 21
5.794122798981616
 31
0.0
  0
LINE
  5
111
330
F0
100
AcDbEntity
  8
0
  6
BYBLOCK
 62
     0
100
AcDbLine
 10
57.42435682885201
 20
5.614122798981616
 30
0.0
 11
54.09102349551867
 21
5.614122798981616
 31
0.0
  0
LINE
  5
112
330
F0
100
AcDbEntity
  8
0
  6
BYBLOCK
 62
     0
100
AcDbLine
 10
50.42435682885201
 20
5.614122798981616
 30
0.0
 11
53.75769016218534
 21
5.614122798981616
 31
0.0
  0
LINE
  5
113
330
F0
100
AcDbEntity
  8
0
  6
BYBLOCK
 62
     0
100
AcDbLine
 10
57.29935682885201
 20
5.489122798981616
 30
0.0
 11
57.549356828852
 21
5.739122798981616
 31
0.0
  0
LINE
  5
114
330
F0
100
AcDbEntity
  8
0
  6
BYBLOCK
 62
     0
100
AcDbLine
 10
50.299356828852
 20
5.489122798981616
 30
0.0
 11
50.54935682885201
 21
5.739122798981616
 31
0.0
  0
TEXT
  5
115
330
F0
100
AcDbEntity
  8
0
  6
BYBLOCK
 62
     0
100
AcDbText
 10
53.88269016218534
 20
5.551622798981616
 30
0.0
 40
0.125
  1
7
 72
     1
 11
53.924356828852
 21
5.614122798981616
 31
0.0
100
AcDbText
 73
     2
  0
POINT
  5
116
330
F0
100
AcDbEntity
  8
DEFPOINTS
  6
BYBLOCK
 62
     0
100
AcDbPoint
 10
57.42435682885201
 20
5.212067914522013
 30
0.0
  0
POINT
  5
117
330
F0
100
AcDbEntity
  8
DEFPOINTS
  6
BYBLOCK
 62
     0
100
AcDbPoint
 10
50.42435682885201
 20
4.619220369830538
 30
0.0
  0
POINT
  5
118
330
F0
100
AcDbEntity
  8
DEFPOINTS
  6
BYBLOCK
 62
     0
100
AcDbPoint
 10
50.42435682885201
 20
5.614122798981616
 30
0.0
  0
ENDBLK
  5
119
330
F0
100
AcDbEntity
  8
0
100
AcDbBlockEnd
  0
BLOCK
  5
11A
330
F1
100
AcDbEntity
  8
0
100
AcDbBlockBegin
  2
*D2
 70
     1
 10
0.0
 20
0.0
 30
0.0
  3
*D2
  1

  0
LINE
  5
11B
330
F1
100
AcDbEntity
  8
0
  6
BYBLOCK
 62
     0
100
AcDbLine
 10
50.50939088351218
 20
4.281128479119895
 30
0.0
 11
51.21553064462133
 21
1.872082780835051
 31
0.0
  0
LINE
  5
11C
330
F1
100
AcDbEntity
  8
0
  6
BYBLOCK
 62
     0
100
AcDbLine
 10
50.35427720940543
 20
4.365920861472925
 30
0.0
 11
50.66450455761894
 21
4.196336096766866
 31
0.0
  0
TEXT
  5
11D
330
F1
100
AcDbEntity
  8
0
  6
BYBLOCK
 62
     0
100
AcDbText
 10
51.19071477638325
 20
1.734549429666725
 30
0.0
 40
0.125
  1
R2 1/2
 50
286.3369224678937
 72
     1
 11
51.3444530128365
 21
1.432255010658773
 31
0.0
100
AcDbText
 73
     2
  0
POINT
  5
11E
330
F1
100
AcDbEntity
  8
DEFPOINTS
  6
BYBLOCK
 62
     0
100
AcDbPoint
 10
50.50939088351218
 20
4.281128479119895
 30
0.0
  0
POINT
  5
11F
330
F1
100
AcDbEntity
  8
DEFPOINTS
  6
BYBLOCK
 62
     0
100
AcDbPoint
 10
51.21260380104946
 20
1.882067914522016
 30
0.0
  0
ENDBLK
  5
120
330
F1
100
AcDbEntity
  8
0
100
AcDbBlockEnd
  0
BLOCK
  5
121
330
F2
100
AcDbEntity
  8
0
100
AcDbBlockBegin
  2
*D3
 70
     1
 10
0.0
 20
0.0
 30
0.0
  3
*D3
  1

  0
LINE
  5
122
330
F2
100
AcDbEntity
  8
0
  6
BYBLOCK
 62
     0
100
AcDbLine
 10
47.93105216871309
 20
2.712535608236935
 30
0.0
 11
47.19170112316644
 21
3.768438330217079
 31
0.0
  0
LINE
  5
123
330
F2
100
AcDbEntity
  8
0
  6
BYBLOCK
 62
     0
100
AcDbLine
 10
50.38850830158006
 20
4.433264917290074
 30
0.0
 11
49.64915725603341
 21
5.489167639270218
 31
0.0
  0
LINE
  5
124
330
F2
100
AcDbEntity
  8
0
  6
BYBLOCK
 62
     0
100
AcDbLine
 10
47.29494488170963
 20
3.620990962245061
 30
0.0
 11
48.38714760742828
 21
4.385759544046457
 31
0.0
  0
LINE
  5
125
330
F2
100
AcDbEntity
  8
0
  6
BYBLOCK
 62
     0
100
AcDbLine
 10
49.7524010145766
 20
5.3417202712982
 30
0.0
 11
48.66019828885794
 21
4.576951689496803
 31
0.0
  0
LINE
  5
126
330
F2
100
AcDbEntity
  8
0
  6
BYBLOCK
 62
     0
100
AcDbLine
 10
47.26424793071738
 20
3.446899902165056
 30
0.0
 11
47.32564183270187
 21
3.795082022325066
 31
0.0
  0
LINE
  5
127
330
F2
100
AcDbEntity
  8
0
  6
BYBLOCK
 62
     0
100
AcDbLine
 10
49.72170406358435
 20
5.167629211218195
 30
0.0
 11
49.78309796556884
 21
5.515811331378205
 31
0.0
  0
TEXT
  5
128
330
F2
100
AcDbEntity
  8
0
  6
BYBLOCK
 62
     0
100
AcDbText
 10
48.52539014023633
 20
4.406259595822274
 30
0.0
 40
0.125
  1
3
 50
35.00000000000002
 72
     1
 11
48.5236729481431
 21
4.48135561677163
 31
0.0
100
AcDbText
 73
     2
  0
POINT
  5
129
330
F2
100
AcDbEntity
  8
DEFPOINTS
  6
BYBLOCK
 62
     0
100
AcDbPoint
 10
47.96690069598502
 20
2.661338605468873
 30
0.0
  0
POINT
  5
12A
330
F2
100
AcDbEntity
  8
DEFPOINTS
  6
BYBLOCK
 62
     0
100
AcDbPoint
 10
50.424356828852
 20
4.382067914522012
 30
0.0
  0
POINT
  5
12B
330
F2
100
AcDbEntity
  8
DEFPOINTS
  6
BYBLOCK
 62
     0
100
AcDbPoint
 10
49.7524010145766
 20
5.3417202712982
 30
0.0
  0
ENDBLK
  5
12C
330
F2
100
AcDbEntity
  8
0
100
AcDbBlockEnd
  0
BLOCK
  5
12D
330
F4
100
AcDbEntity
  8
0
100
AcDbBlockBegin
  2
*D4
 70
     1
 10
0.0
 20
0.0
 30
0.0
  3
*D4
  1

  0
LINE
  5
12E
330
F4
100
AcDbEntity
  8
0
  6
BYBLOCK
 62
     0
100
AcDbLine
 10
57.486856828852
 20
5.212067914522013
 30
0.0
 11
58.42164089951792
 21
5.212067914522013
 31
0.0
  0
LINE
  5
12F
330
F4
100
AcDbEntity
  8
0
  6
BYBLOCK
 62
     0
100
AcDbLine
 10
57.486856828852
 20
3.552067914522017
 30
0.0
 11
58.42164089951792
 21
3.552067914522017
 31
0.0
  0
LINE
  5
130
330
F4
100
AcDbEntity
  8
0
  6
BYBLOCK
 62
     0
100
AcDbLine
 10
58.24164089951792
 20
5.212067914522013
 30
0.0
 11
58.24164089951792
 21
4.725817914522015
 31
0.0
  0
LINE
  5
131
330
F4
100
AcDbEntity
  8
0
  6
BYBLOCK
 62
     0
100
AcDbLine
 10
58.24164089951792
 20
3.552067914522017
 30
0.0
 11
58.24164089951792
 21
4.038317914522015
 31
0.0
  0
LINE
  5
132
330
F4
100
AcDbEntity
  8
0
  6
BYBLOCK
 62
     0
100
AcDbLine
 10
58.36664089951792
 20
5.087067914522013
 30
0.0
 11
58.11664089951792
 21
5.337067914522013
 31
0.0
  0
LINE
  5
133
330
F4
100
AcDbEntity
  8
0
  6
BYBLOCK
 62
     0
100
AcDbLine
 10
58.36664089951792
 20
3.427067914522017
 30
0.0
 11
58.11664089951792
 21
3.677067914522017
 31
0.0
  0
TEXT
  5
134
330
F4
100
AcDbEntity
  8
0
  6
BYBLOCK
 62
     0
100
AcDbText
 10
58.30414089951792
 20
4.163317914522015
 30
0.0
 40
0.125
  1
1.660
 50
90.0
 72
     1
 11
58.24164089951792
 21
4.382067914522015
 31
0.0
100
AcDbText
 73
     2
  0
POINT
  5
135
330
F4
100
AcDbEntity
  8
DEFPOINTS
  6
BYBLOCK
 62
     0
100
AcDbPoint
 10
57.42435682885201
 20
5.212067914522013
 30
0.0
  0
POINT
  5
136
330
F4
100
AcDbEntity
  8
DEFPOINTS
  6
BYBLOCK
 62
     0
100
AcDbPoint
 10
57.42435682885201
 20
3.552067914522017
 30
0.0
  0
POINT
  5
137
330
F4
100
AcDbEntity
  8
DEFPOINTS
  6
BYBLOCK
 62
     0
100
AcDbPoint
 10
58.24164089951792
 20
3.552067914522017
 30
0.0
  0
ENDBLK
  5
138
330
F4
100
AcDbEntity
  8
0
100
AcDbBlockEnd
  0
ENDSEC
  0
SECTION
  2
ENTITIES
  0
LINE
  5
139
330
18
100
AcDbEntity
  8
ADP1DETAIL
100
AcDbLine
 10
51.22206276471583
 20
3.552067914522018
 30
0.0
 11
57.42435682885201
 21
3.552067914522018
 31
0.0
  0
LINE
  5
13A
330
18
100
AcDbEntity
  8
ADP1DETAIL
100
AcDbLine
 10
51.2031448373831
 20
5.212067914522013
 30
0.0
 11
57.42435682885201
 21
5.212067914522013
 31
0.0
  0
DIMENSION
  5
13B
330
18
100
AcDbEntity
  8
ADPDIM
100
AcDbDimension
  2
*D1
 10
50.42435682885201
 20
5.614122798981616
 30
0.0
 11
53.924356828852
 21
5.614122798981616
 31
0.0
100
AcDbAlignedDimension
 13
57.42435682885201
 23
5.212067914522013
 33
0.0
 14
50.42435682885201
 24
4.619220369830538
 34
0.0
100
AcDbRotatedDimension
  0
LINE
  5
13C
330
18
100
AcDbEntity
  8
ADP3DETAIL
  6
CENTER2
100
AcDbLine
 10
57.78156632315472
 20
4.382067914522016
 30
0.0
 11
51.21260380104947
 21
4.382067914522016
 31
0.0
  0
LINE
  5
13D
330
18
100
AcDbEntity
  8
ADP1DETAIL
100
AcDbLine
 10
48.44296913815639
 20
1.981442408709005
 30
0.0
 11
47.49083225381365
 21
3.341234802228738
 31
0.0
  0
LINE
  5
13E
330
18
100
AcDbEntity
  8
ADP1DETAIL
100
AcDbLine
 10
50.24698282291906
 20
3.244626389813303
 30
0.0
 11
48.44296913815639
 21
1.981442408709005
 31
0.0
  0
DIMENSION
  5
13F
330
18
100
AcDbEntity
  8
ADPDIM
100
AcDbDimension
  2
*D3
 10
49.7524010145766
 20
5.3417202712982
 30
0.0
 11
48.5236729481431
 21
4.48135561677163
 31
0.0
 70
     1
100
AcDbAlignedDimension
 13
47.96690069598502
 23
2.661338605468872
 33
0.0
 14
50.424356828852
 24
4.38206791452201
 34
0.0
  0
DIMENSION
  5
140
330
18
100
AcDbEntity
  8
ADPDIM
100
AcDbDimension
  2
*D2
 10
51.21260380104946
 20
1.882067914522016
 30
0.0
 11
51.3444530128365
 21
1.432255010658773
 31
0.0
 70
     4
100
AcDbRadialDimension
 15
50.50939088351218
 25
4.281128479119895
 35
0.0
 40
-2.510405253867193
  0
LINE
  5
141
330
18
100
AcDbEntity
  8
ADP3DETAIL
  6
CENTER2
100
AcDbLine
 10
49.77866271017186
 20
3.929948025244497
 30
0.0
 11
47.34951952881831
 21
2.22904365827002
 31
0.0
  0
ARC
  5
142
330
18
100
AcDbEntity
  8
ADP1DETAIL
100
AcDbCircle
 10
51.2031448373831
 20
1.912067914522017
 30
0.0
 40
3.299999999999999
100
AcDbArc
 50
90.0
 51
124.9999999999999
  0
ARC
  5
143
330
18
100
AcDbEntity
  8
ADP3DETAIL
  6
CENTER2
100
AcDbCircle
 10
51.21260380104947
 20
1.882067914522016
 30
0.0
 40
2.5
100
AcDbArc
 50
90.0
 51
125.0
  0
LINE
  5
144
330
18
100
AcDbEntity
  8
ADP1DETAIL
100
AcDbLine
 10
47.49083225381365
 20
3.341234802228738
 30
0.0
 11
49.31034259742465
 21
4.615269660675691
 31
0.0
  0
ARC
  5
145
330
18
100
AcDbEntity
  8
ADP1DETAIL
100
AcDbCircle
 10
51.22206276471583
 20
1.852067914522015
 30
0.0
 40
1.7
100
AcDbArc
 50
90.0
 51
124.9999999999999
  0
DIMENSION
  5
146
330
18
100
AcDbEntity
  8
ADPDIM
100
AcDbDimension
  2
*D4
 10
58.24164089951792
 20
3.552067914522017
 30
0.0
 11
58.24164089951792
 21
4.382067914522015
 31
0.0
  1
1.660
100
AcDbAlignedDimension
 13
57.42435682885201
 23
5.212067914522013
 33
0.0
 14
57.42435682885201
 24
3.552067914522017
 34
0.0
 50
90.0
100
AcDbRotatedDimension
  0
LINE
  5
147
330
18
100
AcDbEntity
  8
ADP1DETAIL
100
AcDbLine
 10
57.42435682885201
 20
5.212067914522013
 30
0.0
 11
57.42435682885201
 21
3.552067914522017
 31
0.0
  0
LINE
  5
148
330
18
100
AcDbEntity
  8
ADP1DETAIL
100
AcDbLine
 10
57.42435682885201
 20
5.212067914522013
 30
0.0
 11
57.42435682885201
 21
3.552067914522017
 31
0.0
  0
LINE
  5
149
330
18
100
AcDbEntity
  8
ADP1DETAIL
100
AcDbLine
 10
57.42435682885201
 20
5.212067914522013
 30
0.0
 11
57.42435682885201
 21
3.552067914522018
 31
0.0
  0
CIRCLE
  5
14A
330
18
100
AcDbEntity
  8
ADP1DETAIL
100
AcDbCircle
 10
61.77743209096558
 20
4.382067914522015
 30
0.0
 40
0.7209999999999992
  0
CIRCLE
  5
14B
330
18
100
AcDbEntity
  8
ADP1DETAIL
100
AcDbCircle
 10
61.77743209096558
 20
4.382067914522015
 30
0.0
 40
0.8299999999999998
  0
DIMENSION
  5
14C
330
18
100
AcDbEntity
  8
ADPDIM
100
AcDbDimension
  2
*D0
 10
61.77743209096558
 20
5.198357189576949
 30
0.0
 11
61.77743209096558
 21
5.781690522910282
 31
0.0
  1
0.109
100
AcDbAlignedDimension
 13
61.77743209096558
 23
5.089357189576949
 33
0.0
 14
61.77743209096558
 24
5.198357189576949
 34
0.0
 50
90.0
100
AcDbRotatedDimension
  0
TEXT
  5
15A
330
18
100
AcDbEntity
  8
ADPDIM
100
AcDbText
 10
45.35167486470487
 20
-0.1408770673284458
 30
0.0
 40
0.1875
  1
J U L I U S  B L U M  &  C O . ,  I N C .      ( 8 0 0 )  5 2 6 - 6 2 9 3        W W W . J U L I U S B L U M . C O M        P A R T  N o .  7 1 1 5
 41
1.25
  7
ARIAL_WIDE
 72
     1
 11
55.1402684015398
 21
0.0466229326715542
 31
0.0
100
AcDbText
 73
     3
  0
ENDSEC
  0
SECTION
  2
OBJECTS
  0
DICTIONARY
  5
C
330
0
100
AcDbDictionary
  3
ACAD_GROUP
350
D
  3
ACAD_LAYOUT
350
153
  3
ACAD_MLINESTYLE
350
E
  3
ACAD_PLOTSETTINGS
350
154
  3
ACAD_PLOTSTYLENAME
350
151
  3
ACDBHEADERROUNDTRIPXREC
350
29E
  3
ACDBVARIABLEDICTIONARY
350
1B4
  0
DICTIONARY
  5
1AE
330
18
100
AcDbDictionary
280
     1
  3
ACAD_LAYOUTSELFREF
360
2BF
  0
DICTIONARY
  5
1AC
330
15
100
AcDbDictionary
280
     1
  3
ACAD_LAYOUTSELFREF
360
2BE
  0
DICTIONARY
  5
D
102
{ACAD_REACTORS
330
C
102
}
330
C
100
AcDbDictionary
  0
DICTIONARY
  5
153
102
{ACAD_REACTORS
330
C
102
}
330
C
100
AcDbDictionary
  0
DICTIONARY
  5
E
102
{ACAD_REACTORS
330
C
102
}
330
C
100
AcDbDictionary
  3
STANDARD
350
1B
  0
DICTIONARY
  5
154
102
{ACAD_REACTORS
330
C
102
}
330
C
100
AcDbDictionary
  0
ACDBDICTIONARYWDFLT
  5
151
102
{ACAD_REACTORS
330
C
102
}
330
C
100
AcDbDictionary
281
     1
  3
Normal
350
152
100
AcDbDictionaryWithDefault
340
152
  0
DICTIONARY
  5
29E
102
{ACAD_REACTORS
330
C
102
}
330
C
100
AcDbDictionary
  3
CEPSNTYPE
350
2A8
  3
FINGERPRINTGUID
350
2A9
  3
HYPERLINKBASE
350
2A1
  3
INSUNITS
350
2A7
  3
LAYOUTDICT
350
2A3
  3
LWETCUNION
350
2A6
  3
PLOTSETDICT
350
2A4
  3
PLOTSTYLNAMDICT
350
2A5
  3
PSVPSCALE
350
2AB
  3
PUCSBASE
350
2AE
  3
PUCSORGBACK
350
2B4
  3
PUCSORGBOTTOM
350
2B0
  3
PUCSORGFRONT
350
2B3
  3
PUCSORGLEFT
350
2B1
  3
PUCSORGRIGHT
350
2B2
  3
PUCSORGTOP
350
2AF
  3
PUCSORTHOREF
350
2AC
  3
PUCSORTHOVIEW
350
2AD
  3
STYLESHEET
350
2A2
  3
TSTACKALIGN
350
29F
  3
TSTACKSIZE
350
2A0
  3
UCSBASE
350
2B7
  3
UCSORGBACK
350
2BD
  3
UCSORGBOTTOM
350
2B9
  3
UCSORGFRONT
350
2BC
  3
UCSORGLEFT
350
2BA
  3
UCSORGRIGHT
350
2BB
  3
UCSORGTOP
350
2B8
  3
UCSORTHOREF
350
2B5
  3
UCSORTHOVIEW
350
2B6
  3
VERSIONGUID
350
2AA
  0
DICTIONARY
  5
1B4
102
{ACAD_REACTORS
330
C
102
}
330
C
100
AcDbDictionary
  3
DIMASSOC
350
1B5
  0
XRECORD
  5
2BF
102
{ACAD_REACTORS
330
1AE
102
}
330
1AE
100
AcDbXrecord
340
18
  0
XRECORD
  5
2BE
102
{ACAD_REACTORS
330
1AC
102
}
330
1AC
100
AcDbXrecord
340
15
  0
MLINESTYLE
  5
1B
102
{ACAD_REACTORS
330
E
102
}
330
E
100
AcDbMlineStyle
  2
STANDARD
 70
     0
  3

 62
     0
 51
90.0
 52
90.0
 71
     2
 49
0.5
 62
   256
  6
BYLAYER
 49
-0.5
 62
   256
  6
BYLAYER
  0
ACDBPLACEHOLDER
  5
152
102
{ACAD_REACTORS
330
151
102
}
330
151
100
AcDbPlaceHolder
280
     0
  0
XRECORD
  5
2A8
102
{ACAD_REACTORS
330
29E
102
}
330
29E
100
AcDbXrecord
 90
        0
  0
XRECORD
  5
2A9
102
{ACAD_REACTORS
330
29E
102
}
330
29E
100
AcDbXrecord
  1
{1E45EAA8-A757-4E4E-8A70-D4757F26E26A}
  0
XRECORD
  5
2A1
102
{ACAD_REACTORS
330
29E
102
}
330
29E
100
AcDbXrecord
  1

  0
XRECORD
  5
2A7
102
{ACAD_REACTORS
330
29E
102
}
330
29E
100
AcDbXrecord
 90
        0
  0
XRECORD
  5
2A3
102
{ACAD_REACTORS
330
29E
102
}
330
29E
100
AcDbXrecord
340
153
  0
XRECORD
  5
2A6
102
{ACAD_REACTORS
330
29E
102
}
330
29E
100
AcDbXrecord
 90
    14877
  0
XRECORD
  5
2A4
102
{ACAD_REACTORS
330
29E
102
}
330
29E
100
AcDbXrecord
340
154
  0
XRECORD
  5
2A5
102
{ACAD_REACTORS
330
29E
102
}
330
29E
100
AcDbXrecord
340
151
  0
XRECORD
  5
2AB
102
{ACAD_REACTORS
330
29E
102
}
330
29E
100
AcDbXrecord
 40
0.0
  0
XRECORD
  5
2AE
102
{ACAD_REACTORS
330
29E
102
}
330
29E
100
AcDbXrecord
340
0
  0
XRECORD
  5
2B4
102
{ACAD_REACTORS
330
29E
102
}
330
29E
100
AcDbXrecord
 10
0.0
 20
0.0
 30
0.0
  0
XRECORD
  5
2B0
102
{ACAD_REACTORS
330
29E
102
}
330
29E
100
AcDbXrecord
 10
0.0
 20
0.0
 30
0.0
  0
XRECORD
  5
2B3
102
{ACAD_REACTORS
330
29E
102
}
330
29E
100
AcDbXrecord
 10
0.0
 20
0.0
 30
0.0
  0
XRECORD
  5
2B1
102
{ACAD_REACTORS
330
29E
102
}
330
29E
100
AcDbXrecord
 10
0.0
 20
0.0
 30
0.0
  0
XRECORD
  5
2B2
102
{ACAD_REACTORS
330
29E
102
}
330
29E
100
AcDbXrecord
 10
0.0
 20
0.0
 30
0.0
  0
XRECORD
  5
2AF
102
{ACAD_REACTORS
330
29E
102
}
330
29E
100
AcDbXrecord
 10
0.0
 20
0.0
 30
0.0
  0
XRECORD
  5
2AC
102
{ACAD_REACTORS
330
29E
102
}
330
29E
100
AcDbXrecord
340
0
  0
XRECORD
  5
2AD
102
{ACAD_REACTORS
330
29E
102
}
330
29E
100
AcDbXrecord
 70
     0
  0
XRECORD
  5
2A2
102
{ACAD_REACTORS
330
29E
102
}
330
29E
100
AcDbXrecord
  1

  0
XRECORD
  5
29F
102
{ACAD_REACTORS
330
29E
102
}
330
29E
100
AcDbXrecord
 90
        1
  0
XRECORD
  5
2A0
102
{ACAD_REACTORS
330
29E
102
}
330
29E
100
AcDbXrecord
 90
       70
  0
XRECORD
  5
2B7
102
{ACAD_REACTORS
330
29E
102
}
330
29E
100
AcDbXrecord
340
0
  0
XRECORD
  5
2BD
102
{ACAD_REACTORS
330
29E
102
}
330
29E
100
AcDbXrecord
 10
0.0
 20
0.0
 30
0.0
  0
XRECORD
  5
2B9
102
{ACAD_REACTORS
330
29E
102
}
330
29E
100
AcDbXrecord
 10
0.0
 20
0.0
 30
0.0
  0
XRECORD
  5
2BC
102
{ACAD_REACTORS
330
29E
102
}
330
29E
100
AcDbXrecord
 10
0.0
 20
0.0
 30
0.0
  0
XRECORD
  5
2BA
102
{ACAD_REACTORS
330
29E
102
}
330
29E
100
AcDbXrecord
 10
0.0
 20
0.0
 30
0.0
  0
XRECORD
  5
2BB
102
{ACAD_REACTORS
330
29E
102
}
330
29E
100
AcDbXrecord
 10
0.0
 20
0.0
 30
0.0
  0
XRECORD
  5
2B8
102
{ACAD_REACTORS
330
29E
102
}
330
29E
100
AcDbXrecord
 10
0.0
 20
0.0
 30
0.0
  0
XRECORD
  5
2B5
102
{ACAD_REACTORS
330
29E
102
}
330
29E
100
AcDbXrecord
340
0
  0
XRECORD
  5
2B6
102
{ACAD_REACTORS
330
29E
102
}
330
29E
100
AcDbXrecord
 70
     0
  0
XRECORD
  5
2AA
102
{ACAD_REACTORS
330
29E
102
}
330
29E
100
AcDbXrecord
  1
{CB6F3475-EF2A-441D-B838-9A770C2A5474}
  0
DICTIONARYVAR
  5
1B5
102
{ACAD_REACTORS
330
1B4
102
}
330
1B4
100
DictionaryVariables
280
     0
  1
1
  0
ENDSEC
  0
EOF
