  0
SECTION
  2
HEADER
  9
$ACADVER
  1
AC1015
  9
$ACADMAINTVER
 70
    20
  9
$DWGCODEPAGE
  3
ANSI_1252
  9
$INSBASE
 10
10.82187017651893
 20
3.689947232551996
 30
0.0
  9
$EXTMIN
 10
7.010925384949572
 20
2.984436122449622
 30
-0.0015258207003583
  9
$EXTMAX
 10
16.80249029584519
 20
6.747253467733102
 30
0.0000000349246037
  9
$LIMMIN
 10
0.0
 20
0.0
  9
$LIMMAX
 10
36.0
 20
36.0
  9
$ORTHOMODE
 70
     1
  9
$REGENMODE
 70
     1
  9
$FILLMODE
 70
     1
  9
$QTEXTMODE
 70
     0
  9
$MIRRTEXT
 70
     1
  9
$LTSCALE
 40
1.0
  9
$ATTMODE
 70
     1
  9
$TEXTSIZE
 40
0.2
  9
$TRACEWID
 40
0.05
  9
$TEXTSTYLE
  7
STANDARD
  9
$CLAYER
  8
ADP1DETAIL
  9
$CELTYPE
  6
BYLAYER
  9
$CECOLOR
 62
   256
  9
$CELTSCALE
 40
1.0
  9
$DISPSILH
 70
     0
  9
$DIMSCALE
 40
1.0
  9
$DIMASZ
 40
0.125
  9
$DIMEXO
 40
0.0625
  9
$DIMDLI
 40
0.38
  9
$DIMRND
 40
0.0
  9
$DIMDLE
 40
0.0
  9
$DIMEXE
 40
0.18
  9
$DIMTP
 40
0.0
  9
$DIMTM
 40
0.0
  9
$DIMTXT
 40
0.125
  9
$DIMCEN
 40
0.1875
  9
$DIMTSZ
 40
0.125
  9
$DIMTOL
 70
     0
  9
$DIMLIM
 70
     0
  9
$DIMTIH
 70
     0
  9
$DIMTOH
 70
     0
  9
$DIMSE1
 70
     0
  9
$DIMSE2
 70
     0
  9
$DIMTAD
 70
     0
  9
$DIMZIN
 70
     3
  9
$DIMBLK
  1

  9
$DIMASO
 70
     1
  9
$DIMSHO
 70
     1
  9
$DIMPOST
  1

  9
$DIMAPOST
  1

  9
$DIMALT
 70
     0
  9
$DIMALTD
 70
     1
  9
$DIMALTF
 40
25.4
  9
$DIMLFAC
 40
1.0
  9
$DIMTOFL
 70
     0
  9
$DIMTVP
 40
0.0
  9
$DIMTIX
 70
     0
  9
$DIMSOXD
 70
     0
  9
$DIMSAH
 70
     0
  9
$DIMBLK1
  1

  9
$DIMBLK2
  1

  9
$DIMSTYLE
  2
STANDARD
  9
$DIMCLRD
 70
     0
  9
$DIMCLRE
 70
     0
  9
$DIMCLRT
 70
     0
  9
$DIMTFAC
 40
1.0
  9
$DIMGAP
 40
0.125
  9
$DIMJUST
 70
     0
  9
$DIMSD1
 70
     0
  9
$DIMSD2
 70
     0
  9
$DIMTOLJ
 70
     1
  9
$DIMTZIN
 70
     0
  9
$DIMALTZ
 70
     0
  9
$DIMALTTZ
 70
     0
  9
$DIMUPT
 70
     0
  9
$DIMDEC
 70
     4
  9
$DIMTDEC
 70
     4
  9
$DIMALTU
 70
     2
  9
$DIMALTTD
 70
     2
  9
$DIMTXSTY
  7
STANDARD
  9
$DIMAUNIT
 70
     0
  9
$DIMADEC
 70
     0
  9
$DIMALTRND
 40
0.0
  9
$DIMAZIN
 70
     0
  9
$DIMDSEP
 70
    46
  9
$DIMATFIT
 70
     3
  9
$DIMFRAC
 70
     0
  9
$DIMLDRBLK
  1

  9
$DIMLUNIT
 70
     2
  9
$DIMLWD
 70
    -2
  9
$DIMLWE
 70
    -2
  9
$DIMTMOVE
 70
     0
  9
$LUNITS
 70
     5
  9
$LUPREC
 70
     4
  9
$SKETCHINC
 40
0.1
  9
$FILLETRAD
 40
0.062
  9
$AUNITS
 70
     0
  9
$AUPREC
 70
     0
  9
$MENU
  1
acad
  9
$ELEVATION
 40
0.0
  9
$PELEVATION
 40
0.0
  9
$THICKNESS
 40
0.0
  9
$LIMCHECK
 70
     0
  9
$CHAMFERA
 40
0.0
  9
$CHAMFERB
 40
0.0
  9
$CHAMFERC
 40
0.0
  9
$CHAMFERD
 40
0.0
  9
$SKPOLY
 70
     0
  9
$TDCREATE
 40
2450415.456697523
  9
$TDUCREATE
 40
2450415.623364190
  9
$TDUPDATE
 40
2453984.992474225
  9
$TDUUPDATE
 40
2453985.159140891
  9
$TDINDWG
 40
0.0236495370
  9
$TDUSRTIMER
 40
0.0236495370
  9
$USRTIMER
 70
     1
  9
$ANGBASE
 50
0.0
  9
$ANGDIR
 70
     0
  9
$PDMODE
 70
     0
  9
$PDSIZE
 40
0.0
  9
$PLINEWID
 40
0.0
  9
$SPLFRAME
 70
     0
  9
$SPLINETYPE
 70
     6
  9
$SPLINESEGS
 70
     8
  9
$HANDSEED
  5
677
  9
$SURFTAB1
 70
     6
  9
$SURFTAB2
 70
     6
  9
$SURFTYPE
 70
     6
  9
$SURFU
 70
     6
  9
$SURFV
 70
     6
  9
$UCSBASE
  2

  9
$UCSNAME
  2

  9
$UCSORG
 10
0.0
 20
0.0
 30
0.0
  9
$UCSXDIR
 10
1.0
 20
0.0
 30
0.0
  9
$UCSYDIR
 10
0.0
 20
1.0
 30
0.0
  9
$UCSORTHOREF
  2

  9
$UCSORTHOVIEW
 70
     0
  9
$UCSORGTOP
 10
0.0
 20
0.0
 30
0.0
  9
$UCSORGBOTTOM
 10
0.0
 20
0.0
 30
0.0
  9
$UCSORGLEFT
 10
0.0
 20
0.0
 30
0.0
  9
$UCSORGRIGHT
 10
0.0
 20
0.0
 30
0.0
  9
$UCSORGFRONT
 10
0.0
 20
0.0
 30
0.0
  9
$UCSORGBACK
 10
0.0
 20
0.0
 30
0.0
  9
$PUCSBASE
  2

  9
$PUCSNAME
  2

  9
$PUCSORG
 10
0.0
 20
0.0
 30
0.0
  9
$PUCSXDIR
 10
1.0
 20
0.0
 30
0.0
  9
$PUCSYDIR
 10
0.0
 20
1.0
 30
0.0
  9
$PUCSORTHOREF
  2

  9
$PUCSORTHOVIEW
 70
     0
  9
$PUCSORGTOP
 10
0.0
 20
0.0
 30
0.0
  9
$PUCSORGBOTTOM
 10
0.0
 20
0.0
 30
0.0
  9
$PUCSORGLEFT
 10
0.0
 20
0.0
 30
0.0
  9
$PUCSORGRIGHT
 10
0.0
 20
0.0
 30
0.0
  9
$PUCSORGFRONT
 10
0.0
 20
0.0
 30
0.0
  9
$PUCSORGBACK
 10
0.0
 20
0.0
 30
0.0
  9
$USERI1
 70
     0
  9
$USERI2
 70
     0
  9
$USERI3
 70
     0
  9
$USERI4
 70
     0
  9
$USERI5
 70
     0
  9
$USERR1
 40
0.0
  9
$USERR2
 40
0.0
  9
$USERR3
 40
0.0
  9
$USERR4
 40
0.0
  9
$USERR5
 40
0.0
  9
$WORLDVIEW
 70
     1
  9
$SHADEDGE
 70
     3
  9
$SHADEDIF
 70
    70
  9
$TILEMODE
 70
     1
  9
$MAXACTVP
 70
    15
  9
$PINSBASE
 10
0.0
 20
0.0
 30
0.0
  9
$PLIMCHECK
 70
     0
  9
$PEXTMIN
 10
1.000000000000000E+20
 20
1.000000000000000E+20
 30
1.000000000000000E+20
  9
$PEXTMAX
 10
-1.000000000000000E+20
 20
-1.000000000000000E+20
 30
-1.000000000000000E+20
  9
$PLIMMIN
 10
0.0
 20
0.0
  9
$PLIMMAX
 10
12.0
 20
9.0
  9
$UNITMODE
 70
     0
  9
$VISRETAIN
 70
     0
  9
$PLINEGEN
 70
     0
  9
$PSLTSCALE
 70
     1
  9
$TREEDEPTH
 70
  3020
  9
$CMLSTYLE
  2
STANDARD
  9
$CMLJUST
 70
     0
  9
$CMLSCALE
 40
1.0
  9
$PROXYGRAPHICS
 70
     1
  9
$MEASUREMENT
 70
     0
  9
$CELWEIGHT
370
    -1
  9
$ENDCAPS
280
     0
  9
$JOINSTYLE
280
     0
  9
$LWDISPLAY
290
     0
  9
$INSUNITS
 70
     0
  9
$HYPERLINKBASE
  1

  9
$STYLESHEET
  1

  9
$XEDIT
290
     1
  9
$CEPSNTYPE
380
     0
  9
$PSTYLEMODE
290
     1
  9
$FINGERPRINTGUID
  2
{7195D028-A32B-4745-98A4-3469C9C2FA87}
  9
$VERSIONGUID
  2
{16F543F0-9F5A-45FA-B28F-2ACD15DF6512}
  9
$EXTNAMES
290
     1
  9
$PSVPSCALE
 40
0.0
  9
$OLESTARTUP
290
     0
  0
ENDSEC
  0
SECTION
  2
CLASSES
  0
CLASS
  1
ACDBDICTIONARYWDFLT
  2
AcDbDictionaryWithDefault
  3
ObjectDBX Classes
 90
        0
280
     0
281
     0
  0
CLASS
  1
ACDBPLACEHOLDER
  2
AcDbPlaceHolder
  3
ObjectDBX Classes
 90
        0
280
     0
281
     0
  0
CLASS
  1
LAYOUT
  2
AcDbLayout
  3
ObjectDBX Classes
 90
        0
280
     0
281
     0
  0
CLASS
  1
DICTIONARYVAR
  2
AcDbDictionaryVar
  3
ObjectDBX Classes
 90
        0
280
     0
281
     0
  0
CLASS
  1
MATERIAL
  2
AcDbMaterial
  3
ObjectDBX Classes
 90
     1024
280
     0
281
     0
  0
CLASS
  1
VISUALSTYLE
  2
AcDbVisualStyle
  3
ObjectDBX Classes
 90
     4095
280
     0
281
     0
  0
CLASS
  1
TABLESTYLE
  2
AcDbTableStyle
  3
ObjectDBX Classes
 90
     4095
280
     0
281
     0
  0
ENDSEC
  0
SECTION
  2
TABLES
  0
TABLE
  2
VPORT
  5
8
330
0
100
AcDbSymbolTable
 70
     1
  0
VPORT
  5
3A0
330
8
100
AcDbSymbolTableRecord
100
AcDbViewportTableRecord
  2
*Active
 70
     0
 10
0.0
 20
0.0
 11
1.0
 21
1.0
 12
11.90670784039738
 22
4.865844795091362
 13
0.0
 23
0.0
 14
0.5740882589684922
 24
0.5740882589684922
 15
0.5
 25
0.5
 16
0.0
 26
0.0
 36
1.0
 17
0.0
 27
0.0
 37
0.0
 40
5.706953728988607
 41
1.726930320150658
 42
50.0
 43
0.0
 44
0.0
 50
0.0
 51
0.0
 71
     0
 72
   100
 73
     1
 74
     0
 75
     0
 76
     0
 77
     0
 78
     0
281
     0
 65
     1
110
0.0
120
0.0
130
0.0
111
1.0
121
0.0
131
0.0
112
0.0
122
1.0
132
0.0
 79
     0
146
0.0
  0
ENDTAB
  0
TABLE
  2
LTYPE
  5
5
330
0
100
AcDbSymbolTable
 70
     3
  0
LTYPE
  5
12
330
5
100
AcDbSymbolTableRecord
100
AcDbLinetypeTableRecord
  2
BYBLOCK
 70
     0
  3

 72
    65
 73
     0
 40
0.0
  0
LTYPE
  5
13
330
5
100
AcDbSymbolTableRecord
100
AcDbLinetypeTableRecord
  2
BYLAYER
 70
     0
  3

 72
    65
 73
     0
 40
0.0
  0
LTYPE
  5
14
330
5
100
AcDbSymbolTableRecord
100
AcDbLinetypeTableRecord
  2
CONTINUOUS
 70
     0
  3
Solid line
 72
    65
 73
     0
 40
0.0
  0
LTYPE
  5
27
330
5
100
AcDbSymbolTableRecord
100
AcDbLinetypeTableRecord
  2
HIDDEN2
 70
     0
  3
_ _ _ _ _ _ _ _ _ _ _ _ _ _ _ _ _ _ _ _ _ _ _ _
 72
    65
 73
     2
 40
0.1875
 49
0.125
 74
     0
 49
-0.0625
 74
     0
  0
LTYPE
  5
5BA
330
5
100
AcDbSymbolTableRecord
100
AcDbLinetypeTableRecord
  2
AI9-LType1
 70
     0
  3
Illustrator Dash Style No.1
 72
    65
 73
     2
 40
4.762499999999999
 49
3.174999999999999
 74
     0
 49
-1.587499999999999
 74
     0
  0
ENDTAB
  0
TABLE
  2
LAYER
  5
2
330
0
100
AcDbSymbolTable
 70
     5
  0
LAYER
  5
F
330
2
100
AcDbSymbolTableRecord
100
AcDbLayerTableRecord
  2
0
 70
     0
 62
     7
  6
CONTINUOUS
370
    -3
390
22A
  0
LAYER
  5
29
330
2
100
AcDbSymbolTableRecord
100
AcDbLayerTableRecord
  2
ADP2DETAIL
 70
     0
 62
     5
  6
CONTINUOUS
370
    -3
390
22A
  0
LAYER
  5
2A
330
2
100
AcDbSymbolTableRecord
100
AcDbLayerTableRecord
  2
ADPDIM
 70
     0
 62
     3
  6
CONTINUOUS
370
    -3
390
22A
  0
LAYER
  5
2B
330
2
100
AcDbSymbolTableRecord
100
AcDbLayerTableRecord
  2
ADP1DETAIL
 70
     0
 62
     7
  6
CONTINUOUS
370
    -3
390
22A
  0
LAYER
  5
2C
330
2
100
AcDbSymbolTableRecord
100
AcDbLayerTableRecord
  2
DEFPOINTS
 70
     0
 62
     7
  6
CONTINUOUS
290
     0
370
    -3
390
22A
  0
ENDTAB
  0
TABLE
  2
STYLE
  5
3
330
0
100
AcDbSymbolTable
 70
     2
  0
STYLE
  5
10
330
3
100
AcDbSymbolTableRecord
100
AcDbTextStyleTableRecord
  2
STANDARD
 70
     0
 40
0.0
 41
1.0
 50
0.0
 71
     0
 42
0.2
  3
txt
  4

  0
STYLE
  5
231
330
3
100
AcDbSymbolTableRecord
100
AcDbTextStyleTableRecord
  2
ARIAL_WIDE
 70
     0
 40
0.0
 41
1.25
 50
0.0
 71
     0
 42
0.2
  3
ARIAL.TTF
  4

1001
ACAD
1000
Arial
1071
       34
  0
ENDTAB
  0
TABLE
  2
VIEW
  5
6
330
0
100
AcDbSymbolTable
 70
     0
  0
ENDTAB
  0
TABLE
  2
UCS
  5
7
330
0
100
AcDbSymbolTable
 70
     0
  0
ENDTAB
  0
TABLE
  2
APPID
  5
9
330
0
100
AcDbSymbolTable
 70
     1
  0
APPID
  5
11
330
9
100
AcDbSymbolTableRecord
100
AcDbRegAppTableRecord
  2
ACAD
 70
     0
  0
ENDTAB
  0
TABLE
  2
DIMSTYLE
  5
A
330
0
100
AcDbSymbolTable
 70
     1
100
AcDbDimStyleTable
 71
     1
340
225
  0
DIMSTYLE
105
225
102
{ACAD_REACTORS
330
5E9
330
5F7
102
}
330
A
100
AcDbSymbolTableRecord
100
AcDbDimStyleTableRecord
  2
STANDARD
 70
     0
340
10
  0
ENDTAB
  0
TABLE
  2
BLOCK_RECORD
  5
1
330
0
100
AcDbSymbolTable
 70
    13
  0
BLOCK_RECORD
  5
18
102
{ACAD_XDICTIONARY
360
286
102
}
330
1
100
AcDbSymbolTableRecord
100
AcDbBlockTableRecord
  2
*MODEL_SPACE
340
22D
  0
BLOCK_RECORD
  5
15
102
{ACAD_XDICTIONARY
360
284
102
}
330
1
100
AcDbSymbolTableRecord
100
AcDbBlockTableRecord
  2
*PAPER_SPACE
340
22E
  0
BLOCK_RECORD
  5
1E
330
1
100
AcDbSymbolTableRecord
100
AcDbBlockTableRecord
  2
*D0
340
0
  0
BLOCK_RECORD
  5
26
330
1
100
AcDbSymbolTableRecord
100
AcDbBlockTableRecord
  2
*D1
340
0
  0
BLOCK_RECORD
  5
3E8
330
1
100
AcDbSymbolTableRecord
100
AcDbBlockTableRecord
  2
AI9-BLK2
340
0
102
{BLKREFS
331
5BD
102
}
  0
BLOCK_RECORD
  5
3F3
330
1
100
AcDbSymbolTableRecord
100
AcDbBlockTableRecord
  2
AI9-BLK3
340
0
102
{BLKREFS
331
3F1
102
}
  0
BLOCK_RECORD
  5
3F7
330
1
100
AcDbSymbolTableRecord
100
AcDbBlockTableRecord
  2
AI9-BLK4
340
0
102
{BLKREFS
331
3F0
102
}
  0
BLOCK_RECORD
  5
400
330
1
100
AcDbSymbolTableRecord
100
AcDbBlockTableRecord
  2
AI9-BLK5
340
0
102
{BLKREFS
331
5BE
102
}
  0
BLOCK_RECORD
  5
40B
330
1
100
AcDbSymbolTableRecord
100
AcDbBlockTableRecord
  2
AI9-BLK6
340
0
102
{BLKREFS
331
409
102
}
  0
BLOCK_RECORD
  5
40F
330
1
100
AcDbSymbolTableRecord
100
AcDbBlockTableRecord
  2
AI9-BLK7
340
0
102
{BLKREFS
331
408
102
}
  0
BLOCK_RECORD
  5
414
330
1
100
AcDbSymbolTableRecord
100
AcDbBlockTableRecord
  2
AI9-BLK8
340
0
102
{BLKREFS
331
5C4
331
5D5
102
}
  0
BLOCK_RECORD
  5
5DC
330
1
100
AcDbSymbolTableRecord
100
AcDbBlockTableRecord
  2
*D10
340
0
  0
BLOCK_RECORD
  5
5EA
330
1
100
AcDbSymbolTableRecord
100
AcDbBlockTableRecord
  2
*D11
340
0
  0
BLOCK_RECORD
  5
5F8
330
1
100
AcDbSymbolTableRecord
100
AcDbBlockTableRecord
  2
*D12
340
0
  0
ENDTAB
  0
ENDSEC
  0
SECTION
  2
BLOCKS
  0
BLOCK
  5
2F
330
18
100
AcDbEntity
  8
0
100
AcDbBlockBegin
  2
*MODEL_SPACE
 70
     0
 10
0.0
 20
0.0
 30
0.0
  3
*MODEL_SPACE
  1

  0
ENDBLK
  5
30
330
18
100
AcDbEntity
  8
0
100
AcDbBlockEnd
  0
BLOCK
  5
2D
330
15
100
AcDbEntity
 67
     1
  8
0
100
AcDbBlockBegin
  2
*PAPER_SPACE
 70
     0
 10
0.0
 20
0.0
 30
0.0
  3
*PAPER_SPACE
  1

  0
ENDBLK
  5
2E
330
15
100
AcDbEntity
 67
     1
  8
0
100
AcDbBlockEnd
  0
BLOCK
  5
49
330
1E
100
AcDbEntity
  8
0
100
AcDbBlockBegin
  2
*D0
 70
     1
 10
0.0
 20
0.0
 30
0.0
  3
*D0
  1

  0
LINE
  5
4A
330
1E
100
AcDbEntity
  8
0
  6
ByBlock
 62
     0
100
AcDbLine
 10
10.75937017651893
 20
5.146960674571047
 30
0.0
 11
10.75937017651893
 21
5.601826212590053
 31
0.0
  0
LINE
  5
4B
330
1E
100
AcDbEntity
  8
0
  6
ByBlock
 62
     0
100
AcDbLine
 10
15.75937017651893
 20
5.146960674571047
 30
0.0
 11
15.75937017651893
 21
5.601826212590053
 31
0.0
  0
LINE
  5
4C
330
1E
100
AcDbEntity
  8
0
  6
ByBlock
 62
     0
100
AcDbLine
 10
10.75937017651893
 20
5.421826212590054
 30
0.0
 11
13.09270350985226
 21
5.421826212590054
 31
0.0
  0
LINE
  5
4D
330
1E
100
AcDbEntity
  8
0
  6
ByBlock
 62
     0
100
AcDbLine
 10
15.75937017651893
 20
5.421826212590054
 30
0.0
 11
13.42603684318559
 21
5.421826212590054
 31
0.0
  0
LINE
  5
4E
330
1E
100
AcDbEntity
  8
0
  6
ByBlock
 62
     0
100
AcDbLine
 10
10.63437017651893
 20
5.296826212590054
 30
0.0
 11
10.88437017651893
 21
5.546826212590054
 31
0.0
  0
LINE
  5
4F
330
1E
100
AcDbEntity
  8
0
  6
ByBlock
 62
     0
100
AcDbLine
 10
15.63437017651892
 20
5.296826212590054
 30
0.0
 11
15.88437017651893
 21
5.546826212590054
 31
0.0
  0
TEXT
  5
50
330
1E
100
AcDbEntity
  8
0
  6
ByBlock
 62
     0
100
AcDbText
 10
13.21770350985226
 20
5.359326212590054
 30
0.0
 40
0.125
  1
5
 72
     1
 11
13.25937017651893
 21
5.421826212590054
 31
0.0
100
AcDbText
 73
     2
  0
POINT
  5
51
330
1E
100
AcDbEntity
  8
DEFPOINTS
  6
ByBlock
 62
     0
100
AcDbPoint
 10
10.75937017651893
 20
5.084460674571047
 30
0.0
  0
POINT
  5
52
330
1E
100
AcDbEntity
  8
DEFPOINTS
  6
ByBlock
 62
     0
100
AcDbPoint
 10
15.75937017651893
 20
5.084460674571047
 30
0.0
  0
POINT
  5
53
330
1E
100
AcDbEntity
  8
DEFPOINTS
  6
ByBlock
 62
     0
100
AcDbPoint
 10
15.75937017651893
 20
5.421826212590054
 30
0.0
  0
ENDBLK
  5
54
330
1E
100
AcDbEntity
  8
0
100
AcDbBlockEnd
  0
BLOCK
  5
A9
330
26
100
AcDbEntity
  8
0
100
AcDbBlockBegin
  2
*D1
 70
     1
 10
0.0
 20
0.0
 30
0.0
  3
*D1
  1

  0
LINE
  5
AA
330
26
100
AcDbEntity
  8
0
  6
ByBlock
 62
     0
100
AcDbLine
 10
8.566109840417235
 20
4.40742214852322
 30
0.0
 11
8.566109840417235
 21
5.604792367150183
 31
0.0
  0
LINE
  5
AB
330
26
100
AcDbEntity
  8
0
  6
ByBlock
 62
     0
100
AcDbLine
 10
10.21610984041723
 20
4.40742214852322
 30
0.0
 11
10.21610984041723
 21
5.604792367150183
 31
0.0
  0
LINE
  5
AC
330
26
100
AcDbEntity
  8
0
  6
ByBlock
 62
     0
100
AcDbLine
 10
8.566109840417235
 20
5.424792367150184
 30
0.0
 11
9.047359840417234
 21
5.424792367150184
 31
0.0
  0
LINE
  5
AD
330
26
100
AcDbEntity
  8
0
  6
ByBlock
 62
     0
100
AcDbLine
 10
10.21610984041723
 20
5.424792367150184
 30
0.0
 11
9.734859840417234
 21
5.424792367150184
 31
0.0
  0
LINE
  5
AE
330
26
100
AcDbEntity
  8
0
  6
ByBlock
 62
     0
100
AcDbLine
 10
8.441109840417235
 20
5.299792367150184
 30
0.0
 11
8.691109840417235
 21
5.549792367150184
 31
0.0
  0
LINE
  5
AF
330
26
100
AcDbEntity
  8
0
  6
ByBlock
 62
     0
100
AcDbLine
 10
10.09110984041723
 20
5.299792367150184
 30
0.0
 11
10.34110984041723
 21
5.549792367150184
 31
0.0
  0
TEXT
  5
B0
330
26
100
AcDbEntity
  8
0
  6
ByBlock
 62
     0
100
AcDbText
 10
9.172359840417234
 20
5.362292367150184
 30
0.0
 40
0.125
  1
1.650
 72
     1
 11
9.391109840417234
 21
5.424792367150184
 31
0.0
100
AcDbText
 73
     2
  0
POINT
  5
B1
330
26
100
AcDbEntity
  8
DEFPOINTS
  6
ByBlock
 62
     0
100
AcDbPoint
 10
8.566109840417235
 20
4.34492214852322
 30
0.0
  0
POINT
  5
B2
330
26
100
AcDbEntity
  8
DEFPOINTS
  6
ByBlock
 62
     0
100
AcDbPoint
 10
10.21610984041723
 20
4.34492214852322
 30
0.0
  0
POINT
  5
B3
330
26
100
AcDbEntity
  8
DEFPOINTS
  6
ByBlock
 62
     0
100
AcDbPoint
 10
10.21610984041723
 20
5.424792367150184
 30
0.0
  0
ENDBLK
  5
B4
330
26
100
AcDbEntity
  8
0
100
AcDbBlockEnd
  0
BLOCK
  5
3E9
330
3E8
100
AcDbEntity
  8
ADPDIM
 62
     7
100
AcDbBlockBegin
  2
AI9-BLK2
 70
     0
 10
0.0
 20
0.0
 30
0.0
  3
AI9-BLK2
  1

  0
LINE
  5
3EA
330
3E8
100
AcDbEntity
  8
ADPDIM
 62
     3
100
AcDbLine
 10
-19.06998155381944
 20
-12.96570298936632
 30
0.0
 11
-19.06998155381944
 21
13.9634026421441
 31
0.0
  0
LINE
  5
3EB
330
3E8
100
AcDbEntity
  8
ADPDIM
 62
     3
100
AcDbLine
 10
19.06998155381944
 20
-13.9634026421441
 30
0.0
 11
19.06998155381944
 21
13.9634026421441
 31
0.0
  0
LINE
  5
3EC
330
3E8
100
AcDbEntity
  8
ADPDIM
 62
     3
100
AcDbLine
 10
-19.06998155381944
 20
9.39141642252604
 30
0.0
 11
-6.438194444444444
 21
9.39141642252604
 31
0.0
  0
LINE
  5
3ED
330
3E8
100
AcDbEntity
  8
ADPDIM
 62
     3
100
AcDbLine
 10
19.06998155381944
 20
9.39141642252604
 30
0.0
 11
8.025694444444443
 21
9.39141642252604
 31
0.0
  0
LINE
  5
3EE
330
3E8
100
AcDbEntity
  8
ADPDIM
 62
     3
100
AcDbLine
 10
-22.24498155381944
 20
6.216416422526041
 30
0.0
 11
-15.89498155381944
 21
12.56641642252604
 31
0.0
  0
LINE
  5
3EF
330
3E8
100
AcDbEntity
  8
ADPDIM
 62
     3
100
AcDbLine
 10
15.89498155381944
 20
6.216416422526041
 30
0.0
 11
22.24498155381944
 21
12.56641642252604
 31
0.0
  0
INSERT
  5
3F0
330
3E8
100
AcDbEntity
  8
ADPDIM
 62
     7
100
AcDbBlockReference
  2
AI9-BLK4
 10
1.366497124565972
 20
9.283757188585068
 30
0.0
  0
INSERT
  5
3F1
330
3E8
100
AcDbEntity
  8
ADPDIM
 62
     7
100
AcDbBlockReference
  2
AI9-BLK3
 10
19.06998155381944
 20
9.391502549913193
 30
0.0
  0
ENDBLK
  5
3F2
330
3E8
100
AcDbEntity
  8
ADPDIM
100
AcDbBlockEnd
  0
BLOCK
  5
3F4
330
3F3
100
AcDbEntity
  8
ADPDIM
 62
     7
100
AcDbBlockBegin
  2
AI9-BLK3
 70
     0
 10
0.0
 20
0.0
 30
0.0
  3
AI9-BLK3
  1

  0
CIRCLE
  5
3F5
330
3F3
100
AcDbEntity
  8
ADPDIM
 62
     3
100
AcDbCircle
 10
0.0
 20
-0.0000861273871528
 30
0.0
 40
0.0895724826388889
  0
ENDBLK
  5
3F6
330
3F3
100
AcDbEntity
  8
ADPDIM
100
AcDbBlockEnd
  0
BLOCK
  5
3F8
330
3F7
100
AcDbEntity
  8
ADPDIM
 62
     7
100
AcDbBlockBegin
  2
AI9-BLK4
 70
     0
 10
0.0
 20
0.0
 30
0.0
  3
AI9-BLK4
  1

  0
HATCH
  5
3F9
330
3F7
100
AcDbEntity
  8
ADPDIM
 62
     3
100
AcDbHatch
 10
0.0
 20
0.0
 30
0.0
210
0.0
220
0.0
230
1.0
  2
SOLID
 70
     1
 71
     0
 91
        1
 92
        1
 93
        1
 72
     4
 94
        3
 73
     0
 74
     0
 95
       26
 96
       22
 40
0.0
 40
0.0
 40
0.0
 40
0.0
 40
1.0
 40
1.0
 40
1.0
 40
2.0
 40
2.0
 40
2.0
 40
3.0
 40
3.0
 40
3.0
 40
4.0
 40
4.0
 40
4.0
 40
5.0
 40
5.0
 40
5.0
 40
6.0
 40
6.0
 40
6.0
 40
7.0
 40
7.0
 40
7.0
 40
7.0
 10
-4.593173556857638
 20
-1.479668511284722
 10
-4.593173556857638
 20
-1.479668511284722
 10
-4.991082085503471
 20
-1.479668511284722
 10
-4.991082085503471
 20
-1.479668511284722
 10
-4.991082085503471
 20
-1.479668511284722
 10
-4.991082085503471
 20
0.6328640407986111
 10
-4.991082085503471
 20
0.6328640407986111
 10
-4.991082085503471
 20
0.6328640407986111
 10
-5.68526882595486
 20
0.6328640407986111
 10
-5.68526882595486
 20
0.6328640407986111
 10
-5.68526882595486
 20
0.6328640407986111
 10
-5.68526882595486
 20
0.9291422526041666
 10
-5.68526882595486
 20
0.9291422526041666
 10
-5.202610948350693
 20
0.9629041883680555
 10
-5.003828938802082
 20
1.009412977430555
 10
-4.885317654079861
 20
1.496549479166666
 10
-4.885317654079861
 20
1.496549479166666
 10
-4.593173556857638
 20
1.496549479166666
 10
-4.593173556857638
 20
1.496549479166666
 10
-4.593173556857638
 20
1.496549479166666
 10
-4.593173556857638
 20
-1.479668511284722
 10
-4.593173556857638
 20
-1.479668511284722
 97
        0
 75
     2
 76
     1
 98
        1
 10
0.0
 20
0.0
  0
HATCH
  5
3FA
330
3F7
100
AcDbEntity
  8
ADPDIM
 62
     3
100
AcDbHatch
 10
0.0
 20
0.0
 30
0.0
210
0.0
220
0.0
230
1.0
  2
SOLID
 70
     1
 71
     0
 91
        1
 92
        1
 93
        1
 72
     4
 94
        3
 73
     0
 74
     0
 95
       17
 96
       13
 40
0.0
 40
0.0
 40
0.0
 40
0.0
 40
1.0
 40
1.0
 40
1.0
 40
2.0
 40
2.0
 40
2.0
 40
3.0
 40
3.0
 40
3.0
 40
4.0
 40
4.0
 40
4.0
 40
4.0
 10
-2.95055202907986
 20
-1.479668511284722
 10
-2.95055202907986
 20
-1.479668511284722
 10
-3.39083523220486
 20
-1.479668511284722
 10
-3.39083523220486
 20
-1.479668511284722
 10
-3.39083523220486
 20
-1.479668511284722
 10
-3.39083523220486
 20
-1.030772569444444
 10
-3.39083523220486
 20
-1.030772569444444
 10
-3.39083523220486
 20
-1.030772569444444
 10
-2.95055202907986
 20
-1.030772569444444
 10
-2.95055202907986
 20
-1.030772569444444
 10
-2.95055202907986
 20
-1.030772569444444
 10
-2.95055202907986
 20
-1.479668511284722
 10
-2.95055202907986
 20
-1.479668511284722
 97
        0
 75
     2
 76
     1
 98
        1
 10
0.0
 20
0.0
  0
HATCH
  5
3FB
330
3F7
100
AcDbEntity
  8
ADPDIM
 62
     3
100
AcDbHatch
 10
0.0
 20
0.0
 30
0.0
210
0.0
220
0.0
230
1.0
  2
SOLID
 70
     1
 71
     0
 91
        1
 92
        1
 93
        1
 72
     4
 94
        3
 73
     0
 74
     0
 95
       50
 96
       46
 40
0.0
 40
0.0
 40
0.0
 40
0.0
 40
1.0
 40
1.0
 40
1.0
 40
2.0
 40
2.0
 40
2.0
 40
3.0
 40
3.0
 40
3.0
 40
4.0
 40
4.0
 40
4.0
 40
5.0
 40
5.0
 40
5.0
 40
6.0
 40
6.0
 40
6.0
 40
7.0
 40
7.0
 40
7.0
 40
8.0
 40
8.0
 40
8.0
 40
9.0
 40
9.0
 40
9.0
 40
10.0
 40
10.0
 40
10.0
 40
11.0
 40
11.0
 40
11.0
 40
12.0
 40
12.0
 40
12.0
 40
13.0
 40
13.0
 40
13.0
 40
14.0
 40
14.0
 40
14.0
 40
15.0
 40
15.0
 40
15.0
 40
15.0
 10
-1.960087076822916
 20
0.2518364800347222
 10
-1.832963053385416
 20
0.3489881727430555
 10
-1.651062011718749
 20
0.4382161458333333
 10
-1.384411621093749
 20
0.4382161458333333
 10
-0.9017537434895832
 20
0.4382161458333333
 10
-0.4063490125868056
 20
0.09921875
 10
-0.4063490125868056
 20
-0.5143527560763889
 10
-0.4063490125868056
 20
-0.8447374131944444
 10
-0.5544881184895833
 20
-1.559939236111111
 10
-1.486041937934027
 20
-1.559939236111111
 10
-1.875337727864583
 20
-1.559939236111111
 10
-2.374876573350694
 20
-1.403531901041666
 10
-2.446879069010416
 20
-0.7389729817708333
 10
-2.446879069010416
 20
-0.7389729817708333
 10
-2.061717393663194
 20
-0.7389729817708333
 10
-2.061717393663194
 20
-0.7389729817708333
 10
-2.02347683376736
 20
-1.085894097222222
 10
-1.765439181857638
 20
-1.238511827256944
 10
-1.430920410156249
 20
-1.238511827256944
 10
-1.045758734809027
 20
-1.238511827256944
 10
-0.8042575412326387
 20
-0.9294867621527776
 10
-0.8042575412326387
 20
-0.5567274305555556
 10
-0.8042575412326387
 20
-0.1291910807291666
 10
-1.09640163845486
 20
0.1036973741319444
 10
-1.464682345920138
 20
0.1036973741319444
 10
-1.680689832899305
 20
0.1036973741319444
 10
-1.875337727864583
 20
0.0020670572916667
 10
-2.015208604600694
 20
-0.1801784939236111
 10
-2.015208604600694
 20
-0.1801784939236111
 10
-2.336980523003472
 20
-0.1629530164930555
 10
-2.336980523003472
 20
-0.1629530164930555
 10
-2.336980523003472
 20
-0.1629530164930555
 10
-2.112360297309027
 20
1.43281521267361
 10
-2.112360297309027
 20
1.43281521267361
 10
-2.112360297309027
 20
1.43281521267361
 10
-0.5713690863715277
 20
1.43281521267361
 10
-0.5713690863715277
 20
1.43281521267361
 10
-0.5713690863715277
 20
1.43281521267361
 10
-0.5713690863715277
 20
1.068668619791666
 10
-0.5713690863715277
 20
1.068668619791666
 10
-0.5713690863715277
 20
1.068668619791666
 10
-1.832963053385416
 20
1.068668619791666
 10
-1.832963053385416
 20
1.068668619791666
 10
-1.832963053385416
 20
1.068668619791666
 10
-1.960087076822916
 20
0.2518364800347222
 10
-1.960087076822916
 20
0.2518364800347222
 97
        0
 75
     2
 76
     1
 98
        1
 10
0.0
 20
0.0
  0
HATCH
  5
3FC
330
3F7
100
AcDbEntity
  8
ADPDIM
 62
     3
100
AcDbHatch
 10
0.0
 20
0.0
 30
0.0
210
0.0
220
0.0
230
1.0
  2
SOLID
 70
     1
 71
     0
 91
        2
 92
       16
 93
        1
 72
     4
 94
        3
 73
     0
 74
     0
 95
       17
 96
       13
 40
0.0
 40
0.0
 40
0.0
 40
0.0
 40
1.0
 40
1.0
 40
1.0
 40
2.0
 40
2.0
 40
2.0
 40
3.0
 40
3.0
 40
3.0
 40
4.0
 40
4.0
 40
4.0
 40
4.0
 10
0.9482625325520832
 20
1.162030707465277
 10
0.5207261827256944
 20
1.162030707465277
 10
0.3260782877604166
 20
0.713134765625
 10
0.3260782877604166
 20
-0.0316948784722222
 10
0.3260782877604166
 20
-0.7768690321180555
 10
0.5207261827256944
 20
-1.225764973958333
 10
0.9482625325520832
 20
-1.225764973958333
 10
1.375798882378472
 20
-1.225764973958333
 10
1.570791286892361
 20
-0.7768690321180555
 10
1.570791286892361
 20
-0.0316948784722222
 10
1.570791286892361
 20
0.713134765625
 10
1.375798882378472
 20
1.162030707465277
 10
0.9482625325520832
 20
1.162030707465277
 97
        0
 92
        1
 93
        1
 72
     4
 94
        3
 73
     0
 74
     0
 95
       17
 96
       13
 40
0.0
 40
0.0
 40
0.0
 40
0.0
 40
1.0
 40
1.0
 40
1.0
 40
2.0
 40
2.0
 40
2.0
 40
3.0
 40
3.0
 40
3.0
 40
4.0
 40
4.0
 40
4.0
 40
4.0
 10
0.9482625325520832
 20
-1.559939236111111
 10
0.0931898328993056
 20
-1.559939236111111
 10
-0.0718302408854167
 20
-0.6500895182291666
 10
-0.0718302408854167
 20
-0.0316948784722222
 10
-0.0718302408854167
 20
0.5863552517361111
 10
0.0931898328993056
 20
1.496549479166666
 10
0.9482625325520832
 20
1.496549479166666
 10
1.803679741753471
 20
1.496549479166666
 10
1.968699815538194
 20
0.5863552517361111
 10
1.968699815538194
 20
-0.0316948784722222
 10
1.968699815538194
 20
-0.6500895182291666
 10
1.803679741753471
 20
-1.559939236111111
 10
0.9482625325520832
 20
-1.559939236111111
 97
        0
 75
     2
 76
     1
 98
        1
 10
0.0
 20
0.0
  0
HATCH
  5
3FD
330
3F7
100
AcDbEntity
  8
ADPDIM
 62
     3
100
AcDbHatch
 10
0.0
 20
0.0
 30
0.0
210
0.0
220
0.0
230
1.0
  2
SOLID
 70
     1
 71
     0
 91
        2
 92
       16
 93
        1
 72
     4
 94
        3
 73
     0
 74
     0
 95
       17
 96
       13
 40
0.0
 40
0.0
 40
0.0
 40
0.0
 40
1.0
 40
1.0
 40
1.0
 40
2.0
 40
2.0
 40
2.0
 40
3.0
 40
3.0
 40
3.0
 40
4.0
 40
4.0
 40
4.0
 40
4.0
 10
3.301951768663194
 20
1.162030707465277
 10
2.874415418836805
 20
1.162030707465277
 10
2.679767523871527
 20
0.713134765625
 10
2.679767523871527
 20
-0.0316948784722222
 10
2.679767523871527
 20
-0.7768690321180555
 10
2.874415418836805
 20
-1.225764973958333
 10
3.301951768663194
 20
-1.225764973958333
 10
3.729488118489582
 20
-1.225764973958333
 10
3.924480523003472
 20
-0.7768690321180555
 10
3.924480523003472
 20
-0.0316948784722222
 10
3.924480523003472
 20
0.713134765625
 10
3.729488118489582
 20
1.162030707465277
 10
3.301951768663194
 20
1.162030707465277
 97
        0
 92
        1
 93
        1
 72
     4
 94
        3
 73
     0
 74
     0
 95
       17
 96
       13
 40
0.0
 40
0.0
 40
0.0
 40
0.0
 40
1.0
 40
1.0
 40
1.0
 40
2.0
 40
2.0
 40
2.0
 40
3.0
 40
3.0
 40
3.0
 40
4.0
 40
4.0
 40
4.0
 40
4.0
 10
3.301951768663194
 20
-1.559939236111111
 10
2.446879069010416
 20
-1.559939236111111
 10
2.281858995225694
 20
-0.6500895182291666
 10
2.281858995225694
 20
-0.0316948784722222
 10
2.281858995225694
 20
0.5863552517361111
 10
2.446879069010416
 20
1.496549479166666
 10
3.301951768663194
 20
1.496549479166666
 10
4.157368977864583
 20
1.496549479166666
 10
4.322389051649305
 20
0.5863552517361111
 10
4.322389051649305
 20
-0.0316948784722222
 10
4.322389051649305
 20
-0.6500895182291666
 10
4.157368977864583
 20
-1.559939236111111
 10
3.301951768663194
 20
-1.559939236111111
 97
        0
 75
     2
 76
     1
 98
        1
 10
0.0
 20
0.0
  0
HATCH
  5
3FE
330
3F7
100
AcDbEntity
  8
ADPDIM
 62
     3
100
AcDbHatch
 10
0.0
 20
0.0
 30
0.0
210
0.0
220
0.0
230
1.0
  2
SOLID
 70
     1
 71
     0
 91
        2
 92
        1
 93
        1
 72
     4
 94
        3
 73
     0
 74
     0
 95
       17
 96
       13
 40
0.0
 40
0.0
 40
0.0
 40
0.0
 40
1.0
 40
1.0
 40
1.0
 40
2.0
 40
2.0
 40
2.0
 40
3.0
 40
3.0
 40
3.0
 40
4.0
 40
4.0
 40
4.0
 40
4.0
 10
5.376243760850694
 20
1.559939236111111
 10
5.376243760850694
 20
1.559939236111111
 10
5.68526882595486
 20
1.559939236111111
 10
5.68526882595486
 20
1.559939236111111
 10
5.68526882595486
 20
1.559939236111111
 10
5.68526882595486
 20
0.4802463107638889
 10
5.68526882595486
 20
0.4802463107638889
 10
5.68526882595486
 20
0.4802463107638889
 10
5.376243760850694
 20
0.4802463107638889
 10
5.376243760850694
 20
0.4802463107638889
 10
5.376243760850694
 20
0.4802463107638889
 10
5.376243760850694
 20
1.559939236111111
 10
5.376243760850694
 20
1.559939236111111
 97
        0
 92
        1
 93
        1
 72
     4
 94
        3
 73
     0
 74
     0
 95
       17
 96
       13
 40
0.0
 40
0.0
 40
0.0
 40
0.0
 40
1.0
 40
1.0
 40
1.0
 40
2.0
 40
2.0
 40
2.0
 40
3.0
 40
3.0
 40
3.0
 40
4.0
 40
4.0
 40
4.0
 40
4.0
 10
4.775074598524304
 20
1.559939236111111
 10
4.775074598524304
 20
1.559939236111111
 10
5.084099663628471
 20
1.559939236111111
 10
5.084099663628471
 20
1.559939236111111
 10
5.084099663628471
 20
1.559939236111111
 10
5.084099663628471
 20
0.4802463107638889
 10
5.084099663628471
 20
0.4802463107638889
 10
5.084099663628471
 20
0.4802463107638889
 10
4.775074598524304
 20
0.4802463107638889
 10
4.775074598524304
 20
0.4802463107638889
 10
4.775074598524304
 20
0.4802463107638889
 10
4.775074598524304
 20
1.559939236111111
 10
4.775074598524304
 20
1.559939236111111
 97
        0
 75
     2
 76
     1
 98
        1
 10
0.0
 20
0.0
  0
ENDBLK
  5
3FF
330
3F7
100
AcDbEntity
  8
ADPDIM
100
AcDbBlockEnd
  0
BLOCK
  5
401
330
400
100
AcDbEntity
  8
ADPDIM
 62
     7
100
AcDbBlockBegin
  2
AI9-BLK5
 70
     0
 10
0.0
 20
0.0
 30
0.0
  3
AI9-BLK5
  1

  0
LINE
  5
402
330
400
100
AcDbEntity
  8
ADPDIM
 62
     3
100
AcDbLine
 10
-63.49999999999999
 20
-5.77673611111111
 30
0.0
 11
-63.49999999999999
 21
5.77673611111111
 31
0.0
  0
LINE
  5
403
330
400
100
AcDbEntity
  8
ADPDIM
 62
     3
100
AcDbLine
 10
63.49999999999999
 20
-5.77673611111111
 30
0.0
 11
63.49999999999999
 21
5.77673611111111
 31
0.0
  0
LINE
  5
404
330
400
100
AcDbEntity
  8
ADPDIM
 62
     3
100
AcDbLine
 10
-63.49999999999999
 20
1.204749891493055
 30
0.0
 11
-4.233333333333332
 21
1.204749891493055
 31
0.0
  0
LINE
  5
405
330
400
100
AcDbEntity
  8
ADPDIM
 62
     3
100
AcDbLine
 10
63.49999999999999
 20
1.204749891493055
 30
0.0
 11
4.233333333333332
 21
1.204749891493055
 31
0.0
  0
LINE
  5
406
330
400
100
AcDbEntity
  8
ADPDIM
 62
     3
100
AcDbLine
 10
-66.675
 20
-1.970250108506944
 30
0.0
 11
-60.32499999999999
 21
4.379749891493054
 31
0.0
  0
LINE
  5
407
330
400
100
AcDbEntity
  8
ADPDIM
 62
     3
100
AcDbLine
 10
60.32499999999999
 20
-1.970250108506944
 30
0.0
 11
66.675
 21
4.379749891493054
 31
0.0
  0
INSERT
  5
408
330
400
100
AcDbEntity
  8
ADPDIM
 62
     7
100
AcDbBlockReference
  2
AI9-BLK7
 10
0.3076470269097222
 20
1.096918402777777
 30
0.0
  0
INSERT
  5
409
330
400
100
AcDbEntity
  8
ADPDIM
 62
     7
100
AcDbBlockReference
  2
AI9-BLK6
 10
63.49999999999999
 20
1.204749891493055
 30
0.0
  0
ENDBLK
  5
40A
330
400
100
AcDbEntity
  8
ADPDIM
100
AcDbBlockEnd
  0
BLOCK
  5
40C
330
40B
100
AcDbEntity
  8
ADPDIM
 62
     7
100
AcDbBlockBegin
  2
AI9-BLK6
 70
     0
 10
0.0
 20
0.0
 30
0.0
  3
AI9-BLK6
  1

  0
CIRCLE
  5
40D
330
40B
100
AcDbEntity
  8
ADPDIM
 62
     3
100
AcDbCircle
 10
0.0
 20
0.0
 30
0.0
 40
0.0895724826388889
  0
ENDBLK
  5
40E
330
40B
100
AcDbEntity
  8
ADPDIM
100
AcDbBlockEnd
  0
BLOCK
  5
410
330
40F
100
AcDbEntity
  8
ADPDIM
 62
     7
100
AcDbBlockBegin
  2
AI9-BLK7
 70
     0
 10
0.0
 20
0.0
 30
0.0
  3
AI9-BLK7
  1

  0
HATCH
  5
411
330
40F
100
AcDbEntity
  8
ADPDIM
 62
     3
100
AcDbHatch
 10
0.0
 20
0.0
 30
0.0
210
0.0
220
0.0
230
1.0
  2
SOLID
 70
     1
 71
     0
 91
        1
 92
        1
 93
        1
 72
     4
 94
        3
 73
     0
 74
     0
 95
       50
 96
       46
 40
0.0
 40
0.0
 40
0.0
 40
0.0
 40
1.0
 40
1.0
 40
1.0
 40
2.0
 40
2.0
 40
2.0
 40
3.0
 40
3.0
 40
3.0
 40
4.0
 40
4.0
 40
4.0
 40
5.0
 40
5.0
 40
5.0
 40
6.0
 40
6.0
 40
6.0
 40
7.0
 40
7.0
 40
7.0
 40
8.0
 40
8.0
 40
8.0
 40
9.0
 40
9.0
 40
9.0
 40
10.0
 40
10.0
 40
10.0
 40
11.0
 40
11.0
 40
11.0
 40
12.0
 40
12.0
 40
12.0
 40
13.0
 40
13.0
 40
13.0
 40
14.0
 40
14.0
 40
14.0
 40
15.0
 40
15.0
 40
15.0
 40
15.0
 10
-1.225420464409722
 20
0.2518364800347222
 10
-1.098296440972222
 20
0.3489881727430555
 10
-0.9163953993055555
 20
0.4382161458333333
 10
-0.6497450086805556
 20
0.4382161458333333
 10
-0.1670871310763889
 20
0.4382161458333333
 10
0.3279730902777778
 20
0.09921875
 10
0.3279730902777778
 20
-0.5143527560763889
 10
0.3279730902777778
 20
-0.8447374131944444
 10
0.179833984375
 20
-1.559939236111111
 10
-0.7513753255208333
 20
-1.559939236111111
 10
-1.141015624999999
 20
-1.559939236111111
 10
-1.640554470486111
 20
-1.403531901041666
 10
-1.712212456597222
 20
-0.7389729817708333
 10
-1.712212456597222
 20
-0.7389729817708333
 10
-1.327050781249999
 20
-0.7389729817708333
 10
-1.327050781249999
 20
-0.7389729817708333
 10
-1.289154730902777
 20
-1.085894097222222
 10
-1.030772569444444
 20
-1.238511827256944
 10
-0.6962537977430556
 20
-1.238511827256944
 10
-0.3110921223958333
 20
-1.238511827256944
 10
-0.0695909288194445
 20
-0.9294867621527776
 10
-0.0695909288194445
 20
-0.5567274305555556
 10
-0.0695909288194445
 20
-0.1291910807291666
 10
-0.3617350260416666
 20
0.1036973741319444
 10
-0.7303602430555555
 20
0.1036973741319444
 10
-0.946023220486111
 20
0.1036973741319444
 10
-1.141015624999999
 20
0.0020670572916667
 10
-1.280541992187499
 20
-0.1801784939236111
 10
-1.280541992187499
 20
-0.1801784939236111
 10
-1.602313910590277
 20
-0.1629530164930555
 10
-1.602313910590277
 20
-0.1629530164930555
 10
-1.602313910590277
 20
-0.1629530164930555
 10
-1.378038194444444
 20
1.43281521267361
 10
-1.378038194444444
 20
1.43281521267361
 10
-1.378038194444444
 20
1.43281521267361
 10
0.1632975260416666
 20
1.43281521267361
 10
0.1632975260416666
 20
1.43281521267361
 10
0.1632975260416666
 20
1.43281521267361
 10
0.1632975260416666
 20
1.068668619791666
 10
0.1632975260416666
 20
1.068668619791666
 10
0.1632975260416666
 20
1.068668619791666
 10
-1.098296440972222
 20
1.068668619791666
 10
-1.098296440972222
 20
1.068668619791666
 10
-1.098296440972222
 20
1.068668619791666
 10
-1.225420464409722
 20
0.2518364800347222
 10
-1.225420464409722
 20
0.2518364800347222
 97
        0
 75
     2
 76
     1
 98
        1
 10
0.0
 20
0.0
  0
HATCH
  5
412
330
40F
100
AcDbEntity
  8
ADPDIM
 62
     3
100
AcDbHatch
 10
0.0
 20
0.0
 30
0.0
210
0.0
220
0.0
230
1.0
  2
SOLID
 70
     1
 71
     0
 91
        2
 92
        1
 93
        1
 72
     4
 94
        3
 73
     0
 74
     0
 95
       17
 96
       13
 40
0.0
 40
0.0
 40
0.0
 40
0.0
 40
1.0
 40
1.0
 40
1.0
 40
2.0
 40
2.0
 40
2.0
 40
3.0
 40
3.0
 40
3.0
 40
4.0
 40
4.0
 40
4.0
 40
4.0
 10
1.403531901041666
 20
1.559939236111111
 10
1.403531901041666
 20
1.559939236111111
 10
1.712212456597222
 20
1.559939236111111
 10
1.712212456597222
 20
1.559939236111111
 10
1.712212456597222
 20
1.559939236111111
 10
1.712212456597222
 20
0.4802463107638889
 10
1.712212456597222
 20
0.4802463107638889
 10
1.712212456597222
 20
0.4802463107638889
 10
1.403531901041666
 20
0.4802463107638889
 10
1.403531901041666
 20
0.4802463107638889
 10
1.403531901041666
 20
0.4802463107638889
 10
1.403531901041666
 20
1.559939236111111
 10
1.403531901041666
 20
1.559939236111111
 97
        0
 92
        1
 93
        1
 72
     4
 94
        3
 73
     0
 74
     0
 95
       17
 96
       13
 40
0.0
 40
0.0
 40
0.0
 40
0.0
 40
1.0
 40
1.0
 40
1.0
 40
2.0
 40
2.0
 40
2.0
 40
3.0
 40
3.0
 40
3.0
 40
4.0
 40
4.0
 40
4.0
 40
4.0
 10
0.8020182291666666
 20
1.559939236111111
 10
0.8020182291666666
 20
1.559939236111111
 10
1.111387803819444
 20
1.559939236111111
 10
1.111387803819444
 20
1.559939236111111
 10
1.111387803819444
 20
1.559939236111111
 10
1.111387803819444
 20
0.4802463107638889
 10
1.111387803819444
 20
0.4802463107638889
 10
1.111387803819444
 20
0.4802463107638889
 10
0.8020182291666666
 20
0.4802463107638889
 10
0.8020182291666666
 20
0.4802463107638889
 10
0.8020182291666666
 20
0.4802463107638889
 10
0.8020182291666666
 20
1.559939236111111
 10
0.8020182291666666
 20
1.559939236111111
 97
        0
 75
     2
 76
     1
 98
        1
 10
0.0
 20
0.0
  0
ENDBLK
  5
413
330
40F
100
AcDbEntity
  8
ADPDIM
100
AcDbBlockEnd
  0
BLOCK
  5
415
330
414
100
AcDbEntity
  8
ADP1DETAIL
 62
     7
100
AcDbBlockBegin
  2
AI9-BLK8
 70
     0
 10
0.0
 20
0.0
 30
0.0
  3
AI9-BLK8
  1

  0
SPLINE
  5
416
330
414
100
AcDbEntity
  8
ADP1DETAIL
 62
     7
100
AcDbSpline
210
0.0
220
0.0
230
1.0
 70
     8
 71
     3
 72
    17
 73
    13
 74
     0
 42
0.0000000001
 43
0.0000000001
 40
0.0
 40
0.0
 40
0.0
 40
0.0
 40
1.0
 40
1.0
 40
1.0
 40
2.0
 40
2.0
 40
2.0
 40
3.0
 40
3.0
 40
3.0
 40
4.0
 40
4.0
 40
4.0
 40
4.0
 10
6.321147325303819
 20
-17.13969455295138
 30
0.0
 10
15.26737128363715
 20
-13.64843478732639
 30
0.0
 10
19.68984035915798
 20
-3.56601833767361
 30
0.0
 10
16.19858059353298
 20
5.380205620659721
 30
0.0
 10
12.70766533745659
 20
14.32642957899305
 30
0.0
 10
2.625076633029513
 20
18.74855414496527
 30
0.0
 10
-6.321319580078124
 20
15.25763888888889
 30
0.0
 10
-15.26754353841146
 20
11.7667236328125
 30
0.0
 10
-19.68984035915798
 20
1.684307183159722
 30
0.0
 10
-16.19875284830729
 20
-7.26191677517361
 30
0.0
 10
-14.4317633734809
 20
-11.79083930121527
 30
0.0
 10
-10.84972534179687
 20
-15.37236056857639
 30
0.0
 10
-6.321319580078124
 20
-17.13969455295138
 30
0.0
  0
SPLINE
  5
417
330
414
100
AcDbEntity
  8
ADP1DETAIL
 62
     7
100
AcDbSpline
210
0.0
220
0.0
230
1.0
 70
     8
 71
     3
 72
    11
 73
     7
 74
     0
 42
0.0000000001
 43
0.0000000001
 40
0.0
 40
0.0
 40
0.0
 40
0.0
 40
1.0
 40
1.0
 40
1.0
 40
2.0
 40
2.0
 40
2.0
 40
2.0
 10
5.942186821831596
 20
-17.99201117621527
 30
0.0
 10
6.060525851779513
 20
-18.33858778211805
 30
0.0
 10
6.437074788411457
 20
-18.52324490017361
 30
0.0
 10
6.783306884765624
 20
-18.40473361545139
 30
0.0
 10
6.790713840060763
 20
-18.4019775390625
 30
0.0
 10
6.798293050130207
 20
-18.39922146267361
 30
0.0
 10
6.805872260199651
 20
-18.39646538628472
 30
0.0
  0
LINE
  5
418
330
414
100
AcDbEntity
  8
ADP1DETAIL
 62
     7
100
AcDbLine
 10
6.685121663411457
 20
16.94745822482639
 30
0.0
 11
7.029286702473958
 21
17.09559733072916
 31
0.0
  0
LINE
  5
419
330
414
100
AcDbEntity
  8
ADP1DETAIL
 62
     7
100
AcDbLine
 10
-17.56008232964409
 20
-7.288099500868054
 30
0.0
 11
-17.89976874457465
 21
-7.129625108506943
 31
0.0
  0
LINE
  5
41A
330
414
100
AcDbEntity
  8
ADP1DETAIL
 62
     7
100
AcDbLine
 10
-11.86861233181423
 20
-15.17323404947916
 30
0.0
 11
-12.24188842773437
 21
-15.20561794704861
 31
0.0
  0
LINE
  5
41B
330
414
100
AcDbEntity
  8
ADP1DETAIL
 62
     7
100
AcDbLine
 10
-11.86861233181423
 20
-15.17323404947916
 30
0.0
 11
-12.24188842773437
 21
-15.20561794704861
 31
0.0
  0
LINE
  5
41C
330
414
100
AcDbEntity
  8
ADP1DETAIL
 62
     7
100
AcDbLine
 10
-16.4070088704427
 20
-9.762367078993055
 30
0.0
 11
-16.76581556532118
 21
-9.654880099826387
 31
0.0
  0
LINE
  5
41D
330
414
100
AcDbEntity
  8
ADP1DETAIL
 62
     7
100
AcDbLine
 10
-17.35854424370659
 20
-7.795906575520832
 30
0.0
 11
-17.70253702799479
 21
-7.647078450520832
 31
0.0
  0
LINE
  5
41E
330
414
100
AcDbEntity
  8
ADP1DETAIL
 62
     7
100
AcDbLine
 10
-17.70253702799479
 20
-7.647078450520832
 30
0.0
 11
-17.5540534125434
 21
-7.303257921006943
 31
0.0
  0
LINE
  5
41F
330
414
100
AcDbEntity
  8
ADP1DETAIL
 62
     7
100
AcDbLine
 10
-17.14201999240451
 20
-8.29751247829861
 30
0.0
 11
-17.49031914605034
 21
-8.159019639756943
 31
0.0
  0
LINE
  5
420
330
414
100
AcDbEntity
  8
ADP1DETAIL
 62
     7
100
AcDbLine
 10
-17.49031914605034
 20
-8.159019639756943
 30
0.0
 11
-17.35199856228298
 21
-7.811064995659721
 31
0.0
  0
LINE
  5
421
330
414
100
AcDbEntity
  8
ADP1DETAIL
 62
     7
100
AcDbLine
 10
-16.91119859483507
 20
-8.792917209201387
 30
0.0
 11
-17.26345960828993
 21
-8.664759657118054
 31
0.0
  0
LINE
  5
422
330
414
100
AcDbEntity
  8
ADP1DETAIL
 62
     7
100
AcDbLine
 10
-17.26345960828993
 20
-8.664759657118054
 30
0.0
 11
-17.13530205620659
 21
-8.312670898437499
 31
0.0
  0
LINE
  5
423
330
414
100
AcDbEntity
  8
ADP1DETAIL
 62
     7
100
AcDbLine
 10
-16.66625230577256
 20
-9.281431749131943
 30
0.0
 11
-17.02178615993923
 21
-9.163609483506943
 31
0.0
  0
LINE
  5
424
330
414
100
AcDbEntity
  8
ADP1DETAIL
 62
     7
100
AcDbLine
 10
-17.02178615993923
 20
-9.163609483506943
 30
0.0
 11
-16.90396389431423
 21
-8.807386610243055
 31
0.0
  0
LINE
  5
425
330
414
100
AcDbEntity
  8
ADP1DETAIL
 62
     7
100
AcDbLine
 10
-16.76581556532118
 20
-9.654880099826387
 30
0.0
 11
-16.65850084092881
 21
-9.295901150173611
 31
0.0
  0
LINE
  5
426
330
414
100
AcDbEntity
  8
ADP1DETAIL
 62
     7
100
AcDbLine
 10
-12.24188842773437
 20
-15.20561794704861
 30
0.0
 11
-12.27444458007812
 21
-14.83216959635416
 31
0.0
  0
LINE
  5
427
330
414
100
AcDbEntity
  8
ADP1DETAIL
 62
     7
100
AcDbLine
 10
-16.49554782443576
 20
-10.13857150607639
 30
0.0
 11
-16.39874064127604
 21
-9.77683648003472
 31
0.0
  0
LINE
  5
428
330
414
100
AcDbEntity
  8
ADP1DETAIL
 62
     7
100
AcDbLine
 10
-16.13364054361979
 20
-10.23572319878472
 30
0.0
 11
-16.49554782443576
 21
-10.13857150607639
 31
0.0
  0
LINE
  5
429
330
414
100
AcDbEntity
  8
ADP1DETAIL
 62
     7
100
AcDbLine
 10
-15.84700859917534
 20
-10.70081108940972
 30
0.0
 11
-16.2114997016059
 21
-10.61399468315972
 31
0.0
  0
LINE
  5
42A
330
414
100
AcDbEntity
  8
ADP1DETAIL
 62
     7
100
AcDbLine
 10
-16.2114997016059
 20
-10.61399468315972
 30
0.0
 11
-16.12520005967882
 21
-10.24950358072916
 31
0.0
  0
LINE
  5
42B
330
414
100
AcDbEntity
  8
ADP1DETAIL
 62
     7
100
AcDbLine
 10
-15.54676852756076
 20
-11.15763075086805
 30
0.0
 11
-15.9138434516059
 21
-11.08183865017361
 31
0.0
  0
LINE
  5
42C
330
414
100
AcDbEntity
  8
ADP1DETAIL
 62
     7
100
AcDbLine
 10
-15.9138434516059
 20
-11.08183865017361
 30
0.0
 11
-15.83787909613715
 21
-10.71459147135416
 31
0.0
  0
LINE
  5
42D
330
414
100
AcDbEntity
  8
ADP1DETAIL
 62
     7
100
AcDbLine
 10
-15.23343709309895
 20
-11.6054931640625
 30
0.0
 11
-15.60240681966146
 21
-11.54003634982639
 31
0.0
  0
LINE
  5
42E
330
414
100
AcDbEntity
  8
ADP1DETAIL
 62
     7
100
AcDbLine
 10
-15.60240681966146
 20
-11.54003634982639
 30
0.0
 11
-15.53729451497395
 21
-11.1714111328125
 31
0.0
  0
LINE
  5
42F
330
414
100
AcDbEntity
  8
ADP1DETAIL
 62
     7
100
AcDbLine
 10
-14.90718655056423
 20
-12.04370930989583
 30
0.0
 11
-15.27787882486979
 21
-11.98927680121528
 31
0.0
  0
LINE
  5
430
330
414
100
AcDbEntity
  8
ADP1DETAIL
 62
     7
100
AcDbLine
 10
-15.27787882486979
 20
-11.98927680121528
 30
0.0
 11
-15.22361857096354
 21
-11.61858452690972
 31
0.0
  0
LINE
  5
431
330
414
100
AcDbEntity
  8
ADP1DETAIL
 62
     7
100
AcDbLine
 10
-14.5681891547309
 20
-12.47227918836805
 30
0.0
 11
-14.94060397677951
 21
-12.42887098524305
 31
0.0
  0
LINE
  5
432
330
414
100
AcDbEntity
  8
ADP1DETAIL
 62
     7
100
AcDbLine
 10
-14.21713392469618
 20
-12.89120279947916
 30
0.0
 11
-14.59041002061631
 21
-12.8581298828125
 31
0.0
  0
LINE
  5
433
330
414
100
AcDbEntity
  8
ADP1DETAIL
 62
     7
100
AcDbLine
 10
-14.59041002061631
 20
-12.8581298828125
 30
0.0
 11
-14.55768161349826
 21
-12.48537055121528
 31
0.0
  0
LINE
  5
434
330
414
100
AcDbEntity
  8
ADP1DETAIL
 62
     7
100
AcDbLine
 10
-13.85402086046006
 20
-13.29910210503472
 30
0.0
 11
-14.22798597547743
 21
-13.27774251302083
 31
0.0
  0
LINE
  5
435
330
414
100
AcDbEntity
  8
ADP1DETAIL
 62
     7
100
AcDbLine
 10
-14.22798597547743
 20
-13.27774251302083
 30
0.0
 11
-14.20628187391493
 21
-12.90360514322916
 31
0.0
  0
LINE
  5
436
330
414
100
AcDbEntity
  8
ADP1DETAIL
 62
     7
100
AcDbLine
 10
-13.47902221679687
 20
-13.69666612413194
 30
0.0
 11
-13.85367635091145
 21
-13.68633083767361
 31
0.0
  0
LINE
  5
437
330
414
100
AcDbEntity
  8
ADP1DETAIL
 62
     7
100
AcDbLine
 10
-13.85367635091145
 20
-13.68633083767361
 30
0.0
 11
-13.8426520453559
 21
-13.31150444878472
 31
0.0
  0
LINE
  5
438
330
414
100
AcDbEntity
  8
ADP1DETAIL
 62
     7
100
AcDbLine
 10
-13.09265475802951
 20
-14.08320583767361
 30
0.0
 11
-13.46730889214409
 21
-14.08320583767361
 31
0.0
  0
LINE
  5
439
330
414
100
AcDbEntity
  8
ADP1DETAIL
 62
     7
100
AcDbLine
 10
-13.46730889214409
 20
-14.08320583767361
 30
0.0
 11
-13.46730889214409
 21
-13.70837944878472
 31
0.0
  0
LINE
  5
43A
330
414
100
AcDbEntity
  8
ADP1DETAIL
 62
     7
100
AcDbLine
 10
-12.69526299370659
 20
-14.45872124565972
 30
0.0
 11
-13.06974487304687
 21
-14.46905653211805
 31
0.0
  0
LINE
  5
43B
330
414
100
AcDbEntity
  8
ADP1DETAIL
 62
     7
100
AcDbLine
 10
-13.06974487304687
 20
-14.46905653211805
 30
0.0
 11
-13.08076917860243
 21
-14.09491916232639
 31
0.0
  0
LINE
  5
43C
330
414
100
AcDbEntity
  8
ADP1DETAIL
 62
     7
100
AcDbLine
 10
-12.28701917860243
 20
-14.82183430989583
 30
0.0
 11
-12.66115654839409
 21
-14.84319390190972
 31
0.0
  0
LINE
  5
43D
330
414
100
AcDbEntity
  8
ADP1DETAIL
 62
     7
100
AcDbLine
 10
-12.66115654839409
 20
-14.84319390190972
 30
0.0
 11
-12.6830329047309
 21
-14.46974555121527
 31
0.0
  0
LINE
  5
43E
330
414
100
AcDbEntity
  8
ADP1DETAIL
 62
     7
100
AcDbLine
 10
-12.24188842773437
 20
-15.20561794704861
 30
0.0
 11
-12.27444458007812
 21
-14.83216959635416
 31
0.0
  0
LINE
  5
43F
330
414
100
AcDbEntity
  8
ADP1DETAIL
 62
     7
100
AcDbLine
 10
-14.94060397677951
 20
-12.42887098524305
 30
0.0
 11
-14.89702351888021
 21
-12.05680067274305
 31
0.0
  0
LINE
  5
440
330
414
100
AcDbEntity
  8
ADP1DETAIL
 62
     7
100
AcDbLine
 10
-16.13364054361979
 20
-10.23572319878472
 30
0.0
 11
-16.49554782443576
 21
-10.13857150607639
 31
0.0
  0
LINE
  5
441
330
414
100
AcDbEntity
  8
ADP1DETAIL
 62
     7
100
AcDbLine
 10
-16.49554782443576
 20
-10.13857150607639
 30
0.0
 11
-16.39874064127604
 21
-9.77683648003472
 31
0.0
  0
LINE
  5
442
330
414
100
AcDbEntity
  8
ADP1DETAIL
 62
     7
100
AcDbLine
 10
-9.997064208984374
 20
-16.82619086371527
 30
0.0
 11
-10.08353610568576
 21
-16.4610107421875
 31
0.0
  0
LINE
  5
443
330
414
100
AcDbEntity
  8
ADP1DETAIL
 62
     7
100
AcDbLine
 10
-7.193273247612846
 20
-17.96513943142361
 30
0.0
 11
-7.541400146484374
 21
-18.10363226996528
 31
0.0
  0
LINE
  5
444
330
414
100
AcDbEntity
  8
ADP1DETAIL
 62
     7
100
AcDbLine
 10
-9.632400851779513
 20
-16.73937445746528
 30
0.0
 11
-9.997064208984374
 21
-16.82619086371527
 31
0.0
  0
LINE
  5
445
330
414
100
AcDbEntity
  8
ADP1DETAIL
 62
     7
100
AcDbLine
 10
-9.159389241536457
 20
-17.0129150390625
 30
0.0
 11
-9.521296522352429
 21
-17.11006673177083
 31
0.0
  0
LINE
  5
446
330
414
100
AcDbEntity
  8
ADP1DETAIL
 62
     7
100
AcDbLine
 10
-9.521296522352429
 20
-17.11006673177083
 30
0.0
 11
-9.618275960286457
 21
-16.74764268663194
 31
0.0
  0
LINE
  5
447
330
414
100
AcDbEntity
  8
ADP1DETAIL
 62
     7
100
AcDbLine
 10
-8.678453911675346
 20
-17.27198621961805
 30
0.0
 11
-9.037432861328124
 21
-17.37947319878472
 31
0.0
  0
LINE
  5
448
330
414
100
AcDbEntity
  8
ADP1DETAIL
 62
     7
100
AcDbLine
 10
-9.037432861328124
 20
-17.37947319878472
 30
0.0
 11
-9.14491984049479
 21
-17.02049424913194
 31
0.0
  0
LINE
  5
449
330
414
100
AcDbEntity
  8
ADP1DETAIL
 62
     7
100
AcDbLine
 10
-8.190111626519096
 20
-17.51796603732639
 30
0.0
 11
-8.545817735460069
 21
-17.63578830295138
 31
0.0
  0
LINE
  5
44A
330
414
100
AcDbEntity
  8
ADP1DETAIL
 62
     7
100
AcDbLine
 10
-8.545817735460069
 20
-17.63578830295138
 30
0.0
 11
-8.663640001085068
 21
-17.27956542968749
 31
0.0
  0
LINE
  5
44B
330
414
100
AcDbEntity
  8
ADP1DETAIL
 62
     7
100
AcDbLine
 10
-7.694879150390624
 20
-17.74878743489583
 30
0.0
 11
-8.047140163845485
 21
-17.87694498697916
 31
0.0
  0
LINE
  5
44C
330
414
100
AcDbEntity
  8
ADP1DETAIL
 62
     7
100
AcDbLine
 10
-8.047140163845485
 20
-17.87694498697916
 30
0.0
 11
-8.175125461154513
 21
-17.52485622829861
 31
0.0
  0
LINE
  5
44D
330
414
100
AcDbEntity
  8
ADP1DETAIL
 62
     7
100
AcDbLine
 10
-7.541400146484374
 20
-18.10363226996528
 30
0.0
 11
-7.679720730251735
 21
-17.75498860677083
 31
0.0
  0
SPLINE
  5
44E
330
414
100
AcDbEntity
  8
ADP1DETAIL
 62
     7
100
AcDbSpline
210
0.0
220
0.0
230
1.0
 70
     8
 71
     3
 72
     8
 73
     4
 74
     0
 42
0.0000000001
 43
0.0000000001
 40
0.0
 40
0.0
 40
0.0
 40
0.0
 40
1.0
 40
1.0
 40
1.0
 40
1.0
 10
-7.032387288411457
 20
-18.30827094184028
 30
0.0
 10
-6.957111952039929
 20
-18.33858778211805
 30
0.0
 10
-6.881664360894096
 20
-18.36752658420138
 30
0.0
 10
-6.806044514973957
 20
-18.39646538628472
 30
0.0
  0
SPLINE
  5
44F
330
414
100
AcDbEntity
  8
ADP1DETAIL
 62
     7
100
AcDbSpline
210
0.0
220
0.0
230
1.0
 70
     8
 71
     3
 72
     8
 73
     4
 74
     0
 42
0.0000000001
 43
0.0000000001
 40
0.0
 40
0.0
 40
0.0
 40
0.0
 40
1.0
 40
1.0
 40
1.0
 40
1.0
 10
-5.935124376085068
 20
-17.97134060329861
 30
0.0
 10
-5.820402696397568
 20
-17.63509928385416
 30
0.0
 10
-5.990590413411458
 20
-17.26854112413194
 30
0.0
 10
-6.321319580078124
 20
-17.13969455295138
 30
0.0
  0
LINE
  5
450
330
414
100
AcDbEntity
  8
ADP1DETAIL
 62
     7
100
AcDbLine
 10
-5.935124376085068
 20
-17.97134060329861
 30
0.0
 11
-5.942359076605902
 21
-17.99201117621527
 31
0.0
  0
SPLINE
  5
451
330
414
100
AcDbEntity
  8
ADP1DETAIL
 62
     7
100
AcDbSpline
210
0.0
220
0.0
230
1.0
 70
     8
 71
     3
 72
    11
 73
     7
 74
     0
 42
0.0000000001
 43
0.0000000001
 40
0.0
 40
0.0
 40
0.0
 40
0.0
 40
1.0
 40
1.0
 40
1.0
 40
2.0
 40
2.0
 40
2.0
 40
2.0
 10
-6.806044514973957
 20
-18.39646538628472
 30
0.0
 10
-6.46411878797743
 20
-18.52737901475694
 30
0.0
 10
-6.081196424696179
 20
-18.35650227864583
 30
0.0
 10
-5.950455050998263
 20
-18.01474880642361
 30
0.0
 10
-5.947698974609374
 20
-18.00716959635416
 30
0.0
 10
-5.944942898220485
 20
-17.99959038628472
 30
0.0
 10
-5.942359076605902
 20
-17.99201117621527
 30
0.0
  0
LINE
  5
452
330
414
100
AcDbEntity
  8
ADP1DETAIL
 62
     7
100
AcDbLine
 10
-7.029458957248262
 20
-18.3151611328125
 30
0.0
 11
-7.177770317925346
 21
-17.97134060329861
 31
0.0
  0
LINE
  5
453
330
414
100
AcDbEntity
  8
ADP1DETAIL
 62
     7
100
AcDbLine
 10
-11.44004245334201
 20
-15.5122314453125
 30
0.0
 11
-11.81211276584201
 21
-15.5556396484375
 31
0.0
  0
LINE
  5
454
330
414
100
AcDbEntity
  8
ADP1DETAIL
 62
     7
100
AcDbLine
 10
-11.81211276584201
 20
-15.5556396484375
 30
0.0
 11
-11.85569322374131
 21
-15.1835693359375
 31
0.0
  0
LINE
  5
455
330
414
100
AcDbEntity
  8
ADP1DETAIL
 62
     7
100
AcDbLine
 10
-11.00182630750868
 20
-15.83882649739583
 30
0.0
 11
-11.37234632703993
 21
-15.89325900607638
 31
0.0
  0
LINE
  5
456
330
414
100
AcDbEntity
  8
ADP1DETAIL
 62
     7
100
AcDbLine
 10
-11.37234632703993
 20
-15.89325900607638
 30
0.0
 11
-11.42677883572048
 21
-15.52187771267361
 31
0.0
  0
LINE
  5
457
330
414
100
AcDbEntity
  8
ADP1DETAIL
 62
     7
100
AcDbLine
 10
-10.55413614908854
 20
-16.15233018663194
 30
0.0
 11
-10.92310587565104
 21
-16.21709798177083
 31
0.0
  0
LINE
  5
458
330
414
100
AcDbEntity
  8
ADP1DETAIL
 62
     7
100
AcDbLine
 10
-10.92310587565104
 20
-16.21709798177083
 30
0.0
 11
-10.98821818033854
 21
-15.84847276475694
 31
0.0
  0
LINE
  5
459
330
414
100
AcDbEntity
  8
ADP1DETAIL
 62
     7
100
AcDbLine
 10
-10.09766099717882
 20
-16.45274251302083
 30
0.0
 11
-10.46456366644965
 21
-16.52853461371527
 31
0.0
  0
LINE
  5
45A
330
414
100
AcDbEntity
  8
ADP1DETAIL
 62
     7
100
AcDbLine
 10
-10.46456366644965
 20
-16.52853461371527
 30
0.0
 11
-10.54035576714409
 21
-16.16128743489583
 31
0.0
  0
LINE
  5
45B
330
414
100
AcDbEntity
  8
ADP1DETAIL
 62
     7
100
AcDbLine
 10
5.942186821831596
 20
-17.99201117621527
 30
0.0
 11
5.934952121310763
 21
-17.97134060329861
 31
0.0
  0
SPLINE
  5
45C
330
414
100
AcDbEntity
  8
ADP1DETAIL
 62
     7
100
AcDbSpline
210
0.0
220
0.0
230
1.0
 70
     8
 71
     3
 72
     8
 73
     4
 74
     0
 42
0.0000000001
 43
0.0000000001
 40
0.0
 40
0.0
 40
0.0
 40
0.0
 40
1.0
 40
1.0
 40
1.0
 40
1.0
 10
6.321147325303819
 20
-17.13969455295138
 30
0.0
 10
5.990418158637152
 20
-17.26854112413194
 30
0.0
 10
5.820230441623263
 20
-17.63509928385416
 30
0.0
 10
5.934952121310763
 20
-17.97134060329861
 30
0.0
  0
LINE
  5
45D
330
414
100
AcDbEntity
  8
ADP1DETAIL
 62
     7
100
AcDbLine
 10
-12.24843410915798
 20
13.9805419921875
 30
0.0
 11
-11.87515801323784
 21
13.94781358506944
 31
0.0
  0
LINE
  5
45E
330
414
100
AcDbEntity
  8
ADP1DETAIL
 62
     7
100
AcDbLine
 10
-12.24843410915798
 20
13.9805419921875
 30
0.0
 11
-11.87515801323784
 21
13.94781358506944
 31
0.0
  0
LINE
  5
45F
330
414
100
AcDbEntity
  8
ADP1DETAIL
 62
     7
100
AcDbLine
 10
-14.56336602105034
 20
11.25857204861111
 30
0.0
 11
-14.5960944281684
 21
11.63167588975694
 31
0.0
  0
LINE
  5
460
330
414
100
AcDbEntity
  8
ADP1DETAIL
 62
     7
100
AcDbLine
 10
-18.62582261827257
 20
1.846226671006944
 30
0.0
 11
-18.84958157009548
 21
2.146638997395833
 31
0.0
  0
LINE
  5
461
330
414
100
AcDbEntity
  8
ADP1DETAIL
 62
     7
100
AcDbLine
 10
-18.76000908745659
 20
-3.922241210937499
 30
0.0
 11
-18.54503512912326
 21
-3.614938693576388
 31
0.0
  0
LINE
  5
462
330
414
100
AcDbEntity
  8
ADP1DETAIL
 62
     7
100
AcDbLine
 10
-18.45305107964409
 20
-4.137215169270833
 30
0.0
 11
-18.76000908745659
 21
-3.922241210937499
 31
0.0
  0
LINE
  5
463
330
414
100
AcDbEntity
  8
ADP1DETAIL
 62
     7
100
AcDbLine
 10
-18.34246351453993
 20
-4.671893988715277
 30
0.0
 11
-18.65579494900173
 21
-4.466566297743055
 31
0.0
  0
LINE
  5
464
330
414
100
AcDbEntity
  8
ADP1DETAIL
 62
     7
100
AcDbLine
 10
-18.65579494900173
 20
-4.466566297743055
 30
0.0
 11
-18.44977823893229
 21
-4.153062608506943
 31
0.0
  0
LINE
  5
465
330
414
100
AcDbEntity
  8
ADP1DETAIL
 62
     7
100
AcDbLine
 10
-18.21671752929687
 20
-5.203816731770833
 30
0.0
 11
-18.53556111653645
 21
-5.007446289062499
 31
0.0
  0
LINE
  5
466
330
414
100
AcDbEntity
  8
ADP1DETAIL
 62
     7
100
AcDbLine
 10
-18.53556111653645
 20
-5.007446289062499
 30
0.0
 11
-18.33884616427951
 21
-4.68843044704861
 31
0.0
  0
LINE
  5
467
330
414
100
AcDbEntity
  8
ADP1DETAIL
 62
     7
100
AcDbLine
 10
-18.07529635959201
 20
-5.732294379340276
 30
0.0
 11
-18.39982435438368
 21
-5.54419216579861
 31
0.0
  0
LINE
  5
468
330
414
100
AcDbEntity
  8
ADP1DETAIL
 62
     7
100
AcDbLine
 10
-18.39982435438368
 20
-5.54419216579861
 30
0.0
 11
-18.21241115993923
 21
-5.219664171006943
 31
0.0
  0
LINE
  5
469
330
414
100
AcDbEntity
  8
ADP1DETAIL
 62
     7
100
AcDbLine
 10
-17.91871676974826
 20
-6.255259874131944
 30
0.0
 11
-18.2485846625434
 21
-6.07749294704861
 31
0.0
  0
LINE
  5
46A
330
414
100
AcDbEntity
  8
ADP1DETAIL
 62
     7
100
AcDbLine
 10
-18.2485846625434
 20
-6.07749294704861
 30
0.0
 11
-18.07064548068576
 21
-5.748141818576388
 31
0.0
  0
LINE
  5
46B
330
414
100
AcDbEntity
  8
ADP1DETAIL
 62
     7
100
AcDbLine
 10
-17.74680650499132
 20
-6.774091254340277
 30
0.0
 11
-18.08184204101562
 21
-6.605970594618055
 31
0.0
  0
LINE
  5
46C
330
414
100
AcDbEntity
  8
ADP1DETAIL
 62
     7
100
AcDbLine
 10
-17.89976874457465
 20
-7.129625108506943
 30
0.0
 11
-17.74146660698784
 21
-6.789938693576388
 31
0.0
  0
LINE
  5
46D
330
414
100
AcDbEntity
  8
ADP1DETAIL
 62
     7
100
AcDbLine
 10
-18.08184204101562
 20
-6.605970594618055
 30
0.0
 11
-17.9137213812934
 21
-6.271107313368054
 31
0.0
  0
LINE
  5
46E
330
414
100
AcDbEntity
  8
ADP1DETAIL
 62
     7
100
AcDbLine
 10
-18.68938462999131
 20
1.303279622395833
 30
0.0
 11
-18.92175632052951
 21
1.597490776909722
 31
0.0
  0
LINE
  5
46F
330
414
100
AcDbEntity
  8
ADP1DETAIL
 62
     7
100
AcDbLine
 10
-18.92175632052951
 20
1.597490776909722
 30
0.0
 11
-18.62788967556423
 21
1.829690212673611
 31
0.0
  0
LINE
  5
470
330
414
100
AcDbEntity
  8
ADP1DETAIL
 62
     7
100
AcDbLine
 10
-18.73709920247395
 20
0.7589545355902777
 30
0.0
 11
-18.97791137695312
 21
1.046275499131944
 31
0.0
  0
LINE
  5
471
330
414
100
AcDbEntity
  8
ADP1DETAIL
 62
     7
100
AcDbLine
 10
-18.97791137695312
 20
1.046275499131944
 30
0.0
 11
-18.69093492296007
 21
1.286743164062499
 31
0.0
  0
LINE
  5
472
330
414
100
AcDbEntity
  8
ADP1DETAIL
 62
     7
100
AcDbLine
 10
-18.76896633572048
 20
0.2132514105902778
 30
0.0
 11
-19.01804673936632
 21
0.4936821831597222
 31
0.0
  0
LINE
  5
473
330
414
100
AcDbEntity
  8
ADP1DETAIL
 62
     7
100
AcDbLine
 10
-19.01804673936632
 20
0.4936821831597222
 30
0.0
 11
-18.73813273111979
 21
0.7424180772569445
 31
0.0
  0
LINE
  5
474
330
414
100
AcDbEntity
  8
ADP1DETAIL
 62
     7
100
AcDbLine
 10
-18.7849860297309
 20
-0.3324517144097222
 30
0.0
 11
-19.04216240776909
 21
-0.0602891710069445
 31
0.0
  0
LINE
  5
475
330
414
100
AcDbEntity
  8
ADP1DETAIL
 62
     7
100
AcDbLine
 10
-18.7849860297309
 20
-0.8788438585069442
 30
0.0
 11
-19.05008612738715
 21
-0.6142605251736111
 31
0.0
  0
LINE
  5
476
330
414
100
AcDbEntity
  8
ADP1DETAIL
 62
     7
100
AcDbLine
 10
-19.05008612738715
 20
-0.6142605251736111
 30
0.0
 11
-18.7849860297309
 21
-0.3489881727430555
 31
0.0
  0
LINE
  5
477
330
414
100
AcDbEntity
  8
ADP1DETAIL
 62
     7
100
AcDbLine
 10
-18.7694831000434
 20
-1.425236002604166
 30
0.0
 11
-19.04199015299479
 21
-1.168231879340277
 31
0.0
  0
LINE
  5
478
330
414
100
AcDbEntity
  8
ADP1DETAIL
 62
     7
100
AcDbLine
 10
-19.04199015299479
 20
-1.168231879340277
 30
0.0
 11
-18.78481377495659
 21
-0.8953803168402776
 31
0.0
  0
LINE
  5
479
330
414
100
AcDbEntity
  8
ADP1DETAIL
 62
     7
100
AcDbLine
 10
-18.73761596679687
 20
-1.970939127604166
 30
0.0
 11
-19.0175299750434
 21
-1.722203233506944
 31
0.0
  0
LINE
  5
47A
330
414
100
AcDbEntity
  8
ADP1DETAIL
 62
     7
100
AcDbLine
 10
-19.0175299750434
 20
-1.722203233506944
 30
0.0
 11
-18.76844957139757
 21
-1.441772460937499
 31
0.0
  0
LINE
  5
47B
330
414
100
AcDbEntity
  8
ADP1DETAIL
 62
     7
100
AcDbLine
 10
-18.69024590386284
 20
-2.515264214409722
 30
0.0
 11
-18.9772223578559
 21
-2.274796549479166
 31
0.0
  0
LINE
  5
47C
330
414
100
AcDbEntity
  8
ADP1DETAIL
 62
     7
100
AcDbLine
 10
-18.9772223578559
 20
-2.274796549479166
 30
0.0
 11
-18.73623792860243
 21
-1.987475585937499
 31
0.0
  0
LINE
  5
47D
330
414
100
AcDbEntity
  8
ADP1DETAIL
 62
     7
100
AcDbLine
 10
-18.6268561469184
 20
-3.058211263020833
 30
0.0
 11
-18.92072279188368
 21
-2.826011827256944
 31
0.0
  0
LINE
  5
47E
330
414
100
AcDbEntity
  8
ADP1DETAIL
 62
     7
100
AcDbLine
 10
-18.92072279188368
 20
-2.826011827256944
 30
0.0
 11
-18.68835110134548
 21
-2.531800672743055
 31
0.0
  0
LINE
  5
47F
330
414
100
AcDbEntity
  8
ADP1DETAIL
 62
     7
100
AcDbLine
 10
-18.54761895073784
 20
-3.599091254340277
 30
0.0
 11
-18.84820353190104
 21
-3.375160047743055
 31
0.0
  0
LINE
  5
480
330
414
100
AcDbEntity
  8
ADP1DETAIL
 62
     7
100
AcDbLine
 10
-18.84820353190104
 20
-3.375160047743055
 30
0.0
 11
-18.62444458007812
 21
-3.074747721354166
 31
0.0
  0
LINE
  5
481
330
414
100
AcDbEntity
  8
ADP1DETAIL
 62
     7
100
AcDbLine
 10
-18.45305107964409
 20
-4.137215169270833
 30
0.0
 11
-18.76000908745659
 21
-3.922241210937499
 31
0.0
  0
LINE
  5
482
330
414
100
AcDbEntity
  8
ADP1DETAIL
 62
     7
100
AcDbLine
 10
-18.76000908745659
 20
-3.922241210937499
 30
0.0
 11
-18.54503512912326
 21
-3.614938693576388
 31
0.0
  0
LINE
  5
483
330
414
100
AcDbEntity
  8
ADP1DETAIL
 62
     7
100
AcDbLine
 10
-19.04216240776909
 20
-0.0602891710069445
 30
0.0
 11
-18.76965535481771
 21
0.1974039713541666
 31
0.0
  0
LINE
  5
484
330
414
100
AcDbEntity
  8
ADP1DETAIL
 62
     7
100
AcDbLine
 10
-16.76994967990451
 20
8.427392578124999
 30
0.0
 11
-16.41114298502604
 21
8.534879557291665
 31
0.0
  0
LINE
  5
485
330
414
100
AcDbEntity
  8
ADP1DETAIL
 62
     7
100
AcDbLine
 10
-18.76155938042534
 20
2.693720160590277
 30
0.0
 11
-18.45442911783854
 21
2.90869411892361
 31
0.0
  0
LINE
  5
486
330
414
100
AcDbEntity
  8
ADP1DETAIL
 62
     7
100
AcDbLine
 10
-18.54658542209201
 20
2.387106662326388
 30
0.0
 11
-18.76155938042534
 21
2.693720160590277
 31
0.0
  0
LINE
  5
487
330
414
100
AcDbEntity
  8
ADP1DETAIL
 62
     7
100
AcDbLine
 10
-18.84958157009548
 20
2.146638997395833
 30
0.0
 11
-18.54899698893229
 21
2.370570203993055
 31
0.0
  0
LINE
  5
488
330
414
100
AcDbEntity
  8
ADP1DETAIL
 62
     7
100
AcDbLine
 10
-16.66263495551215
 20
8.068413628472221
 30
0.0
 11
-16.76994967990451
 21
8.427392578124999
 31
0.0
  0
LINE
  5
489
330
414
100
AcDbEntity
  8
ADP1DETAIL
 62
     7
100
AcDbLine
 10
-16.90792575412326
 20
7.580243598090277
 30
0.0
 11
-17.02574801974826
 21
7.935777452256943
 31
0.0
  0
LINE
  5
48A
330
414
100
AcDbEntity
  8
ADP1DETAIL
 62
     7
100
AcDbLine
 10
-17.02574801974826
 20
7.935777452256943
 30
0.0
 11
-16.67021416558159
 21
8.053599717881944
 31
0.0
  0
LINE
  5
48B
330
414
100
AcDbEntity
  8
ADP1DETAIL
 62
     7
100
AcDbLine
 10
-17.13891940646701
 20
7.084838867187499
 30
0.0
 11
-17.26707695855034
 21
7.436927625868055
 31
0.0
  0
LINE
  5
48C
330
414
100
AcDbEntity
  8
ADP1DETAIL
 62
     7
100
AcDbLine
 10
-17.26707695855034
 20
7.436927625868055
 30
0.0
 11
-16.91498819986979
 21
7.565085177951388
 31
0.0
  0
LINE
  5
48D
330
414
100
AcDbEntity
  8
ADP1DETAIL
 62
     7
100
AcDbLine
 10
-17.3554436577691
 20
6.583232964409721
 30
0.0
 11
-17.49393649631076
 21
6.931532118055555
 31
0.0
  0
LINE
  5
48E
330
414
100
AcDbEntity
  8
ADP1DETAIL
 62
     7
100
AcDbLine
 10
-17.49393649631076
 20
6.931532118055555
 30
0.0
 11
-17.14563734266493
 21
7.06968044704861
 31
0.0
  0
LINE
  5
48F
330
414
100
AcDbEntity
  8
ADP1DETAIL
 62
     7
100
AcDbLine
 10
-17.5573262532552
 20
6.075425889756943
 30
0.0
 11
-17.70580986870659
 21
6.419246419270832
 31
0.0
  0
LINE
  5
490
330
414
100
AcDbEntity
  8
ADP1DETAIL
 62
     7
100
AcDbLine
 10
-17.74439493815104
 20
5.562106662326388
 30
0.0
 11
-17.90269707573784
 21
5.901793077256943
 31
0.0
  0
LINE
  5
491
330
414
100
AcDbEntity
  8
ADP1DETAIL
 62
     7
100
AcDbLine
 10
-17.90269707573784
 20
5.901793077256943
 30
0.0
 11
-17.56318291558159
 21
6.059922960069443
 31
0.0
  0
LINE
  5
492
330
414
100
AcDbEntity
  8
ADP1DETAIL
 62
     7
100
AcDbLine
 10
-17.91630520290798
 20
5.043275282118055
 30
0.0
 11
-18.08459811740451
 21
5.378138563368055
 31
0.0
  0
LINE
  5
493
330
414
100
AcDbEntity
  8
ADP1DETAIL
 62
     7
100
AcDbLine
 10
-18.08459811740451
 20
5.378138563368055
 30
0.0
 11
-17.74973483615451
 21
5.546259223090276
 31
0.0
  0
LINE
  5
494
330
414
100
AcDbEntity
  8
ADP1DETAIL
 62
     7
100
AcDbLine
 10
-18.07322930230034
 20
4.519620768229166
 30
0.0
 11
-18.25099622938368
 21
4.84966091579861
 31
0.0
  0
LINE
  5
495
330
414
100
AcDbEntity
  8
ADP1DETAIL
 62
     7
100
AcDbLine
 10
-18.25099622938368
 20
4.84966091579861
 30
0.0
 11
-17.92112833658854
 21
5.027427842881944
 31
0.0
  0
LINE
  5
496
330
414
100
AcDbEntity
  8
ADP1DETAIL
 62
     7
100
AcDbLine
 10
-18.2146504720052
 20
3.991832139756944
 30
0.0
 11
-18.40223592122395
 21
4.31636013454861
 31
0.0
  0
LINE
  5
497
330
414
100
AcDbEntity
  8
ADP1DETAIL
 62
     7
100
AcDbLine
 10
-18.40223592122395
 20
4.31636013454861
 30
0.0
 11
-18.07753567165798
 21
4.503773328993054
 31
0.0
  0
LINE
  5
498
330
414
100
AcDbEntity
  8
ADP1DETAIL
 62
     7
100
AcDbLine
 10
-18.34091322157117
 20
3.46059841579861
 30
0.0
 11
-18.53745591905382
 21
3.778925238715277
 31
0.0
  0
LINE
  5
499
330
414
100
AcDbEntity
  8
ADP1DETAIL
 62
     7
100
AcDbLine
 10
-18.53745591905382
 20
3.778925238715277
 30
0.0
 11
-18.21861233181423
 21
3.975984700520832
 31
0.0
  0
LINE
  5
49A
330
414
100
AcDbEntity
  8
ADP1DETAIL
 62
     7
100
AcDbLine
 10
-18.45150078667534
 20
2.925230577256943
 30
0.0
 11
-18.65734524197048
 21
3.238045247395833
 31
0.0
  0
LINE
  5
49B
330
414
100
AcDbEntity
  8
ADP1DETAIL
 62
     7
100
AcDbLine
 10
-18.65734524197048
 20
3.238045247395833
 30
0.0
 11
-18.34435831705729
 21
3.444061957465277
 31
0.0
  0
LINE
  5
49C
330
414
100
AcDbEntity
  8
ADP1DETAIL
 62
     7
100
AcDbLine
 10
-18.54658542209201
 20
2.387106662326388
 30
0.0
 11
-18.76155938042534
 21
2.693720160590277
 31
0.0
  0
LINE
  5
49D
330
414
100
AcDbEntity
  8
ADP1DETAIL
 62
     7
100
AcDbLine
 10
-18.76155938042534
 20
2.693720160590277
 30
0.0
 11
-18.45442911783854
 21
2.90869411892361
 31
0.0
  0
LINE
  5
49E
330
414
100
AcDbEntity
  8
ADP1DETAIL
 62
     7
100
AcDbLine
 10
-17.70580986870659
 20
6.419246419270832
 30
0.0
 11
-17.3618170844184
 21
6.567730034722221
 31
0.0
  0
LINE
  5
49F
330
414
100
AcDbEntity
  8
ADP1DETAIL
 62
     7
100
AcDbLine
 10
-16.5000264485677
 20
8.91142849392361
 30
0.0
 11
-16.13811916775173
 21
9.008580186631943
 31
0.0
  0
LINE
  5
4A0
330
414
100
AcDbEntity
  8
ADP1DETAIL
 62
     7
100
AcDbLine
 10
-16.40304701063367
 20
8.549348958333332
 30
0.0
 11
-16.5000264485677
 21
8.91142849392361
 31
0.0
  0
LINE
  5
4A1
330
414
100
AcDbEntity
  8
ADP1DETAIL
 62
     7
100
AcDbLine
 10
-14.90236341688368
 20
10.83000217013889
 30
0.0
 11
-14.94577162000868
 21
11.20207248263889
 31
0.0
  0
LINE
  5
4A2
330
414
100
AcDbEntity
  8
ADP1DETAIL
 62
     7
100
AcDbLine
 10
-14.94577162000868
 20
11.20207248263889
 30
0.0
 11
-14.57370130750868
 21
11.2458251953125
 31
0.0
  0
LINE
  5
4A3
330
414
100
AcDbEntity
  8
ADP1DETAIL
 62
     7
100
AcDbLine
 10
-15.22878621419271
 20
10.39178602430555
 30
0.0
 11
-15.28321872287326
 21
10.76282280815972
 31
0.0
  0
LINE
  5
4A4
330
414
100
AcDbEntity
  8
ADP1DETAIL
 62
     7
100
AcDbLine
 10
-15.28321872287326
 20
10.76282280815972
 30
0.0
 11
-14.9123541937934
 21
10.81656629774305
 31
0.0
  0
LINE
  5
4A5
330
414
100
AcDbEntity
  8
ADP1DETAIL
 62
     7
100
AcDbLine
 10
-15.54228990342882
 20
9.944268120659721
 30
0.0
 11
-15.60757446289062
 21
10.31323784722222
 31
0.0
  0
LINE
  5
4A6
330
414
100
AcDbEntity
  8
ADP1DETAIL
 62
     7
100
AcDbLine
 10
-15.60757446289062
 20
10.31323784722222
 30
0.0
 11
-15.23843248155382
 21
10.37835015190972
 31
0.0
  0
LINE
  5
4A7
330
414
100
AcDbEntity
  8
ADP1DETAIL
 62
     7
100
AcDbLine
 10
-15.84287448459201
 20
9.487448459201388
 30
0.0
 11
-15.91849433051215
 21
9.854695638020832
 31
0.0
  0
LINE
  5
4A8
330
414
100
AcDbEntity
  8
ADP1DETAIL
 62
     7
100
AcDbLine
 10
-15.91849433051215
 20
9.854695638020832
 30
0.0
 11
-15.55159166124132
 21
9.930487738715276
 31
0.0
  0
LINE
  5
4A9
330
414
100
AcDbEntity
  8
ADP1DETAIL
 62
     7
100
AcDbLine
 10
-16.12967868381076
 20
9.022705078125
 30
0.0
 11
-16.21615058051215
 21
9.387540690104165
 31
0.0
  0
LINE
  5
4AA
330
414
100
AcDbEntity
  8
ADP1DETAIL
 62
     7
100
AcDbLine
 10
-16.21615058051215
 20
9.387540690104165
 30
0.0
 11
-15.85148722330729
 21
9.473668077256943
 31
0.0
  0
LINE
  5
4AB
330
414
100
AcDbEntity
  8
ADP1DETAIL
 62
     7
100
AcDbLine
 10
-16.40304701063367
 20
8.549348958333332
 30
0.0
 11
-16.5000264485677
 21
8.91142849392361
 31
0.0
  0
LINE
  5
4AC
330
414
100
AcDbEntity
  8
ADP1DETAIL
 62
     7
100
AcDbLine
 10
-16.5000264485677
 20
8.91142849392361
 30
0.0
 11
-16.13811916775173
 21
9.008580186631943
 31
0.0
  0
LINE
  5
4AD
330
414
100
AcDbEntity
  8
ADP1DETAIL
 62
     7
100
AcDbLine
 10
-12.28116251627604
 20
13.60709364149305
 30
0.0
 11
-12.24843410915798
 21
13.9805419921875
 31
0.0
  0
LINE
  5
4AE
330
414
100
AcDbEntity
  8
ADP1DETAIL
 62
     7
100
AcDbLine
 10
-12.68957858615451
 20
13.24398057725694
 30
0.0
 11
-12.6677022298177
 21
13.61811794704861
 31
0.0
  0
LINE
  5
4AF
330
414
100
AcDbEntity
  8
ADP1DETAIL
 62
     7
100
AcDbLine
 10
-12.6677022298177
 20
13.61811794704861
 30
0.0
 11
-12.29373711480034
 21
13.5960693359375
 31
0.0
  0
LINE
  5
4B0
330
414
100
AcDbEntity
  8
ADP1DETAIL
 62
     7
100
AcDbLine
 10
-13.08714260525173
 20
12.86915418836805
 30
0.0
 11
-13.07611829969618
 21
13.24363606770833
 31
0.0
  0
LINE
  5
4B1
330
414
100
AcDbEntity
  8
ADP1DETAIL
 62
     7
100
AcDbLine
 10
-13.07611829969618
 20
13.24363606770833
 30
0.0
 11
-12.7016364203559
 21
13.23295627170139
 31
0.0
  0
LINE
  5
4B2
330
414
100
AcDbEntity
  8
ADP1DETAIL
 62
     7
100
AcDbLine
 10
-13.4735100640191
 20
12.48261447482639
 30
0.0
 11
-13.4735100640191
 21
12.85744086371527
 31
0.0
  0
LINE
  5
4B3
330
414
100
AcDbEntity
  8
ADP1DETAIL
 62
     7
100
AcDbLine
 10
-13.4735100640191
 20
12.85744086371527
 30
0.0
 11
-13.09885592990451
 21
12.85744086371527
 31
0.0
  0
LINE
  5
4B4
330
414
100
AcDbEntity
  8
ADP1DETAIL
 62
     7
100
AcDbLine
 10
-13.84868096245659
 20
12.08539496527778
 30
0.0
 11
-13.85953301323784
 21
12.45987684461805
 31
0.0
  0
LINE
  5
4B5
330
414
100
AcDbEntity
  8
ADP1DETAIL
 62
     7
100
AcDbLine
 10
-13.85953301323784
 20
12.45987684461805
 30
0.0
 11
-13.48505113389757
 21
12.47090115017361
 31
0.0
  0
LINE
  5
4B6
330
414
100
AcDbEntity
  8
ADP1DETAIL
 62
     7
100
AcDbLine
 10
-14.21213853624132
 20
11.67715115017361
 30
0.0
 11
-14.23384263780382
 21
12.05128851996527
 31
0.0
  0
LINE
  5
4B7
330
414
100
AcDbEntity
  8
ADP1DETAIL
 62
     7
100
AcDbLine
 10
-14.5960944281684
 20
11.63167588975694
 30
0.0
 11
-14.22281833224826
 21
11.66474880642361
 31
0.0
  0
LINE
  5
4B8
330
414
100
AcDbEntity
  8
ADP1DETAIL
 62
     7
100
AcDbLine
 10
-14.23384263780382
 20
12.05128851996527
 30
0.0
 11
-13.85970526801215
 21
12.07299262152777
 31
0.0
  0
LINE
  5
4B9
330
414
100
AcDbEntity
  8
ADP1DETAIL
 62
     7
100
AcDbLine
 10
-12.28116251627604
 20
13.60709364149305
 30
0.0
 11
-12.24843410915798
 21
13.9805419921875
 31
0.0
  0
LINE
  5
4BA
330
414
100
AcDbEntity
  8
ADP1DETAIL
 62
     7
100
AcDbLine
 10
-2.765292019314236
 20
18.23833550347222
 30
0.0
 11
-2.464707438151041
 21
18.01474880642361
 31
0.0
  0
LINE
  5
4BB
330
414
100
AcDbEntity
  8
ADP1DETAIL
 62
     7
100
AcDbLine
 10
-7.54932386610243
 20
16.88062337239583
 30
0.0
 11
-7.201196967230901
 21
16.74213053385416
 31
0.0
  0
LINE
  5
4BC
330
414
100
AcDbEntity
  8
ADP1DETAIL
 62
     7
100
AcDbLine
 10
-7.687816704644096
 20
16.53197970920138
 30
0.0
 11
-7.54932386610243
 21
16.88062337239583
 31
0.0
  0
LINE
  5
4BD
330
414
100
AcDbEntity
  8
ADP1DETAIL
 62
     7
100
AcDbLine
 10
-8.183049180772568
 20
16.30115831163194
 30
0.0
 11
-8.055063883463541
 21
16.6532470703125
 31
0.0
  0
LINE
  5
4BE
330
414
100
AcDbEntity
  8
ADP1DETAIL
 62
     7
100
AcDbLine
 10
-8.055063883463541
 20
16.6532470703125
 30
0.0
 11
-7.702802870008679
 21
16.52508951822916
 31
0.0
  0
LINE
  5
4BF
330
414
100
AcDbEntity
  8
ADP1DETAIL
 62
     7
100
AcDbLine
 10
-8.671563720703124
 20
16.05621202256944
 30
0.0
 11
-8.553741455078125
 21
16.41209038628472
 31
0.0
  0
LINE
  5
4C0
330
414
100
AcDbEntity
  8
ADP1DETAIL
 62
     7
100
AcDbLine
 10
-8.553741455078125
 20
16.41209038628472
 30
0.0
 11
-8.197863091362846
 21
16.29426812065972
 31
0.0
  0
LINE
  5
4C1
330
414
100
AcDbEntity
  8
ADP1DETAIL
 62
     7
100
AcDbLine
 10
-9.152499050564236
 20
15.79679633246527
 30
0.0
 11
-9.045184326171874
 21
16.15577528211805
 31
0.0
  0
LINE
  5
4C2
330
414
100
AcDbEntity
  8
ADP1DETAIL
 62
     7
100
AcDbLine
 10
-9.625855170355901
 20
15.52394476996527
 30
0.0
 11
-9.528875732421873
 21
15.88567979600694
 31
0.0
  0
LINE
  5
4C3
330
414
100
AcDbEntity
  8
ADP1DETAIL
 62
     7
100
AcDbLine
 10
-9.528875732421873
 20
15.88567979600694
 30
0.0
 11
-9.166968451605901
 21
15.78852810329861
 31
0.0
  0
LINE
  5
4C4
330
414
100
AcDbEntity
  8
ADP1DETAIL
 62
     7
100
AcDbLine
 10
-10.09111531575521
 20
15.23731282552083
 30
0.0
 11
-10.00464341905382
 21
15.60180392795138
 31
0.0
  0
LINE
  5
4C5
330
414
100
AcDbEntity
  8
ADP1DETAIL
 62
     7
100
AcDbLine
 10
-10.00464341905382
 20
15.60180392795138
 30
0.0
 11
-9.639980061848957
 21
15.51498752170139
 31
0.0
  0
LINE
  5
4C6
330
414
100
AcDbEntity
  8
ADP1DETAIL
 62
     7
100
AcDbLine
 10
-10.54776272243923
 20
14.93690049913194
 30
0.0
 11
-10.47179836697048
 21
15.30380316840277
 31
0.0
  0
LINE
  5
4C7
330
414
100
AcDbEntity
  8
ADP1DETAIL
 62
     7
100
AcDbLine
 10
-10.47179836697048
 20
15.30380316840277
 30
0.0
 11
-10.10489569769965
 21
15.22801106770833
 31
0.0
  0
LINE
  5
4C8
330
414
100
AcDbEntity
  8
ADP1DETAIL
 62
     7
100
AcDbLine
 10
-10.99528062608507
 20
14.62339680989583
 30
0.0
 11
-10.93016832139757
 21
14.99236653645833
 31
0.0
  0
LINE
  5
4C9
330
414
100
AcDbEntity
  8
ADP1DETAIL
 62
     7
100
AcDbLine
 10
-10.93016832139757
 20
14.99236653645833
 30
0.0
 11
-10.56119859483507
 21
14.92725423177083
 31
0.0
  0
LINE
  5
4CA
330
414
100
AcDbEntity
  8
ADP1DETAIL
 62
     7
100
AcDbLine
 10
-11.43384128146701
 20
14.29714626736111
 30
0.0
 11
-11.37940877278645
 21
14.66818305121527
 31
0.0
  0
LINE
  5
4CB
330
414
100
AcDbEntity
  8
ADP1DETAIL
 62
     7
100
AcDbLine
 10
-11.37940877278645
 20
14.66818305121527
 30
0.0
 11
-11.0087164984809
 21
14.61375054253472
 31
0.0
  0
LINE
  5
4CC
330
414
100
AcDbEntity
  8
ADP1DETAIL
 62
     7
100
AcDbLine
 10
-11.86258341471354
 20
13.95849338107639
 30
0.0
 11
-11.81900295681423
 21
14.33056369357639
 31
0.0
  0
LINE
  5
4CD
330
414
100
AcDbEntity
  8
ADP1DETAIL
 62
     7
100
AcDbLine
 10
-11.81900295681423
 20
14.33056369357639
 30
0.0
 11
-11.44676038953993
 21
14.28715549045139
 31
0.0
  0
LINE
  5
4CE
330
414
100
AcDbEntity
  8
ADP1DETAIL
 62
     7
100
AcDbLine
 10
-9.045184326171874
 20
16.15577528211805
 30
0.0
 11
-8.686205376519096
 21
16.04828830295138
 31
0.0
  0
LINE
  5
4CF
330
414
100
AcDbEntity
  8
ADP1DETAIL
 62
     7
100
AcDbLine
 10
-6.519757080078124
 20
17.28990071614583
 30
0.0
 11
-6.180070665147568
 21
17.13142632378472
 31
0.0
  0
LINE
  5
4D0
330
414
100
AcDbEntity
  8
ADP1DETAIL
 62
     7
100
AcDbLine
 10
-6.678059217664929
 20
16.95021430121527
 30
0.0
 11
-6.519757080078124
 21
17.28990071614583
 31
0.0
  0
LINE
  5
4D1
330
414
100
AcDbEntity
  8
ADP1DETAIL
 62
     7
100
AcDbLine
 10
-7.185866292317707
 20
16.74833170572916
 30
0.0
 11
-7.037554931640624
 21
17.09284125434027
 31
0.0
  0
LINE
  5
4D2
330
414
100
AcDbEntity
  8
ADP1DETAIL
 62
     7
100
AcDbLine
 10
-7.037554931640624
 20
17.09284125434027
 30
0.0
 11
-6.693389892578124
 21
16.94401312934028
 31
0.0
  0
LINE
  5
4D3
330
414
100
AcDbEntity
  8
ADP1DETAIL
 62
     7
100
AcDbLine
 10
-6.519757080078124
 20
17.28990071614583
 30
0.0
 11
-6.180070665147568
 21
17.13142632378472
 31
0.0
  0
LINE
  5
4D4
330
414
100
AcDbEntity
  8
ADP1DETAIL
 62
     7
100
AcDbLine
 10
-6.678059217664929
 20
16.95021430121527
 30
0.0
 11
-6.519757080078124
 21
17.28990071614583
 31
0.0
  0
LINE
  5
4D5
330
414
100
AcDbEntity
  8
ADP1DETAIL
 62
     7
100
AcDbLine
 10
-5.996447075737846
 20
17.4718017578125
 30
0.0
 11
-5.66141153971354
 21
17.30368109809027
 31
0.0
  0
LINE
  5
4D6
330
414
100
AcDbEntity
  8
ADP1DETAIL
 62
     7
100
AcDbLine
 10
-6.164395480685763
 20
17.1369384765625
 30
0.0
 11
-5.996447075737846
 21
17.4718017578125
 31
0.0
  0
LINE
  5
4D7
330
414
100
AcDbEntity
  8
ADP1DETAIL
 62
     7
100
AcDbLine
 10
-5.467797173394096
 20
17.63854437934028
 30
0.0
 11
-5.137929280598958
 21
17.46077745225694
 31
0.0
  0
LINE
  5
4D8
330
414
100
AcDbEntity
  8
ADP1DETAIL
 62
     7
100
AcDbLine
 10
-5.645736355251735
 20
17.30850423177083
 30
0.0
 11
-5.467797173394096
 21
17.63854437934028
 31
0.0
  0
LINE
  5
4D9
330
414
100
AcDbEntity
  8
ADP1DETAIL
 62
     7
100
AcDbLine
 10
-4.934840901692707
 20
17.79012858072916
 30
0.0
 11
-4.61031290690104
 21
17.60271538628472
 31
0.0
  0
LINE
  5
4DA
330
414
100
AcDbEntity
  8
ADP1DETAIL
 62
     7
100
AcDbLine
 10
-5.122254096137152
 20
17.4656005859375
 30
0.0
 11
-4.934840901692707
 21
17.79012858072916
 31
0.0
  0
LINE
  5
4DB
330
414
100
AcDbEntity
  8
ADP1DETAIL
 62
     7
100
AcDbLine
 10
-4.39757826063368
 20
17.92586534288194
 30
0.0
 11
-4.078562418619791
 21
17.72880588107638
 31
0.0
  0
LINE
  5
4DC
330
414
100
AcDbEntity
  8
ADP1DETAIL
 62
     7
100
AcDbLine
 10
-4.594293212890624
 20
17.60684950086805
 30
0.0
 11
-4.39757826063368
 21
17.92586534288194
 31
0.0
  0
LINE
  5
4DD
330
414
100
AcDbEntity
  8
ADP1DETAIL
 62
     7
100
AcDbLine
 10
-3.856698269314235
 20
18.0457546657986
 30
0.0
 11
-3.543539089626735
 21
17.83973795572916
 31
0.0
  0
LINE
  5
4DE
330
414
100
AcDbEntity
  8
ADP1DETAIL
 62
     7
100
AcDbLine
 10
-4.062542724609374
 20
17.73259548611111
 30
0.0
 11
-3.856698269314235
 21
18.0457546657986
 31
0.0
  0
LINE
  5
4DF
330
414
100
AcDbEntity
  8
ADP1DETAIL
 62
     7
100
AcDbLine
 10
-3.31237318250868
 20
18.14979654947916
 30
0.0
 11
-3.00541517469618
 21
17.93482259114583
 31
0.0
  0
LINE
  5
4E0
330
414
100
AcDbEntity
  8
ADP1DETAIL
 62
     7
100
AcDbLine
 10
-3.527347140842013
 20
17.84318305121528
 30
0.0
 11
-3.31237318250868
 21
18.14979654947916
 31
0.0
  0
LINE
  5
4E1
330
414
100
AcDbEntity
  8
ADP1DETAIL
 62
     7
100
AcDbLine
 10
-2.989223225911457
 20
17.93757866753472
 30
0.0
 11
-2.765292019314236
 21
18.23833550347222
 31
0.0
  0
LINE
  5
4E2
330
414
100
AcDbEntity
  8
ADP1DETAIL
 62
     7
100
AcDbLine
 10
1.913147650824652
 20
18.0795166015625
 30
0.0
 11
2.20701429578993
 21
18.31171603732639
 31
0.0
  0
LINE
  5
4E3
330
414
100
AcDbEntity
  8
ADP1DETAIL
 62
     7
100
AcDbLine
 10
1.368822564019097
 20
18.12705891927083
 30
0.0
 11
1.655971272786458
 21
18.36821560329861
 31
0.0
  0
LINE
  5
4E4
330
414
100
AcDbEntity
  8
ADP1DETAIL
 62
     7
100
AcDbLine
 10
1.655971272786458
 20
18.36821560329861
 30
0.0
 11
1.896611192491319
 21
18.08089463975694
 31
0.0
  0
LINE
  5
4E5
330
414
100
AcDbEntity
  8
ADP1DETAIL
 62
     7
100
AcDbLine
 10
0.8232916937934026
 20
18.15875379774305
 30
0.0
 11
1.10320570203993
 21
18.4081787109375
 31
0.0
  0
LINE
  5
4E6
330
414
100
AcDbEntity
  8
ADP1DETAIL
 62
     7
100
AcDbLine
 10
1.10320570203993
 20
18.4081787109375
 30
0.0
 11
1.352286105685763
 21
18.12843695746527
 31
0.0
  0
LINE
  5
4E7
330
414
100
AcDbEntity
  8
ADP1DETAIL
 62
     7
100
AcDbLine
 10
0.2770718044704861
 20
18.17529025607639
 30
0.0
 11
0.549578857421875
 21
18.43229437934027
 31
0.0
  0
LINE
  5
4E8
330
414
100
AcDbEntity
  8
ADP1DETAIL
 62
     7
100
AcDbLine
 10
0.549578857421875
 20
18.43229437934027
 30
0.0
 11
0.8067552354600692
 21
18.15944281684027
 31
0.0
  0
LINE
  5
4E9
330
414
100
AcDbEntity
  8
ADP1DETAIL
 62
     7
100
AcDbLine
 10
-0.2694925944010416
 20
18.17529025607639
 30
0.0
 11
-0.0043924967447917
 21
18.44021809895833
 31
0.0
  0
LINE
  5
4EA
330
414
100
AcDbEntity
  8
ADP1DETAIL
 62
     7
100
AcDbLine
 10
-0.0043924967447917
 20
18.44021809895833
 30
0.0
 11
0.2603630913628472
 21
18.17529025607639
 31
0.0
  0
LINE
  5
4EB
330
414
100
AcDbEntity
  8
ADP1DETAIL
 62
     7
100
AcDbLine
 10
-2.216143798828124
 20
18.31102701822916
 30
0.0
 11
-1.922104899088541
 21
18.07848307291666
 31
0.0
  0
LINE
  5
4EC
330
414
100
AcDbEntity
  8
ADP1DETAIL
 62
     7
100
AcDbLine
 10
-2.448343234592013
 20
18.01681586371527
 30
0.0
 11
-2.216143798828124
 21
18.31102701822916
 31
0.0
  0
LINE
  5
4ED
330
414
100
AcDbEntity
  8
ADP1DETAIL
 62
     7
100
AcDbLine
 10
-1.664756266276041
 20
18.36718207465278
 30
0.0
 11
-1.37760755750868
 21
18.12636990017361
 31
0.0
  0
LINE
  5
4EE
330
414
100
AcDbEntity
  8
ADP1DETAIL
 62
     7
100
AcDbLine
 10
-1.905740695529513
 20
18.08020562065972
 30
0.0
 11
-1.664756266276041
 21
18.36718207465278
 31
0.0
  0
LINE
  5
4EF
330
414
100
AcDbEntity
  8
ADP1DETAIL
 62
     7
100
AcDbLine
 10
-1.111990695529513
 20
18.40748969184027
 30
0.0
 11
-0.832076687282986
 21
18.15875379774305
 31
0.0
  0
LINE
  5
4F0
330
414
100
AcDbEntity
  8
ADP1DETAIL
 62
     7
100
AcDbLine
 10
-1.361243353949652
 20
18.12774793836805
 30
0.0
 11
-1.111990695529513
 21
18.40748969184027
 31
0.0
  0
LINE
  5
4F1
330
414
100
AcDbEntity
  8
ADP1DETAIL
 62
     7
100
AcDbLine
 10
-0.5585361056857639
 20
18.43194986979166
 30
0.0
 11
-0.286029052734375
 21
18.17460123697916
 31
0.0
  0
LINE
  5
4F2
330
414
100
AcDbEntity
  8
ADP1DETAIL
 62
     7
100
AcDbLine
 10
-0.8157124837239582
 20
18.15944281684027
 30
0.0
 11
-0.5585361056857639
 21
18.43194986979166
 31
0.0
  0
LINE
  5
4F3
330
414
100
AcDbEntity
  8
ADP1DETAIL
 62
     7
100
AcDbLine
 10
-0.2694925944010416
 20
18.17529025607639
 30
0.0
 11
-0.0043924967447917
 21
18.44021809895833
 31
0.0
  0
LINE
  5
4F4
330
414
100
AcDbEntity
  8
ADP1DETAIL
 62
     7
100
AcDbLine
 10
-0.0043924967447917
 20
18.44021809895833
 30
0.0
 11
0.2603630913628472
 21
18.17529025607639
 31
0.0
  0
LINE
  5
4F5
330
414
100
AcDbEntity
  8
ADP1DETAIL
 62
     7
100
AcDbLine
 10
6.511316596137151
 20
17.29265679253472
 30
0.0
 11
6.669790988498263
 21
16.95297037760416
 31
0.0
  0
LINE
  5
4F6
330
414
100
AcDbEntity
  8
ADP1DETAIL
 62
     7
100
AcDbLine
 10
6.171630181206596
 20
17.13418240017361
 30
0.0
 11
6.511316596137151
 21
17.29265679253472
 31
0.0
  0
LINE
  5
4F7
330
414
100
AcDbEntity
  8
ADP1DETAIL
 62
     7
100
AcDbLine
 10
5.652971055772568
 20
17.30643717447916
 30
0.0
 11
5.987834337022569
 21
17.47455783420139
 31
0.0
  0
LINE
  5
4F8
330
414
100
AcDbEntity
  8
ADP1DETAIL
 62
     7
100
AcDbLine
 10
5.987834337022569
 20
17.47455783420139
 30
0.0
 11
6.155954996744791
 21
17.13969455295138
 31
0.0
  0
LINE
  5
4F9
330
414
100
AcDbEntity
  8
ADP1DETAIL
 62
     7
100
AcDbLine
 10
5.129488796657986
 20
17.46353352864583
 30
0.0
 11
5.459356689453124
 21
17.64130045572916
 31
0.0
  0
LINE
  5
4FA
330
414
100
AcDbEntity
  8
ADP1DETAIL
 62
     7
100
AcDbLine
 10
5.459356689453124
 20
17.64130045572916
 30
0.0
 11
5.637295871310763
 21
17.31126030815972
 31
0.0
  0
LINE
  5
4FB
330
414
100
AcDbEntity
  8
ADP1DETAIL
 62
     7
100
AcDbLine
 10
4.601700168185763
 20
17.60478244357638
 30
0.0
 11
4.926228162977429
 21
17.79219563802083
 31
0.0
  0
LINE
  5
4FC
330
414
100
AcDbEntity
  8
ADP1DETAIL
 62
     7
100
AcDbLine
 10
4.926228162977429
 20
17.79219563802083
 30
0.0
 11
5.113469102647568
 21
17.46766764322916
 31
0.0
  0
LINE
  5
4FD
330
414
100
AcDbEntity
  8
ADP1DETAIL
 62
     7
100
AcDbLine
 10
4.069949679904513
 20
17.73087293836805
 30
0.0
 11
4.388965521918402
 21
17.92793240017361
 31
0.0
  0
LINE
  5
4FE
330
414
100
AcDbEntity
  8
ADP1DETAIL
 62
     7
100
AcDbLine
 10
4.388965521918402
 20
17.92793240017361
 30
0.0
 11
4.585508219401041
 21
17.60891655815972
 31
0.0
  0
LINE
  5
4FF
330
414
100
AcDbEntity
  8
ADP1DETAIL
 62
     7
100
AcDbLine
 10
3.534754096137152
 20
17.84180501302083
 30
0.0
 11
3.847741021050346
 21
18.04747721354166
 31
0.0
  0
LINE
  5
500
330
414
100
AcDbEntity
  8
ADP1DETAIL
 62
     7
100
AcDbLine
 10
2.996802435980902
 20
17.93654513888889
 30
0.0
 11
3.303588189019096
 21
18.15151909722222
 31
0.0
  0
LINE
  5
501
330
414
100
AcDbEntity
  8
ADP1DETAIL
 62
     7
100
AcDbLine
 10
3.303588189019096
 20
18.15151909722222
 30
0.0
 11
3.51856214735243
 21
17.84456108940972
 31
0.0
  0
LINE
  5
502
330
414
100
AcDbEntity
  8
ADP1DETAIL
 62
     7
100
AcDbLine
 10
2.455922444661458
 20
18.01612684461805
 30
0.0
 11
2.756507025824652
 21
18.23936903211805
 31
0.0
  0
LINE
  5
503
330
414
100
AcDbEntity
  8
ADP1DETAIL
 62
     7
100
AcDbLine
 10
2.756507025824652
 20
18.23936903211805
 30
0.0
 11
2.980438232421874
 21
17.93895670572916
 31
0.0
  0
LINE
  5
504
330
414
100
AcDbEntity
  8
ADP1DETAIL
 62
     7
100
AcDbLine
 10
2.20701429578993
 20
18.31171603732639
 30
0.0
 11
2.43955824110243
 21
18.01819390190972
 31
0.0
  0
LINE
  5
505
330
414
100
AcDbEntity
  8
ADP1DETAIL
 62
     7
100
AcDbLine
 10
3.847741021050346
 20
18.04747721354166
 30
0.0
 11
4.053757731119791
 21
17.73431803385416
 31
0.0
  0
LINE
  5
506
330
414
100
AcDbEntity
  8
ADP1DETAIL
 62
     7
100
AcDbLine
 10
6.171630181206596
 20
17.13418240017361
 30
0.0
 11
6.511316596137151
 21
17.29265679253472
 31
0.0
  0
LINE
  5
507
330
414
100
AcDbEntity
  8
ADP1DETAIL
 62
     7
100
AcDbLine
 10
6.511316596137151
 20
17.29265679253472
 30
0.0
 11
6.669790988498263
 21
16.95297037760416
 31
0.0
  0
LINE
  5
508
330
414
100
AcDbEntity
  8
ADP1DETAIL
 62
     7
100
AcDbLine
 10
16.21580607096354
 20
-10.6071044921875
 30
0.0
 11
15.85131496853298
 21
-10.69323187934027
 31
0.0
  0
LINE
  5
509
330
414
100
AcDbEntity
  8
ADP1DETAIL
 62
     7
100
AcDbLine
 10
10.0909430609809
 20
-16.45687662760416
 30
0.0
 11
10.00447116427951
 21
-16.82136773003472
 31
0.0
  0
SPLINE
  5
50A
330
414
100
AcDbEntity
  8
ADP1DETAIL
 62
     7
100
AcDbSpline
210
0.0
220
0.0
230
1.0
 70
     8
 71
     3
 72
     8
 73
     4
 74
     0
 42
0.0000000001
 43
0.0000000001
 40
0.0
 40
0.0
 40
0.0
 40
0.0
 40
1.0
 40
1.0
 40
1.0
 40
1.0
 10
6.805872260199651
 20
-18.39646538628472
 30
0.0
 10
6.884075927734373
 20
-18.36683756510416
 30
0.0
 10
6.962451850043402
 20
-18.33652072482638
 30
0.0
 10
7.040655517578124
 20
-18.30482584635416
 30
0.0
  0
LINE
  5
50B
330
414
100
AcDbEntity
  8
ADP1DETAIL
 62
     7
100
AcDbLine
 10
7.185694037543401
 20
-17.9678955078125
 30
0.0
 11
7.037382676866318
 21
-18.31240505642361
 31
0.0
  0
LINE
  5
50C
330
414
100
AcDbEntity
  8
ADP1DETAIL
 62
     7
100
AcDbLine
 10
7.68764444986979
 20
-17.75223253038194
 30
0.0
 11
7.549151611328124
 21
-18.10018717447916
 31
0.0
  0
LINE
  5
50D
330
414
100
AcDbEntity
  8
ADP1DETAIL
 62
     7
100
AcDbLine
 10
7.549151611328124
 20
-18.10018717447916
 30
0.0
 11
7.201024712456596
 21
-17.9616943359375
 31
0.0
  0
LINE
  5
50E
330
414
100
AcDbEntity
  8
ADP1DETAIL
 62
     7
100
AcDbLine
 10
8.182876925998263
 20
-17.5214111328125
 30
0.0
 11
8.054891628689235
 21
-17.87281087239583
 31
0.0
  0
LINE
  5
50F
330
414
100
AcDbEntity
  8
ADP1DETAIL
 62
     7
100
AcDbLine
 10
8.054891628689235
 20
-17.87281087239583
 30
0.0
 11
7.702630615234374
 21
-17.74465332031249
 31
0.0
  0
LINE
  5
510
330
414
100
AcDbEntity
  8
ADP1DETAIL
 62
     7
100
AcDbLine
 10
8.671391465928818
 20
-17.27612033420139
 30
0.0
 11
8.553396945529513
 21
-17.63165418836805
 31
0.0
  0
LINE
  5
511
330
414
100
AcDbEntity
  8
ADP1DETAIL
 62
     7
100
AcDbLine
 10
8.553396945529513
 20
-17.63165418836805
 30
0.0
 11
8.19769083658854
 21
-17.51383192274305
 31
0.0
  0
LINE
  5
512
330
414
100
AcDbEntity
  8
ADP1DETAIL
 62
     7
100
AcDbLine
 10
9.15232679578993
 20
-17.01636013454861
 30
0.0
 11
9.045012071397568
 21
-17.37533908420138
 31
0.0
  0
LINE
  5
513
330
414
100
AcDbEntity
  8
ADP1DETAIL
 62
     7
100
AcDbLine
 10
9.625682915581595
 20
-16.74350857204861
 30
0.0
 11
9.528703477647567
 21
-17.10524359809027
 31
0.0
  0
LINE
  5
514
330
414
100
AcDbEntity
  8
ADP1DETAIL
 62
     7
100
AcDbLine
 10
9.528703477647567
 20
-17.10524359809027
 30
0.0
 11
9.166796196831596
 21
-17.00878092447916
 31
0.0
  0
LINE
  5
515
330
414
100
AcDbEntity
  8
ADP1DETAIL
 62
     7
100
AcDbLine
 10
10.00447116427951
 20
-16.82136773003472
 30
0.0
 11
9.639807807074651
 21
-16.73524034288194
 31
0.0
  0
LINE
  5
516
330
414
100
AcDbEntity
  8
ADP1DETAIL
 62
     7
100
AcDbLine
 10
9.045012071397568
 20
-17.37533908420138
 30
0.0
 11
8.68603312174479
 21
-17.26785210503472
 31
0.0
  0
LINE
  5
517
330
414
100
AcDbEntity
  8
ADP1DETAIL
 62
     7
100
AcDbLine
 10
11.37923651801215
 20
-15.88774685329861
 30
0.0
 11
11.00854424370659
 21
-15.83331434461805
 31
0.0
  0
LINE
  5
518
330
414
100
AcDbEntity
  8
ADP1DETAIL
 62
     7
100
AcDbLine
 10
10.54759046766493
 20
-16.15646430121527
 30
0.0
 11
10.47162611219618
 21
-16.52371148003472
 31
0.0
  0
LINE
  5
519
330
414
100
AcDbEntity
  8
ADP1DETAIL
 62
     7
100
AcDbLine
 10
10.47162611219618
 20
-16.52371148003472
 30
0.0
 11
10.10472344292534
 21
-16.44791937934028
 31
0.0
  0
LINE
  5
51A
330
414
100
AcDbEntity
  8
ADP1DETAIL
 62
     7
100
AcDbLine
 10
10.99510837131076
 20
-15.84296061197916
 30
0.0
 11
10.92999606662326
 21
-16.21227484809027
 31
0.0
  0
LINE
  5
51B
330
414
100
AcDbEntity
  8
ADP1DETAIL
 62
     7
100
AcDbLine
 10
10.92999606662326
 20
-16.21227484809027
 30
0.0
 11
10.56102634006076
 21
-16.14681803385416
 31
0.0
  0
LINE
  5
51C
330
414
100
AcDbEntity
  8
ADP1DETAIL
 62
     7
100
AcDbLine
 10
12.24843410915798
 20
-15.20010579427083
 30
0.0
 11
11.87498575846354
 21
-15.16772189670138
 31
0.0
  0
LINE
  5
51D
330
414
100
AcDbEntity
  8
ADP1DETAIL
 62
     7
100
AcDbLine
 10
12.28081800672743
 20
-14.82665744357638
 30
0.0
 11
12.24843410915798
 21
-15.20010579427083
 31
0.0
  0
LINE
  5
51E
330
414
100
AcDbEntity
  8
ADP1DETAIL
 62
     7
100
AcDbLine
 10
12.68940633138021
 20
-14.46354437934028
 30
0.0
 11
12.66735772026909
 21
-14.83768174913194
 31
0.0
  0
LINE
  5
51F
330
414
100
AcDbEntity
  8
ADP1DETAIL
 62
     7
100
AcDbLine
 10
12.66735772026909
 20
-14.83768174913194
 30
0.0
 11
12.29356486002604
 21
-14.81632215711805
 31
0.0
  0
LINE
  5
520
330
414
100
AcDbEntity
  8
ADP1DETAIL
 62
     7
100
AcDbLine
 10
13.08697035047743
 20
-14.08871799045139
 30
0.0
 11
13.07594604492187
 21
-14.46354437934028
 31
0.0
  0
LINE
  5
521
330
414
100
AcDbEntity
  8
ADP1DETAIL
 62
     7
100
AcDbLine
 10
13.07594604492187
 20
-14.46354437934028
 30
0.0
 11
12.70146416558159
 21
-14.45252007378472
 31
0.0
  0
LINE
  5
522
330
414
100
AcDbEntity
  8
ADP1DETAIL
 62
     7
100
AcDbLine
 10
13.4735100640191
 20
-13.70217827690972
 30
0.0
 11
13.4735100640191
 21
-14.07700466579861
 31
0.0
  0
LINE
  5
523
330
414
100
AcDbEntity
  8
ADP1DETAIL
 62
     7
100
AcDbLine
 10
13.4735100640191
 20
-14.07700466579861
 30
0.0
 11
13.0986836751302
 21
-14.07700466579861
 31
0.0
  0
LINE
  5
524
330
414
100
AcDbEntity
  8
ADP1DETAIL
 62
     7
100
AcDbLine
 10
13.84833645290798
 20
-13.30530327690972
 30
0.0
 11
13.85936075846354
 21
-13.67944064670139
 31
0.0
  0
LINE
  5
525
330
414
100
AcDbEntity
  8
ADP1DETAIL
 62
     7
100
AcDbLine
 10
13.85936075846354
 20
-13.67944064670139
 30
0.0
 11
13.48487887912326
 21
-13.69046495225694
 31
0.0
  0
LINE
  5
526
330
414
100
AcDbEntity
  8
ADP1DETAIL
 62
     7
100
AcDbLine
 10
14.21213853624132
 20
-12.89671495225694
 30
0.0
 11
14.2334981282552
 21
-13.27085232204861
 31
0.0
  0
LINE
  5
527
330
414
100
AcDbEntity
  8
ADP1DETAIL
 62
     7
100
AcDbLine
 10
14.56319376627604
 20
-12.47848036024305
 30
0.0
 11
14.59592217339409
 21
-12.85123969184027
 31
0.0
  0
LINE
  5
528
330
414
100
AcDbEntity
  8
ADP1DETAIL
 62
     7
100
AcDbLine
 10
14.59592217339409
 20
-12.85123969184027
 30
0.0
 11
14.22247382269965
 21
-12.88431260850694
 31
0.0
  0
LINE
  5
529
330
414
100
AcDbEntity
  8
ADP1DETAIL
 62
     7
100
AcDbLine
 10
14.90219116210937
 20
-12.04991048177083
 30
0.0
 11
14.94559936523437
 21
-12.42198079427083
 31
0.0
  0
LINE
  5
52A
330
414
100
AcDbEntity
  8
ADP1DETAIL
 62
     7
100
AcDbLine
 10
14.94559936523437
 20
-12.42198079427083
 30
0.0
 11
14.57352905273437
 21
-12.46538899739583
 31
0.0
  0
LINE
  5
52B
330
414
100
AcDbEntity
  8
ADP1DETAIL
 62
     7
100
AcDbLine
 10
15.22844170464409
 20
-11.6116943359375
 30
0.0
 11
15.28287421332465
 21
-11.98238661024305
 31
0.0
  0
LINE
  5
52C
330
414
100
AcDbEntity
  8
ADP1DETAIL
 62
     7
100
AcDbLine
 10
15.28287421332465
 20
-11.98238661024305
 30
0.0
 11
14.91218193901909
 21
-12.03613009982638
 31
0.0
  0
LINE
  5
52D
330
414
100
AcDbEntity
  8
ADP1DETAIL
 62
     7
100
AcDbLine
 10
15.54194539388021
 20
-11.16383192274305
 30
0.0
 11
15.60740220811632
 21
-11.53314615885416
 31
0.0
  0
LINE
  5
52E
330
414
100
AcDbEntity
  8
ADP1DETAIL
 62
     7
100
AcDbLine
 10
15.60740220811632
 20
-11.53314615885416
 30
0.0
 11
15.2380879720052
 21
-11.59791395399305
 31
0.0
  0
LINE
  5
52F
330
414
100
AcDbEntity
  8
ADP1DETAIL
 62
     7
100
AcDbLine
 10
15.84270222981771
 20
-10.70701226128472
 30
0.0
 11
15.91814982096354
 21
-11.07425944010416
 31
0.0
  0
LINE
  5
530
330
414
100
AcDbEntity
  8
ADP1DETAIL
 62
     7
100
AcDbLine
 10
15.91814982096354
 20
-11.07425944010416
 30
0.0
 11
15.55159166124132
 21
-11.15005154079861
 31
0.0
  0
LINE
  5
531
330
414
100
AcDbEntity
  8
ADP1DETAIL
 62
     7
100
AcDbLine
 10
14.2334981282552
 20
-13.27085232204861
 30
0.0
 11
13.85936075846354
 21
-13.29290093315972
 31
0.0
  0
LINE
  5
532
330
414
100
AcDbEntity
  8
ADP1DETAIL
 62
     7
100
AcDbLine
 10
11.4336690266927
 20
-15.51705457899305
 30
0.0
 11
11.37923651801215
 21
-15.88774685329861
 31
0.0
  0
LINE
  5
533
330
414
100
AcDbEntity
  8
ADP1DETAIL
 62
     7
100
AcDbLine
 10
11.86223890516493
 20
-15.17805718315972
 30
0.0
 11
11.81848619249132
 21
-15.55012749565972
 31
0.0
  0
LINE
  5
534
330
414
100
AcDbEntity
  8
ADP1DETAIL
 62
     7
100
AcDbLine
 10
11.81848619249132
 20
-15.55012749565972
 30
0.0
 11
11.44641587999132
 21
-15.50671929253472
 31
0.0
  0
LINE
  5
535
330
414
100
AcDbEntity
  8
ADP1DETAIL
 62
     7
100
AcDbLine
 10
12.28081800672743
 20
-14.82665744357638
 30
0.0
 11
12.24843410915798
 21
-15.20010579427083
 31
0.0
  0
LINE
  5
536
330
414
100
AcDbEntity
  8
ADP1DETAIL
 62
     7
100
AcDbLine
 10
12.24843410915798
 20
-15.20010579427083
 30
0.0
 11
11.87498575846354
 21
-15.16772189670138
 31
0.0
  0
LINE
  5
537
330
414
100
AcDbEntity
  8
ADP1DETAIL
 62
     7
100
AcDbLine
 10
16.49968193901909
 20
-10.13099229600694
 30
0.0
 11
16.13794691297743
 21
-10.22814398871527
 31
0.0
  0
LINE
  5
538
330
414
100
AcDbEntity
  8
ADP1DETAIL
 62
     7
100
AcDbLine
 10
16.40287475585937
 20
-9.769257269965276
 30
0.0
 11
16.49968193901909
 21
-10.13099229600694
 31
0.0
  0
LINE
  5
539
330
414
100
AcDbEntity
  8
ADP1DETAIL
 62
     7
100
AcDbLine
 10
16.66229044596354
 20
-9.288321940104165
 30
0.0
 11
16.7697774251302
 21
-9.647300889756943
 31
0.0
  0
LINE
  5
53A
330
414
100
AcDbEntity
  8
ADP1DETAIL
 62
     7
100
AcDbLine
 10
16.7697774251302
 20
-9.647300889756943
 30
0.0
 11
16.41079847547743
 21
-9.75478786892361
 31
0.0
  0
LINE
  5
53B
330
414
100
AcDbEntity
  8
ADP1DETAIL
 62
     7
100
AcDbLine
 10
16.90758124457465
 20
-8.799807400173611
 30
0.0
 11
17.02540351019965
 21
-9.155341254340276
 31
0.0
  0
LINE
  5
53C
330
414
100
AcDbEntity
  8
ADP1DETAIL
 62
     7
100
AcDbLine
 10
17.02540351019965
 20
-9.155341254340276
 30
0.0
 11
16.66986965603298
 21
-9.273163519965276
 31
0.0
  0
LINE
  5
53D
330
414
100
AcDbEntity
  8
ADP1DETAIL
 62
     7
100
AcDbLine
 10
17.1387471516927
 20
-8.304402669270832
 30
0.0
 11
17.26690470377604
 21
-8.656491427951388
 31
0.0
  0
LINE
  5
53E
330
414
100
AcDbEntity
  8
ADP1DETAIL
 62
     7
100
AcDbLine
 10
17.26690470377604
 20
-8.656491427951388
 30
0.0
 11
16.91481594509548
 21
-8.78464898003472
 31
0.0
  0
LINE
  5
53F
330
414
100
AcDbEntity
  8
ADP1DETAIL
 62
     7
100
AcDbLine
 10
17.3554436577691
 20
-7.802796766493054
 30
0.0
 11
17.49393649631076
 21
-8.151440429687498
 31
0.0
  0
LINE
  5
540
330
414
100
AcDbEntity
  8
ADP1DETAIL
 62
     7
100
AcDbLine
 10
17.49393649631076
 20
-8.151440429687498
 30
0.0
 11
17.14529283311632
 21
-8.289244249131943
 31
0.0
  0
LINE
  5
541
330
414
100
AcDbEntity
  8
ADP1DETAIL
 62
     7
100
AcDbLine
 10
17.5573262532552
 20
-7.294989691840276
 30
0.0
 11
17.70546535915798
 21
-7.638810221354165
 31
0.0
  0
LINE
  5
542
330
414
100
AcDbEntity
  8
ADP1DETAIL
 62
     7
100
AcDbLine
 10
17.70546535915798
 20
-7.638810221354165
 30
0.0
 11
17.36164482964409
 21
-7.787638346354166
 31
0.0
  0
LINE
  5
543
330
414
100
AcDbEntity
  8
ADP1DETAIL
 62
     7
100
AcDbLine
 10
16.12967868381076
 20
-10.24261338975694
 30
0.0
 11
16.21580607096354
 21
-10.6071044921875
 31
0.0
  0
LINE
  5
544
330
414
100
AcDbEntity
  8
ADP1DETAIL
 62
     7
100
AcDbLine
 10
16.40287475585937
 20
-9.769257269965276
 30
0.0
 11
16.49968193901909
 21
-10.13099229600694
 31
0.0
  0
LINE
  5
545
330
414
100
AcDbEntity
  8
ADP1DETAIL
 62
     7
100
AcDbLine
 10
16.49968193901909
 20
-10.13099229600694
 30
0.0
 11
16.13794691297743
 21
-10.22814398871527
 31
0.0
  0
LINE
  5
546
330
414
100
AcDbEntity
  8
ADP1DETAIL
 62
     7
100
AcDbLine
 10
14.59041002061631
 20
11.63856608072916
 30
0.0
 11
14.55733710394965
 21
11.26511773003472
 31
0.0
  0
LINE
  5
547
330
414
100
AcDbEntity
  8
ADP1DETAIL
 62
     7
100
AcDbLine
 10
15.84683634440104
 20
9.481247287326388
 30
0.0
 11
16.21132744683159
 21
9.394430881076388
 31
0.0
  0
LINE
  5
548
330
414
100
AcDbEntity
  8
ADP1DETAIL
 62
     7
100
AcDbLine
 10
15.54676852756076
 20
9.937722439236109
 30
0.0
 11
15.91367119683159
 21
9.862274848090276
 31
0.0
  0
LINE
  5
549
330
414
100
AcDbEntity
  8
ADP1DETAIL
 62
     7
100
AcDbLine
 10
15.91367119683159
 20
9.862274848090276
 30
0.0
 11
15.83753458658854
 21
9.495027669270832
 31
0.0
  0
LINE
  5
54A
330
414
100
AcDbEntity
  8
ADP1DETAIL
 62
     7
100
AcDbLine
 10
15.23326483832465
 20
10.38524034288194
 30
0.0
 11
15.60223456488715
 21
10.32047254774305
 31
0.0
  0
LINE
  5
54B
330
414
100
AcDbEntity
  8
ADP1DETAIL
 62
     7
100
AcDbLine
 10
15.60223456488715
 20
10.32047254774305
 30
0.0
 11
15.53712226019965
 21
9.951158311631942
 31
0.0
  0
LINE
  5
54C
330
414
100
AcDbEntity
  8
ADP1DETAIL
 62
     7
100
AcDbLine
 10
14.90701429578993
 20
10.82380099826389
 30
0.0
 11
15.27770657009548
 21
10.76971299913194
 31
0.0
  0
LINE
  5
54D
330
414
100
AcDbEntity
  8
ADP1DETAIL
 62
     7
100
AcDbLine
 10
15.27770657009548
 20
10.76971299913194
 30
0.0
 11
15.22361857096354
 21
10.39867621527777
 31
0.0
  0
LINE
  5
54E
330
414
100
AcDbEntity
  8
ADP1DETAIL
 62
     7
100
AcDbLine
 10
14.56801689995659
 20
11.25271538628472
 30
0.0
 11
14.94043172200521
 21
11.20930718315972
 31
0.0
  0
LINE
  5
54F
330
414
100
AcDbEntity
  8
ADP1DETAIL
 62
     7
100
AcDbLine
 10
14.94043172200521
 20
11.20930718315972
 30
0.0
 11
14.89702351888021
 21
10.83689236111111
 31
0.0
  0
LINE
  5
550
330
414
100
AcDbEntity
  8
ADP1DETAIL
 62
     7
100
AcDbLine
 10
18.84785902235243
 20
2.155596245659721
 30
0.0
 11
18.62427232530382
 21
1.855183919270833
 31
0.0
  0
LINE
  5
551
330
414
100
AcDbEntity
  8
ADP1DETAIL
 62
     7
100
AcDbLine
 10
18.76138712565104
 20
-3.91328396267361
 30
0.0
 11
18.45442911783854
 21
-4.128257921006944
 31
0.0
  0
LINE
  5
552
330
414
100
AcDbEntity
  8
ADP1DETAIL
 62
     7
100
AcDbLine
 10
18.5464131673177
 20
-3.606670464409722
 30
0.0
 11
18.76138712565104
 21
-3.91328396267361
 31
0.0
  0
LINE
  5
553
330
414
100
AcDbEntity
  8
ADP1DETAIL
 62
     7
100
AcDbLine
 10
18.62565036349826
 20
-3.065790473090277
 30
0.0
 11
18.84923706054687
 21
-3.366891818576388
 31
0.0
  0
LINE
  5
554
330
414
100
AcDbEntity
  8
ADP1DETAIL
 62
     7
100
AcDbLine
 10
18.84923706054687
 20
-3.366891818576388
 30
0.0
 11
18.54882473415798
 21
-3.590134006076388
 31
0.0
  0
LINE
  5
555
330
414
100
AcDbEntity
  8
ADP1DETAIL
 62
     7
100
AcDbLine
 10
18.68938462999131
 20
-2.523532443576388
 30
0.0
 11
18.9215840657552
 21
-2.817054578993055
 31
0.0
  0
LINE
  5
556
330
414
100
AcDbEntity
  8
ADP1DETAIL
 62
     7
100
AcDbLine
 10
18.9215840657552
 20
-2.817054578993055
 30
0.0
 11
18.62771742078993
 21
-3.049254014756944
 31
0.0
  0
LINE
  5
557
330
414
100
AcDbEntity
  8
ADP1DETAIL
 62
     7
100
AcDbLine
 10
18.73692694769965
 20
-1.97851833767361
 30
0.0
 11
18.97773912217882
 21
-2.265839301215277
 31
0.0
  0
LINE
  5
558
330
414
100
AcDbEntity
  8
ADP1DETAIL
 62
     7
100
AcDbLine
 10
18.97773912217882
 20
-2.265839301215277
 30
0.0
 11
18.69076266818576
 21
-2.506995985243055
 31
0.0
  0
LINE
  5
559
330
414
100
AcDbEntity
  8
ADP1DETAIL
 62
     7
100
AcDbLine
 10
18.76862182617187
 20
-1.433504231770833
 30
0.0
 11
19.01804673936632
 21
-1.713245985243055
 31
0.0
  0
LINE
  5
55A
330
414
100
AcDbEntity
  8
ADP1DETAIL
 62
     7
100
AcDbLine
 10
19.01804673936632
 20
-1.713245985243055
 30
0.0
 11
18.73796047634548
 21
-1.961981879340277
 31
0.0
  0
LINE
  5
55B
330
414
100
AcDbEntity
  8
ADP1DETAIL
 62
     7
100
AcDbLine
 10
18.78481377495659
 20
-0.887112087673611
 30
0.0
 11
19.04216240776909
 21
-1.159274631076388
 31
0.0
  0
LINE
  5
55C
330
414
100
AcDbEntity
  8
ADP1DETAIL
 62
     7
100
AcDbLine
 10
18.78481377495659
 20
-0.3407199435763888
 30
0.0
 11
19.04974161783854
 21
-0.6053032769097222
 31
0.0
  0
LINE
  5
55D
330
414
100
AcDbEntity
  8
ADP1DETAIL
 62
     7
100
AcDbLine
 10
19.04974161783854
 20
-0.6053032769097222
 30
0.0
 11
18.78481377495659
 21
-0.8705756293402776
 31
0.0
  0
LINE
  5
55E
330
414
100
AcDbEntity
  8
ADP1DETAIL
 62
     7
100
AcDbLine
 10
18.76931084526909
 20
0.2056722005208333
 30
0.0
 11
19.04181789822048
 21
-0.0513319227430556
 31
0.0
  0
LINE
  5
55F
330
414
100
AcDbEntity
  8
ADP1DETAIL
 62
     7
100
AcDbLine
 10
19.04181789822048
 20
-0.0513319227430556
 30
0.0
 11
18.78446926540798
 21
-0.3241834852430555
 31
0.0
  0
LINE
  5
560
330
414
100
AcDbEntity
  8
ADP1DETAIL
 62
     7
100
AcDbLine
 10
18.73761596679687
 20
0.7513753255208333
 30
0.0
 11
19.01735772026909
 21
0.5019504123263889
 31
0.0
  0
LINE
  5
561
330
414
100
AcDbEntity
  8
ADP1DETAIL
 62
     7
100
AcDbLine
 10
19.01735772026909
 20
0.5019504123263889
 30
0.0
 11
18.76827731662326
 21
0.2222086588541666
 31
0.0
  0
LINE
  5
562
330
414
100
AcDbEntity
  8
ADP1DETAIL
 62
     7
100
AcDbLine
 10
18.69007364908854
 20
1.295700412326388
 30
0.0
 11
18.97705010308159
 21
1.055232747395833
 31
0.0
  0
LINE
  5
563
330
414
100
AcDbEntity
  8
ADP1DETAIL
 62
     7
100
AcDbLine
 10
18.97705010308159
 20
1.055232747395833
 30
0.0
 11
18.73623792860243
 21
0.7679117838541666
 31
0.0
  0
LINE
  5
564
330
414
100
AcDbEntity
  8
ADP1DETAIL
 62
     7
100
AcDbLine
 10
18.6266838921441
 20
1.838647460937499
 30
0.0
 11
18.92055053710937
 21
1.605759006076388
 31
0.0
  0
LINE
  5
565
330
414
100
AcDbEntity
  8
ADP1DETAIL
 62
     7
100
AcDbLine
 10
18.92055053710937
 20
1.605759006076388
 30
0.0
 11
18.68800659179687
 21
1.312236870659722
 31
0.0
  0
LINE
  5
566
330
414
100
AcDbEntity
  8
ADP1DETAIL
 62
     7
100
AcDbLine
 10
19.04216240776909
 20
-1.159274631076388
 30
0.0
 11
18.76931084526909
 21
-1.416967773437499
 31
0.0
  0
LINE
  5
567
330
414
100
AcDbEntity
  8
ADP1DETAIL
 62
     7
100
AcDbLine
 10
17.74405042860243
 20
-6.781670464409721
 30
0.0
 11
17.90252482096354
 21
-7.121356879340277
 31
0.0
  0
LINE
  5
568
330
414
100
AcDbEntity
  8
ADP1DETAIL
 62
     7
100
AcDbLine
 10
17.90252482096354
 20
-7.121356879340277
 30
0.0
 11
17.56283840603298
 21
-7.279831271701388
 31
0.0
  0
LINE
  5
569
330
414
100
AcDbEntity
  8
ADP1DETAIL
 62
     7
100
AcDbLine
 10
17.91630520290798
 20
-6.262839084201388
 30
0.0
 11
18.0844258626302
 21
-6.597702365451388
 31
0.0
  0
LINE
  5
56A
330
414
100
AcDbEntity
  8
ADP1DETAIL
 62
     7
100
AcDbLine
 10
18.0844258626302
 20
-6.597702365451388
 30
0.0
 11
17.7495625813802
 21
-6.76582302517361
 31
0.0
  0
LINE
  5
56B
330
414
100
AcDbEntity
  8
ADP1DETAIL
 62
     7
100
AcDbLine
 10
18.07305704752604
 20
-5.739184570312499
 30
0.0
 11
18.25082397460937
 21
-6.069224717881944
 31
0.0
  0
LINE
  5
56C
330
414
100
AcDbEntity
  8
ADP1DETAIL
 62
     7
100
AcDbLine
 10
18.25082397460937
 20
-6.069224717881944
 30
0.0
 11
17.92112833658854
 21
-6.246991644965277
 31
0.0
  0
LINE
  5
56D
330
414
100
AcDbEntity
  8
ADP1DETAIL
 62
     7
100
AcDbLine
 10
18.2146504720052
 20
-5.211395941840277
 30
0.0
 11
18.40206366644965
 21
-5.535923936631943
 31
0.0
  0
LINE
  5
56E
330
414
100
AcDbEntity
  8
ADP1DETAIL
 62
     7
100
AcDbLine
 10
18.40206366644965
 20
-5.535923936631943
 30
0.0
 11
18.07753567165798
 21
-5.723337131076388
 31
0.0
  0
LINE
  5
56F
330
414
100
AcDbEntity
  8
ADP1DETAIL
 62
     7
100
AcDbLine
 10
18.34074096679687
 20
-4.680162217881943
 30
0.0
 11
18.53711140950521
 21
-4.99848904079861
 31
0.0
  0
LINE
  5
570
330
414
100
AcDbEntity
  8
ADP1DETAIL
 62
     7
100
AcDbLine
 10
18.53711140950521
 20
-4.99848904079861
 30
0.0
 11
18.21844007703993
 21
-5.195548502604165
 31
0.0
  0
LINE
  5
571
330
414
100
AcDbEntity
  8
ADP1DETAIL
 62
     7
100
AcDbLine
 10
18.45132853190104
 20
-4.144794379340277
 30
0.0
 11
18.65700073242187
 21
-4.457609049479166
 31
0.0
  0
LINE
  5
572
330
414
100
AcDbEntity
  8
ADP1DETAIL
 62
     7
100
AcDbLine
 10
18.65700073242187
 20
-4.457609049479166
 30
0.0
 11
18.34418606228298
 21
-4.66362575954861
 31
0.0
  0
LINE
  5
573
330
414
100
AcDbEntity
  8
ADP1DETAIL
 62
     7
100
AcDbLine
 10
18.5464131673177
 20
-3.606670464409722
 30
0.0
 11
18.76138712565104
 21
-3.91328396267361
 31
0.0
  0
LINE
  5
574
330
414
100
AcDbEntity
  8
ADP1DETAIL
 62
     7
100
AcDbLine
 10
18.76138712565104
 20
-3.91328396267361
 30
0.0
 11
18.45442911783854
 21
-4.128257921006944
 31
0.0
  0
LINE
  5
575
330
414
100
AcDbEntity
  8
ADP1DETAIL
 62
     7
100
AcDbLine
 10
16.49554782443576
 20
8.919007703993054
 30
0.0
 11
16.39839613172743
 21
8.556928168402777
 31
0.0
  0
LINE
  5
576
330
414
100
AcDbEntity
  8
ADP1DETAIL
 62
     7
100
AcDbLine
 10
16.13346828884548
 20
9.015814887152776
 30
0.0
 11
16.49554782443576
 21
8.919007703993054
 31
0.0
  0
LINE
  5
577
330
414
100
AcDbEntity
  8
ADP1DETAIL
 62
     7
100
AcDbLine
 10
16.21132744683159
 20
9.394430881076388
 30
0.0
 11
16.1248555501302
 21
9.029939778645832
 31
0.0
  0
LINE
  5
578
330
414
100
AcDbEntity
  8
ADP1DETAIL
 62
     7
100
AcDbLine
 10
18.75966457790798
 20
2.702677408854166
 30
0.0
 11
18.54469061957465
 21
2.395374891493055
 31
0.0
  0
LINE
  5
579
330
414
100
AcDbEntity
  8
ADP1DETAIL
 62
     7
100
AcDbLine
 10
18.45305107964409
 20
2.917651367187499
 30
0.0
 11
18.75966457790798
 21
2.702677408854166
 31
0.0
  0
LINE
  5
57A
330
414
100
AcDbEntity
  8
ADP1DETAIL
 62
     7
100
AcDbLine
 10
18.34211900499132
 20
3.452330186631944
 30
0.0
 11
18.65562269422743
 21
3.246313476562499
 31
0.0
  0
LINE
  5
57B
330
414
100
AcDbEntity
  8
ADP1DETAIL
 62
     7
100
AcDbLine
 10
18.65562269422743
 20
3.246313476562499
 30
0.0
 11
18.44960598415798
 21
2.93349880642361
 31
0.0
  0
LINE
  5
57C
330
414
100
AcDbEntity
  8
ADP1DETAIL
 62
     7
100
AcDbLine
 10
18.21671752929687
 20
3.984252929687499
 30
0.0
 11
18.53538886176215
 21
3.787882486979166
 31
0.0
  0
LINE
  5
57D
330
414
100
AcDbEntity
  8
ADP1DETAIL
 62
     7
100
AcDbLine
 10
18.53538886176215
 20
3.787882486979166
 30
0.0
 11
18.33867390950521
 21
3.468866644965277
 31
0.0
  0
LINE
  5
57E
330
414
100
AcDbEntity
  8
ADP1DETAIL
 62
     7
100
AcDbLine
 10
18.07512410481771
 20
4.512041558159721
 30
0.0
 11
18.39965209960937
 21
4.324628363715277
 31
0.0
  0
LINE
  5
57F
330
414
100
AcDbEntity
  8
ADP1DETAIL
 62
     7
100
AcDbLine
 10
18.39965209960937
 20
4.324628363715277
 30
0.0
 11
18.21223890516493
 21
4.00010036892361
 31
0.0
  0
LINE
  5
580
330
414
100
AcDbEntity
  8
ADP1DETAIL
 62
     7
100
AcDbLine
 10
17.91837226019965
 20
5.03569607204861
 30
0.0
 11
18.24841240776909
 21
4.857929144965277
 31
0.0
  0
LINE
  5
581
330
414
100
AcDbEntity
  8
ADP1DETAIL
 62
     7
100
AcDbLine
 10
18.24841240776909
 20
4.857929144965277
 30
0.0
 11
18.07064548068576
 21
4.527888997395832
 31
0.0
  0
LINE
  5
582
330
414
100
AcDbEntity
  8
ADP1DETAIL
 62
     7
100
AcDbLine
 10
17.74680650499132
 20
5.554527452256944
 30
0.0
 11
18.08166978624132
 21
5.386406792534721
 31
0.0
  0
LINE
  5
583
330
414
100
AcDbEntity
  8
ADP1DETAIL
 62
     7
100
AcDbLine
 10
17.56008232964409
 20
6.06819118923611
 30
0.0
 11
17.89976874457465
 21
5.909716796874999
 31
0.0
  0
LINE
  5
584
330
414
100
AcDbEntity
  8
ADP1DETAIL
 62
     7
100
AcDbLine
 10
17.89976874457465
 20
5.909716796874999
 30
0.0
 11
17.74129435221354
 21
5.570030381944444
 31
0.0
  0
LINE
  5
585
330
414
100
AcDbEntity
  8
ADP1DETAIL
 62
     7
100
AcDbLine
 10
17.35819973415798
 20
6.575998263888887
 30
0.0
 11
17.70202026367187
 21
6.427514648437499
 31
0.0
  0
LINE
  5
586
330
414
100
AcDbEntity
  8
ADP1DETAIL
 62
     7
100
AcDbLine
 10
17.70202026367187
 20
6.427514648437499
 30
0.0
 11
17.55388115776909
 21
6.083349609374999
 31
0.0
  0
LINE
  5
587
330
414
100
AcDbEntity
  8
ADP1DETAIL
 62
     7
100
AcDbLine
 10
17.14184773763021
 20
7.077948676215276
 30
0.0
 11
17.49014689127604
 21
6.93945583767361
 31
0.0
  0
LINE
  5
588
330
414
100
AcDbEntity
  8
ADP1DETAIL
 62
     7
100
AcDbLine
 10
17.49014689127604
 20
6.93945583767361
 30
0.0
 11
17.35199856228298
 21
6.591501193576387
 31
0.0
  0
LINE
  5
589
330
414
100
AcDbEntity
  8
ADP1DETAIL
 62
     7
100
AcDbLine
 10
16.91102634006076
 20
7.573353407118054
 30
0.0
 11
17.26311509874131
 21
7.445195855034721
 31
0.0
  0
LINE
  5
58A
330
414
100
AcDbEntity
  8
ADP1DETAIL
 62
     7
100
AcDbLine
 10
17.26311509874131
 20
7.445195855034721
 30
0.0
 11
17.13495754665798
 21
7.092762586805554
 31
0.0
  0
LINE
  5
58B
330
414
100
AcDbEntity
  8
ADP1DETAIL
 62
     7
100
AcDbLine
 10
16.66608005099826
 20
8.0615234375
 30
0.0
 11
17.02161390516493
 21
7.943701171874999
 31
0.0
  0
LINE
  5
58C
330
414
100
AcDbEntity
  8
ADP1DETAIL
 62
     7
100
AcDbLine
 10
17.02161390516493
 20
7.943701171874999
 30
0.0
 11
16.90379163953993
 21
7.587822808159721
 31
0.0
  0
LINE
  5
58D
330
414
100
AcDbEntity
  8
ADP1DETAIL
 62
     7
100
AcDbLine
 10
16.40666436089409
 20
8.542803276909721
 30
0.0
 11
16.76564331054687
 21
8.435316297743055
 31
0.0
  0
LINE
  5
58E
330
414
100
AcDbEntity
  8
ADP1DETAIL
 62
     7
100
AcDbLine
 10
16.76564331054687
 20
8.435316297743055
 30
0.0
 11
16.65815633138021
 21
8.076337348090277
 31
0.0
  0
LINE
  5
58F
330
414
100
AcDbEntity
  8
ADP1DETAIL
 62
     7
100
AcDbLine
 10
16.13346828884548
 20
9.015814887152776
 30
0.0
 11
16.49554782443576
 21
8.919007703993054
 31
0.0
  0
LINE
  5
590
330
414
100
AcDbEntity
  8
ADP1DETAIL
 62
     7
100
AcDbLine
 10
16.49554782443576
 20
8.919007703993054
 30
0.0
 11
16.39839613172743
 21
8.556928168402777
 31
0.0
  0
LINE
  5
591
330
414
100
AcDbEntity
  8
ADP1DETAIL
 62
     7
100
AcDbLine
 10
18.08166978624132
 20
5.386406792534721
 30
0.0
 11
17.91354912651909
 21
5.051543511284721
 31
0.0
  0
LINE
  5
592
330
414
100
AcDbEntity
  8
ADP1DETAIL
 62
     7
100
AcDbLine
 10
18.54744669596354
 20
2.379527452256944
 30
0.0
 11
18.84785902235243
 21
2.155596245659721
 31
0.0
  0
LINE
  5
593
330
414
100
AcDbEntity
  8
ADP1DETAIL
 62
     7
100
AcDbLine
 10
18.45305107964409
 20
2.917651367187499
 30
0.0
 11
18.75966457790798
 21
2.702677408854166
 31
0.0
  0
LINE
  5
594
330
414
100
AcDbEntity
  8
ADP1DETAIL
 62
     7
100
AcDbLine
 10
18.75966457790798
 20
2.702677408854166
 30
0.0
 11
18.54469061957465
 21
2.395374891493055
 31
0.0
  0
LINE
  5
595
330
414
100
AcDbEntity
  8
ADP1DETAIL
 62
     7
100
AcDbLine
 10
11.37200181749132
 20
14.67300618489583
 30
0.0
 11
11.42643432617187
 21
14.30231391059028
 31
0.0
  0
LINE
  5
596
330
414
100
AcDbEntity
  8
ADP1DETAIL
 62
     7
100
AcDbLine
 10
11.00165405273437
 20
14.61891818576388
 30
0.0
 11
11.37200181749132
 21
14.67300618489583
 31
0.0
  0
LINE
  5
597
330
414
100
AcDbEntity
  8
ADP1DETAIL
 62
     7
100
AcDbLine
 10
10.55396389431423
 20
14.93276638454861
 30
0.0
 11
10.92293362087673
 21
14.9975341796875
 31
0.0
  0
LINE
  5
598
330
414
100
AcDbEntity
  8
ADP1DETAIL
 62
     7
100
AcDbLine
 10
10.92293362087673
 20
14.9975341796875
 30
0.0
 11
10.98804592556423
 21
14.628564453125
 31
0.0
  0
LINE
  5
599
330
414
100
AcDbEntity
  8
ADP1DETAIL
 62
     7
100
AcDbLine
 10
10.09748874240451
 20
15.23283420138889
 30
0.0
 11
10.46439141167534
 21
15.30862630208333
 31
0.0
  0
LINE
  5
59A
330
414
100
AcDbEntity
  8
ADP1DETAIL
 62
     7
100
AcDbLine
 10
10.46439141167534
 20
15.30862630208333
 30
0.0
 11
10.54018351236979
 21
14.9417236328125
 31
0.0
  0
LINE
  5
59B
330
414
100
AcDbEntity
  8
ADP1DETAIL
 62
     7
100
AcDbLine
 10
9.632228597005207
 20
15.51981065538194
 30
0.0
 11
9.996891954210068
 21
15.60593804253472
 31
0.0
  0
LINE
  5
59C
330
414
100
AcDbEntity
  8
ADP1DETAIL
 62
     7
100
AcDbLine
 10
9.159216986762151
 20
15.79335123697916
 30
0.0
 11
9.521124267578123
 21
15.89015842013888
 31
0.0
  0
LINE
  5
59D
330
414
100
AcDbEntity
  8
ADP1DETAIL
 62
     7
100
AcDbLine
 10
9.521124267578123
 20
15.89015842013888
 30
0.0
 11
9.618275960286457
 21
15.52807888454861
 31
0.0
  0
LINE
  5
59E
330
414
100
AcDbEntity
  8
ADP1DETAIL
 62
     7
100
AcDbLine
 10
8.67828165690104
 20
16.05242241753472
 30
0.0
 11
9.037260606553818
 21
16.15990939670139
 31
0.0
  0
LINE
  5
59F
330
414
100
AcDbEntity
  8
ADP1DETAIL
 62
     7
100
AcDbLine
 10
9.037260606553818
 20
16.15990939670139
 30
0.0
 11
9.144747585720486
 21
15.80093044704861
 31
0.0
  0
LINE
  5
5A0
330
414
100
AcDbEntity
  8
ADP1DETAIL
 62
     7
100
AcDbLine
 10
8.18993937174479
 20
16.29771321614583
 30
0.0
 11
8.545645480685763
 21
16.41553548177083
 31
0.0
  0
LINE
  5
5A1
330
414
100
AcDbEntity
  8
ADP1DETAIL
 62
     7
100
AcDbLine
 10
8.545645480685763
 20
16.41553548177083
 30
0.0
 11
8.663467746310763
 21
16.06000162760416
 31
0.0
  0
LINE
  5
5A2
330
414
100
AcDbEntity
  8
ADP1DETAIL
 62
     7
100
AcDbLine
 10
7.694706895616318
 20
16.5292236328125
 30
0.0
 11
8.046967909071179
 21
16.65738118489583
 31
0.0
  0
LINE
  5
5A3
330
414
100
AcDbEntity
  8
ADP1DETAIL
 62
     7
100
AcDbLine
 10
8.046967909071179
 20
16.65738118489583
 30
0.0
 11
8.174953206380207
 21
16.30494791666666
 31
0.0
  0
LINE
  5
5A4
330
414
100
AcDbEntity
  8
ADP1DETAIL
 62
     7
100
AcDbLine
 10
7.193100992838541
 20
16.74557562934027
 30
0.0
 11
7.541227891710068
 21
16.88406846788194
 31
0.0
  0
LINE
  5
5A5
330
414
100
AcDbEntity
  8
ADP1DETAIL
 62
     7
100
AcDbLine
 10
7.541227891710068
 20
16.88406846788194
 30
0.0
 11
7.679548475477429
 21
16.5354248046875
 31
0.0
  0
LINE
  5
5A6
330
414
100
AcDbEntity
  8
ADP1DETAIL
 62
     7
100
AcDbLine
 10
7.029286702473958
 20
17.09559733072916
 30
0.0
 11
7.177598063151041
 21
16.75177680121527
 31
0.0
  0
LINE
  5
5A7
330
414
100
AcDbEntity
  8
ADP1DETAIL
 62
     7
100
AcDbLine
 10
9.996891954210068
 20
15.60593804253472
 30
0.0
 11
10.08336385091145
 21
15.24144694010416
 31
0.0
  0
LINE
  5
5A8
330
414
100
AcDbEntity
  8
ADP1DETAIL
 62
     7
100
AcDbLine
 10
12.24154391818576
 20
13.98605414496527
 30
0.0
 11
12.27427232530382
 21
13.61260579427083
 31
0.0
  0
LINE
  5
5A9
330
414
100
AcDbEntity
  8
ADP1DETAIL
 62
     7
100
AcDbLine
 10
11.86844007703993
 20
13.95367024739583
 30
0.0
 11
12.24154391818576
 21
13.98605414496527
 31
0.0
  0
LINE
  5
5AA
330
414
100
AcDbEntity
  8
ADP1DETAIL
 62
     7
100
AcDbLine
 10
11.4398701985677
 20
14.29266764322916
 30
0.0
 11
11.8119405110677
 21
14.33607584635416
 31
0.0
  0
LINE
  5
5AB
330
414
100
AcDbEntity
  8
ADP1DETAIL
 62
     7
100
AcDbLine
 10
11.8119405110677
 20
14.33607584635416
 30
0.0
 11
11.85569322374131
 21
13.96400553385416
 31
0.0
  0
LINE
  5
5AC
330
414
100
AcDbEntity
  8
ADP1DETAIL
 62
     7
100
AcDbLine
 10
14.21696166992187
 20
11.67129448784722
 30
0.0
 11
14.59041002061631
 21
11.63856608072916
 31
0.0
  0
LINE
  5
5AD
330
414
100
AcDbEntity
  8
ADP1DETAIL
 62
     7
100
AcDbLine
 10
13.85384860568576
 20
12.07953830295139
 30
0.0
 11
14.22798597547743
 21
12.05748969184027
 31
0.0
  0
LINE
  5
5AE
330
414
100
AcDbEntity
  8
ADP1DETAIL
 62
     7
100
AcDbLine
 10
14.22798597547743
 20
12.05748969184027
 30
0.0
 11
14.20593736436632
 21
11.68369683159722
 31
0.0
  0
LINE
  5
5AF
330
414
100
AcDbEntity
  8
ADP1DETAIL
 62
     7
100
AcDbLine
 10
13.47902221679687
 20
12.47710232204861
 30
0.0
 11
13.85350409613715
 21
12.46607801649305
 31
0.0
  0
LINE
  5
5B0
330
414
100
AcDbEntity
  8
ADP1DETAIL
 62
     7
100
AcDbLine
 10
13.85350409613715
 20
12.46607801649305
 30
0.0
 11
13.84247979058159
 21
12.09159613715278
 31
0.0
  0
LINE
  5
5B1
330
414
100
AcDbEntity
  8
ADP1DETAIL
 62
     7
100
AcDbLine
 10
13.0924825032552
 20
12.86364203559027
 30
0.0
 11
13.46730889214409
 21
12.86364203559027
 31
0.0
  0
LINE
  5
5B2
330
414
100
AcDbEntity
  8
ADP1DETAIL
 62
     7
100
AcDbLine
 10
13.46730889214409
 20
12.86364203559027
 30
0.0
 11
13.46730889214409
 21
12.48881564670139
 31
0.0
  0
LINE
  5
5B3
330
414
100
AcDbEntity
  8
ADP1DETAIL
 62
     7
100
AcDbLine
 10
12.69491848415798
 20
13.23846842447916
 30
0.0
 11
13.06974487304687
 21
13.24949273003472
 31
0.0
  0
LINE
  5
5B4
330
414
100
AcDbEntity
  8
ADP1DETAIL
 62
     7
100
AcDbLine
 10
13.06974487304687
 20
13.24949273003472
 30
0.0
 11
13.08076917860243
 21
12.87501085069444
 31
0.0
  0
LINE
  5
5B5
330
414
100
AcDbEntity
  8
ADP1DETAIL
 62
     7
100
AcDbLine
 10
12.28701917860243
 20
13.6022705078125
 30
0.0
 11
12.66115654839409
 21
13.62363009982639
 31
0.0
  0
LINE
  5
5B6
330
414
100
AcDbEntity
  8
ADP1DETAIL
 62
     7
100
AcDbLine
 10
12.66115654839409
 20
13.62363009982639
 30
0.0
 11
12.68286064995659
 21
13.24983723958333
 31
0.0
  0
LINE
  5
5B7
330
414
100
AcDbEntity
  8
ADP1DETAIL
 62
     7
100
AcDbLine
 10
11.86844007703993
 20
13.95367024739583
 30
0.0
 11
12.24154391818576
 21
13.98605414496527
 31
0.0
  0
LINE
  5
5B8
330
414
100
AcDbEntity
  8
ADP1DETAIL
 62
     7
100
AcDbLine
 10
12.24154391818576
 20
13.98605414496527
 30
0.0
 11
12.27427232530382
 21
13.61260579427083
 31
0.0
  0
ENDBLK
  5
5B9
330
414
100
AcDbEntity
  8
ADP1DETAIL
100
AcDbBlockEnd
  0
BLOCK
  5
5E7
330
5DC
100
AcDbEntity
  8
0
 62
     3
100
AcDbBlockBegin
  2
*D10
 70
     1
 10
0.0
 20
0.0
 30
0.0
  3
*D10
  1

  0
LINE
  5
5DD
330
5DC
100
AcDbEntity
  8
ADPDIM
 62
     0
370
    -2
100
AcDbLine
 10
10.23728296102717
 20
6.49853668647999
 30
0.0
 11
10.23728296102717
 21
6.959312090234778
 31
0.0
  0
LINE
  5
5DE
330
5DC
100
AcDbEntity
  8
ADPDIM
 62
     0
370
    -2
100
AcDbLine
 10
15.23728296102717
 20
6.49853668647999
 30
0.0
 11
15.23728296102717
 21
6.959312090234778
 31
0.0
  0
LINE
  5
5DF
330
5DC
100
AcDbEntity
  8
ADPDIM
 62
     0
370
    -2
100
AcDbLine
 10
10.23728296102717
 20
6.779312090234778
 30
0.0
 11
12.34144962769384
 21
6.779312090234778
 31
0.0
  0
LINE
  5
5E0
330
5DC
100
AcDbEntity
  8
ADPDIM
 62
     0
370
    -2
100
AcDbLine
 10
15.23728296102717
 20
6.779312090234778
 30
0.0
 11
13.13311629436051
 21
6.779312090234778
 31
0.0
  0
LINE
  5
5E1
330
5DC
100
AcDbEntity
  8
ADPDIM
 62
     0
370
    -2
100
AcDbLine
 10
15.11228296102717
 20
6.654312090234778
 30
0.0
 11
15.36228296102718
 21
6.904312090234778
 31
0.0
  0
LINE
  5
5E2
330
5DC
100
AcDbEntity
  8
ADPDIM
 62
     0
370
    -2
100
AcDbLine
 10
10.11228296102717
 20
6.654312090234778
 30
0.0
 11
10.36228296102717
 21
6.904312090234778
 31
0.0
  0
MTEXT
  5
5E3
330
5DC
100
AcDbEntity
  8
ADPDIM
 62
     0
100
AcDbMText
 10
12.73728296102717
 20
6.779312090234778
 30
0.0
 40
0.125
 41
0.0
 71
     5
 72
     1
  1
\A1;5.0000
 73
     1
 44
1.0
1001
ACAD
1000
MTEXTBEGIN
1070
    73
1070
     1
1070
    44
1040
1.0
1070
    74
1070
     0
1000
MTEXTEND
  0
POINT
  5
5E4
330
5DC
100
AcDbEntity
  8
DEFPOINTS
 62
     0
100
AcDbPoint
 10
10.23728296102717
 20
6.43603668647999
 30
0.0
  0
POINT
  5
5E5
330
5DC
100
AcDbEntity
  8
DEFPOINTS
 62
     0
100
AcDbPoint
 10
15.23728296102717
 20
6.43603668647999
 30
0.0
  0
POINT
  5
5E6
330
5DC
100
AcDbEntity
  8
DEFPOINTS
 62
     0
100
AcDbPoint
 10
15.23728296102717
 20
6.779312090234778
 30
0.0
  0
ENDBLK
  5
5E8
330
5DC
100
AcDbEntity
  8
0
 62
     3
100
AcDbBlockEnd
  0
BLOCK
  5
5F5
330
5EA
100
AcDbEntity
  8
0
 62
     3
100
AcDbBlockBegin
  2
*D11
 70
     1
 10
0.0
 20
0.0
 30
0.0
  3
*D11
  1

  0
LINE
  5
623
330
5EA
100
AcDbEntity
  8
ADPDIM
 62
     0
370
    -2
100
AcDbLine
 10
8.263521842642123
 20
5.381403548846698
 30
0.0
 11
8.263521842642123
 21
6.746384647819933
 31
0.0
  0
LINE
  5
624
330
5EA
100
AcDbEntity
  8
ADPDIM
 62
     0
370
    -2
100
AcDbLine
 10
9.763521842642123
 20
5.381403548846698
 30
0.0
 11
9.763521842642123
 21
6.746384647819933
 31
0.0
  0
LINE
  5
625
330
5EA
100
AcDbEntity
  8
ADPDIM
 62
     0
370
    -2
100
AcDbLine
 10
8.263521842642123
 20
6.566384647819933
 30
0.0
 11
8.628105175975457
 21
6.566384647819933
 31
0.0
  0
LINE
  5
626
330
5EA
100
AcDbEntity
  8
ADPDIM
 62
     0
370
    -2
100
AcDbLine
 10
9.763521842642123
 20
6.566384647819933
 30
0.0
 11
9.39893850930879
 21
6.566384647819933
 31
0.0
  0
LINE
  5
627
330
5EA
100
AcDbEntity
  8
ADPDIM
 62
     0
370
    -2
100
AcDbLine
 10
9.638521842642123
 20
6.441384647819933
 30
0.0
 11
9.888521842642123
 21
6.691384647819933
 31
0.0
  0
LINE
  5
628
330
5EA
100
AcDbEntity
  8
ADPDIM
 62
     0
370
    -2
100
AcDbLine
 10
8.138521842642123
 20
6.441384647819933
 30
0.0
 11
8.388521842642123
 21
6.691384647819933
 31
0.0
  0
MTEXT
  5
629
330
5EA
100
AcDbEntity
  8
ADPDIM
 62
     0
100
AcDbMText
 10
9.013521842642123
 20
6.566384647819933
 30
0.0
 40
0.125
 41
0.0
 71
     5
 72
     1
  1
\A1;1.5000
 73
     1
 44
1.0
1001
ACAD
1000
MTEXTBEGIN
1070
    73
1070
     1
1070
    44
1040
1.0
1070
    74
1070
     0
1000
MTEXTEND
  0
POINT
  5
62A
330
5EA
100
AcDbEntity
  8
DEFPOINTS
 62
     0
100
AcDbPoint
 10
8.263521842642123
 20
5.318903548846698
 30
0.0
  0
POINT
  5
62B
330
5EA
100
AcDbEntity
  8
DEFPOINTS
 62
     0
100
AcDbPoint
 10
9.763521842642123
 20
5.318903548846698
 30
0.0
  0
POINT
  5
62C
330
5EA
100
AcDbEntity
  8
DEFPOINTS
 62
     0
100
AcDbPoint
 10
9.763521842642123
 20
6.566384647819933
 30
0.0
  0
ENDBLK
  5
5F6
330
5EA
100
AcDbEntity
  8
0
 62
     3
100
AcDbBlockEnd
  0
BLOCK
  5
603
330
5F8
100
AcDbEntity
  8
0
 62
     3
100
AcDbBlockBegin
  2
*D12
 70
     1
 10
0.0
 20
0.0
 30
0.0
  3
*D12
  1

  0
LINE
  5
641
330
5F8
100
AcDbEntity
  8
ADPDIM
 62
     0
370
    -2
100
AcDbLine
 10
10.2509350131823
 20
5.943764819032175
 30
0.0
 11
10.2509350131823
 21
6.738476704397729
 31
0.0
  0
LINE
  5
642
330
5F8
100
AcDbEntity
  8
ADPDIM
 62
     0
370
    -2
100
AcDbLine
 10
15.2509350131823
 20
5.943764819032175
 30
0.0
 11
15.2509350131823
 21
6.738476704397729
 31
0.0
  0
LINE
  5
643
330
5F8
100
AcDbEntity
  8
ADPDIM
 62
     0
370
    -2
100
AcDbLine
 10
10.2509350131823
 20
6.55847670439773
 30
0.0
 11
12.35510167984897
 21
6.55847670439773
 31
0.0
  0
LINE
  5
644
330
5F8
100
AcDbEntity
  8
ADPDIM
 62
     0
370
    -2
100
AcDbLine
 10
15.2509350131823
 20
6.55847670439773
 30
0.0
 11
13.14676834651564
 21
6.55847670439773
 31
0.0
  0
LINE
  5
645
330
5F8
100
AcDbEntity
  8
ADPDIM
 62
     0
370
    -2
100
AcDbLine
 10
15.1259350131823
 20
6.43347670439773
 30
0.0
 11
15.3759350131823
 21
6.68347670439773
 31
0.0
  0
LINE
  5
646
330
5F8
100
AcDbEntity
  8
ADPDIM
 62
     0
370
    -2
100
AcDbLine
 10
10.1259350131823
 20
6.43347670439773
 30
0.0
 11
10.3759350131823
 21
6.68347670439773
 31
0.0
  0
MTEXT
  5
647
330
5F8
100
AcDbEntity
  8
ADPDIM
 62
     0
100
AcDbMText
 10
12.7509350131823
 20
6.55847670439773
 30
0.0
 40
0.125
 41
0.0
 71
     5
 72
     1
  1
\A1;5.0000
 73
     1
 44
1.0
1001
ACAD
1000
MTEXTBEGIN
1070
    73
1070
     1
1070
    44
1040
1.0
1070
    74
1070
     0
1000
MTEXTEND
  0
POINT
  5
648
330
5F8
100
AcDbEntity
  8
DEFPOINTS
 62
     0
100
AcDbPoint
 10
10.2509350131823
 20
5.881264819032175
 30
0.0
  0
POINT
  5
649
330
5F8
100
AcDbEntity
  8
DEFPOINTS
 62
     0
100
AcDbPoint
 10
15.2509350131823
 20
5.881264819032175
 30
0.0
  0
POINT
  5
64A
330
5F8
100
AcDbEntity
  8
DEFPOINTS
 62
     0
100
AcDbPoint
 10
15.2509350131823
 20
6.55847670439773
 30
0.0
  0
ENDBLK
  5
604
330
5F8
100
AcDbEntity
  8
0
 62
     3
100
AcDbBlockEnd
  0
ENDSEC
  0
SECTION
  2
ENTITIES
  0
TEXT
  5
232
330
18
100
AcDbEntity
  8
ADPDIM
100
AcDbText
 10
7.01223210443991
 20
3.014568984981351
 30
0.0
 40
0.09375
  1
J U L I U S  B L U M  &  C O . ,  I N C .      ( 8 0 0 )  5 2 6 - 6 2 9 3        W W W . J U L I U S B L U M . C O M        P A R T  N o .  7 0 6 3
 41
1.25
  7
ARIAL_WIDE
 72
     1
 11
11.90652887285737
 21
3.108318984981351
 31
0.0
100
AcDbText
 73
     3
  0
LINE
  5
5CD
330
18
100
AcDbEntity
  8
ADP2DETAIL
  6
AI9-LType1
 62
     5
100
AcDbLine
 10
10.23898524807199
 20
4.589708058479205
 30
0.0
 11
15.25839649750787
 21
4.589708058479205
 31
0.0
  0
LINE
  5
5D0
330
18
100
AcDbEntity
  8
ADP1DETAIL
 62
     7
100
AcDbLine
 10
15.19565385688992
 20
6.006019688643652
 30
0.0
 11
15.25839649750787
 21
5.943277048025704
 31
0.0
  0
LINE
  5
5D1
330
18
100
AcDbEntity
  8
ADP1DETAIL
 62
     7
100
AcDbLine
 10
15.19565385688992
 20
4.501340059865821
 30
0.0
 11
15.25839649750787
 21
4.564082700483769
 31
0.0
  0
LINE
  5
5D2
330
18
100
AcDbEntity
  8
ADP1DETAIL
 62
     7
100
AcDbLine
 10
15.25839649750787
 20
4.564082700483769
 30
0.0
 11
15.25839649750787
 21
5.943277048025704
 31
0.0
  0
LINE
  5
5D3
330
18
100
AcDbEntity
  8
ADP1DETAIL
 62
     7
100
AcDbLine
 10
15.19565385688992
 20
4.501340059865821
 30
0.0
 11
15.19565385688992
 21
6.006019688643652
 31
0.0
  0
LINE
  5
5D4
330
18
100
AcDbEntity
  8
ADP1DETAIL
 62
     7
100
AcDbLine
 10
10.23898524807199
 20
5.943277048025704
 30
0.0
 11
10.30172788868993
 21
6.006019688643652
 31
0.0
  0
INSERT
  5
5D5
330
18
100
AcDbEntity
  8
ADP1DETAIL
 62
     7
100
AcDbBlockReference
  2
AI9-BLK8
 10
9.019966408032082
 20
5.276187162653492
 30
0.0
 41
0.0395229232239136
 42
0.0395229232239023
 43
0.0395229232239046
  0
LINE
  5
5D6
330
18
100
AcDbEntity
  8
ADP1DETAIL
 62
     7
100
AcDbLine
 10
10.23898524807199
 20
4.564082700483769
 30
0.0
 11
10.30172788868993
 21
4.501340059865821
 31
0.0
  0
LINE
  5
5D7
330
18
100
AcDbEntity
  8
ADP1DETAIL
 62
     7
100
AcDbLine
 10
10.23898524807199
 20
5.943277048025704
 30
0.0
 11
10.23898524807199
 21
4.564082700483769
 31
0.0
  0
LINE
  5
5D8
330
18
100
AcDbEntity
  8
ADP1DETAIL
 62
     7
100
AcDbLine
 10
10.30172788868993
 20
6.006019688643652
 30
0.0
 11
10.30172788868993
 21
4.501340059865821
 31
0.0
  0
LINE
  5
5D9
330
18
100
AcDbEntity
  8
ADP1DETAIL
 62
     7
100
AcDbLine
 10
10.30172788868993
 20
4.501340059865821
 30
0.0
 11
15.19565385688992
 21
4.501340059865821
 31
0.0
  0
LINE
  5
5DA
330
18
100
AcDbEntity
  8
ADP1DETAIL
 62
     7
100
AcDbLine
 10
15.19565385688992
 20
6.006019688643652
 30
0.0
 11
10.30172788868993
 21
6.006019688643652
 31
0.0
  0
DIMENSION
  5
5E9
330
18
100
AcDbEntity
  8
ADPDIM
 62
     3
100
AcDbDimension
  2
*D11
 10
9.763521842642123
 20
6.566384647819933
 30
0.0
 11
9.013521842642123
 21
6.566384647819933
 31
0.0
 70
    32
 71
     5
 42
1.5
  3
STANDARD
100
AcDbAlignedDimension
 13
8.263521842642123
 23
5.318903548846698
 33
0.0
 14
9.763521842642123
 24
5.318903548846698
 34
0.0
100
AcDbRotatedDimension
1001
ACAD
1000
DSTYLE
1002
{
1070
    41
1040
0.125
1070
    73
1070
     0
1070
    74
1070
     0
1070
    78
1070
     3
1070
   140
1040
0.125
1070
   141
1040
0.1875
1070
   142
1040
0.125
1070
   147
1040
0.125
1070
   171
1070
     1
1002
}
  0
DIMENSION
  5
5F7
330
18
100
AcDbEntity
  8
ADPDIM
 62
     3
100
AcDbDimension
  2
*D12
 10
15.2509350131823
 20
6.55847670439773
 30
0.0
 11
12.7509350131823
 21
6.55847670439773
 31
0.0
 70
    32
 71
     5
 42
5.0
  3
STANDARD
100
AcDbAlignedDimension
 13
10.2509350131823
 23
5.881264819032175
 33
0.0
 14
15.2509350131823
 24
5.881264819032175
 34
0.0
100
AcDbRotatedDimension
1001
ACAD
1000
DSTYLE
1002
{
1070
    41
1040
0.125
1070
    73
1070
     0
1070
    74
1070
     0
1070
    78
1070
     3
1070
   140
1040
0.125
1070
   141
1040
0.1875
1070
   142
1040
0.125
1070
   147
1040
0.125
1070
   171
1070
     1
1002
}
  0
ENDSEC
  0
SECTION
  2
OBJECTS
  0
DICTIONARY
  5
C
330
0
100
AcDbDictionary
281
     1
  3
ACAD_COLOR
350
3E1
  3
ACAD_GROUP
350
D
  3
ACAD_LAYOUT
350
22B
  3
ACAD_MATERIAL
350
3CC
  3
ACAD_MLINESTYLE
350
E
  3
ACAD_PLOTSETTINGS
350
22C
  3
ACAD_PLOTSTYLENAME
350
229
  3
ACAD_TABLESTYLE
350
3E2
  3
ACAD_VISUALSTYLE
350
3D0
  3
AcDbVariableDictionary
350
28C
  3
DWGPROPS
350
66A
  0
DICTIONARY
  5
286
330
18
100
AcDbDictionary
280
     1
281
     1
  3
ACAD_LAYOUTSELFREF
360
3C6
  0
DICTIONARY
  5
284
330
15
100
AcDbDictionary
280
     1
281
     1
  3
ACAD_LAYOUTSELFREF
360
3C5
  0
DICTIONARY
  5
3E1
102
{ACAD_REACTORS
330
C
102
}
330
C
100
AcDbDictionary
281
     1
  0
DICTIONARY
  5
D
102
{ACAD_REACTORS
330
C
102
}
330
C
100
AcDbDictionary
281
     1
  0
DICTIONARY
  5
22B
102
{ACAD_REACTORS
330
C
102
}
330
C
100
AcDbDictionary
281
     1
  3
Layout1
350
22E
  3
Model
350
22D
  0
DICTIONARY
  5
3CC
102
{ACAD_REACTORS
330
C
102
}
330
C
100
AcDbDictionary
281
     1
  3
ByBlock
350
3CE
  3
ByLayer
350
3CD
  3
Global
350
3CF
  0
DICTIONARY
  5
E
102
{ACAD_REACTORS
330
C
102
}
330
C
100
AcDbDictionary
281
     1
  3
STANDARD
350
1B
  0
DICTIONARY
  5
22C
102
{ACAD_REACTORS
330
C
102
}
330
C
100
AcDbDictionary
281
     1
  0
ACDBDICTIONARYWDFLT
  5
229
102
{ACAD_REACTORS
330
C
102
}
330
C
100
AcDbDictionary
281
     1
  3
Normal
350
22A
100
AcDbDictionaryWithDefault
340
22A
  0
DICTIONARY
  5
3E2
102
{ACAD_REACTORS
330
C
102
}
330
C
100
AcDbDictionary
281
     1
  3
Standard
350
3E3
  0
DICTIONARY
  5
3D0
102
{ACAD_REACTORS
330
C
102
}
330
C
100
AcDbDictionary
281
     1
  3
2dWireframe
350
3D6
  3
3D Hidden
350
3D8
  3
3dWireframe
350
3D7
  3
Basic
350
3D5
  3
Brighten
350
3DC
  3
ColorChange
350
3E0
  3
Conceptual
350
3D9
  3
Dim
350
3DB
  3
Facepattern
350
3DF
  3
Flat
350
3D1
  3
FlatWithEdges
350
3D2
  3
Gouraud
350
3D3
  3
GouraudWithEdges
350
3D4
  3
Linepattern
350
3DE
  3
Realistic
350
3DA
  3
Thicken
350
3DD
  0
DICTIONARY
  5
28C
102
{ACAD_REACTORS
330
C
102
}
330
C
100
AcDbDictionary
281
     1
  3
CTABLESTYLE
350
667
  3
DIMASSOC
350
28D
  3
INDEXCTL
350
669
  3
SORTENTS
350
668
  0
XRECORD
  5
66A
102
{ACAD_REACTORS
330
C
102
}
330
C
100
AcDbXrecord
280
     1
  1
DWGPROPS COOKIE
  2

  3

  4

  6

  7

  8
Yu Hu
  9

300
=
301
=
302
=
303
=
304
=
305
=
306
=
307
=
308
=
309
=
 40
0.0236494212962963
 41
2450415.456697523
 42
2453984.992474225
  1

 90
        0
  0
XRECORD
  5
3C6
102
{ACAD_REACTORS
330
286
102
}
330
286
100
AcDbXrecord
280
     1
340
18
  0
XRECORD
  5
3C5
102
{ACAD_REACTORS
330
284
102
}
330
284
100
AcDbXrecord
280
     1
340
15
  0
LAYOUT
  5
22E
102
{ACAD_XDICTIONARY
360
66D
102
}
102
{ACAD_REACTORS
330
22B
102
}
330
22B
100
AcDbPlotSettings
  1

  2
Fax
  4

  6

 40
0.0
 41
0.0
 42
0.0
 43
0.0
 44
0.0
 45
0.0
 46
0.0
 47
0.0
 48
0.0
 49
0.0
140
0.0
141
0.0
142
1.0
143
1.0
 70
   688
 72
     0
 73
     0
 74
     5
  7
Default R14 pen assignments.ctb
 75
    16
147
1.0
148
0.0
149
0.0
100
AcDbLayout
  1
Layout1
 70
     1
 71
     1
 10
0.0
 20
0.0
 11
12.0
 21
9.0
 12
0.0
 22
0.0
 32
0.0
 14
1.000000000000000E+20
 24
1.000000000000000E+20
 34
1.000000000000000E+20
 15
-1.000000000000000E+20
 25
-1.000000000000000E+20
 35
-1.000000000000000E+20
146
0.0
 13
0.0
 23
0.0
 33
0.0
 16
1.0
 26
0.0
 36
0.0
 17
0.0
 27
1.0
 37
0.0
 76
     0
330
15
  0
LAYOUT
  5
22D
102
{ACAD_XDICTIONARY
360
66B
102
}
102
{ACAD_REACTORS
330
22B
102
}
330
22B
100
AcDbPlotSettings
  1

  2
Fax
  4

  6

 40
0.0
 41
0.0
 42
0.0
 43
0.0
 44
0.0
 45
0.0
 46
0.0
 47
0.0
 48
0.0
 49
0.0
140
0.0
141
0.0
142
1.0
143
1.0
 70
  1712
 72
     0
 73
     0
 74
     0
  7
Default R14 pen assignments.ctb
 75
     0
147
1.0
148
0.0
149
0.0
100
AcDbLayout
  1
Model
 70
     1
 71
     0
 10
0.0
 20
0.0
 11
12.0
 21
9.0
 12
0.0
 22
0.0
 32
0.0
 14
0.0
 24
0.0
 34
0.0
 15
0.0
 25
0.0
 35
0.0
146
0.0
 13
0.0
 23
0.0
 33
0.0
 16
1.0
 26
0.0
 36
0.0
 17
0.0
 27
1.0
 37
0.0
 76
     0
330
18
331
3A0
  0
MATERIAL
  5
3CE
102
{ACAD_XDICTIONARY
360
671
102
}
102
{ACAD_REACTORS
330
3CC
102
}
330
3CC
100
AcDbMaterial
  1
ByBlock
  0
MATERIAL
  5
3CD
102
{ACAD_XDICTIONARY
360
66F
102
}
102
{ACAD_REACTORS
330
3CC
102
}
330
3CC
100
AcDbMaterial
  1
ByLayer
  0
MATERIAL
  5
3CF
102
{ACAD_XDICTIONARY
360
673
102
}
102
{ACAD_REACTORS
330
3CC
102
}
330
3CC
100
AcDbMaterial
  1
Global
  0
MLINESTYLE
  5
1B
102
{ACAD_REACTORS
330
E
102
}
330
E
100
AcDbMlineStyle
  2
STANDARD
 70
     0
  3

 62
     0
 51
90.0
 52
90.0
 71
     2
 49
0.5
 62
   256
  6
BYLAYER
 49
-0.5
 62
   256
  6
BYLAYER
  0
ACDBPLACEHOLDER
  5
22A
102
{ACAD_REACTORS
330
229
102
}
330
229
  0
TABLESTYLE
  5
3E3
102
{ACAD_XDICTIONARY
360
675
102
}
102
{ACAD_REACTORS
330
3E2
102
}
330
3E2
100
AcDbTableStyle
  3
Standard
 70
     0
 71
     0
 40
0.06
 41
0.06
280
     0
281
     0
  7
STANDARD
140
0.18
170
     2
 62
     0
 63
     7
283
     0
274
    -2
284
     1
 64
     0
275
    -2
285
     1
 65
     0
276
    -2
286
     1
 66
     0
277
    -2
287
     1
 67
     0
278
    -2
288
     1
 68
     0
279
    -2
289
     1
 69
     0
  7
STANDARD
140
0.25
170
     5
 62
     0
 63
     7
283
     0
274
    -2
284
     1
 64
     0
275
    -2
285
     1
 65
     0
276
    -2
286
     1
 66
     0
277
    -2
287
     1
 67
     0
278
    -2
288
     1
 68
     0
279
    -2
289
     1
 69
     0
  7
STANDARD
140
0.18
170
     5
 62
     0
 63
     7
283
     0
274
    -2
284
     1
 64
     0
275
    -2
285
     1
 65
     0
276
    -2
286
     1
 66
     0
277
    -2
287
     1
 67
     0
278
    -2
288
     1
 68
     0
279
    -2
289
     1
 69
     0
  0
VISUALSTYLE
  5
3D6
102
{ACAD_REACTORS
330
3D0
102
}
330
3D0
100
AcDbVisualStyle
  2
2dWireframe
 70
     4
 71
     0
 72
     2
 73
     0
 90
        0
 40
-0.6
 41
-30.0
 62
     5
 63
     7
 74
     1
 91
        4
 64
     7
 65
   257
 75
     1
175
     1
 42
1.0
 92
        0
 66
   257
 43
1.0
 76
     1
 77
     6
 78
     2
 67
     7
 79
     5
170
     0
171
     0
290
     0
174
     0
 93
        1
 44
0.0
173
     0
291
     0
 45
0.0
1001
ACAD
1000
AcDbSavedByObjectVersion
1070
     0
  0
VISUALSTYLE
  5
3D8
102
{ACAD_REACTORS
330
3D0
102
}
330
3D0
100
AcDbVisualStyle
  2
3D Hidden
 70
     6
 71
     1
 72
     2
 73
     2
 90
        0
 40
-0.6
 41
-30.0
 62
     5
 63
     7
 74
     2
 91
        2
 64
     7
 65
   257
 75
     2
175
     1
 42
40.0
 92
        0
 66
   257
 43
1.0
 76
     1
 77
     6
 78
     2
 67
     7
 79
     3
170
     0
171
     0
290
     0
174
     0
 93
        1
 44
0.0
173
     0
291
     0
 45
0.0
1001
ACAD
1000
AcDbSavedByObjectVersion
1070
     0
  0
VISUALSTYLE
  5
3D7
102
{ACAD_REACTORS
330
3D0
102
}
330
3D0
100
AcDbVisualStyle
  2
3dWireframe
 70
     5
 71
     0
 72
     2
 73
     0
 90
        0
 40
-0.6
 41
-30.0
 62
     5
 63
     7
 74
     1
 91
        4
 64
     7
 65
   257
 75
     1
175
     1
 42
1.0
 92
        0
 66
   257
 43
1.0
 76
     1
 77
     6
 78
     2
 67
     7
 79
     5
170
     0
171
     0
290
     0
174
     0
 93
        1
 44
0.0
173
     0
291
     0
 45
0.0
1001
ACAD
1000
AcDbSavedByObjectVersion
1070
     0
  0
VISUALSTYLE
  5
3D5
102
{ACAD_REACTORS
330
3D0
102
}
330
3D0
100
AcDbVisualStyle
  2
Basic
 70
     7
 71
     1
 72
     0
 73
     1
 90
        0
 40
-0.6
 41
-30.0
 62
     5
 63
     7
 74
     0
 91
        4
 64
     7
 65
   257
 75
     1
175
     1
 42
1.0
 92
        8
 66
     7
 43
1.0
 76
     1
 77
     6
 78
     2
 67
     7
 79
     5
170
     0
171
     0
290
     0
174
     0
 93
        1
 44
0.0
173
     0
291
     1
 45
0.0
1001
ACAD
1000
AcDbSavedByObjectVersion
1070
     0
  0
VISUALSTYLE
  5
3DC
102
{ACAD_REACTORS
330
3D0
102
}
330
3D0
100
AcDbVisualStyle
  2
Brighten
 70
    12
 71
     2
 72
     2
 73
     0
 90
        0
 40
-0.6
 41
-30.0
 62
     5
 63
     7
 74
     1
 91
        4
 64
     7
 65
   257
 75
     1
175
     1
 42
1.0
 92
        8
 66
     7
 43
1.0
 76
     1
 77
     6
 78
     2
 67
     7
 79
     5
170
     0
171
     0
290
     0
174
     0
 93
        1
 44
50.0
173
     0
291
     1
 45
0.0
1001
ACAD
1000
AcDbSavedByObjectVersion
1070
     0
  0
VISUALSTYLE
  5
3E0
102
{ACAD_REACTORS
330
3D0
102
}
330
3D0
100
AcDbVisualStyle
  2
ColorChange
 70
    16
 71
     2
 72
     2
 73
     3
 90
        0
 40
-0.6
 41
-30.0
 62
     5
 63
     8
 74
     1
 91
        4
 64
     7
 65
   257
 75
     1
175
     1
 42
1.0
 92
        8
 66
     8
 43
1.0
 76
     1
 77
     6
 78
     2
 67
     7
 79
     5
170
     0
171
     0
290
     0
174
     0
 93
        1
 44
0.0
173
     0
291
     1
 45
0.0
1001
ACAD
1000
AcDbSavedByObjectVersion
1070
     0
  0
VISUALSTYLE
  5
3D9
102
{ACAD_REACTORS
330
3D0
102
}
330
3D0
100
AcDbVisualStyle
  2
Conceptual
 70
     9
 71
     3
 72
     2
 73
     0
 90
        0
 40
-0.6
 41
-30.0
 62
     5
 63
     7
 74
     2
 91
        2
 64
     7
 65
   257
 75
     1
175
     1
 42
40.0
 92
        8
 66
     7
 43
1.0
 76
     1
 77
     6
 78
     2
 67
     7
 79
     3
170
     0
171
     0
290
     0
174
     0
 93
        1
 44
0.0
173
     0
291
     0
 45
0.0
1001
ACAD
1000
AcDbSavedByObjectVersion
1070
     0
  0
VISUALSTYLE
  5
3DB
102
{ACAD_REACTORS
330
3D0
102
}
330
3D0
100
AcDbVisualStyle
  2
Dim
 70
    11
 71
     2
 72
     2
 73
     0
 90
        0
 40
-0.6
 41
-30.0
 62
     5
 63
     7
 74
     1
 91
        4
 64
     7
 65
   257
 75
     1
175
     1
 42
1.0
 92
        8
 66
     7
 43
1.0
 76
     1
 77
     6
 78
     2
 67
     7
 79
     5
170
     0
171
     0
290
     0
174
     0
 93
        1
 44
-50.0
173
     0
291
     1
 45
0.0
1001
ACAD
1000
AcDbSavedByObjectVersion
1070
     0
  0
VISUALSTYLE
  5
3DF
102
{ACAD_REACTORS
330
3D0
102
}
330
3D0
100
AcDbVisualStyle
  2
Facepattern
 70
    15
 71
     2
 72
     2
 73
     0
 90
        0
 40
-0.6
 41
-30.0
 62
     5
 63
     7
 74
     1
 91
        4
 64
     7
 65
   257
 75
     1
175
     1
 42
1.0
 92
        8
 66
     7
 43
1.0
 76
     1
 77
     6
 78
     2
 67
     7
 79
     5
170
     0
171
     0
290
     0
174
     0
 93
        1
 44
0.0
173
     0
291
     1
 45
0.0
1001
ACAD
1000
AcDbSavedByObjectVersion
1070
     0
  0
VISUALSTYLE
  5
3D1
102
{ACAD_REACTORS
330
3D0
102
}
330
3D0
100
AcDbVisualStyle
  2
Flat
 70
     0
 71
     2
 72
     1
 73
     1
 90
        2
 40
-0.6
 41
30.0
 62
     5
 63
     7
 74
     0
 91
        4
 64
     7
 65
   257
 75
     1
175
     1
 42
1.0
 92
        8
 66
     7
 43
1.0
 76
     1
 77
     6
 78
     2
 67
     7
 79
     5
170
     0
171
     0
290
     0
174
     0
 93
       13
 44
0.0
173
     0
291
     1
 45
0.0
1001
ACAD
1000
AcDbSavedByObjectVersion
1070
     0
  0
VISUALSTYLE
  5
3D2
102
{ACAD_REACTORS
330
3D0
102
}
330
3D0
100
AcDbVisualStyle
  2
FlatWithEdges
 70
     1
 71
     2
 72
     1
 73
     1
 90
        2
 40
-0.6
 41
30.0
 62
     5
 63
     7
 74
     1
 91
        4
 64
     7
 65
   257
 75
     1
175
     1
 42
1.0
 92
        0
 66
   257
 43
1.0
 76
     1
 77
     6
 78
     2
 67
     7
 79
     5
170
     0
171
     0
290
     0
174
     0
 93
       13
 44
0.0
173
     0
291
     1
 45
0.0
1001
ACAD
1000
AcDbSavedByObjectVersion
1070
     0
  0
VISUALSTYLE
  5
3D3
102
{ACAD_REACTORS
330
3D0
102
}
330
3D0
100
AcDbVisualStyle
  2
Gouraud
 70
     2
 71
     2
 72
     2
 73
     1
 90
        2
 40
-0.6
 41
30.0
 62
     5
 63
     7
 74
     0
 91
        4
 64
     7
 65
   257
 75
     1
175
     1
 42
1.0
 92
        0
 66
     7
 43
1.0
 76
     1
 77
     6
 78
     2
 67
     7
 79
     5
170
     0
171
     0
290
     0
174
     0
 93
       13
 44
0.0
173
     0
291
     1
 45
0.0
1001
ACAD
1000
AcDbSavedByObjectVersion
1070
     0
  0
VISUALSTYLE
  5
3D4
102
{ACAD_REACTORS
330
3D0
102
}
330
3D0
100
AcDbVisualStyle
  2
GouraudWithEdges
 70
     3
 71
     2
 72
     2
 73
     1
 90
        2
 40
-0.6
 41
30.0
 62
     5
 63
     7
 74
     1
 91
        4
 64
     7
 65
   257
 75
     1
175
     1
 42
1.0
 92
        0
 66
   257
 43
1.0
 76
     1
 77
     6
 78
     2
 67
     7
 79
     5
170
     0
171
     0
290
     0
174
     0
 93
       13
 44
0.0
173
     0
291
     1
 45
0.0
1001
ACAD
1000
AcDbSavedByObjectVersion
1070
     0
  0
VISUALSTYLE
  5
3DE
102
{ACAD_REACTORS
330
3D0
102
}
330
3D0
100
AcDbVisualStyle
  2
Linepattern
 70
    14
 71
     2
 72
     2
 73
     0
 90
        0
 40
-0.6
 41
-30.0
 62
     5
 63
     7
 74
     1
 91
        4
 64
     7
 65
   257
 75
     7
175
     7
 42
1.0
 92
        8
 66
     7
 43
1.0
 76
     1
 77
     6
 78
     2
 67
     7
 79
     5
170
     0
171
     0
290
     0
174
     0
 93
        1
 44
0.0
173
     0
291
     1
 45
0.0
1001
ACAD
1000
AcDbSavedByObjectVersion
1070
     0
  0
VISUALSTYLE
  5
3DA
102
{ACAD_REACTORS
330
3D0
102
}
330
3D0
100
AcDbVisualStyle
  2
Realistic
 70
     8
 71
     2
 72
     2
 73
     0
 90
        0
 40
-0.6
 41
-30.0
 62
     5
 63
     7
 74
     1
 91
        0
 64
     7
 65
   257
 75
     1
175
     1
 42
1.0
 92
        8
 66
     8
 43
1.0
 76
     1
 77
     6
 78
     2
 67
     7
 79
     5
170
     0
171
     0
290
     0
174
     0
 93
       13
 44
0.0
173
     0
291
     0
 45
0.0
1001
ACAD
1000
AcDbSavedByObjectVersion
1070
     0
  0
VISUALSTYLE
  5
3DD
102
{ACAD_REACTORS
330
3D0
102
}
330
3D0
100
AcDbVisualStyle
  2
Thicken
 70
    13
 71
     2
 72
     2
 73
     0
 90
        0
 40
-0.6
 41
-30.0
 62
     5
 63
     7
 74
     1
 91
        4
 64
     7
 65
   257
 75
     1
175
     1
 42
1.0
 92
       12
 66
     7
 43
1.0
 76
     1
 77
     6
 78
     2
 67
     7
 79
     5
170
     0
171
     0
290
     0
174
     0
 93
        1
 44
0.0
173
     0
291
     1
 45
0.0
1001
ACAD
1000
AcDbSavedByObjectVersion
1070
     0
  0
DICTIONARYVAR
  5
667
102
{ACAD_REACTORS
330
28C
102
}
330
28C
100
DictionaryVariables
280
     0
  1
STANDARD
  0
DICTIONARYVAR
  5
28D
102
{ACAD_REACTORS
330
28C
102
}
330
28C
100
DictionaryVariables
280
     0
  1
1
  0
DICTIONARYVAR
  5
669
102
{ACAD_REACTORS
330
28C
102
}
330
28C
100
DictionaryVariables
280
     0
  1
0
  0
DICTIONARYVAR
  5
668
102
{ACAD_REACTORS
330
28C
102
}
330
28C
100
DictionaryVariables
280
     0
  1
127
  0
DICTIONARY
  5
66D
330
22E
100
AcDbDictionary
280
     1
281
     1
  3
ACAD_XREC_ROUNDTRIP
360
66E
  0
DICTIONARY
  5
66B
330
22D
100
AcDbDictionary
280
     1
281
     1
  3
ACAD_XREC_ROUNDTRIP
360
66C
  0
DICTIONARY
  5
671
330
3CE
100
AcDbDictionary
280
     1
281
     1
  3
ACAD_XREC_ROUNDTRIP
360
672
  0
DICTIONARY
  5
66F
330
3CD
100
AcDbDictionary
280
     1
281
     1
  3
ACAD_XREC_ROUNDTRIP
360
670
  0
DICTIONARY
  5
673
330
3CF
100
AcDbDictionary
280
     1
281
     1
  3
ACAD_XREC_ROUNDTRIP
360
674
  0
DICTIONARY
  5
675
330
3E3
100
AcDbDictionary
280
     1
281
     1
  3
ACAD_XREC_ROUNDTRIP
360
676
  0
XRECORD
  5
66E
102
{ACAD_REACTORS
330
66D
102
}
330
66D
100
AcDbXrecord
280
     1
102
SHADEPLOT
 70
     0
102
SHADEPLOTRESLEVEL
 70
     2
102
SHADEPLOTCUSTOMDPI
 70
   300
  0
XRECORD
  5
66C
102
{ACAD_REACTORS
330
66B
102
}
330
66B
100
AcDbXrecord
280
     1
102
SHADEPLOT
 70
     0
102
SHADEPLOTRESLEVEL
 70
     2
102
SHADEPLOTCUSTOMDPI
 70
   300
  0
XRECORD
  5
672
102
{ACAD_REACTORS
330
671
102
}
330
671
100
AcDbXrecord
280
     1
102
MATERIAL
148
0.0
149
0.0
149
0.0
 93
        0
 94
       63
282
     0
 72
     1
 77
     1
171
     1
175
     1
179
     1
273
     0
  0
XRECORD
  5
670
102
{ACAD_REACTORS
330
66F
102
}
330
66F
100
AcDbXrecord
280
     1
102
MATERIAL
148
0.0
149
0.0
149
0.0
 93
        0
 94
       63
282
     0
 72
     1
 77
     1
171
     1
175
     1
179
     1
273
     0
  0
XRECORD
  5
674
102
{ACAD_REACTORS
330
673
102
}
330
673
100
AcDbXrecord
280
     1
102
MATERIAL
148
0.0
149
0.0
149
0.0
 93
        0
 94
       63
282
     0
 72
     1
 77
     1
171
     1
175
     1
179
     1
273
     0
  0
XRECORD
  5
676
102
{ACAD_REACTORS
330
675
102
}
330
675
100
AcDbXrecord
280
     1
102
ACAD_ROUNDTRIP_PRE2007_TABLESTYLE
 90
      512
 91
        0
  1

 92
      512
 93
        0
  2

 94
      512
 95
        0
  3

  0
ENDSEC
  0
EOF
