  0
SECTION
  2
HEADER
  9
$ACADVER
  1
AC1015
  9
$ACADMAINTVER
 70
    20
  9
$DWGCODEPAGE
  3
ANSI_1252
  9
$INSBASE
 10
0.2742779227220063
 20
2.087961229901881
 30
0.0
  9
$EXTMIN
 10
-6.392153705250044
 20
-1.325220904956016
 30
0.0
  9
$EXTMAX
 10
6.477261369784062
 20
4.471463831817709
 30
0.0
  9
$LIMMIN
 10
0.0
 20
0.0
  9
$LIMMAX
 10
36.0
 20
36.0
  9
$ORTHOMODE
 70
     1
  9
$REGENMODE
 70
     1
  9
$FILLMODE
 70
     1
  9
$QTEXTMODE
 70
     0
  9
$MIRRTEXT
 70
     1
  9
$LTSCALE
 40
1.0
  9
$ATTMODE
 70
     1
  9
$TEXTSIZE
 40
0.2
  9
$TRACEWID
 40
0.05
  9
$TEXTSTYLE
  7
STANDARD
  9
$CLAYER
  8
0
  9
$CELTYPE
  6
BYLAYER
  9
$CECOLOR
 62
   256
  9
$CELTSCALE
 40
1.0
  9
$DISPSILH
 70
     0
  9
$DIMSCALE
 40
1.0
  9
$DIMASZ
 40
0.125
  9
$DIMEXO
 40
0.0625
  9
$DIMDLI
 40
0.38
  9
$DIMRND
 40
0.0
  9
$DIMDLE
 40
0.0
  9
$DIMEXE
 40
0.18
  9
$DIMTP
 40
0.0
  9
$DIMTM
 40
0.0
  9
$DIMTXT
 40
0.125
  9
$DIMCEN
 40
0.1875
  9
$DIMTSZ
 40
0.125
  9
$DIMTOL
 70
     0
  9
$DIMLIM
 70
     0
  9
$DIMTIH
 70
     0
  9
$DIMTOH
 70
     0
  9
$DIMSE1
 70
     0
  9
$DIMSE2
 70
     0
  9
$DIMTAD
 70
     0
  9
$DIMZIN
 70
     3
  9
$DIMBLK
  1

  9
$DIMASO
 70
     1
  9
$DIMSHO
 70
     1
  9
$DIMPOST
  1

  9
$DIMAPOST
  1

  9
$DIMALT
 70
     0
  9
$DIMALTD
 70
     1
  9
$DIMALTF
 40
25.4
  9
$DIMLFAC
 40
1.0
  9
$DIMTOFL
 70
     0
  9
$DIMTVP
 40
0.0
  9
$DIMTIX
 70
     0
  9
$DIMSOXD
 70
     0
  9
$DIMSAH
 70
     0
  9
$DIMBLK1
  1

  9
$DIMBLK2
  1

  9
$DIMSTYLE
  2
STANDARD
  9
$DIMCLRD
 70
     0
  9
$DIMCLRE
 70
     0
  9
$DIMCLRT
 70
     0
  9
$DIMTFAC
 40
1.0
  9
$DIMGAP
 40
0.125
  9
$DIMJUST
 70
     0
  9
$DIMSD1
 70
     0
  9
$DIMSD2
 70
     0
  9
$DIMTOLJ
 70
     1
  9
$DIMTZIN
 70
     0
  9
$DIMALTZ
 70
     0
  9
$DIMALTTZ
 70
     0
  9
$DIMUPT
 70
     0
  9
$DIMDEC
 70
     4
  9
$DIMTDEC
 70
     4
  9
$DIMALTU
 70
     2
  9
$DIMALTTD
 70
     2
  9
$DIMTXSTY
  7
STANDARD
  9
$DIMAUNIT
 70
     0
  9
$DIMADEC
 70
     0
  9
$DIMALTRND
 40
0.0
  9
$DIMAZIN
 70
     0
  9
$DIMDSEP
 70
    46
  9
$DIMATFIT
 70
     3
  9
$DIMFRAC
 70
     0
  9
$DIMLDRBLK
  1

  9
$DIMLUNIT
 70
     2
  9
$DIMLWD
 70
    -2
  9
$DIMLWE
 70
    -2
  9
$DIMTMOVE
 70
     0
  9
$LUNITS
 70
     5
  9
$LUPREC
 70
     4
  9
$SKETCHINC
 40
0.1
  9
$FILLETRAD
 40
0.187
  9
$AUNITS
 70
     0
  9
$AUPREC
 70
     0
  9
$MENU
  1
acad
  9
$ELEVATION
 40
0.0
  9
$PELEVATION
 40
0.0
  9
$THICKNESS
 40
0.0
  9
$LIMCHECK
 70
     0
  9
$CHAMFERA
 40
0.0
  9
$CHAMFERB
 40
0.0
  9
$CHAMFERC
 40
0.0
  9
$CHAMFERD
 40
0.0
  9
$SKPOLY
 70
     0
  9
$TDCREATE
 40
2450387.655867084
  9
$TDUCREATE
 40
2450387.822533750
  9
$TDUPDATE
 40
2453956.947913727
  9
$TDUUPDATE
 40
2453957.114580394
  9
$TDINDWG
 40
0.0219980556
  9
$TDUSRTIMER
 40
0.0219980556
  9
$USRTIMER
 70
     1
  9
$ANGBASE
 50
0.0
  9
$ANGDIR
 70
     0
  9
$PDMODE
 70
     0
  9
$PDSIZE
 40
0.0
  9
$PLINEWID
 40
0.0
  9
$SPLFRAME
 70
     0
  9
$SPLINETYPE
 70
     6
  9
$SPLINESEGS
 70
     8
  9
$HANDSEED
  5
366
  9
$SURFTAB1
 70
     6
  9
$SURFTAB2
 70
     6
  9
$SURFTYPE
 70
     6
  9
$SURFU
 70
     6
  9
$SURFV
 70
     6
  9
$UCSBASE
  2

  9
$UCSNAME
  2

  9
$UCSORG
 10
0.0
 20
0.0
 30
0.0
  9
$UCSXDIR
 10
1.0
 20
0.0
 30
0.0
  9
$UCSYDIR
 10
0.0
 20
1.0
 30
0.0
  9
$UCSORTHOREF
  2

  9
$UCSORTHOVIEW
 70
     0
  9
$UCSORGTOP
 10
0.0
 20
0.0
 30
0.0
  9
$UCSORGBOTTOM
 10
0.0
 20
0.0
 30
0.0
  9
$UCSORGLEFT
 10
0.0
 20
0.0
 30
0.0
  9
$UCSORGRIGHT
 10
0.0
 20
0.0
 30
0.0
  9
$UCSORGFRONT
 10
0.0
 20
0.0
 30
0.0
  9
$UCSORGBACK
 10
0.0
 20
0.0
 30
0.0
  9
$PUCSBASE
  2

  9
$PUCSNAME
  2

  9
$PUCSORG
 10
0.0
 20
0.0
 30
0.0
  9
$PUCSXDIR
 10
1.0
 20
0.0
 30
0.0
  9
$PUCSYDIR
 10
0.0
 20
1.0
 30
0.0
  9
$PUCSORTHOREF
  2

  9
$PUCSORTHOVIEW
 70
     0
  9
$PUCSORGTOP
 10
0.0
 20
0.0
 30
0.0
  9
$PUCSORGBOTTOM
 10
0.0
 20
0.0
 30
0.0
  9
$PUCSORGLEFT
 10
0.0
 20
0.0
 30
0.0
  9
$PUCSORGRIGHT
 10
0.0
 20
0.0
 30
0.0
  9
$PUCSORGFRONT
 10
0.0
 20
0.0
 30
0.0
  9
$PUCSORGBACK
 10
0.0
 20
0.0
 30
0.0
  9
$USERI1
 70
     0
  9
$USERI2
 70
     0
  9
$USERI3
 70
     0
  9
$USERI4
 70
     0
  9
$USERI5
 70
     0
  9
$USERR1
 40
0.0
  9
$USERR2
 40
0.0
  9
$USERR3
 40
0.0
  9
$USERR4
 40
0.0
  9
$USERR5
 40
0.0
  9
$WORLDVIEW
 70
     1
  9
$SHADEDGE
 70
     3
  9
$SHADEDIF
 70
    70
  9
$TILEMODE
 70
     1
  9
$MAXACTVP
 70
    15
  9
$PINSBASE
 10
0.0
 20
0.0
 30
0.0
  9
$PLIMCHECK
 70
     0
  9
$PEXTMIN
 10
1.000000000000000E+20
 20
1.000000000000000E+20
 30
1.000000000000000E+20
  9
$PEXTMAX
 10
-1.000000000000000E+20
 20
-1.000000000000000E+20
 30
-1.000000000000000E+20
  9
$PLIMMIN
 10
0.0
 20
0.0
  9
$PLIMMAX
 10
12.0
 20
9.0
  9
$UNITMODE
 70
     0
  9
$VISRETAIN
 70
     0
  9
$PLINEGEN
 70
     0
  9
$PSLTSCALE
 70
     1
  9
$TREEDEPTH
 70
  3020
  9
$CMLSTYLE
  2
STANDARD
  9
$CMLJUST
 70
     0
  9
$CMLSCALE
 40
1.0
  9
$PROXYGRAPHICS
 70
     1
  9
$MEASUREMENT
 70
     0
  9
$CELWEIGHT
370
    -1
  9
$ENDCAPS
280
     0
  9
$JOINSTYLE
280
     0
  9
$LWDISPLAY
290
     0
  9
$INSUNITS
 70
     0
  9
$HYPERLINKBASE
  1

  9
$STYLESHEET
  1

  9
$XEDIT
290
     1
  9
$CEPSNTYPE
380
     0
  9
$PSTYLEMODE
290
     1
  9
$FINGERPRINTGUID
  2
{19F64A67-E858-4088-AD5F-B4FD066949C7}
  9
$VERSIONGUID
  2
{E50209FA-5924-4A50-99D9-C55BC8B8B1C7}
  9
$EXTNAMES
290
     1
  9
$PSVPSCALE
 40
0.0
  9
$OLESTARTUP
290
     0
  0
ENDSEC
  0
SECTION
  2
CLASSES
  0
CLASS
  1
ACDBDICTIONARYWDFLT
  2
AcDbDictionaryWithDefault
  3
ObjectDBX Classes
 90
        0
280
     0
281
     0
  0
CLASS
  1
ACDBPLACEHOLDER
  2
AcDbPlaceHolder
  3
ObjectDBX Classes
 90
        0
280
     0
281
     0
  0
CLASS
  1
LAYOUT
  2
AcDbLayout
  3
ObjectDBX Classes
 90
        0
280
     0
281
     0
  0
CLASS
  1
DICTIONARYVAR
  2
AcDbDictionaryVar
  3
ObjectDBX Classes
 90
        0
280
     0
281
     0
  0
CLASS
  1
MATERIAL
  2
AcDbMaterial
  3
ObjectDBX Classes
 90
     1024
280
     0
281
     0
  0
CLASS
  1
VISUALSTYLE
  2
AcDbVisualStyle
  3
ObjectDBX Classes
 90
     4095
280
     0
281
     0
  0
CLASS
  1
TABLESTYLE
  2
AcDbTableStyle
  3
ObjectDBX Classes
 90
     4095
280
     0
281
     0
  0
ENDSEC
  0
SECTION
  2
TABLES
  0
TABLE
  2
VPORT
  5
8
330
0
100
AcDbSymbolTable
 70
     1
  0
VPORT
  5
261
330
8
100
AcDbSymbolTableRecord
100
AcDbViewportTableRecord
  2
*Active
 70
     0
 10
0.0
 20
0.0
 11
1.0
 21
1.0
 12
0.0802263278130884
 22
1.684584842209499
 13
0.0
 23
0.0
 14
0.5740882589684922
 24
0.5740882589684922
 15
0.5
 25
0.5
 16
0.0
 26
0.0
 36
1.0
 17
0.0
 27
0.0
 37
0.0
 40
8.280120352892971
 41
1.774011299435028
 42
50.0
 43
0.0
 44
0.0
 50
0.0
 51
0.0
 71
     0
 72
   100
 73
     1
 74
     0
 75
     0
 76
     0
 77
     0
 78
     0
281
     0
 65
     1
110
0.0
120
0.0
130
0.0
111
1.0
121
0.0
131
0.0
112
0.0
122
1.0
132
0.0
 79
     0
146
0.0
  0
ENDTAB
  0
TABLE
  2
LTYPE
  5
5
330
0
100
AcDbSymbolTable
 70
     1
  0
LTYPE
  5
12
330
5
100
AcDbSymbolTableRecord
100
AcDbLinetypeTableRecord
  2
BYBLOCK
 70
     0
  3

 72
    65
 73
     0
 40
0.0
  0
LTYPE
  5
13
330
5
100
AcDbSymbolTableRecord
100
AcDbLinetypeTableRecord
  2
BYLAYER
 70
     0
  3

 72
    65
 73
     0
 40
0.0
  0
LTYPE
  5
14
330
5
100
AcDbSymbolTableRecord
100
AcDbLinetypeTableRecord
  2
CONTINUOUS
 70
     0
  3
Solid line
 72
    65
 73
     0
 40
0.0
  0
ENDTAB
  0
TABLE
  2
LAYER
  5
2
330
0
100
AcDbSymbolTable
 70
     4
  0
LAYER
  5
F
330
2
100
AcDbSymbolTableRecord
100
AcDbLayerTableRecord
  2
0
 70
     0
 62
     7
  6
CONTINUOUS
370
    -3
390
116
  0
LAYER
  5
79
330
2
100
AcDbSymbolTableRecord
100
AcDbLayerTableRecord
  2
ADP1DETAIL
 70
     0
 62
     7
  6
CONTINUOUS
370
    -3
390
116
  0
LAYER
  5
7B
330
2
100
AcDbSymbolTableRecord
100
AcDbLayerTableRecord
  2
DEFPOINTS
 70
     0
 62
     7
  6
CONTINUOUS
290
     0
370
    -3
390
116
  0
LAYER
  5
7C
330
2
100
AcDbSymbolTableRecord
100
AcDbLayerTableRecord
  2
ADPDIM
 70
     0
 62
     3
  6
CONTINUOUS
370
    -3
390
116
  0
ENDTAB
  0
TABLE
  2
STYLE
  5
3
330
0
100
AcDbSymbolTable
 70
     2
  0
STYLE
  5
10
330
3
100
AcDbSymbolTableRecord
100
AcDbTextStyleTableRecord
  2
STANDARD
 70
     0
 40
0.0
 41
1.0
 50
0.0
 71
     0
 42
0.2
  3
txt
  4

  0
STYLE
  5
11D
330
3
100
AcDbSymbolTableRecord
100
AcDbTextStyleTableRecord
  2
ARIAL_WIDE
 70
     0
 40
0.0
 41
1.25
 50
0.0
 71
     0
 42
0.2
  3
ARIAL.TTF
  4

1001
ACAD
1000
Arial
1071
       34
  0
ENDTAB
  0
TABLE
  2
VIEW
  5
6
330
0
100
AcDbSymbolTable
 70
     0
  0
ENDTAB
  0
TABLE
  2
UCS
  5
7
330
0
100
AcDbSymbolTable
 70
     0
  0
ENDTAB
  0
TABLE
  2
APPID
  5
9
330
0
100
AcDbSymbolTable
 70
     1
  0
APPID
  5
11
330
9
100
AcDbSymbolTableRecord
100
AcDbRegAppTableRecord
  2
ACAD
 70
     0
  0
ENDTAB
  0
TABLE
  2
DIMSTYLE
  5
A
330
0
100
AcDbSymbolTable
 70
     1
100
AcDbDimStyleTable
 71
     1
340
111
  0
DIMSTYLE
105
111
102
{ACAD_REACTORS
330
2A8
330
2B6
102
}
330
A
100
AcDbSymbolTableRecord
100
AcDbDimStyleTableRecord
  2
STANDARD
 70
     0
340
10
  0
ENDTAB
  0
TABLE
  2
BLOCK_RECORD
  5
1
330
0
100
AcDbSymbolTable
 70
     7
  0
BLOCK_RECORD
  5
18
102
{ACAD_XDICTIONARY
360
172
102
}
330
1
100
AcDbSymbolTableRecord
100
AcDbBlockTableRecord
  2
*MODEL_SPACE
340
119
  0
BLOCK_RECORD
  5
15
102
{ACAD_XDICTIONARY
360
170
102
}
330
1
100
AcDbSymbolTableRecord
100
AcDbBlockTableRecord
  2
*PAPER_SPACE
340
11A
  0
BLOCK_RECORD
  5
71
330
1
100
AcDbSymbolTableRecord
100
AcDbBlockTableRecord
  2
*D0
340
0
  0
BLOCK_RECORD
  5
72
330
1
100
AcDbSymbolTableRecord
100
AcDbBlockTableRecord
  2
*D1
340
0
  0
BLOCK_RECORD
  5
73
330
1
100
AcDbSymbolTableRecord
100
AcDbBlockTableRecord
  2
*D2
340
0
  0
BLOCK_RECORD
  5
74
330
1
100
AcDbSymbolTableRecord
100
AcDbBlockTableRecord
  2
*D3
340
0
  0
BLOCK_RECORD
  5
75
330
1
100
AcDbSymbolTableRecord
100
AcDbBlockTableRecord
  2
*D4
340
0
  0
BLOCK_RECORD
  5
2A9
330
1
100
AcDbSymbolTableRecord
100
AcDbBlockTableRecord
  2
*D5
340
0
  0
BLOCK_RECORD
  5
2B7
330
1
100
AcDbSymbolTableRecord
100
AcDbBlockTableRecord
  2
*D6
340
0
  0
ENDTAB
  0
ENDSEC
  0
SECTION
  2
BLOCKS
  0
BLOCK
  5
7F
330
18
100
AcDbEntity
  8
0
100
AcDbBlockBegin
  2
*MODEL_SPACE
 70
     0
 10
0.0
 20
0.0
 30
0.0
  3
*MODEL_SPACE
  1

  0
ENDBLK
  5
80
330
18
100
AcDbEntity
  8
0
100
AcDbBlockEnd
  0
BLOCK
  5
7D
330
15
100
AcDbEntity
 67
     1
  8
0
100
AcDbBlockBegin
  2
*PAPER_SPACE
 70
     0
 10
0.0
 20
0.0
 30
0.0
  3
*PAPER_SPACE
  1

  0
ENDBLK
  5
7E
330
15
100
AcDbEntity
 67
     1
  8
0
100
AcDbBlockEnd
  0
BLOCK
  5
82
330
71
100
AcDbEntity
  8
0
100
AcDbBlockBegin
  2
*D0
 70
     1
 10
0.0
 20
0.0
 30
0.0
  3
*D0
  1

  0
LINE
  5
83
330
71
100
AcDbEntity
  8
0
  6
ByBlock
 62
     0
100
AcDbLine
 10
0.1697548028276605
 20
1.42488697888948
 30
0.0
 11
-1.709986472324774
 21
1.42488697888948
 31
0.0
  0
LINE
  5
84
330
71
100
AcDbEntity
  8
0
  6
ByBlock
 62
     0
100
AcDbLine
 10
0.1697548028276605
 20
-0.4751130211105199
 30
0.0
 11
-1.709986472324774
 21
-0.4751130211105198
 31
0.0
  0
LINE
  5
85
330
71
100
AcDbEntity
  8
0
  6
ByBlock
 62
     0
100
AcDbLine
 10
-1.529986472324774
 20
1.42488697888948
 30
0.0
 11
-1.529986472324774
 21
0.8082203122228134
 31
0.0
  0
LINE
  5
86
330
71
100
AcDbEntity
  8
0
  6
ByBlock
 62
     0
100
AcDbLine
 10
-1.529986472324774
 20
-0.4751130211105198
 30
0.0
 11
-1.529986472324774
 21
0.1415536455561469
 31
0.0
  0
LINE
  5
87
330
71
100
AcDbEntity
  8
0
  6
ByBlock
 62
     0
100
AcDbLine
 10
-1.404986472324774
 20
1.29988697888948
 30
0.0
 11
-1.654986472324774
 21
1.54988697888948
 31
0.0
  0
LINE
  5
88
330
71
100
AcDbEntity
  8
0
  6
ByBlock
 62
     0
100
AcDbLine
 10
-1.404986472324774
 20
-0.6001130211105198
 30
0.0
 11
-1.654986472324774
 21
-0.3501130211105198
 31
0.0
  0
TEXT
  5
89
330
71
100
AcDbEntity
  8
0
  6
ByBlock
 62
     0
100
AcDbText
 10
-1.467486472324774
 20
0.2665536455561469
 30
0.0
 40
0.125
  1
1.900
 50
90.0
 72
     1
 11
-1.529986472324774
 21
0.4748869788894802
 31
0.0
100
AcDbText
 73
     2
  0
POINT
  5
8A
330
71
100
AcDbEntity
  8
DEFPOINTS
  6
ByBlock
 62
     0
100
AcDbPoint
 10
0.2322548028276605
 20
1.42488697888948
 30
0.0
  0
POINT
  5
8B
330
71
100
AcDbEntity
  8
DEFPOINTS
  6
ByBlock
 62
     0
100
AcDbPoint
 10
0.2322548028276605
 20
-0.4751130211105199
 30
0.0
  0
POINT
  5
8C
330
71
100
AcDbEntity
  8
DEFPOINTS
  6
ByBlock
 62
     0
100
AcDbPoint
 10
-1.529986472324774
 20
-0.4751130211105198
 30
0.0
  0
ENDBLK
  5
8D
330
71
100
AcDbEntity
  8
0
100
AcDbBlockEnd
  0
BLOCK
  5
8E
330
72
100
AcDbEntity
  8
0
100
AcDbBlockBegin
  2
*D1
 70
     1
 10
0.0
 20
0.0
 30
0.0
  3
*D1
  1

  0
LINE
  5
8F
330
72
100
AcDbEntity
  8
0
  6
ByBlock
 62
     0
100
AcDbLine
 10
0.2322548028276605
 20
4.05046122990188
 30
0.0
 11
0.2322548028276605
 21
4.471463831817709
 31
0.0
  0
LINE
  5
90
330
72
100
AcDbEntity
  8
0
  6
ByBlock
 62
     0
100
AcDbLine
 10
-0.8927451971723394
 20
3.76421122990188
 30
0.0
 11
-0.8927451971723394
 21
4.471463831817709
 31
0.0
  0
LINE
  5
91
330
72
100
AcDbEntity
  8
0
  6
ByBlock
 62
     0
100
AcDbLine
 10
0.2322548028276605
 20
4.29146383181771
 30
0.0
 11
0.4822548028276606
 21
4.29146383181771
 31
0.0
  0
LINE
  5
92
330
72
100
AcDbEntity
  8
0
  6
ByBlock
 62
     0
100
AcDbLine
 10
-0.8927451971723394
 20
4.29146383181771
 30
0.0
 11
-1.142745197172339
 21
4.29146383181771
 31
0.0
  0
LINE
  5
93
330
72
100
AcDbEntity
  8
0
  6
ByBlock
 62
     0
100
AcDbLine
 10
0.1072548028276605
 20
4.16646383181771
 30
0.0
 11
0.3572548028276605
 21
4.41646383181771
 31
0.0
  0
LINE
  5
94
330
72
100
AcDbEntity
  8
0
  6
ByBlock
 62
     0
100
AcDbLine
 10
-1.017745197172339
 20
4.16646383181771
 30
0.0
 11
-0.7677451971723395
 21
4.41646383181771
 31
0.0
  0
TEXT
  5
95
330
72
100
AcDbEntity
  8
0
  6
ByBlock
 62
     0
100
AcDbText
 10
-1.767745197172339
 20
4.22896383181771
 30
0.0
 40
0.125
  1
1 1/8
 72
     1
 11
-1.517745197172339
 21
4.29146383181771
 31
0.0
100
AcDbText
 73
     2
  0
POINT
  5
96
330
72
100
AcDbEntity
  8
DEFPOINTS
  6
ByBlock
 62
     0
100
AcDbPoint
 10
0.2322548028276605
 20
3.98796122990188
 30
0.0
  0
POINT
  5
97
330
72
100
AcDbEntity
  8
DEFPOINTS
  6
ByBlock
 62
     0
100
AcDbPoint
 10
-0.8927451971723394
 20
3.70171122990188
 30
0.0
  0
POINT
  5
98
330
72
100
AcDbEntity
  8
DEFPOINTS
  6
ByBlock
 62
     0
100
AcDbPoint
 10
-0.8927451971723394
 20
4.29146383181771
 30
0.0
  0
ENDBLK
  5
99
330
72
100
AcDbEntity
  8
0
100
AcDbBlockEnd
  0
BLOCK
  5
9A
330
73
100
AcDbEntity
  8
0
100
AcDbBlockBegin
  2
*D2
 70
     1
 10
0.0
 20
0.0
 30
0.0
  3
*D2
  1

  0
LINE
  5
9B
330
73
100
AcDbEntity
  8
0
  6
ByBlock
 62
     0
100
AcDbLine
 10
2.79475480282766
 20
1.42488697888948
 30
0.0
 11
3.270171997996542
 21
1.42488697888948
 31
0.0
  0
LINE
  5
9C
330
73
100
AcDbEntity
  8
0
  6
ByBlock
 62
     0
100
AcDbLine
 10
2.79475480282766
 20
0.9873869788894801
 30
0.0
 11
3.270171997996542
 21
0.9873869788894801
 31
0.0
  0
LINE
  5
9D
330
73
100
AcDbEntity
  8
0
  6
ByBlock
 62
     0
100
AcDbLine
 10
3.090171997996542
 20
1.42488697888948
 30
0.0
 11
3.090171997996542
 21
1.67488697888948
 31
0.0
  0
LINE
  5
9E
330
73
100
AcDbEntity
  8
0
  6
ByBlock
 62
     0
100
AcDbLine
 10
3.090171997996542
 20
0.9873869788894801
 30
0.0
 11
3.090171997996542
 21
0.7373869788894801
 31
0.0
  0
LINE
  5
9F
330
73
100
AcDbEntity
  8
0
  6
ByBlock
 62
     0
100
AcDbLine
 10
3.215171997996542
 20
1.29988697888948
 30
0.0
 11
2.965171997996542
 21
1.54988697888948
 31
0.0
  0
LINE
  5
A0
330
73
100
AcDbEntity
  8
0
  6
ByBlock
 62
     0
100
AcDbLine
 10
3.215171997996542
 20
0.8623869788894801
 30
0.0
 11
2.965171997996542
 21
1.11238697888948
 31
0.0
  0
TEXT
  5
A1
330
73
100
AcDbEntity
  8
0
  6
ByBlock
 62
     0
100
AcDbText
 10
3.152671997996542
 20
0.1957203122228134
 30
0.0
 40
0.125
  1
7/16
 50
90.0
 72
     1
 11
3.090171997996542
 21
0.4040536455561468
 31
0.0
100
AcDbText
 73
     2
  0
POINT
  5
A2
330
73
100
AcDbEntity
  8
DEFPOINTS
  6
ByBlock
 62
     0
100
AcDbPoint
 10
2.73225480282766
 20
1.42488697888948
 30
0.0
  0
POINT
  5
A3
330
73
100
AcDbEntity
  8
DEFPOINTS
  6
ByBlock
 62
     0
100
AcDbPoint
 10
2.73225480282766
 20
0.9873869788894801
 30
0.0
  0
POINT
  5
A4
330
73
100
AcDbEntity
  8
DEFPOINTS
  6
ByBlock
 62
     0
100
AcDbPoint
 10
3.090171997996542
 20
0.9873869788894801
 30
0.0
  0
ENDBLK
  5
A5
330
73
100
AcDbEntity
  8
0
100
AcDbBlockEnd
  0
BLOCK
  5
A6
330
74
100
AcDbEntity
  8
0
100
AcDbBlockBegin
  2
*D3
 70
     1
 10
0.0
 20
0.0
 30
0.0
  3
*D3
  1

  0
LINE
  5
A7
330
74
100
AcDbEntity
  8
0
  6
ByBlock
 62
     0
100
AcDbLine
 10
0.2322548028276605
 20
4.05046122990188
 30
0.0
 11
0.2322548028276605
 21
4.471463831817709
 31
0.0
  0
LINE
  5
A8
330
74
100
AcDbEntity
  8
0
  6
ByBlock
 62
     0
100
AcDbLine
 10
2.82600480282766
 20
3.10046122990188
 30
0.0
 11
2.82600480282766
 21
4.471463831817709
 31
0.0
  0
LINE
  5
A9
330
74
100
AcDbEntity
  8
0
  6
ByBlock
 62
     0
100
AcDbLine
 10
0.2322548028276605
 20
4.29146383181771
 30
0.0
 11
1.112463136160993
 21
4.29146383181771
 31
0.0
  0
LINE
  5
AA
330
74
100
AcDbEntity
  8
0
  6
ByBlock
 62
     0
100
AcDbLine
 10
2.82600480282766
 20
4.29146383181771
 30
0.0
 11
1.945796469494327
 21
4.29146383181771
 31
0.0
  0
LINE
  5
AB
330
74
100
AcDbEntity
  8
0
  6
ByBlock
 62
     0
100
AcDbLine
 10
0.1072548028276605
 20
4.16646383181771
 30
0.0
 11
0.3572548028276605
 21
4.41646383181771
 31
0.0
  0
LINE
  5
AC
330
74
100
AcDbEntity
  8
0
  6
ByBlock
 62
     0
100
AcDbLine
 10
2.70100480282766
 20
4.16646383181771
 30
0.0
 11
2.95100480282766
 21
4.41646383181771
 31
0.0
  0
TEXT
  5
AD
330
74
100
AcDbEntity
  8
0
  6
ByBlock
 62
     0
100
AcDbText
 10
1.237463136160993
 20
4.22896383181771
 30
0.0
 40
0.125
  1
2 5/8
 72
     1
 11
1.52912980282766
 21
4.29146383181771
 31
0.0
100
AcDbText
 73
     2
  0
POINT
  5
AE
330
74
100
AcDbEntity
  8
DEFPOINTS
  6
ByBlock
 62
     0
100
AcDbPoint
 10
0.2322548028276605
 20
3.98796122990188
 30
0.0
  0
POINT
  5
AF
330
74
100
AcDbEntity
  8
DEFPOINTS
  6
ByBlock
 62
     0
100
AcDbPoint
 10
2.82600480282766
 20
3.03796122990188
 30
0.0
  0
POINT
  5
B0
330
74
100
AcDbEntity
  8
DEFPOINTS
  6
ByBlock
 62
     0
100
AcDbPoint
 10
2.82600480282766
 20
4.29146383181771
 30
0.0
  0
ENDBLK
  5
B1
330
74
100
AcDbEntity
  8
0
100
AcDbBlockEnd
  0
BLOCK
  5
B2
330
75
100
AcDbEntity
  8
0
100
AcDbBlockBegin
  2
*D4
 70
     1
 10
0.0
 20
0.0
 30
0.0
  3
*D4
  1

  0
LINE
  5
B3
330
75
100
AcDbEntity
  8
0
  6
ByBlock
 62
     0
100
AcDbLine
 10
1.93850480282766
 20
3.98796122990188
 30
0.0
 11
3.500699671837034
 21
3.98796122990188
 31
0.0
  0
LINE
  5
B4
330
75
100
AcDbEntity
  8
0
  6
ByBlock
 62
     0
100
AcDbLine
 10
1.93850480282766
 20
2.08796122990188
 30
0.0
 11
3.500699671837034
 21
2.08796122990188
 31
0.0
  0
LINE
  5
B5
330
75
100
AcDbEntity
  8
0
  6
ByBlock
 62
     0
100
AcDbLine
 10
3.320699671837034
 20
3.98796122990188
 30
0.0
 11
3.320699671837034
 21
3.371294563235213
 31
0.0
  0
LINE
  5
B6
330
75
100
AcDbEntity
  8
0
  6
ByBlock
 62
     0
100
AcDbLine
 10
3.320699671837034
 20
2.08796122990188
 30
0.0
 11
3.320699671837034
 21
2.704627896568547
 31
0.0
  0
LINE
  5
B7
330
75
100
AcDbEntity
  8
0
  6
ByBlock
 62
     0
100
AcDbLine
 10
3.445699671837034
 20
3.86296122990188
 30
0.0
 11
3.195699671837034
 21
4.11296122990188
 31
0.0
  0
LINE
  5
B8
330
75
100
AcDbEntity
  8
0
  6
ByBlock
 62
     0
100
AcDbLine
 10
3.445699671837034
 20
1.96296122990188
 30
0.0
 11
3.195699671837034
 21
2.21296122990188
 31
0.0
  0
TEXT
  5
B9
330
75
100
AcDbEntity
  8
0
  6
ByBlock
 62
     0
100
AcDbText
 10
3.383199671837034
 20
2.829627896568547
 30
0.0
 40
0.125
  1
1.900
 50
90.0
 72
     1
 11
3.320699671837034
 21
3.03796122990188
 31
0.0
100
AcDbText
 73
     2
  0
POINT
  5
BA
330
75
100
AcDbEntity
  8
DEFPOINTS
  6
ByBlock
 62
     0
100
AcDbPoint
 10
1.87600480282766
 20
3.98796122990188
 30
0.0
  0
POINT
  5
BB
330
75
100
AcDbEntity
  8
DEFPOINTS
  6
ByBlock
 62
     0
100
AcDbPoint
 10
1.87600480282766
 20
2.08796122990188
 30
0.0
  0
POINT
  5
BC
330
75
100
AcDbEntity
  8
DEFPOINTS
  6
ByBlock
 62
     0
100
AcDbPoint
 10
3.320699671837034
 20
2.08796122990188
 30
0.0
  0
ENDBLK
  5
BD
330
75
100
AcDbEntity
  8
0
100
AcDbBlockEnd
  0
BLOCK
  5
2B4
330
2A9
100
AcDbEntity
  8
0
 62
     3
100
AcDbBlockBegin
  2
*D5
 70
     1
 10
0.0
 20
0.0
 30
0.0
  3
*D5
  1

  0
LINE
  5
332
330
2A9
100
AcDbEntity
  8
ADPDIM
 62
     0
370
    -2
100
AcDbLine
 10
1.890667401893176
 20
3.98796122990188
 30
0.0
 11
3.61710244974416
 21
3.98796122990188
 31
0.0
  0
LINE
  5
333
330
2A9
100
AcDbEntity
  8
ADPDIM
 62
     0
370
    -2
100
AcDbLine
 10
1.890667401893176
 20
2.08546122990188
 30
0.0
 11
3.617102449744159
 21
2.08546122990188
 31
0.0
  0
LINE
  5
334
330
2A9
100
AcDbEntity
  8
ADPDIM
 62
     0
370
    -2
100
AcDbLine
 10
3.43710244974416
 20
3.98796122990188
 30
0.0
 11
3.43710244974416
 21
3.557544563235213
 31
0.0
  0
LINE
  5
335
330
2A9
100
AcDbEntity
  8
ADPDIM
 62
     0
370
    -2
100
AcDbLine
 10
3.43710244974416
 20
2.08546122990188
 30
0.0
 11
3.43710244974416
 21
2.515877896568547
 31
0.0
  0
LINE
  5
336
330
2A9
100
AcDbEntity
  8
ADPDIM
 62
     0
370
    -2
100
AcDbLine
 10
3.56210244974416
 20
1.96046122990188
 30
0.0
 11
3.31210244974416
 21
2.21046122990188
 31
0.0
  0
LINE
  5
337
330
2A9
100
AcDbEntity
  8
ADPDIM
 62
     0
370
    -2
100
AcDbLine
 10
3.56210244974416
 20
3.86296122990188
 30
0.0
 11
3.31210244974416
 21
4.11296122990188
 31
0.0
  0
MTEXT
  5
338
330
2A9
100
AcDbEntity
  8
ADPDIM
 62
     0
100
AcDbMText
 10
3.437102449744159
 20
3.036711229901881
 30
0.0
 40
0.125
 41
0.0
 71
     5
 72
     1
  1
\A1;1 29/32
 11
0.0000000000000001
 21
1.0
 31
0.0
 73
     1
 44
1.0
1001
ACAD
1000
MTEXTBEGIN
1070
    73
1070
     1
1070
    44
1040
1.0
1070
    74
1070
     0
1000
MTEXTEND
  0
POINT
  5
339
330
2A9
100
AcDbEntity
  8
DEFPOINTS
 62
     0
100
AcDbPoint
 10
1.828167401893176
 20
3.98796122990188
 30
0.0
  0
POINT
  5
33A
330
2A9
100
AcDbEntity
  8
DEFPOINTS
 62
     0
100
AcDbPoint
 10
1.828167401893176
 20
2.08546122990188
 30
0.0
  0
POINT
  5
33B
330
2A9
100
AcDbEntity
  8
DEFPOINTS
 62
     0
100
AcDbPoint
 10
3.43710244974416
 20
2.08546122990188
 30
0.0
  0
ENDBLK
  5
2B5
330
2A9
100
AcDbEntity
  8
0
 62
     3
100
AcDbBlockEnd
  0
BLOCK
  5
2C2
330
2B7
100
AcDbEntity
  8
0
 62
     3
100
AcDbBlockBegin
  2
*D6
 70
     1
 10
0.0
 20
0.0
 30
0.0
  3
*D6
  1

  0
LINE
  5
30A
330
2B7
100
AcDbEntity
  8
ADPDIM
 62
     0
370
    -2
100
AcDbLine
 10
0.2033547224748821
 20
1.42488697888948
 30
0.0
 11
-1.865034663006668
 21
1.42488697888948
 31
0.0
  0
LINE
  5
30B
330
2B7
100
AcDbEntity
  8
ADPDIM
 62
     0
370
    -2
100
AcDbLine
 10
0.2033547224748822
 20
-0.4776130211105201
 30
0.0
 11
-1.865034663006668
 21
-0.4776130211105195
 31
0.0
  0
LINE
  5
30C
330
2B7
100
AcDbEntity
  8
ADPDIM
 62
     0
370
    -2
100
AcDbLine
 10
-1.685034663006667
 20
1.42488697888948
 30
0.0
 11
-1.685034663006667
 21
0.9944703122228135
 31
0.0
  0
LINE
  5
30D
330
2B7
100
AcDbEntity
  8
ADPDIM
 62
     0
370
    -2
100
AcDbLine
 10
-1.685034663006668
 20
-0.4776130211105195
 30
0.0
 11
-1.685034663006668
 21
-0.0471963544438529
 31
0.0
  0
LINE
  5
30E
330
2B7
100
AcDbEntity
  8
ADPDIM
 62
     0
370
    -2
100
AcDbLine
 10
-1.560034663006668
 20
-0.6026130211105195
 30
0.0
 11
-1.810034663006668
 21
-0.3526130211105195
 31
0.0
  0
LINE
  5
30F
330
2B7
100
AcDbEntity
  8
ADPDIM
 62
     0
370
    -2
100
AcDbLine
 10
-1.560034663006667
 20
1.29988697888948
 30
0.0
 11
-1.810034663006667
 21
1.54988697888948
 31
0.0
  0
MTEXT
  5
310
330
2B7
100
AcDbEntity
  8
ADPDIM
 62
     0
100
AcDbMText
 10
-1.685034663006668
 20
0.4736369788894801
 30
0.0
 40
0.125
 41
0.0
 71
     5
 72
     1
  1
\A1;1 29/32
 11
0.0000000000000001
 21
1.0
 31
0.0
 73
     1
 44
1.0
1001
ACAD
1000
MTEXTBEGIN
1070
    73
1070
     1
1070
    44
1040
1.0
1070
    74
1070
     0
1000
MTEXTEND
  0
POINT
  5
311
330
2B7
100
AcDbEntity
  8
DEFPOINTS
 62
     0
100
AcDbPoint
 10
0.2658547224748822
 20
1.42488697888948
 30
0.0
  0
POINT
  5
312
330
2B7
100
AcDbEntity
  8
DEFPOINTS
 62
     0
100
AcDbPoint
 10
0.2658547224748822
 20
-0.4776130211105201
 30
0.0
  0
POINT
  5
313
330
2B7
100
AcDbEntity
  8
DEFPOINTS
 62
     0
100
AcDbPoint
 10
-1.685034663006668
 20
-0.4776130211105195
 30
0.0
  0
ENDBLK
  5
2C3
330
2B7
100
AcDbEntity
  8
0
 62
     3
100
AcDbBlockEnd
  0
ENDSEC
  0
SECTION
  2
ENTITIES
  0
ARC
  5
BE
330
18
100
AcDbEntity
  8
ADP1DETAIL
100
AcDbCircle
 10
-1.964577725061428
 20
3.03796122990188
 30
0.0
 40
0.7985934901437651
100
AcDbArc
 50
80.68878761083956
 51
99.31121238916038
  0
ARC
  5
BF
330
18
100
AcDbEntity
  8
ADP1DETAIL
100
AcDbCircle
 10
-1.964577725061428
 20
3.03796122990188
 30
0.0
 40
0.6949999999999999
100
AcDbArc
 50
78.15199504915513
 51
101.8480049508448
  0
ARC
  5
C0
330
18
100
AcDbEntity
  8
ADP1DETAIL
100
AcDbCircle
 10
-1.964577725061428
 20
3.03796122990188
 30
0.0
 40
0.6949999999999999
100
AcDbArc
 50
258.1519950491551
 51
281.8480049508448
  0
ARC
  5
C1
330
18
100
AcDbEntity
  8
ADP1DETAIL
100
AcDbCircle
 10
-1.964577725061428
 20
3.03796122990188
 30
0.0
 40
0.7985934901437651
100
AcDbArc
 50
260.6887876108396
 51
279.3112123891603
  0
ARC
  5
C2
330
18
100
AcDbEntity
  8
ADP1DETAIL
100
AcDbCircle
 10
-1.964577725061428
 20
3.03796122990188
 30
0.0
 40
0.8199999999999999
100
AcDbArc
 50
261.1295384801971
 51
278.8704615198028
  0
ARC
  5
C3
330
18
100
AcDbEntity
  8
ADP1DETAIL
100
AcDbCircle
 10
-1.964577725061428
 20
3.03796122990188
 30
0.0
 40
0.8199999999999999
100
AcDbArc
 50
81.12953848019712
 51
98.8704615198028
  0
CIRCLE
  5
C4
330
18
100
AcDbEntity
  8
ADP1DETAIL
100
AcDbCircle
 10
-1.964577725061428
 20
3.03796122990188
 30
0.0
 40
0.95
  0
LINE
  5
C5
330
18
100
AcDbEntity
  8
ADP1DETAIL
100
AcDbLine
 10
-2.091022569040242
 20
2.227768844458044
 30
0.0
 11
-2.154935585562405
 21
2.739072976635346
 31
0.0
  0
LINE
  5
C6
330
18
100
AcDbEntity
  8
ADP1DETAIL
100
AcDbLine
 10
-2.914577725061427
 20
2.27596122990188
 30
0.0
 11
-2.914577725061427
 21
3.79996122990188
 31
0.0
  0
ARC
  5
C7
330
18
100
AcDbEntity
  8
ADP1DETAIL
100
AcDbCircle
 10
-2.726577725061427
 20
2.27596122990188
 30
0.0
 40
0.188
100
AcDbArc
 50
180.0
 51
270.0
  0
LINE
  5
C8
330
18
100
AcDbEntity
  8
ADP1DETAIL
100
AcDbLine
 10
-1.964577725061427
 20
2.08796122990188
 30
0.0
 11
-2.726577725061427
 21
2.08796122990188
 31
0.0
  0
ARC
  5
C9
330
18
100
AcDbEntity
  8
ADP1DETAIL
100
AcDbCircle
 10
-1.964577725061428
 20
3.03796122990188
 30
0.0
 40
0.8199999999999999
100
AcDbArc
 50
171.1295384801971
 51
188.8704615198028
  0
ARC
  5
CA
330
18
100
AcDbEntity
  8
ADP1DETAIL
100
AcDbCircle
 10
-2.726577725061427
 20
3.79996122990188
 30
0.0
 40
0.188
100
AcDbArc
 50
90.0
 51
180.0
  0
ARC
  5
CB
330
18
100
AcDbEntity
  8
ADP1DETAIL
100
AcDbCircle
 10
-2.278970320151612
 20
3.352353824992065
 30
0.0
 40
0.125
100
AcDbArc
 50
277.1250163489018
 51
352.8749836510982
  0
LINE
  5
CC
330
18
100
AcDbEntity
  8
ADP1DETAIL
100
AcDbLine
 10
-2.774770110505264
 20
2.911516385923066
 30
0.0
 11
-2.263465978327962
 21
2.847603369400903
 31
0.0
  0
LINE
  5
CD
330
18
100
AcDbEntity
  8
ADP1DETAIL
100
AcDbLine
 10
-2.774770110505263
 20
3.164406073880694
 30
0.0
 11
-2.263465978327961
 21
3.228319090402857
 31
0.0
  0
ARC
  5
CE
330
18
100
AcDbEntity
  8
ADP1DETAIL
100
AcDbCircle
 10
-1.964577725061428
 20
3.03796122990188
 30
0.0
 40
0.6949999999999999
100
AcDbArc
 50
168.1519950491551
 51
191.8480049508448
  0
ARC
  5
CF
330
18
100
AcDbEntity
  8
ADP1DETAIL
100
AcDbCircle
 10
-1.964577725061428
 20
3.03796122990188
 30
0.0
 40
0.7985934901437651
100
AcDbArc
 50
170.6887876108395
 51
189.3112123891604
  0
ARC
  5
D0
330
18
100
AcDbEntity
  8
ADP1DETAIL
100
AcDbCircle
 10
-2.278970320151613
 20
2.723568634811695
 30
0.0
 40
0.125
100
AcDbArc
 50
7.125016348901811
 51
82.87498365109819
  0
LINE
  5
D1
330
18
100
AcDbEntity
  8
ADP1DETAIL
100
AcDbLine
 10
-2.726577725061427
 20
3.98796122990188
 30
0.0
 11
-1.964577725061427
 21
3.98796122990188
 31
0.0
  0
LINE
  5
D2
330
18
100
AcDbEntity
  8
ADP1DETAIL
100
AcDbLine
 10
-2.091022569040241
 20
3.848153615345716
 30
0.0
 11
-2.154935585562403
 21
3.336849483168414
 31
0.0
  0
DIMENSION
  5
D3
330
18
100
AcDbEntity
  8
ADPDIM
100
AcDbDimension
  2
*D2
 10
3.090171997996542
 20
0.9873869788894801
 30
0.0
 11
3.090171997996542
 21
0.4040536455561468
 31
0.0
 71
     5
 42
-1.0
100
AcDbAlignedDimension
 13
2.73225480282766
 23
1.42488697888948
 33
0.0
 14
2.73225480282766
 24
0.9873869788894801
 34
0.0
 50
90.0
100
AcDbRotatedDimension
  0
ARC
  5
D5
330
18
100
AcDbEntity
  8
ADP1DETAIL
100
AcDbCircle
 10
1.067689122427589
 20
0.3247398994370723
 30
0.0
 40
0.7286486801048412
100
AcDbArc
 50
114.5747915682808
 51
238.1766793266197
  0
LINE
  5
D6
330
18
100
AcDbEntity
  8
ADP1DETAIL
100
AcDbLine
 10
0.8260048028276605
 20
-0.1313630211105199
 30
0.0
 11
0.8260048028276605
 21
0.7998869788894803
 31
0.0
  0
LINE
  5
D7
330
18
100
AcDbEntity
  8
ADP1DETAIL
100
AcDbLine
 10
0.2322548028276605
 20
1.42488697888948
 30
0.0
 11
0.2322548028276605
 21
0.0154562987800295
 31
0.0
  0
LINE
  5
D8
330
18
100
AcDbEntity
  8
ADP1DETAIL
100
AcDbLine
 10
0.2322548028276605
 20
-0.4751130211105199
 30
0.0
 11
0.2322548028276605
 21
1.42488697888948
 31
0.0
  0
LINE
  5
D9
330
18
100
AcDbEntity
  8
ADP1DETAIL
100
AcDbLine
 10
-0.8927451971723394
 20
-0.18886302111052
 30
0.0
 11
-0.8927451971723394
 21
1.138636978889479
 31
0.0
  0
LINE
  5
DA
330
18
100
AcDbEntity
  8
ADP1DETAIL
100
AcDbLine
 10
0.2322548028276605
 20
1.16988697888948
 30
0.0
 11
0.2322548028276605
 21
-0.22011302111052
 31
0.0
  0
LINE
  5
DB
330
18
100
AcDbEntity
  8
ADP1DETAIL
100
AcDbLine
 10
0.2322548028276605
 20
0.59527181179254
 30
0.0
 11
-0.8927451971723394
 21
0.59527181179254
 31
0.0
  0
LINE
  5
DC
330
18
100
AcDbEntity
  8
ADP1DETAIL
100
AcDbLine
 10
0.1072548028276605
 20
-0.34511302111052
 30
0.0
 11
-0.7677451971723395
 21
-0.31386302111052
 31
0.0
  0
LINE
  5
DD
330
18
100
AcDbEntity
  8
ADP1DETAIL
100
AcDbLine
 10
-0.8927451971723394
 20
0.3545021459864197
 30
0.0
 11
0.2322548028276605
 21
0.3545021459864197
 31
0.0
  0
LINE
  5
DE
330
18
100
AcDbEntity
  8
ADP1DETAIL
100
AcDbLine
 10
-0.8927451971723394
 20
-0.18886302111052
 30
0.0
 11
-0.7677451971723395
 21
-0.31386302111052
 31
0.0
  0
LINE
  5
DF
330
18
100
AcDbEntity
  8
ADP1DETAIL
100
AcDbLine
 10
-0.7677451971723395
 20
0.3545021459864199
 30
0.0
 11
-0.7677451971723395
 21
0.5952718117925402
 31
0.0
  0
ARC
  5
E0
330
18
100
AcDbEntity
  8
ADP1DETAIL
100
AcDbCircle
 10
0.4822548028276606
 20
-0.1313630211105199
 30
0.0
 40
0.34375
100
AcDbArc
 50
270.0
 51
0.0
  0
LINE
  5
E1
330
18
100
AcDbEntity
  8
ADP1DETAIL
100
AcDbLine
 10
0.2322548028276605
 20
-0.4751130211105199
 30
0.0
 11
0.4822548028276606
 21
-0.4751130211105199
 31
0.0
  0
LINE
  5
E2
330
18
100
AcDbEntity
  8
ADP1DETAIL
100
AcDbLine
 10
0.1072548028276608
 20
-0.34511302111052
 30
0.0
 11
0.2322548028276605
 21
-0.22011302111052
 31
0.0
  0
LINE
  5
E3
330
18
100
AcDbEntity
  8
ADP1DETAIL
100
AcDbLine
 10
0.1072548028276605
 20
0.3545021459864199
 30
0.0
 11
0.1072548028276605
 21
0.5952718117925402
 31
0.0
  0
DIMENSION
  5
E4
330
18
100
AcDbEntity
  8
ADPDIM
100
AcDbDimension
  2
*D3
 10
2.82600480282766
 20
4.29146383181771
 30
0.0
 11
1.52912980282766
 21
4.29146383181771
 31
0.0
 71
     5
 42
-1.0
100
AcDbAlignedDimension
 13
0.2322548028276605
 23
3.98796122990188
 33
0.0
 14
2.82600480282766
 24
3.03796122990188
 34
0.0
100
AcDbRotatedDimension
  0
LINE
  5
E5
330
18
100
AcDbEntity
  8
ADP1DETAIL
100
AcDbLine
 10
0.7646581881787558
 20
0.9873869788894802
 30
0.0
 11
2.73225480282766
 21
0.9873869788894801
 31
0.0
  0
LINE
  5
E6
330
18
100
AcDbEntity
  8
ADP1DETAIL
100
AcDbLine
 10
2.73225480282766
 20
1.42488697888948
 30
0.0
 11
0.2322548028276605
 21
1.42488697888948
 31
0.0
  0
LWPOLYLINE
  5
E7
330
18
100
AcDbEntity
  8
ADP1DETAIL
100
AcDbPolyline
 90
        2
 70
     0
 43
0.0
 10
1.87600480282766
 20
2.08796122990188
 10
0.2322548028276605
 20
2.08796122990188
  0
LWPOLYLINE
  5
EB
330
18
100
AcDbEntity
  8
ADP1DETAIL
100
AcDbPolyline
 90
        3
 70
     0
 43
0.0
 10
0.2322548028276605
 20
2.08796122990188
 10
0.2322548028276605
 20
3.98796122990188
 10
1.87600480282766
 20
3.98796122990188
  0
DIMENSION
  5
F0
330
18
100
AcDbEntity
  8
ADPDIM
100
AcDbDimension
  2
*D1
 10
-0.8927451971723394
 20
4.29146383181771
 30
0.0
 11
-1.517745197172339
 21
4.29146383181771
 31
0.0
 71
     5
 42
-1.0
100
AcDbAlignedDimension
 13
0.2322548028276605
 23
3.98796122990188
 33
0.0
 14
-0.8927451971723394
 24
3.70171122990188
 34
0.0
100
AcDbRotatedDimension
  0
LINE
  5
F1
330
18
100
AcDbEntity
  8
ADP1DETAIL
100
AcDbLine
 10
0.1072548028276605
 20
2.21796122990188
 30
0.0
 11
-0.7677451971723395
 21
2.24921122990188
 31
0.0
  0
LINE
  5
F2
330
18
100
AcDbEntity
  8
ADP1DETAIL
100
AcDbLine
 10
-0.7677451971723395
 20
1.263636978889479
 30
0.0
 11
0.1072548028276605
 21
1.294886978889479
 31
0.0
  0
LINE
  5
F3
330
18
100
AcDbEntity
  8
ADP1DETAIL
100
AcDbLine
 10
0.2322548028276605
 20
3.15834606280494
 30
0.0
 11
-0.8927451971723394
 21
3.15834606280494
 31
0.0
  0
LINE
  5
F4
330
18
100
AcDbEntity
  8
ADP1DETAIL
100
AcDbLine
 10
-0.8927451971723394
 20
2.917576396998819
 30
0.0
 11
0.2322548028276605
 21
2.917576396998819
 31
0.0
  0
LINE
  5
F5
330
18
100
AcDbEntity
  8
ADP1DETAIL
100
AcDbLine
 10
-0.7677451971723395
 20
3.82671122990188
 30
0.0
 11
0.1072548028276605
 21
3.85796122990188
 31
0.0
  0
LINE
  5
F6
330
18
100
AcDbEntity
  8
ADP1DETAIL
100
AcDbLine
 10
-0.8927451971723394
 20
2.37421122990188
 30
0.0
 11
-0.8927451971723394
 21
3.70171122990188
 31
0.0
  0
LINE
  5
F7
330
18
100
AcDbEntity
  8
ADP1DETAIL
100
AcDbLine
 10
-1.838132881082614
 20
2.227768844458044
 30
0.0
 11
-1.774219864560451
 21
2.739072976635345
 31
0.0
  0
LINE
  5
F8
330
18
100
AcDbEntity
  8
ADP1DETAIL
100
AcDbLine
 10
-0.7677451971723395
 20
1.263636978889479
 30
0.0
 11
-0.8927451971723394
 21
1.138636978889479
 31
0.0
  0
LINE
  5
F9
330
18
100
AcDbEntity
  8
ADP1DETAIL
100
AcDbLine
 10
-0.8927451971723394
 20
2.37421122990188
 30
0.0
 11
-0.7677451971723395
 21
2.24921122990188
 31
0.0
  0
ARC
  5
FA
330
18
100
AcDbEntity
  8
ADP1DETAIL
100
AcDbCircle
 10
-1.650185129971242
 20
3.352353824992064
 30
0.0
 40
0.125
100
AcDbArc
 50
187.1250163489018
 51
262.8749836510982
  0
LINE
  5
FB
330
18
100
AcDbEntity
  8
ADP1DETAIL
100
AcDbLine
 10
-1.154385339617591
 20
3.164406073880693
 30
0.0
 11
-1.665689471794893
 21
3.228319090402856
 31
0.0
  0
LINE
  5
FC
330
18
100
AcDbEntity
  8
ADP1DETAIL
100
AcDbLine
 10
-1.154385339617592
 20
2.911516385923065
 30
0.0
 11
-1.665689471794894
 21
2.847603369400903
 31
0.0
  0
ARC
  5
FD
330
18
100
AcDbEntity
  8
ADP1DETAIL
100
AcDbCircle
 10
-1.650185129971243
 20
2.723568634811694
 30
0.0
 40
0.125
100
AcDbArc
 50
97.1250163489018
 51
172.8749836510982
  0
ARC
  5
FE
330
18
100
AcDbEntity
  8
ADP1DETAIL
100
AcDbCircle
 10
-1.964577725061428
 20
3.03796122990188
 30
0.0
 40
0.8199999999999999
100
AcDbArc
 50
351.1295384801972
 51
8.870461519802795
  0
ARC
  5
FF
330
18
100
AcDbEntity
  8
ADP1DETAIL
100
AcDbCircle
 10
-1.964577725061428
 20
3.03796122990188
 30
0.0
 40
0.7985934901437651
100
AcDbArc
 50
350.6887876108395
 51
9.311212389160358
  0
ARC
  5
100
330
18
100
AcDbEntity
  8
ADP1DETAIL
100
AcDbCircle
 10
-1.964577725061428
 20
3.03796122990188
 30
0.0
 40
0.6949999999999999
100
AcDbArc
 50
348.1519950491551
 51
11.84800495084478
  0
LINE
  5
101
330
18
100
AcDbEntity
  8
ADP1DETAIL
100
AcDbLine
 10
-1.838132881082613
 20
3.848153615345716
 30
0.0
 11
-1.77421986456045
 21
3.336849483168413
 31
0.0
  0
LINE
  5
102
330
18
100
AcDbEntity
  8
ADP1DETAIL
100
AcDbLine
 10
-0.7677451971723395
 20
2.91757639699882
 30
0.0
 11
-0.7677451971723395
 21
3.15834606280494
 31
0.0
  0
LINE
  5
103
330
18
100
AcDbEntity
  8
ADP1DETAIL
100
AcDbLine
 10
-0.7677451971723395
 20
3.82671122990188
 30
0.0
 11
-0.8927451971723394
 21
3.70171122990188
 31
0.0
  0
LINE
  5
104
330
18
100
AcDbEntity
  8
ADP1DETAIL
100
AcDbLine
 10
0.2322548028276605
 20
3.73296122990188
 30
0.0
 11
0.2322548028276605
 21
2.34296122990188
 31
0.0
  0
ARC
  5
105
330
18
100
AcDbEntity
  8
ADP1DETAIL
100
AcDbCircle
 10
-0.2677451971723395
 20
3.03796122990188
 30
0.0
 40
1.09375
100
AcDbArc
 50
299.7069477050234
 51
60.29305229497659
  0
ARC
  5
106
330
18
100
AcDbEntity
  8
ADP1DETAIL
100
AcDbCircle
 10
1.01350480282766
 20
0.7998869788894803
 30
0.0
 40
0.1875
100
AcDbArc
 50
90.0
 51
180.0
  0
LINE
  5
107
330
18
100
AcDbEntity
  8
ADP1DETAIL
100
AcDbLine
 10
0.2322548028276605
 20
1.42488697888948
 30
0.0
 11
0.2322548028276605
 21
0.9873869788894801
 31
0.0
  0
LINE
  5
108
330
18
100
AcDbEntity
  8
ADP1DETAIL
100
AcDbLine
 10
0.2322548028276605
 20
1.169886978889479
 30
0.0
 11
0.1072548028276605
 21
1.294886978889479
 31
0.0
  0
LINE
  5
109
330
18
100
AcDbEntity
  8
ADP1DETAIL
100
AcDbLine
 10
0.1072548028276608
 20
2.21796122990188
 30
0.0
 11
0.2322548028276605
 21
2.34296122990188
 31
0.0
  0
LINE
  5
10A
330
18
100
AcDbEntity
  8
ADP1DETAIL
100
AcDbLine
 10
0.1072548028276605
 20
2.91757639699882
 30
0.0
 11
0.1072548028276605
 21
3.15834606280494
 31
0.0
  0
LINE
  5
10B
330
18
100
AcDbEntity
  8
ADP1DETAIL
100
AcDbLine
 10
0.2322548028276605
 20
3.73296122990188
 30
0.0
 11
0.1072548028276605
 21
3.85796122990188
 31
0.0
  0
ARC
  5
10D
330
18
100
AcDbEntity
  8
ADP1DETAIL
100
AcDbCircle
 10
1.87600480282766
 20
3.03796122990188
 30
0.0
 40
0.95
100
AcDbArc
 50
270.0
 51
90.0
  0
ARC
  5
10E
330
18
100
AcDbEntity
  8
ADP1DETAIL
100
AcDbCircle
 10
2.73225480282766
 20
1.33113697888948
 30
0.0
 40
0.09375
100
AcDbArc
 50
0.0
 51
90.0
  0
ARC
  5
10F
330
18
100
AcDbEntity
  8
ADP1DETAIL
100
AcDbCircle
 10
2.73225480282766
 20
1.08113697888948
 30
0.0
 40
0.09375
100
AcDbArc
 50
270.0
 51
0.0
  0
LINE
  5
110
330
18
100
AcDbEntity
  8
ADP1DETAIL
100
AcDbLine
 10
2.82600480282766
 20
1.08113697888948
 30
0.0
 11
2.82600480282766
 21
1.33113697888948
 31
0.0
  0
TEXT
  5
11E
330
18
100
AcDbEntity
  8
ADPDIM
100
AcDbText
 10
-6.392153705250044
 20
-1.288215447930096
 30
0.0
 40
0.125
  1
J U L I U S  B L U M  &  C O . ,  I N C .      ( 8 0 0 )  5 2 6 - 6 2 9 3        W W W . J U L I U S B L U M . C O M        P A R T  N o .  7 0 2
 41
1.25
  7
ARIAL_WIDE
 72
     1
 11
0.0425538322670089
 21
-1.163215447930096
 31
0.0
100
AcDbText
 73
     3
  0
DIMENSION
  5
2A8
330
18
100
AcDbEntity
  8
ADPDIM
 62
     3
100
AcDbDimension
  2
*D5
 10
3.43710244974416
 20
2.08546122990188
 30
0.0
 11
3.437102449744159
 21
3.036711229901881
 31
0.0
 70
   160
 71
     5
 42
1.902499999999999
  3
STANDARD
100
AcDbAlignedDimension
 13
1.828167401893176
 23
3.98796122990188
 33
0.0
 14
1.828167401893176
 24
2.08546122990188
 34
0.0
 50
90.0
100
AcDbRotatedDimension
1001
ACAD
1000
DSTYLE
1002
{
1070
   271
1070
     5
1070
   276
1070
     2
1070
   277
1070
     5
1070
    41
1040
0.125
1070
    73
1070
     0
1070
    74
1070
     0
1070
    78
1070
     3
1070
   140
1040
0.125
1070
   141
1040
0.1875
1070
   142
1040
0.125
1070
   147
1040
0.125
1070
   171
1070
     1
1002
}
  0
DIMENSION
  5
2B6
330
18
100
AcDbEntity
  8
ADPDIM
 62
     3
100
AcDbDimension
  2
*D6
 10
-1.685034663006668
 20
-0.4776130211105195
 30
0.0
 11
-1.685034663006668
 21
0.4736369788894801
 31
0.0
 70
   160
 71
     5
 42
1.9025
  3
STANDARD
100
AcDbAlignedDimension
 13
0.2658547224748822
 23
1.42488697888948
 33
0.0
 14
0.2658547224748822
 24
-0.4776130211105201
 34
0.0
 50
90.0
100
AcDbRotatedDimension
1001
ACAD
1000
DSTYLE
1002
{
1070
   271
1070
     5
1070
   276
1070
     2
1070
   277
1070
     5
1070
    41
1040
0.125
1070
    73
1070
     0
1070
    74
1070
     0
1070
    78
1070
     3
1070
   140
1040
0.125
1070
   141
1040
0.1875
1070
   142
1040
0.125
1070
   147
1040
0.125
1070
   171
1070
     1
1002
}
  0
ENDSEC
  0
SECTION
  2
OBJECTS
  0
DICTIONARY
  5
C
330
0
100
AcDbDictionary
281
     1
  3
ACAD_COLOR
350
2A2
  3
ACAD_GROUP
350
D
  3
ACAD_LAYOUT
350
117
  3
ACAD_MATERIAL
350
28D
  3
ACAD_MLINESTYLE
350
E
  3
ACAD_PLOTSETTINGS
350
118
  3
ACAD_PLOTSTYLENAME
350
115
  3
ACAD_TABLESTYLE
350
2A3
  3
ACAD_VISUALSTYLE
350
291
  3
AcDbVariableDictionary
350
178
  3
DWGPROPS
350
359
  0
DICTIONARY
  5
172
330
18
100
AcDbDictionary
280
     1
281
     1
  3
ACAD_LAYOUTSELFREF
360
287
  0
DICTIONARY
  5
170
330
15
100
AcDbDictionary
280
     1
281
     1
  3
ACAD_LAYOUTSELFREF
360
286
  0
DICTIONARY
  5
2A2
102
{ACAD_REACTORS
330
C
102
}
330
C
100
AcDbDictionary
281
     1
  0
DICTIONARY
  5
D
102
{ACAD_REACTORS
330
C
102
}
330
C
100
AcDbDictionary
281
     1
  0
DICTIONARY
  5
117
102
{ACAD_REACTORS
330
C
102
}
330
C
100
AcDbDictionary
281
     1
  3
Layout1
350
11A
  3
Model
350
119
  0
DICTIONARY
  5
28D
102
{ACAD_REACTORS
330
C
102
}
330
C
100
AcDbDictionary
281
     1
  3
ByBlock
350
28F
  3
ByLayer
350
28E
  3
Global
350
290
  0
DICTIONARY
  5
E
102
{ACAD_REACTORS
330
C
102
}
330
C
100
AcDbDictionary
281
     1
  3
STANDARD
350
1B
  0
DICTIONARY
  5
118
102
{ACAD_REACTORS
330
C
102
}
330
C
100
AcDbDictionary
281
     1
  0
ACDBDICTIONARYWDFLT
  5
115
102
{ACAD_REACTORS
330
C
102
}
330
C
100
AcDbDictionary
281
     1
  3
Normal
350
116
100
AcDbDictionaryWithDefault
340
116
  0
DICTIONARY
  5
2A3
102
{ACAD_REACTORS
330
C
102
}
330
C
100
AcDbDictionary
281
     1
  3
Standard
350
2A4
  0
DICTIONARY
  5
291
102
{ACAD_REACTORS
330
C
102
}
330
C
100
AcDbDictionary
281
     1
  3
2dWireframe
350
297
  3
3D Hidden
350
299
  3
3dWireframe
350
298
  3
Basic
350
296
  3
Brighten
350
29D
  3
ColorChange
350
2A1
  3
Conceptual
350
29A
  3
Dim
350
29C
  3
Facepattern
350
2A0
  3
Flat
350
292
  3
FlatWithEdges
350
293
  3
Gouraud
350
294
  3
GouraudWithEdges
350
295
  3
Linepattern
350
29F
  3
Realistic
350
29B
  3
Thicken
350
29E
  0
DICTIONARY
  5
178
102
{ACAD_REACTORS
330
C
102
}
330
C
100
AcDbDictionary
281
     1
  3
CTABLESTYLE
350
356
  3
DIMASSOC
350
179
  3
INDEXCTL
350
358
  3
SORTENTS
350
357
  0
XRECORD
  5
359
102
{ACAD_REACTORS
330
C
102
}
330
C
100
AcDbXrecord
280
     1
  1
DWGPROPS COOKIE
  2

  3

  4

  6

  7

  8
Yu Hu
  9

300
=
301
=
302
=
303
=
304
=
305
=
306
=
307
=
308
=
309
=
 40
0.0219979398148148
 41
2450387.655867084
 42
2453956.947913727
  1

 90
        0
  0
XRECORD
  5
287
102
{ACAD_REACTORS
330
172
102
}
330
172
100
AcDbXrecord
280
     1
340
18
  0
XRECORD
  5
286
102
{ACAD_REACTORS
330
170
102
}
330
170
100
AcDbXrecord
280
     1
340
15
  0
LAYOUT
  5
11A
102
{ACAD_XDICTIONARY
360
35C
102
}
102
{ACAD_REACTORS
330
117
102
}
330
117
100
AcDbPlotSettings
  1

  2
Fax
  4

  6

 40
0.0
 41
0.0
 42
0.0
 43
0.0
 44
0.0
 45
0.0
 46
0.0
 47
0.0
 48
0.0
 49
0.0
140
0.0
141
0.0
142
1.0
143
1.0
 70
   688
 72
     0
 73
     0
 74
     5
  7
Default R14 pen assignments.ctb
 75
    16
147
1.0
148
0.0
149
0.0
100
AcDbLayout
  1
Layout1
 70
     1
 71
     1
 10
0.0
 20
0.0
 11
12.0
 21
9.0
 12
0.0
 22
0.0
 32
0.0
 14
1.000000000000000E+20
 24
1.000000000000000E+20
 34
1.000000000000000E+20
 15
-1.000000000000000E+20
 25
-1.000000000000000E+20
 35
-1.000000000000000E+20
146
0.0
 13
0.0
 23
0.0
 33
0.0
 16
1.0
 26
0.0
 36
0.0
 17
0.0
 27
1.0
 37
0.0
 76
     0
330
15
  0
LAYOUT
  5
119
102
{ACAD_XDICTIONARY
360
35A
102
}
102
{ACAD_REACTORS
330
117
102
}
330
117
100
AcDbPlotSettings
  1

  2
Fax
  4

  6

 40
0.0
 41
0.0
 42
0.0
 43
0.0
 44
0.0
 45
0.0
 46
0.0
 47
0.0
 48
0.0
 49
0.0
140
0.0
141
0.0
142
1.0
143
1.0
 70
  1712
 72
     0
 73
     0
 74
     0
  7
Default R14 pen assignments.ctb
 75
     0
147
1.0
148
0.0
149
0.0
100
AcDbLayout
  1
Model
 70
     1
 71
     0
 10
0.0
 20
0.0
 11
12.0
 21
9.0
 12
0.0
 22
0.0
 32
0.0
 14
0.0
 24
0.0
 34
0.0
 15
0.0
 25
0.0
 35
0.0
146
0.0
 13
0.0
 23
0.0
 33
0.0
 16
1.0
 26
0.0
 36
0.0
 17
0.0
 27
1.0
 37
0.0
 76
     0
330
18
331
261
  0
MATERIAL
  5
28F
102
{ACAD_XDICTIONARY
360
360
102
}
102
{ACAD_REACTORS
330
28D
102
}
330
28D
100
AcDbMaterial
  1
ByBlock
  0
MATERIAL
  5
28E
102
{ACAD_XDICTIONARY
360
35E
102
}
102
{ACAD_REACTORS
330
28D
102
}
330
28D
100
AcDbMaterial
  1
ByLayer
  0
MATERIAL
  5
290
102
{ACAD_XDICTIONARY
360
362
102
}
102
{ACAD_REACTORS
330
28D
102
}
330
28D
100
AcDbMaterial
  1
Global
  0
MLINESTYLE
  5
1B
102
{ACAD_REACTORS
330
E
102
}
330
E
100
AcDbMlineStyle
  2
STANDARD
 70
     0
  3

 62
     0
 51
90.0
 52
90.0
 71
     2
 49
0.5
 62
   256
  6
BYLAYER
 49
-0.5
 62
   256
  6
BYLAYER
  0
ACDBPLACEHOLDER
  5
116
102
{ACAD_REACTORS
330
115
102
}
330
115
  0
TABLESTYLE
  5
2A4
102
{ACAD_XDICTIONARY
360
364
102
}
102
{ACAD_REACTORS
330
2A3
102
}
330
2A3
100
AcDbTableStyle
  3
Standard
 70
     0
 71
     0
 40
0.06
 41
0.06
280
     0
281
     0
  7
STANDARD
140
0.18
170
     2
 62
     0
 63
     7
283
     0
274
    -2
284
     1
 64
     0
275
    -2
285
     1
 65
     0
276
    -2
286
     1
 66
     0
277
    -2
287
     1
 67
     0
278
    -2
288
     1
 68
     0
279
    -2
289
     1
 69
     0
  7
STANDARD
140
0.25
170
     5
 62
     0
 63
     7
283
     0
274
    -2
284
     1
 64
     0
275
    -2
285
     1
 65
     0
276
    -2
286
     1
 66
     0
277
    -2
287
     1
 67
     0
278
    -2
288
     1
 68
     0
279
    -2
289
     1
 69
     0
  7
STANDARD
140
0.18
170
     5
 62
     0
 63
     7
283
     0
274
    -2
284
     1
 64
     0
275
    -2
285
     1
 65
     0
276
    -2
286
     1
 66
     0
277
    -2
287
     1
 67
     0
278
    -2
288
     1
 68
     0
279
    -2
289
     1
 69
     0
  0
VISUALSTYLE
  5
297
102
{ACAD_REACTORS
330
291
102
}
330
291
100
AcDbVisualStyle
  2
2dWireframe
 70
     4
 71
     0
 72
     2
 73
     0
 90
        0
 40
-0.6
 41
-30.0
 62
     5
 63
     7
 74
     1
 91
        4
 64
     7
 65
   257
 75
     1
175
     1
 42
1.0
 92
        0
 66
   257
 43
1.0
 76
     1
 77
     6
 78
     2
 67
     7
 79
     5
170
     0
171
     0
290
     0
174
     0
 93
        1
 44
0.0
173
     0
291
     0
 45
0.0
1001
ACAD
1000
AcDbSavedByObjectVersion
1070
     0
  0
VISUALSTYLE
  5
299
102
{ACAD_REACTORS
330
291
102
}
330
291
100
AcDbVisualStyle
  2
3D Hidden
 70
     6
 71
     1
 72
     2
 73
     2
 90
        0
 40
-0.6
 41
-30.0
 62
     5
 63
     7
 74
     2
 91
        2
 64
     7
 65
   257
 75
     2
175
     1
 42
40.0
 92
        0
 66
   257
 43
1.0
 76
     1
 77
     6
 78
     2
 67
     7
 79
     3
170
     0
171
     0
290
     0
174
     0
 93
        1
 44
0.0
173
     0
291
     0
 45
0.0
1001
ACAD
1000
AcDbSavedByObjectVersion
1070
     0
  0
VISUALSTYLE
  5
298
102
{ACAD_REACTORS
330
291
102
}
330
291
100
AcDbVisualStyle
  2
3dWireframe
 70
     5
 71
     0
 72
     2
 73
     0
 90
        0
 40
-0.6
 41
-30.0
 62
     5
 63
     7
 74
     1
 91
        4
 64
     7
 65
   257
 75
     1
175
     1
 42
1.0
 92
        0
 66
   257
 43
1.0
 76
     1
 77
     6
 78
     2
 67
     7
 79
     5
170
     0
171
     0
290
     0
174
     0
 93
        1
 44
0.0
173
     0
291
     0
 45
0.0
1001
ACAD
1000
AcDbSavedByObjectVersion
1070
     0
  0
VISUALSTYLE
  5
296
102
{ACAD_REACTORS
330
291
102
}
330
291
100
AcDbVisualStyle
  2
Basic
 70
     7
 71
     1
 72
     0
 73
     1
 90
        0
 40
-0.6
 41
-30.0
 62
     5
 63
     7
 74
     0
 91
        4
 64
     7
 65
   257
 75
     1
175
     1
 42
1.0
 92
        8
 66
     7
 43
1.0
 76
     1
 77
     6
 78
     2
 67
     7
 79
     5
170
     0
171
     0
290
     0
174
     0
 93
        1
 44
0.0
173
     0
291
     1
 45
0.0
1001
ACAD
1000
AcDbSavedByObjectVersion
1070
     0
  0
VISUALSTYLE
  5
29D
102
{ACAD_REACTORS
330
291
102
}
330
291
100
AcDbVisualStyle
  2
Brighten
 70
    12
 71
     2
 72
     2
 73
     0
 90
        0
 40
-0.6
 41
-30.0
 62
     5
 63
     7
 74
     1
 91
        4
 64
     7
 65
   257
 75
     1
175
     1
 42
1.0
 92
        8
 66
     7
 43
1.0
 76
     1
 77
     6
 78
     2
 67
     7
 79
     5
170
     0
171
     0
290
     0
174
     0
 93
        1
 44
50.0
173
     0
291
     1
 45
0.0
1001
ACAD
1000
AcDbSavedByObjectVersion
1070
     0
  0
VISUALSTYLE
  5
2A1
102
{ACAD_REACTORS
330
291
102
}
330
291
100
AcDbVisualStyle
  2
ColorChange
 70
    16
 71
     2
 72
     2
 73
     3
 90
        0
 40
-0.6
 41
-30.0
 62
     5
 63
     8
 74
     1
 91
        4
 64
     7
 65
   257
 75
     1
175
     1
 42
1.0
 92
        8
 66
     8
 43
1.0
 76
     1
 77
     6
 78
     2
 67
     7
 79
     5
170
     0
171
     0
290
     0
174
     0
 93
        1
 44
0.0
173
     0
291
     1
 45
0.0
1001
ACAD
1000
AcDbSavedByObjectVersion
1070
     0
  0
VISUALSTYLE
  5
29A
102
{ACAD_REACTORS
330
291
102
}
330
291
100
AcDbVisualStyle
  2
Conceptual
 70
     9
 71
     3
 72
     2
 73
     0
 90
        0
 40
-0.6
 41
-30.0
 62
     5
 63
     7
 74
     2
 91
        2
 64
     7
 65
   257
 75
     1
175
     1
 42
40.0
 92
        8
 66
     7
 43
1.0
 76
     1
 77
     6
 78
     2
 67
     7
 79
     3
170
     0
171
     0
290
     0
174
     0
 93
        1
 44
0.0
173
     0
291
     0
 45
0.0
1001
ACAD
1000
AcDbSavedByObjectVersion
1070
     0
  0
VISUALSTYLE
  5
29C
102
{ACAD_REACTORS
330
291
102
}
330
291
100
AcDbVisualStyle
  2
Dim
 70
    11
 71
     2
 72
     2
 73
     0
 90
        0
 40
-0.6
 41
-30.0
 62
     5
 63
     7
 74
     1
 91
        4
 64
     7
 65
   257
 75
     1
175
     1
 42
1.0
 92
        8
 66
     7
 43
1.0
 76
     1
 77
     6
 78
     2
 67
     7
 79
     5
170
     0
171
     0
290
     0
174
     0
 93
        1
 44
-50.0
173
     0
291
     1
 45
0.0
1001
ACAD
1000
AcDbSavedByObjectVersion
1070
     0
  0
VISUALSTYLE
  5
2A0
102
{ACAD_REACTORS
330
291
102
}
330
291
100
AcDbVisualStyle
  2
Facepattern
 70
    15
 71
     2
 72
     2
 73
     0
 90
        0
 40
-0.6
 41
-30.0
 62
     5
 63
     7
 74
     1
 91
        4
 64
     7
 65
   257
 75
     1
175
     1
 42
1.0
 92
        8
 66
     7
 43
1.0
 76
     1
 77
     6
 78
     2
 67
     7
 79
     5
170
     0
171
     0
290
     0
174
     0
 93
        1
 44
0.0
173
     0
291
     1
 45
0.0
1001
ACAD
1000
AcDbSavedByObjectVersion
1070
     0
  0
VISUALSTYLE
  5
292
102
{ACAD_REACTORS
330
291
102
}
330
291
100
AcDbVisualStyle
  2
Flat
 70
     0
 71
     2
 72
     1
 73
     1
 90
        2
 40
-0.6
 41
30.0
 62
     5
 63
     7
 74
     0
 91
        4
 64
     7
 65
   257
 75
     1
175
     1
 42
1.0
 92
        8
 66
     7
 43
1.0
 76
     1
 77
     6
 78
     2
 67
     7
 79
     5
170
     0
171
     0
290
     0
174
     0
 93
       13
 44
0.0
173
     0
291
     1
 45
0.0
1001
ACAD
1000
AcDbSavedByObjectVersion
1070
     0
  0
VISUALSTYLE
  5
293
102
{ACAD_REACTORS
330
291
102
}
330
291
100
AcDbVisualStyle
  2
FlatWithEdges
 70
     1
 71
     2
 72
     1
 73
     1
 90
        2
 40
-0.6
 41
30.0
 62
     5
 63
     7
 74
     1
 91
        4
 64
     7
 65
   257
 75
     1
175
     1
 42
1.0
 92
        0
 66
   257
 43
1.0
 76
     1
 77
     6
 78
     2
 67
     7
 79
     5
170
     0
171
     0
290
     0
174
     0
 93
       13
 44
0.0
173
     0
291
     1
 45
0.0
1001
ACAD
1000
AcDbSavedByObjectVersion
1070
     0
  0
VISUALSTYLE
  5
294
102
{ACAD_REACTORS
330
291
102
}
330
291
100
AcDbVisualStyle
  2
Gouraud
 70
     2
 71
     2
 72
     2
 73
     1
 90
        2
 40
-0.6
 41
30.0
 62
     5
 63
     7
 74
     0
 91
        4
 64
     7
 65
   257
 75
     1
175
     1
 42
1.0
 92
        0
 66
     7
 43
1.0
 76
     1
 77
     6
 78
     2
 67
     7
 79
     5
170
     0
171
     0
290
     0
174
     0
 93
       13
 44
0.0
173
     0
291
     1
 45
0.0
1001
ACAD
1000
AcDbSavedByObjectVersion
1070
     0
  0
VISUALSTYLE
  5
295
102
{ACAD_REACTORS
330
291
102
}
330
291
100
AcDbVisualStyle
  2
GouraudWithEdges
 70
     3
 71
     2
 72
     2
 73
     1
 90
        2
 40
-0.6
 41
30.0
 62
     5
 63
     7
 74
     1
 91
        4
 64
     7
 65
   257
 75
     1
175
     1
 42
1.0
 92
        0
 66
   257
 43
1.0
 76
     1
 77
     6
 78
     2
 67
     7
 79
     5
170
     0
171
     0
290
     0
174
     0
 93
       13
 44
0.0
173
     0
291
     1
 45
0.0
1001
ACAD
1000
AcDbSavedByObjectVersion
1070
     0
  0
VISUALSTYLE
  5
29F
102
{ACAD_REACTORS
330
291
102
}
330
291
100
AcDbVisualStyle
  2
Linepattern
 70
    14
 71
     2
 72
     2
 73
     0
 90
        0
 40
-0.6
 41
-30.0
 62
     5
 63
     7
 74
     1
 91
        4
 64
     7
 65
   257
 75
     7
175
     7
 42
1.0
 92
        8
 66
     7
 43
1.0
 76
     1
 77
     6
 78
     2
 67
     7
 79
     5
170
     0
171
     0
290
     0
174
     0
 93
        1
 44
0.0
173
     0
291
     1
 45
0.0
1001
ACAD
1000
AcDbSavedByObjectVersion
1070
     0
  0
VISUALSTYLE
  5
29B
102
{ACAD_REACTORS
330
291
102
}
330
291
100
AcDbVisualStyle
  2
Realistic
 70
     8
 71
     2
 72
     2
 73
     0
 90
        0
 40
-0.6
 41
-30.0
 62
     5
 63
     7
 74
     1
 91
        0
 64
     7
 65
   257
 75
     1
175
     1
 42
1.0
 92
        8
 66
     8
 43
1.0
 76
     1
 77
     6
 78
     2
 67
     7
 79
     5
170
     0
171
     0
290
     0
174
     0
 93
       13
 44
0.0
173
     0
291
     0
 45
0.0
1001
ACAD
1000
AcDbSavedByObjectVersion
1070
     0
  0
VISUALSTYLE
  5
29E
102
{ACAD_REACTORS
330
291
102
}
330
291
100
AcDbVisualStyle
  2
Thicken
 70
    13
 71
     2
 72
     2
 73
     0
 90
        0
 40
-0.6
 41
-30.0
 62
     5
 63
     7
 74
     1
 91
        4
 64
     7
 65
   257
 75
     1
175
     1
 42
1.0
 92
       12
 66
     7
 43
1.0
 76
     1
 77
     6
 78
     2
 67
     7
 79
     5
170
     0
171
     0
290
     0
174
     0
 93
        1
 44
0.0
173
     0
291
     1
 45
0.0
1001
ACAD
1000
AcDbSavedByObjectVersion
1070
     0
  0
DICTIONARYVAR
  5
356
102
{ACAD_REACTORS
330
178
102
}
330
178
100
DictionaryVariables
280
     0
  1
STANDARD
  0
DICTIONARYVAR
  5
179
102
{ACAD_REACTORS
330
178
102
}
330
178
100
DictionaryVariables
280
     0
  1
1
  0
DICTIONARYVAR
  5
358
102
{ACAD_REACTORS
330
178
102
}
330
178
100
DictionaryVariables
280
     0
  1
0
  0
DICTIONARYVAR
  5
357
102
{ACAD_REACTORS
330
178
102
}
330
178
100
DictionaryVariables
280
     0
  1
127
  0
DICTIONARY
  5
35C
330
11A
100
AcDbDictionary
280
     1
281
     1
  3
ACAD_XREC_ROUNDTRIP
360
35D
  0
DICTIONARY
  5
35A
330
119
100
AcDbDictionary
280
     1
281
     1
  3
ACAD_XREC_ROUNDTRIP
360
35B
  0
DICTIONARY
  5
360
330
28F
100
AcDbDictionary
280
     1
281
     1
  3
ACAD_XREC_ROUNDTRIP
360
361
  0
DICTIONARY
  5
35E
330
28E
100
AcDbDictionary
280
     1
281
     1
  3
ACAD_XREC_ROUNDTRIP
360
35F
  0
DICTIONARY
  5
362
330
290
100
AcDbDictionary
280
     1
281
     1
  3
ACAD_XREC_ROUNDTRIP
360
363
  0
DICTIONARY
  5
364
330
2A4
100
AcDbDictionary
280
     1
281
     1
  3
ACAD_XREC_ROUNDTRIP
360
365
  0
XRECORD
  5
35D
102
{ACAD_REACTORS
330
35C
102
}
330
35C
100
AcDbXrecord
280
     1
102
SHADEPLOT
 70
     0
102
SHADEPLOTRESLEVEL
 70
     2
102
SHADEPLOTCUSTOMDPI
 70
   300
  0
XRECORD
  5
35B
102
{ACAD_REACTORS
330
35A
102
}
330
35A
100
AcDbXrecord
280
     1
102
SHADEPLOT
 70
     0
102
SHADEPLOTRESLEVEL
 70
     2
102
SHADEPLOTCUSTOMDPI
 70
   300
  0
XRECORD
  5
361
102
{ACAD_REACTORS
330
360
102
}
330
360
100
AcDbXrecord
280
     1
102
MATERIAL
148
0.0
149
0.0
149
0.0
 93
        0
 94
       63
282
     0
 72
     1
 77
     1
171
     1
175
     1
179
     1
273
     0
  0
XRECORD
  5
35F
102
{ACAD_REACTORS
330
35E
102
}
330
35E
100
AcDbXrecord
280
     1
102
MATERIAL
148
0.0
149
0.0
149
0.0
 93
        0
 94
       63
282
     0
 72
     1
 77
     1
171
     1
175
     1
179
     1
273
     0
  0
XRECORD
  5
363
102
{ACAD_REACTORS
330
362
102
}
330
362
100
AcDbXrecord
280
     1
102
MATERIAL
148
0.0
149
0.0
149
0.0
 93
        0
 94
       63
282
     0
 72
     1
 77
     1
171
     1
175
     1
179
     1
273
     0
  0
XRECORD
  5
365
102
{ACAD_REACTORS
330
364
102
}
330
364
100
AcDbXrecord
280
     1
102
ACAD_ROUNDTRIP_PRE2007_TABLESTYLE
 90
      512
 91
        0
  1

 92
      512
 93
        0
  2

 94
      512
 95
        0
  3

  0
ENDSEC
  0
EOF
