  0
SECTION
  2
HEADER
  9
$ACADVER
  1
AC1015
  9
$ACADMAINTVER
 70
    20
  9
$DWGCODEPAGE
  3
ANSI_1252
  9
$INSBASE
 10
24.16606704897553
 20
-18.87843350556789
 30
0.0
  9
$EXTMIN
 10
15.41421126132866
 20
-21.97750618874311
 30
0.0
  9
$EXTMAX
 10
35.51882202190165
 20
-12.00403345359705
 30
0.0
  9
$LIMMIN
 10
0.0
 20
0.0
  9
$LIMMAX
 10
36.0
 20
36.0
  9
$ORTHOMODE
 70
     1
  9
$REGENMODE
 70
     1
  9
$FILLMODE
 70
     1
  9
$QTEXTMODE
 70
     0
  9
$MIRRTEXT
 70
     1
  9
$LTSCALE
 40
1.0
  9
$ATTMODE
 70
     1
  9
$TEXTSIZE
 40
0.2
  9
$TRACEWID
 40
0.05
  9
$TEXTSTYLE
  7
STANDARD
  9
$CLAYER
  8
0
  9
$CELTYPE
  6
ByLayer
  9
$CECOLOR
 62
   256
  9
$CELTSCALE
 40
1.0
  9
$DISPSILH
 70
     0
  9
$DIMSCALE
 40
1.0
  9
$DIMASZ
 40
0.125
  9
$DIMEXO
 40
0.0625
  9
$DIMDLI
 40
0.38
  9
$DIMRND
 40
0.0
  9
$DIMDLE
 40
0.0
  9
$DIMEXE
 40
0.18
  9
$DIMTP
 40
0.0
  9
$DIMTM
 40
0.0
  9
$DIMTXT
 40
0.125
  9
$DIMCEN
 40
0.1875
  9
$DIMTSZ
 40
0.125
  9
$DIMTOL
 70
     0
  9
$DIMLIM
 70
     0
  9
$DIMTIH
 70
     0
  9
$DIMTOH
 70
     0
  9
$DIMSE1
 70
     0
  9
$DIMSE2
 70
     0
  9
$DIMTAD
 70
     0
  9
$DIMZIN
 70
     3
  9
$DIMBLK
  1

  9
$DIMASO
 70
     1
  9
$DIMSHO
 70
     1
  9
$DIMPOST
  1

  9
$DIMAPOST
  1

  9
$DIMALT
 70
     0
  9
$DIMALTD
 70
     1
  9
$DIMALTF
 40
25.4
  9
$DIMLFAC
 40
1.0
  9
$DIMTOFL
 70
     0
  9
$DIMTVP
 40
0.0
  9
$DIMTIX
 70
     0
  9
$DIMSOXD
 70
     0
  9
$DIMSAH
 70
     0
  9
$DIMBLK1
  1

  9
$DIMBLK2
  1

  9
$DIMSTYLE
  2
Standard
  9
$DIMCLRD
 70
     0
  9
$DIMCLRE
 70
     0
  9
$DIMCLRT
 70
     0
  9
$DIMTFAC
 40
1.0
  9
$DIMGAP
 40
0.125
  9
$DIMJUST
 70
     0
  9
$DIMSD1
 70
     0
  9
$DIMSD2
 70
     0
  9
$DIMTOLJ
 70
     1
  9
$DIMTZIN
 70
     3
  9
$DIMALTZ
 70
     3
  9
$DIMALTTZ
 70
     3
  9
$DIMUPT
 70
     0
  9
$DIMDEC
 70
     4
  9
$DIMTDEC
 70
     4
  9
$DIMALTU
 70
     5
  9
$DIMALTTD
 70
     1
  9
$DIMTXSTY
  7
STANDARD
  9
$DIMAUNIT
 70
     0
  9
$DIMADEC
 70
     0
  9
$DIMALTRND
 40
0.0
  9
$DIMAZIN
 70
     0
  9
$DIMDSEP
 70
    46
  9
$DIMATFIT
 70
     3
  9
$DIMFRAC
 70
     0
  9
$DIMLDRBLK
  1

  9
$DIMLUNIT
 70
     5
  9
$DIMLWD
 70
    -2
  9
$DIMLWE
 70
    -2
  9
$DIMTMOVE
 70
     2
  9
$LUNITS
 70
     5
  9
$LUPREC
 70
     4
  9
$SKETCHINC
 40
0.1
  9
$FILLETRAD
 40
0.187
  9
$AUNITS
 70
     0
  9
$AUPREC
 70
     0
  9
$MENU
  1
acad
  9
$ELEVATION
 40
0.0
  9
$PELEVATION
 40
0.0
  9
$THICKNESS
 40
0.0
  9
$LIMCHECK
 70
     0
  9
$CHAMFERA
 40
0.0
  9
$CHAMFERB
 40
0.0
  9
$CHAMFERC
 40
0.0
  9
$CHAMFERD
 40
0.0
  9
$SKPOLY
 70
     0
  9
$TDCREATE
 40
2450399.686484375
  9
$TDUCREATE
 40
2450399.853151042
  9
$TDUPDATE
 40
2453961.641622130
  9
$TDUUPDATE
 40
2453961.808288796
  9
$TDINDWG
 40
0.0098458102
  9
$TDUSRTIMER
 40
0.0098458102
  9
$USRTIMER
 70
     1
  9
$ANGBASE
 50
0.0
  9
$ANGDIR
 70
     0
  9
$PDMODE
 70
     0
  9
$PDSIZE
 40
0.0
  9
$PLINEWID
 40
0.0
  9
$SPLFRAME
 70
     0
  9
$SPLINETYPE
 70
     6
  9
$SPLINESEGS
 70
     8
  9
$HANDSEED
  5
482
  9
$SURFTAB1
 70
     6
  9
$SURFTAB2
 70
     6
  9
$SURFTYPE
 70
     6
  9
$SURFU
 70
     6
  9
$SURFV
 70
     6
  9
$UCSBASE
  2

  9
$UCSNAME
  2

  9
$UCSORG
 10
0.0
 20
0.0
 30
0.0
  9
$UCSXDIR
 10
1.0
 20
0.0
 30
0.0
  9
$UCSYDIR
 10
0.0
 20
1.0
 30
0.0
  9
$UCSORTHOREF
  2

  9
$UCSORTHOVIEW
 70
     0
  9
$UCSORGTOP
 10
0.0
 20
0.0
 30
0.0
  9
$UCSORGBOTTOM
 10
0.0
 20
0.0
 30
0.0
  9
$UCSORGLEFT
 10
0.0
 20
0.0
 30
0.0
  9
$UCSORGRIGHT
 10
0.0
 20
0.0
 30
0.0
  9
$UCSORGFRONT
 10
0.0
 20
0.0
 30
0.0
  9
$UCSORGBACK
 10
0.0
 20
0.0
 30
0.0
  9
$PUCSBASE
  2

  9
$PUCSNAME
  2

  9
$PUCSORG
 10
0.0
 20
0.0
 30
0.0
  9
$PUCSXDIR
 10
1.0
 20
0.0
 30
0.0
  9
$PUCSYDIR
 10
0.0
 20
1.0
 30
0.0
  9
$PUCSORTHOREF
  2

  9
$PUCSORTHOVIEW
 70
     0
  9
$PUCSORGTOP
 10
0.0
 20
0.0
 30
0.0
  9
$PUCSORGBOTTOM
 10
0.0
 20
0.0
 30
0.0
  9
$PUCSORGLEFT
 10
0.0
 20
0.0
 30
0.0
  9
$PUCSORGRIGHT
 10
0.0
 20
0.0
 30
0.0
  9
$PUCSORGFRONT
 10
0.0
 20
0.0
 30
0.0
  9
$PUCSORGBACK
 10
0.0
 20
0.0
 30
0.0
  9
$USERI1
 70
     0
  9
$USERI2
 70
     0
  9
$USERI3
 70
     0
  9
$USERI4
 70
     0
  9
$USERI5
 70
     0
  9
$USERR1
 40
0.0
  9
$USERR2
 40
0.0
  9
$USERR3
 40
0.0
  9
$USERR4
 40
0.0
  9
$USERR5
 40
0.0
  9
$WORLDVIEW
 70
     1
  9
$SHADEDGE
 70
     3
  9
$SHADEDIF
 70
    70
  9
$TILEMODE
 70
     1
  9
$MAXACTVP
 70
    15
  9
$PINSBASE
 10
0.0004882914945483
 20
0.7501408034022604
 30
0.0
  9
$PLIMCHECK
 70
     0
  9
$PEXTMIN
 10
1.000000000000000E+20
 20
1.000000000000000E+20
 30
1.000000000000000E+20
  9
$PEXTMAX
 10
-1.000000000000000E+20
 20
-1.000000000000000E+20
 30
-1.000000000000000E+20
  9
$PLIMMIN
 10
0.0
 20
0.0
  9
$PLIMMAX
 10
12.0
 20
9.0
  9
$UNITMODE
 70
     0
  9
$VISRETAIN
 70
     0
  9
$PLINEGEN
 70
     0
  9
$PSLTSCALE
 70
     1
  9
$TREEDEPTH
 70
  3020
  9
$CMLSTYLE
  2
Standard
  9
$CMLJUST
 70
     0
  9
$CMLSCALE
 40
1.0
  9
$PROXYGRAPHICS
 70
     1
  9
$MEASUREMENT
 70
     0
  9
$CELWEIGHT
370
    -1
  9
$ENDCAPS
280
     0
  9
$JOINSTYLE
280
     0
  9
$LWDISPLAY
290
     0
  9
$INSUNITS
 70
     0
  9
$HYPERLINKBASE
  1

  9
$STYLESHEET
  1

  9
$XEDIT
290
     1
  9
$CEPSNTYPE
380
     0
  9
$PSTYLEMODE
290
     1
  9
$FINGERPRINTGUID
  2
{4304CB71-A033-4AC4-B16F-3AE12D7D753C}
  9
$VERSIONGUID
  2
{4BEAAE8D-1F3F-4302-B83A-2CD54F3C93BB}
  9
$EXTNAMES
290
     1
  9
$PSVPSCALE
 40
0.0
  9
$OLESTARTUP
290
     0
  0
ENDSEC
  0
SECTION
  2
CLASSES
  0
CLASS
  1
ACDBDICTIONARYWDFLT
  2
AcDbDictionaryWithDefault
  3
ObjectDBX Classes
 90
        0
280
     0
281
     0
  0
CLASS
  1
ACDBPLACEHOLDER
  2
AcDbPlaceHolder
  3
ObjectDBX Classes
 90
        0
280
     0
281
     0
  0
CLASS
  1
LAYOUT
  2
AcDbLayout
  3
ObjectDBX Classes
 90
        0
280
     0
281
     0
  0
CLASS
  1
DICTIONARYVAR
  2
AcDbDictionaryVar
  3
ObjectDBX Classes
 90
        0
280
     0
281
     0
  0
CLASS
  1
MATERIAL
  2
AcDbMaterial
  3
ObjectDBX Classes
 90
     1024
280
     0
281
     0
  0
CLASS
  1
VISUALSTYLE
  2
AcDbVisualStyle
  3
ObjectDBX Classes
 90
     4095
280
     0
281
     0
  0
CLASS
  1
TABLESTYLE
  2
AcDbTableStyle
  3
ObjectDBX Classes
 90
     4095
280
     0
281
     0
  0
ENDSEC
  0
SECTION
  2
TABLES
  0
TABLE
  2
VPORT
  5
8
330
0
100
AcDbSymbolTable
 70
     1
  0
VPORT
  5
2E2
330
8
100
AcDbSymbolTableRecord
100
AcDbViewportTableRecord
  2
*Active
 70
     0
 10
0.0
 20
0.0
 11
1.0
 21
1.0
 12
23.59322666791253
 22
-16.47930851697027
 13
0.0
 23
0.0
 14
0.5740882589684922
 24
0.5740882589684922
 15
0.5
 25
0.5
 16
0.0
 26
0.0
 36
1.0
 17
0.0
 27
0.0
 37
0.0
 40
5.739540891605414
 41
1.774011299435028
 42
50.0
 43
0.0
 44
0.0
 50
0.0
 51
0.0
 71
     0
 72
   100
 73
     1
 74
     0
 75
     0
 76
     0
 77
     0
 78
     0
281
     0
 65
     1
110
0.0
120
0.0
130
0.0
111
1.0
121
0.0
131
0.0
112
0.0
122
1.0
132
0.0
 79
     0
146
0.0
  0
ENDTAB
  0
TABLE
  2
LTYPE
  5
5
330
0
100
AcDbSymbolTable
 70
     3
  0
LTYPE
  5
13
330
5
100
AcDbSymbolTableRecord
100
AcDbLinetypeTableRecord
  2
ByBlock
 70
     0
  3

 72
    65
 73
     0
 40
0.0
  0
LTYPE
  5
14
330
5
100
AcDbSymbolTableRecord
100
AcDbLinetypeTableRecord
  2
ByLayer
 70
     0
  3

 72
    65
 73
     0
 40
0.0
  0
LTYPE
  5
15
330
5
100
AcDbSymbolTableRecord
100
AcDbLinetypeTableRecord
  2
CONTINUOUS
 70
     0
  3
Solid line
 72
    65
 73
     0
 40
0.0
  0
LTYPE
  5
106
330
5
100
AcDbSymbolTableRecord
100
AcDbLinetypeTableRecord
  2
CENTER2
 70
     0
  3
___ _ ___ _ ___ _ ___ _ ___ _ ___ _ ___ _ ___ _
 72
    65
 73
     4
 40
1.125
 49
0.75
 74
     0
 49
-0.125
 74
     0
 49
0.125
 74
     0
 49
-0.125
 74
     0
  0
LTYPE
  5
3AE
330
5
100
AcDbSymbolTableRecord
100
AcDbLinetypeTableRecord
  2
AI9-LType1
 70
     0
  3
Illustrator Dash Style No.1
 72
    65
 73
     2
 40
4.762499999999999
 49
3.174999999999999
 74
     0
 49
-1.587499999999999
 74
     0
  0
ENDTAB
  0
TABLE
  2
LAYER
  5
2
330
0
100
AcDbSymbolTable
 70
     5
  0
LAYER
  5
10
330
2
100
AcDbSymbolTableRecord
100
AcDbLayerTableRecord
  2
0
 70
     0
 62
     7
  6
CONTINUOUS
370
    -3
390
F
  0
LAYER
  5
10A
330
2
100
AcDbSymbolTableRecord
100
AcDbLayerTableRecord
  2
ADP1DETAIL
 70
     0
 62
     7
  6
CONTINUOUS
370
    -3
390
F
  0
LAYER
  5
10B
330
2
100
AcDbSymbolTableRecord
100
AcDbLayerTableRecord
  2
ADP3DETAIL
 70
     0
 62
     1
  6
CONTINUOUS
370
    -3
390
F
  0
LAYER
  5
10C
330
2
100
AcDbSymbolTableRecord
100
AcDbLayerTableRecord
  2
DEFPOINTS
 70
     0
 62
     7
  6
CONTINUOUS
290
     0
370
    -3
390
F
  0
LAYER
  5
10F
330
2
100
AcDbSymbolTableRecord
100
AcDbLayerTableRecord
  2
ADPDIM
 70
     0
 62
     3
  6
CONTINUOUS
370
    -3
390
F
  0
ENDTAB
  0
TABLE
  2
STYLE
  5
3
330
0
100
AcDbSymbolTable
 70
     2
  0
STYLE
  5
11
330
3
100
AcDbSymbolTableRecord
100
AcDbTextStyleTableRecord
  2
STANDARD
 70
     0
 40
0.0
 41
1.0
 50
0.0
 71
     0
 42
0.2
  3
txt
  4

  0
STYLE
  5
189
330
3
100
AcDbSymbolTableRecord
100
AcDbTextStyleTableRecord
  2
ARIAL_WIDE
 70
     0
 40
0.0
 41
1.25
 50
0.0
 71
     0
 42
0.2
  3
ARIAL.TTF
  4

1001
ACAD
1000
Arial
1071
       34
  0
ENDTAB
  0
TABLE
  2
VIEW
  5
6
330
0
100
AcDbSymbolTable
 70
     0
  0
ENDTAB
  0
TABLE
  2
UCS
  5
7
330
0
100
AcDbSymbolTable
 70
     0
  0
ENDTAB
  0
TABLE
  2
APPID
  5
9
330
0
100
AcDbSymbolTable
 70
     1
  0
APPID
  5
12
330
9
100
AcDbSymbolTableRecord
100
AcDbRegAppTableRecord
  2
ACAD
 70
     0
  0
ENDTAB
  0
TABLE
  2
DIMSTYLE
  5
A
330
0
100
AcDbSymbolTable
 70
     1
100
AcDbDimStyleTable
 71
     1
340
187
  0
DIMSTYLE
105
187
102
{ACAD_REACTORS
330
3E5
330
3F3
330
40F
330
401
102
}
330
A
100
AcDbSymbolTableRecord
100
AcDbDimStyleTableRecord
  2
Standard
 70
     0
340
11
  0
ENDTAB
  0
TABLE
  2
BLOCK_RECORD
  5
1
330
0
100
AcDbSymbolTable
 70
    18
  0
BLOCK_RECORD
  5
1E
102
{ACAD_XDICTIONARY
360
1C6
102
}
330
1
100
AcDbSymbolTableRecord
100
AcDbBlockTableRecord
  2
*Model_Space
340
21
  0
BLOCK_RECORD
  5
1A
102
{ACAD_XDICTIONARY
360
1C8
102
}
330
1
100
AcDbSymbolTableRecord
100
AcDbBlockTableRecord
  2
*Paper_Space
340
1D
  0
BLOCK_RECORD
  5
CE
330
1
100
AcDbSymbolTableRecord
100
AcDbBlockTableRecord
  2
6987
340
0
  0
BLOCK_RECORD
  5
D3
330
1
100
AcDbSymbolTableRecord
100
AcDbBlockTableRecord
  2
*D1
340
0
  0
BLOCK_RECORD
  5
D4
330
1
100
AcDbSymbolTableRecord
100
AcDbBlockTableRecord
  2
*D2
340
0
  0
BLOCK_RECORD
  5
100
330
1
100
AcDbSymbolTableRecord
100
AcDbBlockTableRecord
  2
*D3
340
0
  0
BLOCK_RECORD
  5
101
330
1
100
AcDbSymbolTableRecord
100
AcDbBlockTableRecord
  2
*D4
340
0
  0
BLOCK_RECORD
  5
351
330
1
100
AcDbSymbolTableRecord
100
AcDbBlockTableRecord
  2
AI9-BLK2
340
0
102
{BLKREFS
331
3B0
102
}
  0
BLOCK_RECORD
  5
35B
330
1
100
AcDbSymbolTableRecord
100
AcDbBlockTableRecord
  2
AI9-BLK3
340
0
102
{BLKREFS
331
359
102
}
  0
BLOCK_RECORD
  5
364
330
1
100
AcDbSymbolTableRecord
100
AcDbBlockTableRecord
  2
AI9-BLK4
340
0
102
{BLKREFS
331
3B1
102
}
  0
BLOCK_RECORD
  5
36D
330
1
100
AcDbSymbolTableRecord
100
AcDbBlockTableRecord
  2
AI9-BLK5
340
0
102
{BLKREFS
331
3B2
102
}
  0
BLOCK_RECORD
  5
374
330
1
100
AcDbSymbolTableRecord
100
AcDbBlockTableRecord
  2
AI9-BLK6
340
0
102
{BLKREFS
331
3B6
102
}
  0
BLOCK_RECORD
  5
37C
330
1
100
AcDbSymbolTableRecord
100
AcDbBlockTableRecord
  2
AI9-BLK7
340
0
102
{BLKREFS
331
37A
102
}
  0
BLOCK_RECORD
  5
386
330
1
100
AcDbSymbolTableRecord
100
AcDbBlockTableRecord
  2
AI9-BLK8
340
0
102
{BLKREFS
331
3C4
102
}
  0
BLOCK_RECORD
  5
38F
330
1
100
AcDbSymbolTableRecord
100
AcDbBlockTableRecord
  2
AI9-BLK9
340
0
102
{BLKREFS
331
3C8
331
3E4
102
}
  0
BLOCK_RECORD
  5
3E6
330
1
100
AcDbSymbolTableRecord
100
AcDbBlockTableRecord
  2
*D14
340
0
  0
BLOCK_RECORD
  5
3F4
330
1
100
AcDbSymbolTableRecord
100
AcDbBlockTableRecord
  2
*D15
340
0
  0
BLOCK_RECORD
  5
402
330
1
100
AcDbSymbolTableRecord
100
AcDbBlockTableRecord
  2
*D16
340
0
  0
BLOCK_RECORD
  5
410
330
1
100
AcDbSymbolTableRecord
100
AcDbBlockTableRecord
  2
*D17
340
0
  0
ENDTAB
  0
ENDSEC
  0
SECTION
  2
BLOCKS
  0
BLOCK
  5
112
330
1E
100
AcDbEntity
  8
0
100
AcDbBlockBegin
  2
*Model_Space
 70
     0
 10
0.0
 20
0.0
 30
0.0
  3
*Model_Space
  1

  0
ENDBLK
  5
113
330
1E
100
AcDbEntity
  8
0
100
AcDbBlockEnd
  0
BLOCK
  5
110
330
1A
100
AcDbEntity
 67
     1
  8
0
100
AcDbBlockBegin
  2
*Paper_Space
 70
     0
 10
0.0
 20
0.0
 30
0.0
  3
*Paper_Space
  1

  0
ENDBLK
  5
111
330
1A
100
AcDbEntity
 67
     1
  8
0
100
AcDbBlockEnd
  0
BLOCK
  5
115
330
CE
100
AcDbEntity
  8
0
100
AcDbBlockBegin
  2
6987
 70
     0
 10
0.0
 20
0.0
 30
0.0
  3
6987
  1

  0
ARC
  5
116
330
CE
100
AcDbEntity
  8
0
100
AcDbCircle
 10
-1.131893654246105
 20
-0.8790120104664005
 30
0.0
 40
0.125
100
AcDbArc
 50
189.6460801435057
 51
270.1088439369462
  0
ARC
  5
117
330
CE
100
AcDbEntity
  8
0
100
AcDbCircle
 10
-1.155752598069785
 20
-0.2922418317597799
 30
0.0
 40
0.1885808804015701
100
AcDbArc
 50
99.32795369616471
 51
192.0821753561814
  0
LINE
  5
118
330
CE
100
AcDbEntity
  8
0
100
AcDbLine
 10
-1.256042156653214
 20
-0.8999589602346969
 30
0.0
 11
-1.340156110525545
 21
-0.3317145191145769
 31
0.0
  0
ARC
  5
119
330
CE
100
AcDbEntity
  8
0
100
AcDbCircle
 10
0.0313079364730289
 20
-6.997090601202753
 30
0.0
 40
6.875
100
AcDbArc
 50
80.36824482163282
 51
88.57230511936888
  0
ARC
  5
11A
330
CE
100
AcDbEntity
  8
0
100
AcDbCircle
 10
0.0313079364730271
 20
-6.997090601202772
 30
0.0
 40
7.000000000000018
100
AcDbArc
 50
79.98092927473104
 51
89.99999999999998
  0
LINE
  5
11B
330
CE
100
AcDbEntity
  8
0
100
AcDbLine
 10
-1.14843702828638
 20
-0.6588659393299068
 30
0.0
 11
-1.148079887707926
 21
-0.8468656001024932
 31
0.0
  0
LINE
  5
11C
330
CE
100
AcDbEntity
  8
0
100
AcDbLine
 10
-0.9919927837338189
 20
-0.8925691664072807
 30
0.0
 11
-0.9918123137606649
 21
-0.9875689949891715
 31
0.0
  0
ARC
  5
11D
330
CE
100
AcDbEntity
  8
0
100
AcDbCircle
 10
-1.006812286694647
 20
-0.9875974902480919
 30
0.0
 40
0.0149999999999998
100
AcDbArc
 50
270.1088439369476
 51
0.1088439369510338
  0
LINE
  5
11E
330
CE
100
AcDbEntity
  8
0
100
AcDbLine
 10
-1.006783791435728
 20
-1.002597463182073
 30
0.0
 11
-1.131658429875127
 21
-1.00283468595377
 31
0.0
  0
ARC
  5
11F
330
CE
100
AcDbEntity
  8
0
100
AcDbCircle
 10
-1.006992756667802
 20
-0.8925976616661994
 30
0.0
 40
0.0150000000000007
100
AcDbArc
 50
0.1088439369442422
 51
90.10884393694423
  0
LINE
  5
120
330
CE
100
AcDbEntity
  8
0
100
AcDbLine
 10
-1.117021053442596
 20
-0.8778066539642903
 30
0.0
 11
-1.007021251926721
 21
-0.8775976887322158
 31
0.0
  0
ARC
  5
121
330
CE
100
AcDbEntity
  8
0
100
AcDbCircle
 10
-1.117079943644363
 20
-0.8468067099007257
 30
0.0
 40
0.0309999999999992
100
AcDbArc
 50
180.1088439369483
 51
270.1088439369467
  0
ARC
  5
122
330
CE
100
AcDbEntity
  8
0
100
AcDbCircle
 10
0.0446057239686519
 20
-6.997077970394767
 30
0.0
 40
6.875
100
AcDbArc
 50
91.53653881757731
 51
99.74059911531339
  0
ARC
  5
123
330
CE
100
AcDbEntity
  8
0
100
AcDbCircle
 10
0.0446057239686537
 20
-6.997077970394784
 30
0.0
 40
7.000000000000018
100
AcDbArc
 50
90.10884393694622
 51
100.1279146622151
  0
LINE
  5
124
330
CE
100
AcDbEntity
  8
0
100
AcDbLine
 10
-1.148406895980102
 20
-0.4718828430460924
 30
0.0
 11
-1.149208098173454
 21
-0.2529728934331583
 31
0.0
  0
LINE
  5
125
330
CE
100
AcDbEntity
  8
0
100
AcDbLine
 10
-0.8824963984588505
 20
-0.6273606793415088
 30
0.0
 11
-1.117495974424582
 21
-0.6278071050645764
 31
0.0
  0
LINE
  5
126
330
CE
100
AcDbEntity
  8
0
100
AcDbLine
 10
-1.117348061714771
 20
-0.5028238969078913
 30
0.0
 11
-0.8827348964763874
 21
-0.5023619464398266
 31
0.0
  0
ARC
  5
127
330
CE
100
AcDbEntity
  8
0
100
AcDbCircle
 10
-1.117437084222816
 20
-0.6588070491281411
 30
0.0
 40
0.031
100
AcDbArc
 50
90.10884393694679
 51
180.1088439369451
  0
ARC
  5
128
330
CE
100
AcDbEntity
  8
0
100
AcDbCircle
 10
-1.117406951916538
 20
-0.4718239528443267
 30
0.0
 40
0.031
100
AcDbArc
 50
180.1088439369462
 51
270.1088439369462
  0
ARC
  5
129
330
CE
100
AcDbEntity
  8
0
100
AcDbCircle
 10
-0.88252489371777
 20
-0.6123607064075252
 30
0.0
 40
0.0150000000000007
100
AcDbArc
 50
270.1088439369476
 51
0.1088439369442422
  0
LINE
  5
12A
330
CE
100
AcDbEntity
  8
0
100
AcDbLine
 10
-0.867705388782145
 20
-0.5173334221041444
 30
0.0
 11
-0.8675249207837865
 21
-0.6123322111486065
 31
0.0
  0
ARC
  5
12B
330
CE
100
AcDbEntity
  8
0
100
AcDbCircle
 10
-0.8827053617161286
 20
-0.5173619173630631
 30
0.0
 40
0.0150000000000001
100
AcDbArc
 50
0.1088439369442422
 51
90.11281454701245
  0
ARC
  5
12C
330
CE
100
AcDbEntity
  8
0
100
AcDbCircle
 10
-1.117722552166852
 20
-0.2529130807395212
 30
0.0
 40
0.0309999999999999
100
AcDbArc
 50
91.54609868839097
 51
180.1088439369462
  0
LINE
  5
12D
330
CE
100
AcDbEntity
  8
0
100
AcDbLine
 10
0.1872275964257479
 20
-0.1391898232779436
 30
0.0
 11
0.1866613253438993
 21
-0.4188407296483927
 31
0.0
  0
LINE
  5
12E
330
CE
100
AcDbEntity
  8
0
100
AcDbLine
 10
-0.124341498529728
 20
-0.1394857649460093
 30
0.0
 11
-0.1232439801373921
 21
-0.4191350909779708
 31
0.0
  0
LINE
  5
12F
330
CE
100
AcDbEntity
  8
0
100
AcDbLine
 10
0.1716613560961022
 20
-0.4338103558908966
 30
0.0
 11
0.0538820046605402
 21
-0.4338103558908966
 31
0.0
  0
LINE
  5
130
330
CE
100
AcDbEntity
  8
0
100
AcDbLine
 10
0.0316647719131655
 20
-0.3727690105947161
 30
0.0
 11
0.0538820046605402
 21
-0.4338103558908966
 31
0.0
  0
LINE
  5
131
330
CE
100
AcDbEntity
  8
0
100
AcDbLine
 10
0.0316647719131655
 20
-0.3727690105947161
 30
0.0
 11
0.0095635385171899
 21
-0.4338524514677982
 31
0.0
  0
LINE
  5
132
330
CE
100
AcDbEntity
  8
0
100
AcDbLine
 10
-0.1082156003971759
 20
-0.434076195008764
 30
0.0
 11
0.0095635385171899
 21
-0.4338524514677982
 31
0.0
  0
ARC
  5
133
330
CE
100
AcDbEntity
  8
0
100
AcDbCircle
 10
-0.1082440956560955
 20
-0.4190762220747804
 30
0.0
 40
0.0150000000000002
100
AcDbArc
 50
180.2248632237343
 51
270.1088439369476
  0
ARC
  5
134
330
CE
100
AcDbEntity
  8
0
100
AcDbCircle
 10
0.1716613560961022
 20
-0.418810355890896
 30
0.0
 40
0.0150000000000001
100
AcDbArc
 50
270.0
 51
359.8839807132135
  0
ARC
  5
135
330
CE
100
AcDbEntity
  8
0
100
AcDbCircle
 10
-0.1393413830110246
 20
-0.1395446338491979
 30
0.0
 40
0.015
100
AcDbArc
 50
0.2248632237275238
 51
91.53653881757763
  0
ARC
  5
136
330
CE
100
AcDbEntity
  8
0
100
AcDbCircle
 10
0.202227565673545
 20
-0.1392201970354385
 30
0.0
 40
0.015
100
AcDbArc
 50
88.57230511936759
 51
179.8839807132202
  0
LINE
  5
137
330
CE
100
AcDbEntity
  8
0
100
AcDbLine
 10
1.212307936473029
 20
-0.6566236026731023
 30
0.0
 11
1.212307936473029
 21
-0.8446236026731028
 31
0.0
  0
LINE
  5
138
330
CE
100
AcDbEntity
  8
0
100
AcDbLine
 10
1.320370871213999
 20
-0.897511772816447
 30
0.0
 11
1.403405188479075
 21
-0.3291085671109588
 31
0.0
  0
ARC
  5
139
330
CE
100
AcDbEntity
  8
0
100
AcDbCircle
 10
1.196182800236774
 20
-0.8768007037595531
 30
0.0
 40
0.125
100
AcDbArc
 50
270.0
 51
350.4627637934405
  0
LINE
  5
13A
330
CE
100
AcDbEntity
  8
0
100
AcDbLine
 10
1.056307936473029
 20
-0.8906236026731022
 30
0.0
 11
1.056307936473029
 21
-0.9856236026731028
 31
0.0
  0
LINE
  5
13B
330
CE
100
AcDbEntity
  8
0
100
AcDbLine
 10
1.071307936473029
 20
-1.000623602673103
 30
0.0
 11
1.196182800236774
 21
-1.000623602673103
 31
0.0
  0
ARC
  5
13C
330
CE
100
AcDbEntity
  8
0
100
AcDbCircle
 10
1.071307936473029
 20
-0.9856236026731028
 30
0.0
 40
0.0150000000000006
100
AcDbArc
 50
180.0
 51
270.0
  0
LINE
  5
13D
330
CE
100
AcDbEntity
  8
0
100
AcDbLine
 10
1.181307936473029
 20
-0.8756236026731034
 30
0.0
 11
1.071307936473029
 21
-0.8756236026731034
 31
0.0
  0
ARC
  5
13E
330
CE
100
AcDbEntity
  8
0
100
AcDbCircle
 10
1.071307936473028
 20
-0.8906236026731022
 30
0.0
 40
0.0149999999999988
100
AcDbArc
 50
89.99999999999323
 51
180.0
  0
ARC
  5
13F
330
CE
100
AcDbEntity
  8
0
100
AcDbCircle
 10
1.181307936473029
 20
-0.8446236026731028
 30
0.0
 40
0.0310000000000006
100
AcDbArc
 50
270.0
 51
0.0
  0
ARC
  5
140
330
CE
100
AcDbEntity
  8
0
100
AcDbCircle
 10
1.218927023131463
 20
-0.2899862593695914
 30
0.0
 40
0.1885808804015701
100
AcDbArc
 50
348.0266685807648
 51
80.78089024078149
  0
LINE
  5
141
330
CE
100
AcDbEntity
  8
0
100
AcDbLine
 10
1.211922595438313
 20
-0.4696409010236593
 30
0.0
 11
1.212307936473029
 21
-0.2507298243811586
 31
0.0
  0
LINE
  5
142
330
CE
100
AcDbEntity
  8
0
100
AcDbLine
 10
0.9463079364730297
 20
-0.6256236026731035
 30
0.0
 11
1.181307936473029
 21
-0.6256236026731035
 31
0.0
  0
LINE
  5
143
330
CE
100
AcDbEntity
  8
0
100
AcDbLine
 10
1.180922595438314
 20
-0.5006409010236581
 30
0.0
 11
0.9463089759763132
 21
-0.5006246422484271
 31
0.0
  0
ARC
  5
144
330
CE
100
AcDbEntity
  8
0
100
AcDbCircle
 10
0.9463079364730297
 20
-0.6106236026731029
 30
0.0
 40
0.0150000000000006
100
AcDbArc
 50
180.0
 51
270.0
  0
LINE
  5
145
330
CE
100
AcDbEntity
  8
0
100
AcDbLine
 10
0.9313079364730292
 20
-0.5156246422124085
 30
0.0
 11
0.9313079364730292
 21
-0.6106236026731029
 31
0.0
  0
ARC
  5
146
330
CE
100
AcDbEntity
  8
0
100
AcDbCircle
 10
0.9463079364730297
 20
-0.5156246422124085
 30
0.0
 40
0.0150000000000003
100
AcDbArc
 50
89.9960293899347
 51
180.0
  0
ARC
  5
147
330
CE
100
AcDbEntity
  8
0
100
AcDbCircle
 10
1.181307936473031
 20
-0.6566236026731041
 30
0.0
 40
0.0310000000000006
100
AcDbArc
 50
0.0000000000032832
 51
90.00000000000328
  0
ARC
  5
148
330
CE
100
AcDbEntity
  8
0
100
AcDbCircle
 10
1.180922595438314
 20
-0.4696409010236593
 30
0.0
 40
0.031
100
AcDbArc
 50
270.0
 51
0.0
  0
ARC
  5
149
330
CE
100
AcDbEntity
  8
0
100
AcDbCircle
 10
1.180822333653768
 20
-0.2507298243811586
 30
0.0
 40
0.0309999999999999
100
AcDbArc
 50
0.0
 51
88.56274524855521
  0
ENDBLK
  5
14A
330
CE
100
AcDbEntity
  8
0
100
AcDbBlockEnd
  0
BLOCK
  5
14B
330
D3
100
AcDbEntity
  8
0
100
AcDbBlockBegin
  2
*D1
 70
     1
 10
0.0
 20
0.0
 30
0.0
  3
*D1
  1

  0
LINE
  5
14C
330
D3
100
AcDbEntity
  8
0
  6
ByBlock
 62
     0
100
AcDbLine
 10
24.35356704897553
 20
-18.87843350556789
 30
0.0
 11
25.1721439125969
 21
-18.87843350556789
 31
0.0
  0
LINE
  5
14D
330
D3
100
AcDbEntity
  8
0
  6
ByBlock
 62
     0
100
AcDbLine
 10
25.71696137213111
 20
-16.36638772118338
 30
0.0
 11
24.8121439125969
 21
-16.36638772118338
 31
0.0
  0
LINE
  5
14E
330
D3
100
AcDbEntity
  8
0
  6
ByBlock
 62
     0
100
AcDbLine
 10
24.9921439125969
 20
-18.87843350556789
 30
0.0
 11
24.9921439125969
 21
-18.01824394670897
 31
0.0
  0
LINE
  5
14F
330
D3
100
AcDbEntity
  8
0
  6
ByBlock
 62
     0
100
AcDbLine
 10
24.9921439125969
 20
-16.36638772118338
 30
0.0
 11
24.9921439125969
 21
-17.22657728004231
 31
0.0
  0
LINE
  5
150
330
D3
100
AcDbEntity
  8
0
  6
ByBlock
 62
     0
100
AcDbLine
 10
25.1171439125969
 20
-19.00343350556789
 30
0.0
 11
24.8671439125969
 21
-18.75343350556789
 31
0.0
  0
LINE
  5
151
330
D3
100
AcDbEntity
  8
0
  6
ByBlock
 62
     0
100
AcDbLine
 10
25.1171439125969
 20
-16.49138772118338
 30
0.0
 11
24.8671439125969
 21
-16.24138772118338
 31
0.0
  0
TEXT
  5
152
330
D3
100
AcDbEntity
  8
0
  6
ByBlock
 62
     0
100
AcDbText
 10
25.0546439125969
 20
-17.89324394670897
 30
0.0
 40
0.125
  1
2 1/2
 50
90.0
 72
     1
 11
24.9921439125969
 21
-17.62241061337564
 31
0.0
100
AcDbText
 73
     2
  0
POINT
  5
154
330
D3
100
AcDbEntity
  8
DEFPOINTS
  6
ByBlock
 62
     0
100
AcDbPoint
 10
24.29106704897553
 20
-18.87843350556789
 30
0.0
  0
POINT
  5
155
330
D3
100
AcDbEntity
  8
DEFPOINTS
  6
ByBlock
 62
     0
100
AcDbPoint
 10
25.77946137213111
 20
-16.36638772118338
 30
0.0
  0
POINT
  5
156
330
D3
100
AcDbEntity
  8
DEFPOINTS
  6
ByBlock
 62
     0
100
AcDbPoint
 10
24.9921439125969
 20
-16.36638772118338
 30
0.0
  0
ENDBLK
  5
157
330
D3
100
AcDbEntity
  8
0
100
AcDbBlockEnd
  0
BLOCK
  5
158
330
D4
100
AcDbEntity
  8
0
100
AcDbBlockBegin
  2
*D2
 70
     1
 10
0.0
 20
0.0
 30
0.0
  3
*D2
  1

  0
LINE
  5
159
330
D4
100
AcDbEntity
  8
0
  6
ByBlock
 62
     0
100
AcDbLine
 10
23.76691671523693
 20
-14.16365499824595
 30
0.0
 11
25.77946137213111
 21
-16.36638772118339
 31
0.0
  0
LINE
  5
15A
330
D4
100
AcDbEntity
  8
0
  6
ByBlock
 62
     0
100
AcDbLine
 10
23.59031967802729
 20
-14.15568715984543
 30
0.0
 11
23.94351375244657
 21
-14.17162283664647
 31
0.0
  0
TEXT
  5
15B
330
D4
100
AcDbEntity
  8
0
  6
ByBlock
 62
     0
100
AcDbText
 10
25.81763475263313
 20
-16.50082745869075
 30
0.0
 40
0.125
  1
R3
 50
312.4166378140905
 72
     1
 11
25.93403813770614
 21
-16.5355721904927
 31
0.0
100
AcDbText
 73
     2
  0
POINT
  5
15C
330
D4
100
AcDbEntity
  8
DEFPOINTS
  6
ByBlock
 62
     0
100
AcDbPoint
 10
23.76691671523693
 20
-14.16365499824595
 30
0.0
  0
POINT
  5
15D
330
D4
100
AcDbEntity
  8
DEFPOINTS
  6
ByBlock
 62
     0
100
AcDbPoint
 10
25.79046710094636
 20
-16.37843350556789
 30
0.0
  0
ENDBLK
  5
15E
330
D4
100
AcDbEntity
  8
0
100
AcDbBlockEnd
  0
BLOCK
  5
15F
330
100
100
AcDbEntity
  8
0
100
AcDbBlockBegin
  2
*D3
 70
     1
 10
0.0
 20
0.0
 30
0.0
  3
*D3
  1

  0
LINE
  5
160
330
100
100
AcDbEntity
  8
0
  6
ByBlock
 62
     0
100
AcDbLine
 10
21.41900305394778
 20
-20.20635332796547
 30
0.0
 11
21.41900305394778
 21
-19.49238188753698
 31
0.0
  0
LINE
  5
161
330
100
100
AcDbEntity
  8
0
  6
ByBlock
 62
     0
100
AcDbLine
 10
24.16256435295241
 20
-20.20374737596185
 30
0.0
 11
24.16256435295241
 21
-19.49238188753698
 31
0.0
  0
LINE
  5
162
330
100
100
AcDbEntity
  8
0
  6
ByBlock
 62
     0
100
AcDbLine
 10
21.41900305394778
 20
-19.67238188753698
 30
0.0
 11
22.37411703678343
 21
-19.67238188753698
 31
0.0
  0
LINE
  5
163
330
100
100
AcDbEntity
  8
0
  6
ByBlock
 62
     0
100
AcDbLine
 10
24.16256435295241
 20
-19.67238188753698
 30
0.0
 11
23.20745037011676
 21
-19.67238188753698
 31
0.0
  0
LINE
  5
164
330
100
100
AcDbEntity
  8
0
  6
ByBlock
 62
     0
100
AcDbLine
 10
21.29400305394778
 20
-19.79738188753698
 30
0.0
 11
21.54400305394778
 21
-19.54738188753698
 31
0.0
  0
LINE
  5
165
330
100
100
AcDbEntity
  8
0
  6
ByBlock
 62
     0
100
AcDbLine
 10
24.03756435295241
 20
-19.79738188753698
 30
0.0
 11
24.28756435295241
 21
-19.54738188753698
 31
0.0
  0
TEXT
  5
166
330
100
100
AcDbEntity
  8
0
  6
ByBlock
 62
     0
100
AcDbText
 10
22.49911703678343
 20
-19.73488188753698
 30
0.0
 40
0.125
  1
2 3/4
 72
     1
 11
22.79078370345009
 21
-19.67238188753698
 31
0.0
100
AcDbText
 73
     2
  0
POINT
  5
167
330
100
100
AcDbEntity
  8
DEFPOINTS
  6
ByBlock
 62
     0
100
AcDbPoint
 10
21.41900305394778
 20
-20.26885332796547
 30
0.0
  0
POINT
  5
168
330
100
100
AcDbEntity
  8
DEFPOINTS
  6
ByBlock
 62
     0
100
AcDbPoint
 10
24.16256435295241
 20
-20.26624737596184
 30
0.0
  0
POINT
  5
169
330
100
100
AcDbEntity
  8
DEFPOINTS
  6
ByBlock
 62
     0
100
AcDbPoint
 10
24.16256435295241
 20
-19.67238188753698
 30
0.0
  0
ENDBLK
  5
16A
330
100
100
AcDbEntity
  8
0
100
AcDbBlockEnd
  0
BLOCK
  5
16B
330
101
100
AcDbEntity
  8
0
100
AcDbBlockBegin
  2
*D4
 70
     1
 10
0.0
 20
0.0
 30
0.0
  3
*D4
  1

  0
LINE
  5
16C
330
101
100
AcDbEntity
  8
0
  6
ByBlock
 62
     0
100
AcDbLine
 10
21.76297360954873
 20
-20.9978227324874
 30
0.0
 11
21.76297360954873
 21
-21.32749104947271
 31
0.0
  0
LINE
  5
16D
330
101
100
AcDbEntity
  8
0
  6
ByBlock
 62
     0
100
AcDbLine
 10
23.81546710094636
 20
-20.98526241152399
 30
0.0
 11
23.81546710094636
 21
-21.32749104947271
 31
0.0
  0
LINE
  5
16E
330
101
100
AcDbEntity
  8
0
  6
ByBlock
 62
     0
100
AcDbLine
 10
21.76297360954873
 20
-21.14749104947271
 30
0.0
 11
22.35172035524755
 21
-21.14749104947271
 31
0.0
  0
LINE
  5
16F
330
101
100
AcDbEntity
  8
0
  6
ByBlock
 62
     0
100
AcDbLine
 10
23.81546710094636
 20
-21.14749104947271
 30
0.0
 11
23.22672035524754
 21
-21.14749104947271
 31
0.0
  0
LINE
  5
170
330
101
100
AcDbEntity
  8
0
  6
ByBlock
 62
     0
100
AcDbLine
 10
21.63797360954873
 20
-21.27249104947271
 30
0.0
 11
21.88797360954873
 21
-21.02249104947271
 31
0.0
  0
LINE
  5
171
330
101
100
AcDbEntity
  8
0
  6
ByBlock
 62
     0
100
AcDbLine
 10
23.69046710094636
 20
-21.27249104947271
 30
0.0
 11
23.94046710094636
 21
-21.02249104947271
 31
0.0
  0
TEXT
  5
172
330
101
100
AcDbEntity
  8
0
  6
ByBlock
 62
     0
100
AcDbText
 10
22.47672035524754
 20
-21.20999104947271
 30
0.0
 40
0.125
  1
2 1/16
 72
     1
 11
22.78922035524754
 21
-21.14749104947271
 31
0.0
100
AcDbText
 73
     2
  0
POINT
  5
173
330
101
100
AcDbEntity
  8
DEFPOINTS
  6
ByBlock
 62
     0
100
AcDbPoint
 10
21.76297360954873
 20
-20.9353227324874
 30
0.0
  0
POINT
  5
174
330
101
100
AcDbEntity
  8
DEFPOINTS
  6
ByBlock
 62
     0
100
AcDbPoint
 10
23.81546710094636
 20
-20.92276241152399
 30
0.0
  0
POINT
  5
175
330
101
100
AcDbEntity
  8
DEFPOINTS
  6
ByBlock
 62
     0
100
AcDbPoint
 10
23.81546710094636
 20
-21.14749104947271
 30
0.0
  0
ENDBLK
  5
176
330
101
100
AcDbEntity
  8
0
100
AcDbBlockEnd
  0
BLOCK
  5
352
330
351
100
AcDbEntity
  8
0
 62
     7
100
AcDbBlockBegin
  2
AI9-BLK2
 70
     0
 10
0.0
 20
0.0
 30
0.0
  3
AI9-BLK2
  1

  0
LINE
  5
353
330
351
100
AcDbEntity
  8
0
 62
     3
100
AcDbLine
 10
-34.84335123697916
 20
-9.067491319444442
 30
0.0
 11
-34.84335123697916
 21
9.067491319444442
 31
0.0
  0
LINE
  5
354
330
351
100
AcDbEntity
  8
0
 62
     3
100
AcDbLine
 10
34.84335123697916
 20
-9.001345486111111
 30
0.0
 11
34.84335123697916
 21
9.067491319444442
 31
0.0
  0
LINE
  5
355
330
351
100
AcDbEntity
  8
0
 62
     3
100
AcDbLine
 10
-34.84335123697916
 20
4.495505099826388
 30
0.0
 11
-6.947035047743055
 21
4.495505099826388
 31
0.0
  0
LINE
  5
356
330
351
100
AcDbEntity
  8
0
 62
     3
100
AcDbLine
 10
34.84335123697916
 20
4.495505099826388
 30
0.0
 11
7.173033311631943
 21
4.495505099826388
 31
0.0
  0
LINE
  5
357
330
351
100
AcDbEntity
  8
0
 62
     3
100
AcDbLine
 10
-38.01835123697916
 20
1.320505099826388
 30
0.0
 11
-31.66835123697917
 21
7.670505099826388
 31
0.0
  0
LINE
  5
358
330
351
100
AcDbEntity
  8
0
 62
     3
100
AcDbLine
 10
31.66835123697917
 20
1.320505099826388
 30
0.0
 11
38.01835123697916
 21
7.670505099826388
 31
0.0
  0
INSERT
  5
359
330
351
100
AcDbEntity
  8
0
 62
     7
100
AcDbBlockReference
  2
AI9-BLK3
 10
-0.0459058973524306
 20
4.427808973524305
 30
0.0
  0
ENDBLK
  5
35A
330
351
100
AcDbEntity
  8
0
100
AcDbBlockEnd
  0
BLOCK
  5
35C
330
35B
100
AcDbEntity
  8
0
 62
     7
100
AcDbBlockBegin
  2
AI9-BLK3
 70
     0
 10
0.0
 20
0.0
 30
0.0
  3
AI9-BLK3
  1

  0
HATCH
  5
35D
330
35B
100
AcDbEntity
  8
0
 62
     3
100
AcDbHatch
 10
0.0
 20
0.0
 30
0.0
210
0.0
220
0.0
230
1.0
  2
SOLID
 70
     1
 71
     0
 91
        1
 92
        1
 93
        1
 72
     4
 94
        3
 73
     0
 74
     0
 95
       47
 96
       43
 40
0.0
 40
0.0
 40
0.0
 40
0.0
 40
1.0
 40
1.0
 40
1.0
 40
2.0
 40
2.0
 40
2.0
 40
3.0
 40
3.0
 40
3.0
 40
4.0
 40
4.0
 40
4.0
 40
5.0
 40
5.0
 40
5.0
 40
6.0
 40
6.0
 40
6.0
 40
7.0
 40
7.0
 40
7.0
 40
8.0
 40
8.0
 40
8.0
 40
9.0
 40
9.0
 40
9.0
 40
10.0
 40
10.0
 40
10.0
 40
11.0
 40
11.0
 40
11.0
 40
12.0
 40
12.0
 40
12.0
 40
13.0
 40
13.0
 40
13.0
 40
14.0
 40
14.0
 40
14.0
 40
14.0
 10
-5.295886908637152
 20
0.3894680447048611
 10
-5.295886908637152
 20
1.358917914496527
 10
-4.588781060112847
 20
1.456414116753472
 10
-4.267181396484375
 20
1.456414116753472
 10
-3.750589328342013
 20
1.456414116753472
 10
-3.335799831814235
 20
1.121895345052083
 10
-3.335799831814235
 20
0.5672349717881944
 10
-3.335799831814235
 20
0.0339341905381945
 10
-3.687199571397568
 20
-0.19068603515625
 10
-4.131616889105901
 20
-0.4277086046006945
 10
-4.131616889105901
 20
-0.4277086046006945
 10
-4.440641954210069
 20
-0.59686279296875
 10
-4.440641954210069
 20
-0.59686279296875
 10
-4.84716322157118
 20
-0.8211385091145832
 10
-4.936046685112846
 20
-1.054026963975694
 10
-4.952927652994791
 20
-1.168404134114583
 10
-4.952927652994791
 20
-1.168404134114583
 10
-3.335799831814235
 20
-1.168404134114583
 10
-3.335799831814235
 20
-1.168404134114583
 10
-3.335799831814235
 20
-1.168404134114583
 10
-3.335799831814235
 20
-1.519803873697916
 10
-3.335799831814235
 20
-1.519803873697916
 10
-3.335799831814235
 20
-1.519803873697916
 10
-5.372023518880207
 20
-1.519803873697916
 10
-5.372023518880207
 20
-1.519803873697916
 10
-5.350836181640624
 20
-0.9017537434895832
 10
-5.071438937717013
 20
-0.5713690863715277
 10
-4.67353040907118
 20
-0.3388251410590277
 10
-4.67353040907118
 20
-0.3388251410590277
 10
-4.27975599500868
 20
-0.11007080078125
 10
-4.27975599500868
 20
-0.11007080078125
 10
-3.962290445963541
 20
0.0718302408854167
 10
-3.733708360460068
 20
0.1948201497395833
 10
-3.733708360460068
 20
0.5841159396701389
 10
-3.733708360460068
 20
0.8211385091145832
 10
-3.886153835720485
 20
1.121895345052083
 10
-4.322130669487846
 20
1.121895345052083
 10
-4.885231526692708
 20
1.121895345052083
 10
-4.910552978515624
 20
0.59686279296875
 10
-4.923299831814235
 20
0.3894680447048611
 10
-4.923299831814235
 20
0.3894680447048611
 10
-5.295886908637152
 20
0.3894680447048611
 10
-5.295886908637152
 20
0.3894680447048611
 97
        0
 75
     2
 76
     1
 98
        1
 10
0.0
 20
0.0
  0
HATCH
  5
35E
330
35B
100
AcDbEntity
  8
0
 62
     3
100
AcDbHatch
 10
0.0
 20
0.0
 30
0.0
210
0.0
220
0.0
230
1.0
  2
SOLID
 70
     1
 71
     0
 91
        1
 92
        1
 93
        1
 72
     4
 94
        3
 73
     0
 74
     0
 95
       17
 96
       13
 40
0.0
 40
0.0
 40
0.0
 40
0.0
 40
1.0
 40
1.0
 40
1.0
 40
2.0
 40
2.0
 40
2.0
 40
3.0
 40
3.0
 40
3.0
 40
4.0
 40
4.0
 40
4.0
 40
4.0
 10
-1.905051676432291
 20
-0.5376071506076389
 10
-1.905051676432291
 20
-0.5376071506076389
 10
-2.942197672526041
 20
-0.5376071506076389
 10
-2.942197672526041
 20
-0.5376071506076389
 10
-2.942197672526041
 20
-0.5376071506076389
 10
-2.942197672526041
 20
-0.15657958984375
 10
-2.942197672526041
 20
-0.15657958984375
 10
-2.942197672526041
 20
-0.15657958984375
 10
-1.905051676432291
 20
-0.15657958984375
 10
-1.905051676432291
 20
-0.15657958984375
 10
-1.905051676432291
 20
-0.15657958984375
 10
-1.905051676432291
 20
-0.5376071506076389
 10
-1.905051676432291
 20
-0.5376071506076389
 97
        0
 75
     2
 76
     1
 98
        1
 10
0.0
 20
0.0
  0
HATCH
  5
35F
330
35B
100
AcDbEntity
  8
0
 62
     3
100
AcDbHatch
 10
0.0
 20
0.0
 30
0.0
210
0.0
220
0.0
230
1.0
  2
SOLID
 70
     1
 71
     0
 91
        1
 92
        1
 93
        1
 72
     4
 94
        3
 73
     0
 74
     0
 95
       62
 96
       58
 40
0.0
 40
0.0
 40
0.0
 40
0.0
 40
1.0
 40
1.0
 40
1.0
 40
2.0
 40
2.0
 40
2.0
 40
3.0
 40
3.0
 40
3.0
 40
4.0
 40
4.0
 40
4.0
 40
5.0
 40
5.0
 40
5.0
 40
6.0
 40
6.0
 40
6.0
 40
7.0
 40
7.0
 40
7.0
 40
8.0
 40
8.0
 40
8.0
 40
9.0
 40
9.0
 40
9.0
 40
10.0
 40
10.0
 40
10.0
 40
11.0
 40
11.0
 40
11.0
 40
12.0
 40
12.0
 40
12.0
 40
13.0
 40
13.0
 40
13.0
 40
14.0
 40
14.0
 40
14.0
 40
15.0
 40
15.0
 40
15.0
 40
16.0
 40
16.0
 40
16.0
 40
17.0
 40
17.0
 40
17.0
 40
18.0
 40
18.0
 40
18.0
 40
19.0
 40
19.0
 40
19.0
 40
19.0
 10
-0.7704094780815972
 20
0.1734605577256944
 10
-0.7068474663628472
 20
0.1693264431423611
 10
-0.6391513400607638
 20
0.1651923285590278
 10
-0.5755893283420139
 20
0.1651923285590278
 10
-0.2877516004774305
 20
0.1651923285590278
 10
-0.0083543565538194
 20
0.2792249891493055
 10
-0.0083543565538194
 20
0.6519843207465277
 10
-0.0083543565538194
 20
0.829751247829861
 10
-0.1142910427517361
 20
1.121895345052083
 10
-0.5587083604600695
 20
1.121895345052083
 10
-1.087875027126736
 20
1.121895345052083
 10
-1.12180921766493
 20
0.68988037109375
 10
-1.138690185546874
 20
0.4824856228298611
 10
-1.138690185546874
 20
0.4824856228298611
 10
-1.502836778428819
 20
0.4824856228298611
 10
-1.502836778428819
 20
0.4824856228298611
 10
-1.502836778428819
 20
0.9186347113715276
 10
-1.32489759657118
 20
1.456414116753472
 10
-0.541827392578125
 20
1.456414116753472
 10
0.0340203179253472
 20
1.456414116753472
 10
0.3768073187934027
 20
1.126029459635416
 10
0.3768073187934027
 20
0.6729994032118056
 10
0.3768073187934027
 20
0.2919718424479166
 10
0.1566657172309027
 20
0.11007080078125
 10
-0.0042202419704861
 20
0.0590833875868056
 10
-0.0042202419704861
 20
0.0590833875868056
 10
-0.0042202419704861
 20
0.0508151584201389
 10
-0.0042202419704861
 20
0.0508151584201389
 10
0.2836174858940972
 20
-0.0422024197048611
 10
0.4911844889322916
 20
-0.2454630533854166
 10
0.4911844889322916
 20
-0.64337158203125
 10
0.4911844889322916
 20
-1.130163574218749
 10
0.1778530544704861
 20
-1.600074598524305
 10
-0.5798956976996528
 20
-1.600074598524305
 10
-0.8000372992621526
 20
-1.600074598524305
 10
-0.9862447102864582
 20
-1.545297580295138
 10
-1.130249701605902
 20
-1.469160970052083
 10
-1.460462103949652
 20
-1.295528157552083
 10
-1.549345567491319
 20
-0.9523966471354166
 10
-1.574667019314236
 20
-0.6096096462673611
 10
-1.574667019314236
 20
-0.6096096462673611
 10
-1.189505343967013
 20
-0.6096096462673611
 10
-1.189505343967013
 20
-0.6096096462673611
 10
-1.176758490668402
 20
-0.8890068901909721
 10
-1.109062364366319
 20
-1.265900336371527
 10
-0.5545742458767361
 20
-1.265900336371527
 10
-0.1735466851128472
 20
-1.265900336371527
 10
0.0932759602864583
 20
-1.033011881510416
 10
0.0932759602864583
 20
-0.6902248806423611
 10
0.0932759602864583
 20
-0.19068603515625
 10
-0.3470072428385416
 20
-0.1438327365451389
 10
-0.6010830349392361
 20
-0.1438327365451389
 10
-0.6560323079427083
 20
-0.1438327365451389
 10
-0.7152879503038195
 20
-0.1483113606770833
 10
-0.7704094780815972
 20
-0.1483113606770833
 10
-0.7704094780815972
 20
-0.1483113606770833
 10
-0.7704094780815972
 20
0.1734605577256944
 10
-0.7704094780815972
 20
0.1734605577256944
 97
        0
 75
     2
 76
     1
 98
        1
 10
0.0
 20
0.0
  0
HATCH
  5
360
330
35B
100
AcDbEntity
  8
0
 62
     3
100
AcDbHatch
 10
0.0
 20
0.0
 30
0.0
210
0.0
220
0.0
230
1.0
  2
SOLID
 70
     1
 71
     0
 91
        1
 92
        1
 93
        1
 72
     4
 94
        3
 73
     0
 74
     0
 95
       17
 96
       13
 40
0.0
 40
0.0
 40
0.0
 40
0.0
 40
1.0
 40
1.0
 40
1.0
 40
2.0
 40
2.0
 40
2.0
 40
3.0
 40
3.0
 40
3.0
 40
4.0
 40
4.0
 40
4.0
 40
4.0
 10
0.8467183430989582
 20
-1.600074598524305
 10
0.8467183430989582
 20
-1.600074598524305
 10
0.5630147298177083
 20
-1.600074598524305
 10
0.5630147298177083
 20
-1.600074598524305
 10
0.5630147298177083
 20
-1.600074598524305
 10
1.604467095269097
 20
1.600074598524305
 10
1.604467095269097
 20
1.600074598524305
 10
1.604467095269097
 20
1.600074598524305
 10
1.883864339192708
 20
1.600074598524305
 10
1.883864339192708
 20
1.600074598524305
 10
1.883864339192708
 20
1.600074598524305
 10
0.8467183430989582
 20
-1.600074598524305
 10
0.8467183430989582
 20
-1.600074598524305
 97
        0
 75
     2
 76
     1
 98
        1
 10
0.0
 20
0.0
  0
HATCH
  5
361
330
35B
100
AcDbEntity
  8
0
 62
     3
100
AcDbHatch
 10
0.0
 20
0.0
 30
0.0
210
0.0
220
0.0
230
1.0
  2
SOLID
 70
     1
 71
     0
 91
        2
 92
       16
 93
        1
 72
     4
 94
        3
 73
     0
 74
     0
 95
       17
 96
       13
 40
0.0
 40
0.0
 40
0.0
 40
0.0
 40
1.0
 40
1.0
 40
1.0
 40
2.0
 40
2.0
 40
2.0
 40
3.0
 40
3.0
 40
3.0
 40
4.0
 40
4.0
 40
4.0
 40
4.0
 10
2.260585530598957
 20
-0.4742173936631944
 10
2.260585530598957
 20
-0.4742173936631944
 10
3.217288547092013
 20
-0.4742173936631944
 10
3.217288547092013
 20
-0.4742173936631944
 10
3.217288547092013
 20
-0.4742173936631944
 10
3.217288547092013
 20
0.876260036892361
 10
3.217288547092013
 20
0.876260036892361
 10
3.217288547092013
 20
0.876260036892361
 10
3.208848063151041
 20
0.876260036892361
 10
3.208848063151041
 20
0.876260036892361
 10
3.208848063151041
 20
0.876260036892361
 10
2.260585530598957
 20
-0.4742173936631944
 10
2.260585530598957
 20
-0.4742173936631944
 97
        0
 92
        1
 93
        1
 72
     4
 94
        3
 73
     0
 74
     0
 95
       38
 96
       34
 40
0.0
 40
0.0
 40
0.0
 40
0.0
 40
1.0
 40
1.0
 40
1.0
 40
2.0
 40
2.0
 40
2.0
 40
3.0
 40
3.0
 40
3.0
 40
4.0
 40
4.0
 40
4.0
 40
5.0
 40
5.0
 40
5.0
 40
6.0
 40
6.0
 40
6.0
 40
7.0
 40
7.0
 40
7.0
 40
8.0
 40
8.0
 40
8.0
 40
9.0
 40
9.0
 40
9.0
 40
10.0
 40
10.0
 40
10.0
 40
11.0
 40
11.0
 40
11.0
 40
11.0
 10
3.58987562391493
 20
-0.7959893120659722
 10
3.58987562391493
 20
-0.7959893120659722
 10
3.58987562391493
 20
-1.519803873697916
 10
3.58987562391493
 20
-1.519803873697916
 10
3.58987562391493
 20
-1.519803873697916
 10
3.217288547092013
 20
-1.519803873697916
 10
3.217288547092013
 20
-1.519803873697916
 10
3.217288547092013
 20
-1.519803873697916
 10
3.217288547092013
 20
-0.7959893120659722
 10
3.217288547092013
 20
-0.7959893120659722
 10
3.217288547092013
 20
-0.7959893120659722
 10
1.917626274956597
 20
-0.7959893120659722
 10
1.917626274956597
 20
-0.7959893120659722
 10
1.917626274956597
 20
-0.7959893120659722
 10
1.917626274956597
 20
-0.4318427191840277
 10
1.917626274956597
 20
-0.4318427191840277
 10
1.917626274956597
 20
-0.4318427191840277
 10
3.280850558810763
 20
1.456414116753472
 10
3.280850558810763
 20
1.456414116753472
 10
3.280850558810763
 20
1.456414116753472
 10
3.58987562391493
 20
1.456414116753472
 10
3.58987562391493
 20
1.456414116753472
 10
3.58987562391493
 20
1.456414116753472
 10
3.58987562391493
 20
-0.4742173936631944
 10
3.58987562391493
 20
-0.4742173936631944
 10
3.58987562391493
 20
-0.4742173936631944
 10
4.025852457682291
 20
-0.4742173936631944
 10
4.025852457682291
 20
-0.4742173936631944
 10
4.025852457682291
 20
-0.4742173936631944
 10
4.025852457682291
 20
-0.7959893120659722
 10
4.025852457682291
 20
-0.7959893120659722
 10
4.025852457682291
 20
-0.7959893120659722
 10
3.58987562391493
 20
-0.7959893120659722
 10
3.58987562391493
 20
-0.7959893120659722
 97
        0
 75
     2
 76
     1
 98
        1
 10
0.0
 20
0.0
  0
HATCH
  5
362
330
35B
100
AcDbEntity
  8
0
 62
     3
100
AcDbHatch
 10
0.0
 20
0.0
 30
0.0
210
0.0
220
0.0
230
1.0
  2
SOLID
 70
     1
 71
     0
 91
        2
 92
        1
 93
        1
 72
     4
 94
        3
 73
     0
 74
     0
 95
       17
 96
       13
 40
0.0
 40
0.0
 40
0.0
 40
0.0
 40
1.0
 40
1.0
 40
1.0
 40
2.0
 40
2.0
 40
2.0
 40
3.0
 40
3.0
 40
3.0
 40
4.0
 40
4.0
 40
4.0
 40
4.0
 10
5.062998453776041
 20
1.519803873697916
 10
5.062998453776041
 20
1.519803873697916
 10
5.372023518880207
 20
1.519803873697916
 10
5.372023518880207
 20
1.519803873697916
 10
5.372023518880207
 20
1.519803873697916
 10
5.372023518880207
 20
0.4401109483506945
 10
5.372023518880207
 20
0.4401109483506945
 10
5.372023518880207
 20
0.4401109483506945
 10
5.062998453776041
 20
0.4401109483506945
 10
5.062998453776041
 20
0.4401109483506945
 10
5.062998453776041
 20
0.4401109483506945
 10
5.062998453776041
 20
1.519803873697916
 10
5.062998453776041
 20
1.519803873697916
 97
        0
 92
        1
 93
        1
 72
     4
 94
        3
 73
     0
 74
     0
 95
       17
 96
       13
 40
0.0
 40
0.0
 40
0.0
 40
0.0
 40
1.0
 40
1.0
 40
1.0
 40
2.0
 40
2.0
 40
2.0
 40
3.0
 40
3.0
 40
3.0
 40
4.0
 40
4.0
 40
4.0
 40
4.0
 10
4.461829291449652
 20
1.519803873697916
 10
4.461829291449652
 20
1.519803873697916
 10
4.770854356553819
 20
1.519803873697916
 10
4.770854356553819
 20
1.519803873697916
 10
4.770854356553819
 20
1.519803873697916
 10
4.770854356553819
 20
0.4401109483506945
 10
4.770854356553819
 20
0.4401109483506945
 10
4.770854356553819
 20
0.4401109483506945
 10
4.461829291449652
 20
0.4401109483506945
 10
4.461829291449652
 20
0.4401109483506945
 10
4.461829291449652
 20
0.4401109483506945
 10
4.461829291449652
 20
1.519803873697916
 10
4.461829291449652
 20
1.519803873697916
 97
        0
 75
     2
 76
     1
 98
        1
 10
0.0
 20
0.0
  0
ENDBLK
  5
363
330
35B
100
AcDbEntity
  8
0
100
AcDbBlockEnd
  0
BLOCK
  5
365
330
364
100
AcDbEntity
  8
0
 62
     7
100
AcDbBlockBegin
  2
AI9-BLK4
 70
     0
 10
0.0
 20
0.0
 30
0.0
  3
AI9-BLK4
  1

  0
HATCH
  5
366
330
364
100
AcDbEntity
  8
0
 62
     3
100
AcDbHatch
 10
0.0
 20
0.0
 30
0.0
210
0.0
220
0.0
230
1.0
  2
SOLID
 70
     1
 71
     0
 91
        2
 92
       16
 93
        1
 72
     4
 94
        3
 73
     0
 74
     0
 95
       17
 96
       13
 40
0.0
 40
0.0
 40
0.0
 40
0.0
 40
1.0
 40
1.0
 40
1.0
 40
2.0
 40
2.0
 40
2.0
 40
3.0
 40
3.0
 40
3.0
 40
4.0
 40
4.0
 40
4.0
 40
4.0
 10
-5.03104519314236
 20
-0.4742173936631944
 10
-5.03104519314236
 20
-0.4742173936631944
 10
-4.074342176649305
 20
-0.4742173936631944
 10
-4.074342176649305
 20
-0.4742173936631944
 10
-4.074342176649305
 20
-0.4742173936631944
 10
-4.074342176649305
 20
0.876260036892361
 10
-4.074342176649305
 20
0.876260036892361
 10
-4.074342176649305
 20
0.876260036892361
 10
-4.082954915364583
 20
0.876260036892361
 10
-4.082954915364583
 20
0.876260036892361
 10
-4.082954915364583
 20
0.876260036892361
 10
-5.03104519314236
 20
-0.4742173936631944
 10
-5.03104519314236
 20
-0.4742173936631944
 97
        0
 92
        1
 93
        1
 72
     4
 94
        3
 73
     0
 74
     0
 95
       38
 96
       34
 40
0.0
 40
0.0
 40
0.0
 40
0.0
 40
1.0
 40
1.0
 40
1.0
 40
2.0
 40
2.0
 40
2.0
 40
3.0
 40
3.0
 40
3.0
 40
4.0
 40
4.0
 40
4.0
 40
5.0
 40
5.0
 40
5.0
 40
6.0
 40
6.0
 40
6.0
 40
7.0
 40
7.0
 40
7.0
 40
8.0
 40
8.0
 40
8.0
 40
9.0
 40
9.0
 40
9.0
 40
10.0
 40
10.0
 40
10.0
 40
11.0
 40
11.0
 40
11.0
 40
11.0
 10
-3.701927354600694
 20
-0.7959893120659722
 10
-3.701927354600694
 20
-0.7959893120659722
 10
-3.701927354600694
 20
-1.519803873697916
 10
-3.701927354600694
 20
-1.519803873697916
 10
-3.701927354600694
 20
-1.519803873697916
 10
-4.074342176649305
 20
-1.519803873697916
 10
-4.074342176649305
 20
-1.519803873697916
 10
-4.074342176649305
 20
-1.519803873697916
 10
-4.074342176649305
 20
-0.7959893120659722
 10
-4.074342176649305
 20
-0.7959893120659722
 10
-4.074342176649305
 20
-0.7959893120659722
 10
-5.374176703559027
 20
-0.7959893120659722
 10
-5.374176703559027
 20
-0.7959893120659722
 10
-5.374176703559027
 20
-0.7959893120659722
 10
-5.374176703559027
 20
-0.4318427191840277
 10
-5.374176703559027
 20
-0.4318427191840277
 10
-5.374176703559027
 20
-0.4318427191840277
 10
-4.01095241970486
 20
1.456414116753472
 10
-4.01095241970486
 20
1.456414116753472
 10
-4.01095241970486
 20
1.456414116753472
 10
-3.701927354600694
 20
1.456414116753472
 10
-3.701927354600694
 20
1.456414116753472
 10
-3.701927354600694
 20
1.456414116753472
 10
-3.701927354600694
 20
-0.4742173936631944
 10
-3.701927354600694
 20
-0.4742173936631944
 10
-3.701927354600694
 20
-0.4742173936631944
 10
-3.265778266059027
 20
-0.4742173936631944
 10
-3.265778266059027
 20
-0.4742173936631944
 10
-3.265778266059027
 20
-0.4742173936631944
 10
-3.265778266059027
 20
-0.7959893120659722
 10
-3.265778266059027
 20
-0.7959893120659722
 10
-3.265778266059027
 20
-0.7959893120659722
 10
-3.701927354600694
 20
-0.7959893120659722
 10
-3.701927354600694
 20
-0.7959893120659722
 97
        0
 75
     2
 76
     1
 98
        1
 10
0.0
 20
0.0
  0
HATCH
  5
367
330
364
100
AcDbEntity
  8
0
 62
     3
100
AcDbHatch
 10
0.0
 20
0.0
 30
0.0
210
0.0
220
0.0
230
1.0
  2
SOLID
 70
     1
 71
     0
 91
        1
 92
        1
 93
        1
 72
     4
 94
        3
 73
     0
 74
     0
 95
       17
 96
       13
 40
0.0
 40
0.0
 40
0.0
 40
0.0
 40
1.0
 40
1.0
 40
1.0
 40
2.0
 40
2.0
 40
2.0
 40
3.0
 40
3.0
 40
3.0
 40
4.0
 40
4.0
 40
4.0
 40
4.0
 10
-1.902898491753472
 20
-0.5376071506076389
 10
-1.902898491753472
 20
-0.5376071506076389
 10
-2.939872233072916
 20
-0.5376071506076389
 10
-2.939872233072916
 20
-0.5376071506076389
 10
-2.939872233072916
 20
-0.5376071506076389
 10
-2.939872233072916
 20
-0.15657958984375
 10
-2.939872233072916
 20
-0.15657958984375
 10
-2.939872233072916
 20
-0.15657958984375
 10
-1.902898491753472
 20
-0.15657958984375
 10
-1.902898491753472
 20
-0.15657958984375
 10
-1.902898491753472
 20
-0.15657958984375
 10
-1.902898491753472
 20
-0.5376071506076389
 10
-1.902898491753472
 20
-0.5376071506076389
 97
        0
 75
     2
 76
     1
 98
        1
 10
0.0
 20
0.0
  0
HATCH
  5
368
330
364
100
AcDbEntity
  8
0
 62
     3
100
AcDbHatch
 10
0.0
 20
0.0
 30
0.0
210
0.0
220
0.0
230
1.0
  2
SOLID
 70
     1
 71
     0
 91
        1
 92
        1
 93
        1
 72
     4
 94
        3
 73
     0
 74
     0
 95
       62
 96
       58
 40
0.0
 40
0.0
 40
0.0
 40
0.0
 40
1.0
 40
1.0
 40
1.0
 40
2.0
 40
2.0
 40
2.0
 40
3.0
 40
3.0
 40
3.0
 40
4.0
 40
4.0
 40
4.0
 40
5.0
 40
5.0
 40
5.0
 40
6.0
 40
6.0
 40
6.0
 40
7.0
 40
7.0
 40
7.0
 40
8.0
 40
8.0
 40
8.0
 40
9.0
 40
9.0
 40
9.0
 40
10.0
 40
10.0
 40
10.0
 40
11.0
 40
11.0
 40
11.0
 40
12.0
 40
12.0
 40
12.0
 40
13.0
 40
13.0
 40
13.0
 40
14.0
 40
14.0
 40
14.0
 40
15.0
 40
15.0
 40
15.0
 40
16.0
 40
16.0
 40
16.0
 40
17.0
 40
17.0
 40
17.0
 40
18.0
 40
18.0
 40
18.0
 40
19.0
 40
19.0
 40
19.0
 40
19.0
 10
-0.7680840386284722
 20
0.1734605577256944
 10
-0.7046942816840277
 20
0.1693264431423611
 10
-0.63717041015625
 20
0.1651923285590278
 10
-0.5734361436631944
 20
0.1651923285590278
 10
-0.2857706705729166
 20
0.1651923285590278
 10
-0.0063734266493056
 20
0.2792249891493055
 10
-0.0063734266493056
 20
0.6519843207465277
 10
-0.0063734266493056
 20
0.829751247829861
 10
-0.1121378580729166
 20
1.121895345052083
 10
-0.55655517578125
 20
1.121895345052083
 10
-1.085721842447916
 20
1.121895345052083
 10
-1.119483778211805
 20
0.68988037109375
 10
-1.136709255642361
 20
0.4824856228298611
 10
-1.136709255642361
 20
0.4824856228298611
 10
-1.500511338975694
 20
0.4824856228298611
 10
-1.500511338975694
 20
0.4824856228298611
 10
-1.500511338975694
 20
0.9186347113715276
 10
-1.322744411892361
 20
1.456414116753472
 10
-0.5396742078993056
 20
1.456414116753472
 10
0.0360012478298611
 20
1.456414116753472
 10
0.3791327582465278
 20
1.126029459635416
 10
0.3791327582465278
 20
0.6729994032118056
 10
0.3791327582465278
 20
0.2919718424479166
 10
0.1589911566840278
 20
0.11007080078125
 10
-0.0018948025173611
 20
0.0590833875868056
 10
-0.0018948025173611
 20
0.0590833875868056
 10
-0.0018948025173611
 20
0.0508151584201389
 10
-0.0018948025173611
 20
0.0508151584201389
 10
0.2857706705729166
 20
-0.0422024197048611
 10
0.4931654188368056
 20
-0.2454630533854166
 10
0.4931654188368056
 20
-0.64337158203125
 10
0.4931654188368056
 20
-1.130163574218749
 10
0.1800062391493056
 20
-1.600074598524305
 10
-0.5779147677951389
 20
-1.600074598524305
 10
-0.7977118598090277
 20
-1.600074598524305
 10
-0.9840915256076387
 20
-1.545297580295138
 10
-1.128096516927083
 20
-1.469160970052083
 10
-1.458136664496527
 20
-1.295528157552083
 10
-1.547020128038194
 20
-0.9523966471354166
 10
-1.572513834635416
 20
-0.6096096462673611
 10
-1.572513834635416
 20
-0.6096096462673611
 10
-1.187352159288194
 20
-0.6096096462673611
 10
-1.187352159288194
 20
-0.6096096462673611
 10
-1.174605305989583
 20
-0.8890068901909721
 10
-1.107081434461805
 20
-1.265900336371527
 10
-0.5524210611979166
 20
-1.265900336371527
 10
-0.1713935004340278
 20
-1.265900336371527
 10
0.0952568901909722
 20
-1.033011881510416
 10
0.0952568901909722
 20
-0.6902248806423611
 10
0.0952568901909722
 20
-0.19068603515625
 10
-0.3450263129340278
 20
-0.1438327365451389
 10
-0.5989298502604166
 20
-0.1438327365451389
 10
-0.6540513780381944
 20
-0.1438327365451389
 10
-0.7133070203993056
 20
-0.1483113606770833
 10
-0.7680840386284722
 20
-0.1483113606770833
 10
-0.7680840386284722
 20
-0.1483113606770833
 10
-0.7680840386284722
 20
0.1734605577256944
 10
-0.7680840386284722
 20
0.1734605577256944
 97
        0
 75
     2
 76
     1
 98
        1
 10
0.0
 20
0.0
  0
HATCH
  5
369
330
364
100
AcDbEntity
  8
0
 62
     3
100
AcDbHatch
 10
0.0
 20
0.0
 30
0.0
210
0.0
220
0.0
230
1.0
  2
SOLID
 70
     1
 71
     0
 91
        1
 92
        1
 93
        1
 72
     4
 94
        3
 73
     0
 74
     0
 95
       17
 96
       13
 40
0.0
 40
0.0
 40
0.0
 40
0.0
 40
1.0
 40
1.0
 40
1.0
 40
2.0
 40
2.0
 40
2.0
 40
3.0
 40
3.0
 40
3.0
 40
4.0
 40
4.0
 40
4.0
 40
4.0
 10
0.8486992730034721
 20
-1.600074598524305
 10
0.8486992730034721
 20
-1.600074598524305
 10
0.5651679144965277
 20
-1.600074598524305
 10
0.5651679144965277
 20
-1.600074598524305
 10
0.5651679144965277
 20
-1.600074598524305
 10
1.606620279947916
 20
1.600074598524305
 10
1.606620279947916
 20
1.600074598524305
 10
1.606620279947916
 20
1.600074598524305
 10
1.886017523871527
 20
1.600074598524305
 10
1.886017523871527
 20
1.600074598524305
 10
1.886017523871527
 20
1.600074598524305
 10
0.8486992730034721
 20
-1.600074598524305
 10
0.8486992730034721
 20
-1.600074598524305
 97
        0
 75
     2
 76
     1
 98
        1
 10
0.0
 20
0.0
  0
HATCH
  5
36A
330
364
100
AcDbEntity
  8
0
 62
     3
100
AcDbHatch
 10
0.0
 20
0.0
 30
0.0
210
0.0
220
0.0
230
1.0
  2
SOLID
 70
     1
 71
     0
 91
        3
 92
       16
 93
        1
 72
     4
 94
        3
 73
     0
 74
     0
 95
       17
 96
       13
 40
0.0
 40
0.0
 40
0.0
 40
0.0
 40
1.0
 40
1.0
 40
1.0
 40
2.0
 40
2.0
 40
2.0
 40
3.0
 40
3.0
 40
3.0
 40
4.0
 40
4.0
 40
4.0
 40
4.0
 10
3.51175808376736
 20
0.67747802734375
 10
3.51175808376736
 20
0.8593790690104166
 10
3.392902289496527
 20
1.121895345052083
 10
2.957097710503472
 20
1.121895345052083
 10
2.559189181857638
 20
1.121895345052083
 10
2.461692979600694
 20
0.8466322157118055
 10
2.461692979600694
 20
0.6561184353298611
 10
2.461692979600694
 20
0.3725870768229166
 10
2.711462402343749
 20
0.1989542643229166
 10
2.982246907552083
 20
0.1989542643229166
 10
3.30401882595486
 20
0.1989542643229166
 10
3.51175808376736
 20
0.4063490125868056
 10
3.51175808376736
 20
0.67747802734375
 97
        0
 92
       16
 93
        1
 72
     4
 94
        3
 73
     0
 74
     0
 95
       17
 96
       13
 40
0.0
 40
0.0
 40
0.0
 40
0.0
 40
1.0
 40
1.0
 40
1.0
 40
2.0
 40
2.0
 40
2.0
 40
3.0
 40
3.0
 40
3.0
 40
4.0
 40
4.0
 40
4.0
 40
4.0
 10
2.372809516059027
 20
-0.6729994032118056
 10
2.372809516059027
 20
-0.910366482204861
 10
2.491320800781249
 20
-1.265900336371527
 10
3.007740614149305
 20
-1.265900336371527
 10
3.278869628906249
 20
-1.265900336371527
 10
3.60477566189236
 20
-1.168404134114583
 10
3.60477566189236
 20
-0.7026272243923611
 10
3.60477566189236
 20
-0.3005845811631944
 10
3.325378417968749
 20
-0.1228176540798611
 10
2.986725531684027
 20
-0.1228176540798611
 10
2.567457411024305
 20
-0.1228176540798611
 10
2.372809516059027
 20
-0.3980807834201388
 10
2.372809516059027
 20
-0.6729994032118056
 97
        0
 92
        1
 93
        1
 72
     4
 94
        3
 73
     0
 74
     0
 95
       32
 96
       28
 40
0.0
 40
0.0
 40
0.0
 40
0.0
 40
1.0
 40
1.0
 40
1.0
 40
2.0
 40
2.0
 40
2.0
 40
3.0
 40
3.0
 40
3.0
 40
4.0
 40
4.0
 40
4.0
 40
5.0
 40
5.0
 40
5.0
 40
6.0
 40
6.0
 40
6.0
 40
7.0
 40
7.0
 40
7.0
 40
8.0
 40
8.0
 40
8.0
 40
9.0
 40
9.0
 40
9.0
 40
9.0
 10
3.515892198350694
 20
0.06356201171875
 10
3.91793484157986
 20
-0.1059366861979166
 10
4.002684190538194
 20
-0.4359768337673611
 10
4.002684190538194
 20
-0.6605970594618055
 10
4.002684190538194
 20
-1.138776312934027
 10
3.69779324001736
 20
-1.600074598524305
 10
2.994993760850693
 20
-1.600074598524305
 10
2.829973687065971
 20
-1.600074598524305
 10
2.516814507378471
 20
-1.558044433593749
 10
2.279791937934027
 20
-1.371664767795138
 10
1.974900987413194
 20
-1.130163574218749
 10
1.974900987413194
 20
-0.8087361653645832
 10
1.974900987413194
 20
-0.6647311740451389
 10
1.974900987413194
 20
-0.3005845811631944
 10
2.165414767795138
 20
-0.0676961263020833
 10
2.478573947482638
 20
0.0590833875868056
 10
2.22467041015625
 20
0.15657958984375
 10
2.076531304253471
 20
0.3598402235243055
 10
2.076531304253471
 20
0.6392374674479166
 10
2.076531304253471
 20
0.9482625325520832
 10
2.267045084635416
 20
1.456414116753472
 10
2.978112792968749
 20
1.456414116753472
 10
3.638537597656249
 20
1.456414116753472
 10
3.896919759114582
 20
1.037145996093749
 10
3.896919759114582
 20
0.68988037109375
 10
3.896919759114582
 20
0.2623440212673611
 10
3.647150336371527
 20
0.1310858832465278
 10
3.515892198350694
 20
0.06356201171875
 97
        0
 75
     2
 76
     1
 98
        1
 10
0.0
 20
0.0
  0
HATCH
  5
36B
330
364
100
AcDbEntity
  8
0
 62
     3
100
AcDbHatch
 10
0.0
 20
0.0
 30
0.0
210
0.0
220
0.0
230
1.0
  2
SOLID
 70
     1
 71
     0
 91
        2
 92
        1
 93
        1
 72
     4
 94
        3
 73
     0
 74
     0
 95
       17
 96
       13
 40
0.0
 40
0.0
 40
0.0
 40
0.0
 40
1.0
 40
1.0
 40
1.0
 40
2.0
 40
2.0
 40
2.0
 40
3.0
 40
3.0
 40
3.0
 40
4.0
 40
4.0
 40
4.0
 40
4.0
 10
5.06515163845486
 20
1.519803873697916
 10
5.06515163845486
 20
1.519803873697916
 10
5.374176703559027
 20
1.519803873697916
 10
5.374176703559027
 20
1.519803873697916
 10
5.374176703559027
 20
1.519803873697916
 10
5.374176703559027
 20
0.4401109483506945
 10
5.374176703559027
 20
0.4401109483506945
 10
5.374176703559027
 20
0.4401109483506945
 10
5.06515163845486
 20
0.4401109483506945
 10
5.06515163845486
 20
0.4401109483506945
 10
5.06515163845486
 20
0.4401109483506945
 10
5.06515163845486
 20
1.519803873697916
 10
5.06515163845486
 20
1.519803873697916
 97
        0
 92
        1
 93
        1
 72
     4
 94
        3
 73
     0
 74
     0
 95
       17
 96
       13
 40
0.0
 40
0.0
 40
0.0
 40
0.0
 40
1.0
 40
1.0
 40
1.0
 40
2.0
 40
2.0
 40
2.0
 40
3.0
 40
3.0
 40
3.0
 40
4.0
 40
4.0
 40
4.0
 40
4.0
 10
4.463982476128471
 20
1.519803873697916
 10
4.463982476128471
 20
1.519803873697916
 10
4.773007541232638
 20
1.519803873697916
 10
4.773007541232638
 20
1.519803873697916
 10
4.773007541232638
 20
1.519803873697916
 10
4.773007541232638
 20
0.4401109483506945
 10
4.773007541232638
 20
0.4401109483506945
 10
4.773007541232638
 20
0.4401109483506945
 10
4.463982476128471
 20
0.4401109483506945
 10
4.463982476128471
 20
0.4401109483506945
 10
4.463982476128471
 20
0.4401109483506945
 10
4.463982476128471
 20
1.519803873697916
 10
4.463982476128471
 20
1.519803873697916
 97
        0
 75
     2
 76
     1
 98
        1
 10
0.0
 20
0.0
  0
ENDBLK
  5
36C
330
364
100
AcDbEntity
  8
0
100
AcDbBlockEnd
  0
BLOCK
  5
36E
330
36D
100
AcDbEntity
  8
0
 62
     7
100
AcDbBlockBegin
  2
AI9-BLK5
 70
     0
 10
0.0
 20
0.0
 30
0.0
  3
AI9-BLK5
  1

  0
HATCH
  5
36F
330
36D
100
AcDbEntity
  8
0
 62
     3
100
AcDbHatch
 10
0.0
 20
0.0
 30
0.0
210
0.0
220
0.0
230
1.0
  2
SOLID
 70
     1
 71
     0
 91
        1
 92
        1
 93
        1
 72
     4
 94
        3
 73
     0
 74
     0
 95
       62
 96
       58
 40
0.0
 40
0.0
 40
0.0
 40
0.0
 40
1.0
 40
1.0
 40
1.0
 40
2.0
 40
2.0
 40
2.0
 40
3.0
 40
3.0
 40
3.0
 40
4.0
 40
4.0
 40
4.0
 40
5.0
 40
5.0
 40
5.0
 40
6.0
 40
6.0
 40
6.0
 40
7.0
 40
7.0
 40
7.0
 40
8.0
 40
8.0
 40
8.0
 40
9.0
 40
9.0
 40
9.0
 40
10.0
 40
10.0
 40
10.0
 40
11.0
 40
11.0
 40
11.0
 40
12.0
 40
12.0
 40
12.0
 40
13.0
 40
13.0
 40
13.0
 40
14.0
 40
14.0
 40
14.0
 40
15.0
 40
15.0
 40
15.0
 40
16.0
 40
16.0
 40
16.0
 40
17.0
 40
17.0
 40
17.0
 40
18.0
 40
18.0
 40
18.0
 40
19.0
 40
19.0
 40
19.0
 40
19.0
 10
-2.669173855251735
 20
0.1734605577256944
 10
-2.605611843532985
 20
0.1693264431423611
 10
-2.537915717230902
 20
0.1651923285590278
 10
-2.474353705512152
 20
0.1651923285590278
 10
-2.186515977647569
 20
0.1651923285590278
 10
-1.907118733723958
 20
0.2792249891493055
 10
-1.907118733723958
 20
0.6519843207465277
 10
-1.907118733723958
 20
0.829751247829861
 10
-2.013055419921874
 20
1.121895345052083
 10
-2.457472737630208
 20
1.121895345052083
 10
-2.986639404296875
 20
1.121895345052083
 10
-3.020573594835069
 20
0.68988037109375
 10
-3.037454562717013
 20
0.4824856228298611
 10
-3.037454562717013
 20
0.4824856228298611
 10
-3.401601155598958
 20
0.4824856228298611
 10
-3.401601155598958
 20
0.4824856228298611
 10
-3.401601155598958
 20
0.9186347113715276
 10
-3.223661973741319
 20
1.456414116753472
 10
-2.440591769748263
 20
1.456414116753472
 10
-1.864744059244791
 20
1.456414116753472
 10
-1.521957058376735
 20
1.126029459635416
 10
-1.521957058376735
 20
0.6729994032118056
 10
-1.521957058376735
 20
0.2919718424479166
 10
-1.742098659939235
 20
0.11007080078125
 10
-1.902984619140624
 20
0.0590833875868056
 10
-1.902984619140624
 20
0.0590833875868056
 10
-1.902984619140624
 20
0.0508151584201389
 10
-1.902984619140624
 20
0.0508151584201389
 10
-1.615146891276041
 20
-0.0422024197048611
 10
-1.407579888237847
 20
-0.2454630533854166
 10
-1.407579888237847
 20
-0.64337158203125
 10
-1.407579888237847
 20
-1.130163574218749
 10
-1.720911322699652
 20
-1.600074598524305
 10
-2.478660074869791
 20
-1.600074598524305
 10
-2.698801676432291
 20
-1.600074598524305
 10
-2.885009087456596
 20
-1.545297580295138
 10
-3.029014078776041
 20
-1.469160970052083
 10
-3.359226481119791
 20
-1.295528157552083
 10
-3.448109944661458
 20
-0.9523966471354166
 10
-3.473431396484374
 20
-0.6096096462673611
 10
-3.473431396484374
 20
-0.6096096462673611
 10
-3.088269721137152
 20
-0.6096096462673611
 10
-3.088269721137152
 20
-0.6096096462673611
 10
-3.075522867838541
 20
-0.8890068901909721
 10
-3.007826741536458
 20
-1.265900336371527
 10
-2.453338623046874
 20
-1.265900336371527
 10
-2.072311062282985
 20
-1.265900336371527
 10
-1.80548841688368
 20
-1.033011881510416
 10
-1.80548841688368
 20
-0.6902248806423611
 10
-1.80548841688368
 20
-0.19068603515625
 10
-2.24577162000868
 20
-0.1438327365451389
 10
-2.499847412109374
 20
-0.1438327365451389
 10
-2.554796685112846
 20
-0.1438327365451389
 10
-2.614052327473958
 20
-0.1483113606770833
 10
-2.669173855251735
 20
-0.1483113606770833
 10
-2.669173855251735
 20
-0.1483113606770833
 10
-2.669173855251735
 20
0.1734605577256944
 10
-2.669173855251735
 20
0.1734605577256944
 97
        0
 75
     2
 76
     1
 98
        1
 10
0.0
 20
0.0
  0
HATCH
  5
370
330
36D
100
AcDbEntity
  8
0
 62
     3
100
AcDbHatch
 10
0.0
 20
0.0
 30
0.0
210
0.0
220
0.0
230
1.0
  2
SOLID
 70
     1
 71
     0
 91
        1
 92
        1
 93
        1
 72
     4
 94
        3
 73
     0
 74
     0
 95
       17
 96
       13
 40
0.0
 40
0.0
 40
0.0
 40
0.0
 40
1.0
 40
1.0
 40
1.0
 40
2.0
 40
2.0
 40
2.0
 40
3.0
 40
3.0
 40
3.0
 40
4.0
 40
4.0
 40
4.0
 40
4.0
 10
-1.05204603407118
 20
-1.600074598524305
 10
-1.05204603407118
 20
-1.600074598524305
 10
-1.33574964735243
 20
-1.600074598524305
 10
-1.33574964735243
 20
-1.600074598524305
 10
-1.33574964735243
 20
-1.600074598524305
 10
-0.2942972819010416
 20
1.600074598524305
 10
-0.2942972819010416
 20
1.600074598524305
 10
-0.2942972819010416
 20
1.600074598524305
 10
-0.0149000379774306
 20
1.600074598524305
 10
-0.0149000379774306
 20
1.600074598524305
 10
-0.0149000379774306
 20
1.600074598524305
 10
-1.05204603407118
 20
-1.600074598524305
 10
-1.05204603407118
 20
-1.600074598524305
 97
        0
 75
     2
 76
     1
 98
        1
 10
0.0
 20
0.0
  0
HATCH
  5
371
330
36D
100
AcDbEntity
  8
0
 62
     3
100
AcDbHatch
 10
0.0
 20
0.0
 30
0.0
210
0.0
220
0.0
230
1.0
  2
SOLID
 70
     1
 71
     0
 91
        3
 92
       16
 93
        1
 72
     4
 94
        3
 73
     0
 74
     0
 95
       17
 96
       13
 40
0.0
 40
0.0
 40
0.0
 40
0.0
 40
1.0
 40
1.0
 40
1.0
 40
2.0
 40
2.0
 40
2.0
 40
3.0
 40
3.0
 40
3.0
 40
4.0
 40
4.0
 40
4.0
 40
4.0
 10
1.610668267144097
 20
0.67747802734375
 10
1.610668267144097
 20
0.8593790690104166
 10
1.492156982421874
 20
1.121895345052083
 10
1.056180148654513
 20
1.121895345052083
 10
0.658099365234375
 20
1.121895345052083
 10
0.560775417751736
 20
0.8466322157118055
 10
0.560775417751736
 20
0.6561184353298611
 10
0.560775417751736
 20
0.3725870768229166
 10
0.8105448404947916
 20
0.1989542643229166
 10
1.08150160047743
 20
0.1989542643229166
 10
1.403273518880208
 20
0.1989542643229166
 10
1.610668267144097
 20
0.4063490125868056
 10
1.610668267144097
 20
0.67747802734375
 97
        0
 92
       16
 93
        1
 72
     4
 94
        3
 73
     0
 74
     0
 95
       17
 96
       13
 40
0.0
 40
0.0
 40
0.0
 40
0.0
 40
1.0
 40
1.0
 40
1.0
 40
2.0
 40
2.0
 40
2.0
 40
3.0
 40
3.0
 40
3.0
 40
4.0
 40
4.0
 40
4.0
 40
4.0
 10
0.4718919542100694
 20
-0.6729994032118056
 10
0.4718919542100694
 20
-0.910366482204861
 10
0.5904032389322916
 20
-1.265900336371527
 10
1.106823052300347
 20
-1.265900336371527
 10
1.377779812282986
 20
-1.265900336371527
 10
1.703858100043402
 20
-1.168404134114583
 10
1.703858100043402
 20
-0.7026272243923611
 10
1.703858100043402
 20
-0.3005845811631944
 10
1.424460856119791
 20
-0.1228176540798611
 10
1.085807969835069
 20
-0.1228176540798611
 10
0.6667121039496528
 20
-0.1228176540798611
 10
0.4718919542100694
 20
-0.3980807834201388
 10
0.4718919542100694
 20
-0.6729994032118056
 97
        0
 92
        1
 93
        1
 72
     4
 94
        3
 73
     0
 74
     0
 95
       32
 96
       28
 40
0.0
 40
0.0
 40
0.0
 40
0.0
 40
1.0
 40
1.0
 40
1.0
 40
2.0
 40
2.0
 40
2.0
 40
3.0
 40
3.0
 40
3.0
 40
4.0
 40
4.0
 40
4.0
 40
5.0
 40
5.0
 40
5.0
 40
6.0
 40
6.0
 40
6.0
 40
7.0
 40
7.0
 40
7.0
 40
8.0
 40
8.0
 40
8.0
 40
9.0
 40
9.0
 40
9.0
 40
9.0
 10
1.614974636501735
 20
0.06356201171875
 10
2.017017279730902
 20
-0.1059366861979166
 10
2.101766628689235
 20
-0.4359768337673611
 10
2.101766628689235
 20
-0.6605970594618055
 10
2.101766628689235
 20
-1.138776312934027
 10
1.796875678168402
 20
-1.600074598524305
 10
1.094248453776041
 20
-1.600074598524305
 10
0.9290561252170137
 20
-1.600074598524305
 10
0.6158969455295138
 20
-1.558044433593749
 10
0.3787021213107638
 20
-1.371664767795138
 10
0.0739834255642361
 20
-1.130163574218749
 10
0.0739834255642361
 20
-0.8087361653645832
 10
0.0739834255642361
 20
-0.6647311740451389
 10
0.0739834255642361
 20
-0.3005845811631944
 10
0.2644972059461805
 20
-0.0676961263020833
 10
0.5776563856336806
 20
0.0590833875868056
 10
0.3237528483072916
 20
0.15657958984375
 10
0.1756137424045139
 20
0.3598402235243055
 10
0.1756137424045139
 20
0.6392374674479166
 10
0.1756137424045139
 20
0.9482625325520832
 10
0.3661275227864583
 20
1.456414116753472
 10
1.077195231119791
 20
1.456414116753472
 10
1.737620035807291
 20
1.456414116753472
 10
1.995829942491319
 20
1.037145996093749
 10
1.995829942491319
 20
0.68988037109375
 10
1.995829942491319
 20
0.2623440212673611
 10
1.746060519748263
 20
0.1310858832465278
 10
1.614974636501735
 20
0.06356201171875
 97
        0
 75
     2
 76
     1
 98
        1
 10
0.0
 20
0.0
  0
HATCH
  5
372
330
36D
100
AcDbEntity
  8
0
 62
     3
100
AcDbHatch
 10
0.0
 20
0.0
 30
0.0
210
0.0
220
0.0
230
1.0
  2
SOLID
 70
     1
 71
     0
 91
        2
 92
        1
 93
        1
 72
     4
 94
        3
 73
     0
 74
     0
 95
       17
 96
       13
 40
0.0
 40
0.0
 40
0.0
 40
0.0
 40
1.0
 40
1.0
 40
1.0
 40
2.0
 40
2.0
 40
2.0
 40
3.0
 40
3.0
 40
3.0
 40
4.0
 40
4.0
 40
4.0
 40
4.0
 10
3.164406331380208
 20
1.519803873697916
 10
3.164406331380208
 20
1.519803873697916
 10
3.473431396484374
 20
1.519803873697916
 10
3.473431396484374
 20
1.519803873697916
 10
3.473431396484374
 20
1.519803873697916
 10
3.473431396484374
 20
0.4401109483506945
 10
3.473431396484374
 20
0.4401109483506945
 10
3.473431396484374
 20
0.4401109483506945
 10
3.164406331380208
 20
0.4401109483506945
 10
3.164406331380208
 20
0.4401109483506945
 10
3.164406331380208
 20
0.4401109483506945
 10
3.164406331380208
 20
1.519803873697916
 10
3.164406331380208
 20
1.519803873697916
 97
        0
 92
        1
 93
        1
 72
     4
 94
        3
 73
     0
 74
     0
 95
       17
 96
       13
 40
0.0
 40
0.0
 40
0.0
 40
0.0
 40
1.0
 40
1.0
 40
1.0
 40
2.0
 40
2.0
 40
2.0
 40
3.0
 40
3.0
 40
3.0
 40
4.0
 40
4.0
 40
4.0
 40
4.0
 10
2.563237169053819
 20
1.519803873697916
 10
2.563237169053819
 20
1.519803873697916
 10
2.872262234157986
 20
1.519803873697916
 10
2.872262234157986
 20
1.519803873697916
 10
2.872262234157986
 20
1.519803873697916
 10
2.872262234157986
 20
0.4401109483506945
 10
2.872262234157986
 20
0.4401109483506945
 10
2.872262234157986
 20
0.4401109483506945
 10
2.563237169053819
 20
0.4401109483506945
 10
2.563237169053819
 20
0.4401109483506945
 10
2.563237169053819
 20
0.4401109483506945
 10
2.563237169053819
 20
1.519803873697916
 10
2.563237169053819
 20
1.519803873697916
 97
        0
 75
     2
 76
     1
 98
        1
 10
0.0
 20
0.0
  0
ENDBLK
  5
373
330
36D
100
AcDbEntity
  8
0
100
AcDbBlockEnd
  0
BLOCK
  5
375
330
374
100
AcDbEntity
  8
0
 62
     7
100
AcDbBlockBegin
  2
AI9-BLK6
 70
     0
 10
0.0
 20
0.0
 30
0.0
  3
AI9-BLK6
  1

  0
LINE
  5
376
330
374
100
AcDbEntity
  8
0
 62
     3
100
AcDbLine
 10
-26.20339626736111
 20
4.889279513888888
 30
0.0
 11
-26.20339626736111
 21
-4.889279513888888
 31
0.0
  0
LINE
  5
377
330
374
100
AcDbEntity
  8
0
 62
     3
100
AcDbLine
 10
26.20339626736111
 20
4.889279513888888
 30
0.0
 11
26.20339626736111
 21
-4.889279513888888
 31
0.0
  0
LINE
  5
378
330
374
100
AcDbEntity
  8
0
 62
     3
100
AcDbLine
 10
-7.109471299913193
 20
-2.127690972222222
 30
0.0
 11
-26.1906494140625
 21
-2.127690972222222
 31
0.0
  0
LINE
  5
379
330
374
100
AcDbEntity
  8
0
 62
     3
100
AcDbLine
 10
7.666715494791666
 20
-2.127690972222222
 30
0.0
 11
26.17859157986111
 21
-2.127690972222222
 31
0.0
  0
INSERT
  5
37A
330
374
100
AcDbEntity
  8
0
 62
     7
100
AcDbBlockReference
  2
AI9-BLK7
 10
0.5892835828993056
 20
-1.988681369357638
 30
0.0
  0
ENDBLK
  5
37B
330
374
100
AcDbEntity
  8
0
100
AcDbBlockEnd
  0
BLOCK
  5
37D
330
37C
100
AcDbEntity
  8
0
 62
     7
100
AcDbBlockBegin
  2
AI9-BLK7
 70
     0
 10
0.0
 20
0.0
 30
0.0
  3
AI9-BLK7
  1

  0
HATCH
  5
37E
330
37C
100
AcDbEntity
  8
0
 62
     3
100
AcDbHatch
 10
0.0
 20
0.0
 30
0.0
210
0.0
220
0.0
230
1.0
  2
SOLID
 70
     1
 71
     0
 91
        1
 92
        1
 93
        1
 72
     4
 94
        3
 73
     0
 74
     0
 95
       47
 96
       43
 40
0.0
 40
0.0
 40
0.0
 40
0.0
 40
1.0
 40
1.0
 40
1.0
 40
2.0
 40
2.0
 40
2.0
 40
3.0
 40
3.0
 40
3.0
 40
4.0
 40
4.0
 40
4.0
 40
5.0
 40
5.0
 40
5.0
 40
6.0
 40
6.0
 40
6.0
 40
7.0
 40
7.0
 40
7.0
 40
8.0
 40
8.0
 40
8.0
 40
9.0
 40
9.0
 40
9.0
 40
10.0
 40
10.0
 40
10.0
 40
11.0
 40
11.0
 40
11.0
 40
12.0
 40
12.0
 40
12.0
 40
13.0
 40
13.0
 40
13.0
 40
14.0
 40
14.0
 40
14.0
 40
14.0
 10
-6.47281765407986
 20
0.3894680447048611
 10
-6.47281765407986
 20
1.358917914496527
 10
-5.765711805555555
 20
1.456414116753472
 10
-5.444112141927083
 20
1.456414116753472
 10
-4.927520073784721
 20
1.456414116753472
 10
-4.512730577256943
 20
1.121895345052083
 10
-4.512730577256943
 20
0.5672349717881944
 10
-4.512730577256943
 20
0.0339341905381945
 10
-4.864130316840276
 20
-0.19068603515625
 10
-5.30854763454861
 20
-0.4277086046006945
 10
-5.30854763454861
 20
-0.4277086046006945
 10
-5.617572699652777
 20
-0.59686279296875
 10
-5.617572699652777
 20
-0.59686279296875
 10
-6.024093967013888
 20
-0.8211385091145832
 10
-6.112977430555554
 20
-1.054026963975694
 10
-6.129858398437499
 20
-1.168404134114583
 10
-6.129858398437499
 20
-1.168404134114583
 10
-4.512730577256943
 20
-1.168404134114583
 10
-4.512730577256943
 20
-1.168404134114583
 10
-4.512730577256943
 20
-1.168404134114583
 10
-4.512730577256943
 20
-1.519803873697916
 10
-4.512730577256943
 20
-1.519803873697916
 10
-4.512730577256943
 20
-1.519803873697916
 10
-6.548954264322915
 20
-1.519803873697916
 10
-6.548954264322915
 20
-1.519803873697916
 10
-6.527766927083332
 20
-0.9017537434895832
 10
-6.248369683159721
 20
-0.5713690863715277
 10
-5.850461154513888
 20
-0.3388251410590277
 10
-5.850461154513888
 20
-0.3388251410590277
 10
-5.456686740451388
 20
-0.11007080078125
 10
-5.456686740451388
 20
-0.11007080078125
 10
-5.139221191406249
 20
0.0718302408854167
 10
-4.910639105902776
 20
0.1948201497395833
 10
-4.910639105902776
 20
0.5841159396701389
 10
-4.910639105902776
 20
0.8211385091145832
 10
-5.063084581163193
 20
1.121895345052083
 10
-5.499061414930555
 20
1.121895345052083
 10
-6.062162272135416
 20
1.121895345052083
 10
-6.087483723958333
 20
0.59686279296875
 10
-6.100230577256944
 20
0.3894680447048611
 10
-6.100230577256944
 20
0.3894680447048611
 10
-6.47281765407986
 20
0.3894680447048611
 10
-6.47281765407986
 20
0.3894680447048611
 97
        0
 75
     2
 76
     1
 98
        1
 10
0.0
 20
0.0
  0
HATCH
  5
37F
330
37C
100
AcDbEntity
  8
0
 62
     3
100
AcDbHatch
 10
0.0
 20
0.0
 30
0.0
210
0.0
220
0.0
230
1.0
  2
SOLID
 70
     1
 71
     0
 91
        1
 92
        1
 93
        1
 72
     4
 94
        3
 73
     0
 74
     0
 95
       17
 96
       13
 40
0.0
 40
0.0
 40
0.0
 40
0.0
 40
1.0
 40
1.0
 40
1.0
 40
2.0
 40
2.0
 40
2.0
 40
3.0
 40
3.0
 40
3.0
 40
4.0
 40
4.0
 40
4.0
 40
4.0
 10
-3.081810167100694
 20
-0.5376071506076389
 10
-3.081810167100694
 20
-0.5376071506076389
 10
-4.119128417968749
 20
-0.5376071506076389
 10
-4.119128417968749
 20
-0.5376071506076389
 10
-4.119128417968749
 20
-0.5376071506076389
 10
-4.119128417968749
 20
-0.15657958984375
 10
-4.119128417968749
 20
-0.15657958984375
 10
-4.119128417968749
 20
-0.15657958984375
 10
-3.081810167100694
 20
-0.15657958984375
 10
-3.081810167100694
 20
-0.15657958984375
 10
-3.081810167100694
 20
-0.15657958984375
 10
-3.081810167100694
 20
-0.5376071506076389
 10
-3.081810167100694
 20
-0.5376071506076389
 97
        0
 75
     2
 76
     1
 98
        1
 10
0.0
 20
0.0
  0
HATCH
  5
380
330
37C
100
AcDbEntity
  8
0
 62
     3
100
AcDbHatch
 10
0.0
 20
0.0
 30
0.0
210
0.0
220
0.0
230
1.0
  2
SOLID
 70
     1
 71
     0
 91
        1
 92
        1
 93
        1
 72
     4
 94
        3
 73
     0
 74
     0
 95
       26
 96
       22
 40
0.0
 40
0.0
 40
0.0
 40
0.0
 40
1.0
 40
1.0
 40
1.0
 40
2.0
 40
2.0
 40
2.0
 40
3.0
 40
3.0
 40
3.0
 40
4.0
 40
4.0
 40
4.0
 40
5.0
 40
5.0
 40
5.0
 40
6.0
 40
6.0
 40
6.0
 40
7.0
 40
7.0
 40
7.0
 40
7.0
 10
-1.375798882378472
 20
-1.519803873697916
 10
-1.375798882378472
 20
-1.519803873697916
 10
-1.773707411024305
 20
-1.519803873697916
 10
-1.773707411024305
 20
-1.519803873697916
 10
-1.773707411024305
 20
-1.519803873697916
 10
-1.773707411024305
 20
0.5927286783854166
 10
-1.773707411024305
 20
0.5927286783854166
 10
-1.773707411024305
 20
0.5927286783854166
 10
-2.468066406249999
 20
0.5927286783854166
 10
-2.468066406249999
 20
0.5927286783854166
 10
-2.468066406249999
 20
0.5927286783854166
 10
-2.468066406249999
 20
0.8890068901909721
 10
-2.468066406249999
 20
0.8890068901909721
 10
-1.985408528645833
 20
0.922768825954861
 10
-1.786454264322916
 20
0.969277615017361
 10
-1.667942979600694
 20
1.456414116753472
 10
-1.667942979600694
 20
1.456414116753472
 10
-1.375798882378472
 20
1.456414116753472
 10
-1.375798882378472
 20
1.456414116753472
 10
-1.375798882378472
 20
1.456414116753472
 10
-1.375798882378472
 20
-1.519803873697916
 10
-1.375798882378472
 20
-1.519803873697916
 97
        0
 75
     2
 76
     1
 98
        1
 10
0.0
 20
0.0
  0
HATCH
  5
381
330
37C
100
AcDbEntity
  8
0
 62
     3
100
AcDbHatch
 10
0.0
 20
0.0
 30
0.0
210
0.0
220
0.0
230
1.0
  2
SOLID
 70
     1
 71
     0
 91
        1
 92
        1
 93
        1
 72
     4
 94
        3
 73
     0
 74
     0
 95
       17
 96
       13
 40
0.0
 40
0.0
 40
0.0
 40
0.0
 40
1.0
 40
1.0
 40
1.0
 40
2.0
 40
2.0
 40
2.0
 40
3.0
 40
3.0
 40
3.0
 40
4.0
 40
4.0
 40
4.0
 40
4.0
 10
-0.33021240234375
 20
-1.600074598524305
 10
-0.33021240234375
 20
-1.600074598524305
 10
-0.613916015625
 20
-1.600074598524305
 10
-0.613916015625
 20
-1.600074598524305
 10
-0.613916015625
 20
-1.600074598524305
 10
0.4275363498263889
 20
1.600074598524305
 10
0.4275363498263889
 20
1.600074598524305
 10
0.4275363498263889
 20
1.600074598524305
 10
0.70693359375
 20
1.600074598524305
 10
0.70693359375
 20
1.600074598524305
 10
0.70693359375
 20
1.600074598524305
 10
-0.33021240234375
 20
-1.600074598524305
 10
-0.33021240234375
 20
-1.600074598524305
 97
        0
 75
     2
 76
     1
 98
        1
 10
0.0
 20
0.0
  0
HATCH
  5
382
330
37C
100
AcDbEntity
  8
0
 62
     3
100
AcDbHatch
 10
0.0
 20
0.0
 30
0.0
210
0.0
220
0.0
230
1.0
  2
SOLID
 70
     1
 71
     0
 91
        1
 92
        1
 93
        1
 72
     4
 94
        3
 73
     0
 74
     0
 95
       26
 96
       22
 40
0.0
 40
0.0
 40
0.0
 40
0.0
 40
1.0
 40
1.0
 40
1.0
 40
2.0
 40
2.0
 40
2.0
 40
3.0
 40
3.0
 40
3.0
 40
4.0
 40
4.0
 40
4.0
 40
5.0
 40
5.0
 40
5.0
 40
6.0
 40
6.0
 40
6.0
 40
7.0
 40
7.0
 40
7.0
 40
7.0
 10
2.154734971788194
 20
-1.519803873697916
 10
2.154734971788194
 20
-1.519803873697916
 10
1.756826443142361
 20
-1.519803873697916
 10
1.756826443142361
 20
-1.519803873697916
 10
1.756826443142361
 20
-1.519803873697916
 10
1.756826443142361
 20
0.5927286783854166
 10
1.756826443142361
 20
0.5927286783854166
 10
1.756826443142361
 20
0.5927286783854166
 10
1.062467447916666
 20
0.5927286783854166
 10
1.062467447916666
 20
0.5927286783854166
 10
1.062467447916666
 20
0.5927286783854166
 10
1.062467447916666
 20
0.8890068901909721
 10
1.062467447916666
 20
0.8890068901909721
 10
1.545125325520833
 20
0.922768825954861
 10
1.744079589843749
 20
0.969277615017361
 10
1.862590874565972
 20
1.456414116753472
 10
1.862590874565972
 20
1.456414116753472
 10
2.154734971788194
 20
1.456414116753472
 10
2.154734971788194
 20
1.456414116753472
 10
2.154734971788194
 20
1.456414116753472
 10
2.154734971788194
 20
-1.519803873697916
 10
2.154734971788194
 20
-1.519803873697916
 97
        0
 75
     2
 76
     1
 98
        1
 10
0.0
 20
0.0
  0
HATCH
  5
383
330
37C
100
AcDbEntity
  8
0
 62
     3
100
AcDbHatch
 10
0.0
 20
0.0
 30
0.0
210
0.0
220
0.0
230
1.0
  2
SOLID
 70
     1
 71
     0
 91
        2
 92
       16
 93
        1
 72
     4
 94
        3
 73
     0
 74
     0
 95
       17
 96
       13
 40
0.0
 40
0.0
 40
0.0
 40
0.0
 40
1.0
 40
1.0
 40
1.0
 40
2.0
 40
2.0
 40
2.0
 40
3.0
 40
3.0
 40
3.0
 40
4.0
 40
4.0
 40
4.0
 40
4.0
 10
4.212145996093749
 20
-1.265900336371527
 10
4.567852105034721
 20
-1.265900336371527
 10
4.796434190538193
 20
-0.9865030924479166
 10
4.796434190538193
 20
-0.5841159396701389
 10
4.796434190538193
 20
-0.3215996636284722
 10
4.656735568576388
 20
0.0422024197048611
 10
4.195265028211805
 20
0.0422024197048611
 10
3.78460964626736
 20
0.0422024197048611
 10
3.585655381944444
 20
-0.2540757921006944
 10
3.585655381944444
 20
-0.6054755316840277
 10
3.585655381944444
 20
-0.922768825954861
 10
3.776169162326388
 20
-1.265900336371527
 10
4.212145996093749
 20
-1.265900336371527
 97
        0
 92
        1
 93
        1
 72
     4
 94
        3
 73
     0
 74
     0
 95
       41
 96
       37
 40
0.0
 40
0.0
 40
0.0
 40
0.0
 40
1.0
 40
1.0
 40
1.0
 40
2.0
 40
2.0
 40
2.0
 40
3.0
 40
3.0
 40
3.0
 40
4.0
 40
4.0
 40
4.0
 40
5.0
 40
5.0
 40
5.0
 40
6.0
 40
6.0
 40
6.0
 40
7.0
 40
7.0
 40
7.0
 40
8.0
 40
8.0
 40
8.0
 40
9.0
 40
9.0
 40
9.0
 40
10.0
 40
10.0
 40
10.0
 40
11.0
 40
11.0
 40
11.0
 40
12.0
 40
12.0
 40
12.0
 40
12.0
 10
4.754059516059027
 20
0.6647311740451389
 10
4.707550726996527
 20
0.9272474500868053
 10
4.563545735677083
 20
1.121895345052083
 10
4.241946072048611
 20
1.121895345052083
 10
3.657657877604166
 20
1.121895345052083
 10
3.534840223524305
 20
0.3343465169270833
 10
3.534840223524305
 20
0.0211873372395833
 10
3.534840223524305
 20
0.0211873372395833
 10
3.543280707465277
 20
0.0125745985243056
 10
3.543280707465277
 20
0.0125745985243056
 10
3.636470540364582
 20
0.1734605577256944
 10
3.843865288628471
 20
0.37672119140625
 10
4.250386555989583
 20
0.37672119140625
 10
4.614360894097221
 20
0.37672119140625
 10
5.181595865885416
 20
0.1438327365451389
 10
5.181595865885416
 20
-0.5672349717881944
 10
5.181595865885416
 20
-0.8721259223090276
 10
5.101325141059027
 20
-1.092267523871527
 10
4.898064507378471
 20
-1.312409125434027
 10
4.741484917534721
 20
-1.486041937934027
 10
4.563545735677083
 20
-1.600074598524305
 10
4.144449869791666
 20
-1.600074598524305
 10
3.915867784288193
 20
-1.600074598524305
 10
3.589961751302082
 20
-1.498788791232638
 10
3.378260633680555
 20
-1.168404134114583
 10
3.200493706597221
 20
-0.8890068901909721
 10
3.149678548177083
 20
-0.5248602973090277
 10
3.149678548177083
 20
-0.1355645073784722
 10
3.149678548177083
 20
0.5165920681423611
 10
3.36137966579861
 20
1.456414116753472
 10
4.250386555989583
 20
1.456414116753472
 10
4.593173556857638
 20
1.456414116753472
 10
5.080137803819443
 20
1.27003445095486
 10
5.118206108940971
 20
0.6647311740451389
 10
5.118206108940971
 20
0.6647311740451389
 10
4.754059516059027
 20
0.6647311740451389
 10
4.754059516059027
 20
0.6647311740451389
 97
        0
 75
     2
 76
     1
 98
        1
 10
0.0
 20
0.0
  0
HATCH
  5
384
330
37C
100
AcDbEntity
  8
0
 62
     3
100
AcDbHatch
 10
0.0
 20
0.0
 30
0.0
210
0.0
220
0.0
230
1.0
  2
SOLID
 70
     1
 71
     0
 91
        2
 92
        1
 93
        1
 72
     4
 94
        3
 73
     0
 74
     0
 95
       17
 96
       13
 40
0.0
 40
0.0
 40
0.0
 40
0.0
 40
1.0
 40
1.0
 40
1.0
 40
2.0
 40
2.0
 40
2.0
 40
3.0
 40
3.0
 40
3.0
 40
4.0
 40
4.0
 40
4.0
 40
4.0
 10
6.239929199218749
 20
1.519803873697916
 10
6.239929199218749
 20
1.519803873697916
 10
6.548954264322915
 20
1.519803873697916
 10
6.548954264322915
 20
1.519803873697916
 10
6.548954264322915
 20
1.519803873697916
 10
6.548954264322915
 20
0.4401109483506945
 10
6.548954264322915
 20
0.4401109483506945
 10
6.548954264322915
 20
0.4401109483506945
 10
6.239929199218749
 20
0.4401109483506945
 10
6.239929199218749
 20
0.4401109483506945
 10
6.239929199218749
 20
0.4401109483506945
 10
6.239929199218749
 20
1.519803873697916
 10
6.239929199218749
 20
1.519803873697916
 97
        0
 92
        1
 93
        1
 72
     4
 94
        3
 73
     0
 74
     0
 95
       17
 96
       13
 40
0.0
 40
0.0
 40
0.0
 40
0.0
 40
1.0
 40
1.0
 40
1.0
 40
2.0
 40
2.0
 40
2.0
 40
3.0
 40
3.0
 40
3.0
 40
4.0
 40
4.0
 40
4.0
 40
4.0
 10
5.63876003689236
 20
1.519803873697916
 10
5.63876003689236
 20
1.519803873697916
 10
5.947785101996527
 20
1.519803873697916
 10
5.947785101996527
 20
1.519803873697916
 10
5.947785101996527
 20
1.519803873697916
 10
5.947785101996527
 20
0.4401109483506945
 10
5.947785101996527
 20
0.4401109483506945
 10
5.947785101996527
 20
0.4401109483506945
 10
5.63876003689236
 20
0.4401109483506945
 10
5.63876003689236
 20
0.4401109483506945
 10
5.63876003689236
 20
0.4401109483506945
 10
5.63876003689236
 20
1.519803873697916
 10
5.63876003689236
 20
1.519803873697916
 97
        0
 75
     2
 76
     1
 98
        1
 10
0.0
 20
0.0
  0
ENDBLK
  5
385
330
37C
100
AcDbEntity
  8
0
100
AcDbBlockEnd
  0
BLOCK
  5
387
330
386
100
AcDbEntity
  8
0
 62
     7
100
AcDbBlockBegin
  2
AI9-BLK8
 70
     0
 10
0.0
 20
0.0
 30
0.0
  3
AI9-BLK8
  1

  0
LINE
  5
388
330
386
100
AcDbEntity
  8
0
 62
     3
100
AcDbLine
 10
-55.56249999999999
 20
1.099157714843749
 30
0.0
 11
-55.56249999999999
 21
-7.782642957899304
 31
0.0
  0
LINE
  5
389
330
386
100
AcDbEntity
  8
0
 62
     3
100
AcDbLine
 10
55.56249999999999
 20
7.782642957899304
 30
0.0
 11
55.56249999999999
 21
-7.782642957899304
 31
0.0
  0
LINE
  5
38A
330
386
100
AcDbEntity
  8
0
 62
     3
100
AcDbLine
 10
-55.56249999999999
 20
-3.210656738281249
 30
0.0
 11
-5.700944010416666
 21
-3.210656738281249
 31
0.0
  0
LINE
  5
38B
330
386
100
AcDbEntity
  8
0
 62
     3
100
AcDbLine
 10
55.56249999999999
 20
-3.210656738281249
 30
0.0
 11
7.584722222222221
 21
-3.210656738281249
 31
0.0
  0
LINE
  5
38C
330
386
100
AcDbEntity
  8
0
 62
     3
100
AcDbLine
 10
52.38749999999999
 20
-6.385656738281249
 30
0.0
 11
58.7375
 21
-0.03565673828125
 31
0.0
  0
LINE
  5
38D
330
386
100
AcDbEntity
  8
0
 62
     3
100
AcDbLine
 10
-58.7375
 20
-6.385656738281249
 30
0.0
 11
-52.38749999999999
 21
-0.03565673828125
 31
0.0
  0
ENDBLK
  5
38E
330
386
100
AcDbEntity
  8
0
100
AcDbBlockEnd
  0
BLOCK
  5
390
330
38F
100
AcDbEntity
  8
0
 62
     7
100
AcDbBlockBegin
  2
AI9-BLK9
 70
     0
 10
0.0
 20
0.0
 30
0.0
  3
AI9-BLK9
  1

  0
LINE
  5
391
330
38F
100
AcDbEntity
  8
0
 62
     7
100
AcDbLine
 10
30.64326307508681
 20
-12.64918484157986
 30
0.0
 11
26.19547254774305
 21
-12.64918484157986
 31
0.0
  0
LINE
  5
392
330
38F
100
AcDbEntity
  8
0
 62
     7
100
AcDbLine
 10
26.19547254774305
 20
-12.64918484157986
 30
0.0
 11
26.19547254774305
 21
-3.121773274739583
 31
0.0
  0
LINE
  5
393
330
38F
100
AcDbEntity
  8
0
 62
     7
100
AcDbLine
 10
26.19547254774305
 20
-3.121773274739583
 30
0.0
 11
24.0080091688368
 21
-3.121773274739583
 31
0.0
  0
LINE
  5
394
330
38F
100
AcDbEntity
  8
0
 62
     7
100
AcDbLine
 10
24.0080091688368
 20
-3.121773274739583
 30
0.0
 11
24.0080091688368
 21
3.426319715711805
 31
0.0
  0
SPLINE
  5
395
330
38F
100
AcDbEntity
  8
0
 62
     7
100
AcDbSpline
210
0.0
220
0.0
230
1.0
 70
     8
 71
     3
 72
     8
 73
     4
 74
     0
 42
0.0000000001
 43
0.0000000001
 40
0.0
 40
0.0
 40
0.0
 40
0.0
 40
1.0
 40
1.0
 40
1.0
 40
1.0
 10
24.0080091688368
 20
3.426319715711805
 30
0.0
 10
24.0080091688368
 20
5.019676378038194
 30
0.0
 10
22.82944200303819
 20
6.373254394531249
 30
0.0
 10
21.23625759548611
 20
6.569280327690971
 30
0.0
  0
LINE
  5
396
330
38F
100
AcDbEntity
  8
0
 62
     7
100
AcDbLine
 10
4.756987847222221
 20
4.55045437282986
 30
0.0
 11
4.756987847222221
 21
3.131764051649305
 31
0.0
  0
SPLINE
  5
397
330
38F
100
AcDbEntity
  8
0
 62
     7
100
AcDbSpline
210
0.0
220
0.0
230
1.0
 70
     8
 71
     3
 72
    11
 73
     7
 74
     0
 42
0.0000000001
 43
0.0000000001
 40
0.0
 40
0.0
 40
0.0
 40
0.0
 40
1.0
 40
1.0
 40
1.0
 40
2.0
 40
2.0
 40
2.0
 40
2.0
 10
8.096491156684027
 20
7.715463595920137
 30
0.0
 10
6.32864040798611
 20
7.802280002170138
 30
0.0
 10
4.866025119357638
 20
6.448701985677082
 30
0.0
 10
4.778691948784722
 20
4.703416612413193
 30
0.0
 10
4.778691948784722
 20
4.648639594184027
 30
0.0
 10
4.756987847222221
 20
4.604886881510416
 30
0.0
 10
4.756987847222221
 20
4.55045437282986
 30
0.0
  0
SPLINE
  5
398
330
38F
100
AcDbEntity
  8
0
 62
     7
100
AcDbSpline
210
0.0
220
0.0
230
1.0
 70
     8
 71
     3
 72
    11
 73
     7
 74
     0
 42
0.0000000001
 43
0.0000000001
 40
0.0
 40
0.0
 40
0.0
 40
0.0
 40
1.0
 40
1.0
 40
1.0
 40
2.0
 40
2.0
 40
2.0
 40
2.0
 10
3.142099338107638
 20
1.538062879774305
 30
0.0
 10
4.014914279513888
 20
1.527038574218749
 30
0.0
 10
4.756987847222221
 20
2.214679633246527
 30
0.0
 10
4.756987847222221
 20
3.098691134982638
 30
0.0
 10
4.756987847222221
 20
3.109715440538194
 30
0.0
 10
4.756987847222221
 20
3.120739746093749
 30
0.0
 10
4.756987847222221
 20
3.131764051649305
 30
0.0
  0
SPLINE
  5
399
330
38F
100
AcDbEntity
  8
0
 62
     7
100
AcDbSpline
210
0.0
220
0.0
230
1.0
 70
     8
 71
     3
 72
    11
 73
     7
 74
     0
 42
0.0000000001
 43
0.0000000001
 40
0.0
 40
0.0
 40
0.0
 40
0.0
 40
1.0
 40
1.0
 40
1.0
 40
2.0
 40
2.0
 40
2.0
 40
2.0
 10
-4.759571668836804
 20
3.131764051649305
 30
0.0
 10
-4.759571668836804
 20
2.247752549913194
 30
0.0
 10
-4.039202202690971
 20
1.538062879774305
 30
0.0
 10
-3.187919108072916
 20
1.538062879774305
 30
0.0
 10
-3.16604275173611
 20
1.538062879774305
 30
0.0
 10
-3.16604275173611
 20
1.538062879774305
 30
0.0
 10
-3.14433865017361
 20
1.538062879774305
 30
0.0
  0
SPLINE
  5
39A
330
38F
100
AcDbEntity
  8
0
 62
     7
100
AcDbSpline
210
0.0
220
0.0
230
1.0
 70
     8
 71
     3
 72
    11
 73
     7
 74
     0
 42
0.0000000001
 43
0.0000000001
 40
0.0
 40
0.0
 40
0.0
 40
0.0
 40
1.0
 40
1.0
 40
1.0
 40
2.0
 40
2.0
 40
2.0
 40
2.0
 10
-4.759571668836804
 20
4.55045437282986
 30
0.0
 10
-4.759571668836804
 20
6.296428765190971
 30
0.0
 10
-6.178089735243054
 20
7.726143391927082
 30
0.0
 10
-7.946112738715276
 20
7.726143391927082
 30
0.0
 10
-7.989693196614582
 20
7.726143391927082
 30
0.0
 10
-8.033618164062499
 20
7.715463595920137
 30
0.0
 10
-8.098902723524304
 20
7.715463595920137
 30
0.0
  0
LINE
  5
39B
330
38F
100
AcDbEntity
  8
0
 62
     7
100
AcDbLine
 10
-4.759571668836804
 20
4.55045437282986
 30
0.0
 11
-4.759571668836804
 21
3.131764051649305
 31
0.0
  0
SPLINE
  5
39C
330
38F
100
AcDbEntity
  8
0
 62
     7
100
AcDbSpline
210
0.0
220
0.0
230
1.0
 70
     8
 71
     3
 72
     8
 73
     4
 74
     0
 42
0.0000000001
 43
0.0000000001
 40
0.0
 40
0.0
 40
0.0
 40
0.0
 40
1.0
 40
1.0
 40
1.0
 40
1.0
 10
-21.23866916232639
 20
6.569280327690971
 30
0.0
 10
-22.81014946831597
 20
6.373254394531249
 30
0.0
 10
-24.01059299045139
 20
5.019676378038194
 30
0.0
 10
-24.01059299045139
 20
3.426319715711805
 30
0.0
  0
LINE
  5
39D
330
38F
100
AcDbEntity
  8
0
 62
     7
100
AcDbLine
 10
-24.01059299045139
 20
-3.121773274739583
 30
0.0
 11
-24.01059299045139
 21
3.426319715711805
 31
0.0
  0
LINE
  5
39E
330
38F
100
AcDbEntity
  8
0
 62
     7
100
AcDbLine
 10
-26.23474663628472
 20
-3.121773274739583
 30
0.0
 11
-24.01059299045139
 21
-3.121773274739583
 31
0.0
  0
LINE
  5
39F
330
38F
100
AcDbEntity
  8
0
 62
     7
100
AcDbLine
 10
-26.23474663628472
 20
-12.64918484157986
 30
0.0
 11
-26.23474663628472
 21
-3.121773274739583
 31
0.0
  0
LINE
  5
3A0
330
38F
100
AcDbEntity
  8
0
 62
     7
100
AcDbLine
 10
-30.64567464192708
 20
-12.64918484157986
 30
0.0
 11
-26.23474663628472
 21
-12.64918484157986
 31
0.0
  0
SPLINE
  5
3A1
330
38F
100
AcDbEntity
  8
0
 62
     7
100
AcDbSpline
210
0.0
220
0.0
230
1.0
 70
     8
 71
     3
 72
    11
 73
     7
 74
     0
 42
0.0000000001
 43
0.0000000001
 40
0.0
 40
0.0
 40
0.0
 40
0.0
 40
1.0
 40
1.0
 40
1.0
 40
2.0
 40
2.0
 40
2.0
 40
2.0
 10
34.81251763237847
 20
4.190097384982638
 30
0.0
 10
35.38026936848958
 20
6.77667507595486
 30
0.0
 10
33.74333224826389
 20
9.319155544704861
 30
0.0
 10
31.12385389539931
 20
9.875882975260415
 30
0.0
 10
31.05805257161458
 20
9.886907280815972
 30
0.0
 10
30.99276801215278
 20
9.897931586371527
 30
0.0
 10
30.90543484157986
 20
9.919635687934027
 30
0.0
  0
SPLINE
  5
3A2
330
38F
100
AcDbEntity
  8
0
 62
     7
100
AcDbSpline
210
0.0
220
0.0
230
1.0
 70
     8
 71
     3
 72
     8
 73
     4
 74
     0
 42
0.0000000001
 43
0.0000000001
 40
0.0
 40
0.0
 40
0.0
 40
0.0
 40
1.0
 40
1.0
 40
1.0
 40
1.0
 10
30.90543484157986
 20
9.919635687934027
 30
0.0
 10
20.71243082682292
 20
11.74278021918403
 30
0.0
 10
10.36663682725694
 20
12.67019992404514
 30
0.0
 10
-0.0013780381944444
 20
12.68087972005208
 30
0.0
  0
LINE
  5
3A3
330
38F
100
AcDbEntity
  8
0
 62
     7
100
AcDbLine
 10
32.52118462456597
 20
-11.32867974175347
 30
0.0
 11
34.81251763237847
 21
4.190097384982638
 31
0.0
  0
SPLINE
  5
3A4
330
38F
100
AcDbEntity
  8
0
 62
     7
100
AcDbSpline
210
0.0
220
0.0
230
1.0
 70
     8
 71
     3
 72
    11
 73
     7
 74
     0
 42
0.0000000001
 43
0.0000000001
 40
0.0
 40
0.0
 40
0.0
 40
0.0
 40
1.0
 40
1.0
 40
1.0
 40
2.0
 40
2.0
 40
2.0
 40
2.0
 10
30.64326307508681
 20
-12.64918484157986
 30
0.0
 10
31.51659478081597
 20
-12.82385118272569
 30
0.0
 10
32.34617377387153
 20
-12.26746826171875
 30
0.0
 10
32.52118462456597
 20
-11.40516086154514
 30
0.0
 10
32.52118462456597
 20
-11.38345675998263
 30
0.0
 10
32.52118462456597
 20
-11.35038384331597
 30
0.0
 10
32.52118462456597
 20
-11.32867974175347
 30
0.0
  0
SPLINE
  5
3A5
330
38F
100
AcDbEntity
  8
0
 62
     7
100
AcDbSpline
210
0.0
220
0.0
230
1.0
 70
     8
 71
     3
 72
     8
 73
     4
 74
     0
 42
0.0000000001
 43
0.0000000001
 40
0.0
 40
0.0
 40
0.0
 40
0.0
 40
1.0
 40
1.0
 40
1.0
 40
1.0
 10
21.23625759548611
 20
6.569280327690971
 30
0.0
 10
16.87063259548611
 20
7.126007758246527
 30
0.0
 10
12.48330349392361
 20
7.507724338107638
 30
0.0
 10
8.096491156684027
 20
7.715463595920137
 30
0.0
  0
SPLINE
  5
3A6
330
38F
100
AcDbEntity
  8
0
 62
     7
100
AcDbSpline
210
0.0
220
0.0
230
1.0
 70
     8
 71
     3
 72
     8
 73
     4
 74
     0
 42
0.0000000001
 43
0.0000000001
 40
0.0
 40
0.0
 40
0.0
 40
0.0
 40
1.0
 40
1.0
 40
1.0
 40
1.0
 10
3.142099338107638
 20
1.538062879774305
 30
0.0
 10
2.094273546006944
 20
1.560111490885416
 30
0.0
 10
1.024743652343749
 20
1.571135796440971
 30
0.0
 10
-0.0013780381944444
 20
1.581815592447916
 30
0.0
  0
SPLINE
  5
3A7
330
38F
100
AcDbEntity
  8
0
 62
     7
100
AcDbSpline
210
0.0
220
0.0
230
1.0
 70
     8
 71
     3
 72
     8
 73
     4
 74
     0
 42
0.0000000001
 43
0.0000000001
 40
0.0
 40
0.0
 40
0.0
 40
0.0
 40
1.0
 40
1.0
 40
1.0
 40
1.0
 10
0.0204983181423611
 20
1.581815592447916
 30
0.0
 10
-1.026810709635416
 20
1.571135796440971
 30
0.0
 10
-2.07463650173611
 20
1.560111490885416
 30
0.0
 10
-3.14433865017361
 20
1.538062879774305
 30
0.0
  0
SPLINE
  5
3A8
330
38F
100
AcDbEntity
  8
0
 62
     7
100
AcDbSpline
210
0.0
220
0.0
230
1.0
 70
     8
 71
     3
 72
     8
 73
     4
 74
     0
 42
0.0000000001
 43
0.0000000001
 40
0.0
 40
0.0
 40
0.0
 40
0.0
 40
1.0
 40
1.0
 40
1.0
 40
1.0
 10
-8.098902723524304
 20
7.715463595920137
 30
0.0
 10
-12.4860595703125
 20
7.507724338107638
 30
0.0
 10
-16.87321641710069
 20
7.126007758246527
 30
0.0
 10
-21.23866916232639
 20
6.569280327690971
 30
0.0
  0
SPLINE
  5
3A9
330
38F
100
AcDbEntity
  8
0
 62
     7
100
AcDbSpline
210
0.0
220
0.0
230
1.0
 70
     8
 71
     3
 72
    11
 73
     7
 74
     0
 42
0.0000000001
 43
0.0000000001
 40
0.0
 40
0.0
 40
0.0
 40
0.0
 40
1.0
 40
1.0
 40
1.0
 40
2.0
 40
2.0
 40
2.0
 40
2.0
 10
-32.52290717230903
 20
-11.32867974175347
 30
0.0
 10
-32.39216579861111
 20
-12.19064263237847
 30
0.0
 10
-31.58463541666666
 20
-12.79077826605903
 30
0.0
 10
-30.7113037109375
 20
-12.6598646375868
 30
0.0
 10
-30.689599609375
 20
-12.6598646375868
 30
0.0
 10
-30.6678955078125
 20
-12.64918484157986
 30
0.0
 10
-30.64567464192708
 20
-12.64918484157986
 30
0.0
  0
LINE
  5
3AA
330
38F
100
AcDbEntity
  8
0
 62
     7
100
AcDbLine
 10
-32.52290717230903
 20
-11.32867974175347
 30
0.0
 11
-34.81475694444444
 21
4.190097384982638
 31
0.0
  0
SPLINE
  5
3AB
330
38F
100
AcDbEntity
  8
0
 62
     7
100
AcDbSpline
210
0.0
220
0.0
230
1.0
 70
     8
 71
     3
 72
     8
 73
     4
 74
     0
 42
0.0000000001
 43
0.0000000001
 40
0.0
 40
0.0
 40
0.0
 40
0.0
 40
1.0
 40
1.0
 40
1.0
 40
1.0
 10
-0.0013780381944444
 20
12.68087972005208
 30
0.0
 10
-10.36887613932291
 20
12.67019992404514
 30
0.0
 10
-20.71467013888889
 20
11.74278021918403
 30
0.0
 10
-30.90784640842013
 20
9.919635687934027
 30
0.0
  0
SPLINE
  5
3AC
330
38F
100
AcDbEntity
  8
0
 62
     7
100
AcDbSpline
210
0.0
220
0.0
230
1.0
 70
     8
 71
     3
 72
    11
 73
     7
 74
     0
 42
0.0000000001
 43
0.0000000001
 40
0.0
 40
0.0
 40
0.0
 40
0.0
 40
1.0
 40
1.0
 40
1.0
 40
2.0
 40
2.0
 40
2.0
 40
2.0
 10
-30.90784640842013
 20
9.919635687934027
 30
0.0
 10
-33.52715250651041
 20
9.482797580295137
 30
0.0
 10
-35.29517550998264
 20
7.02782253689236
 30
0.0
 10
-34.85868191189236
 20
4.419540744357638
 30
0.0
 10
-34.85868191189236
 20
4.342715115017361
 30
0.0
 10
-34.83663330078125
 20
4.266578504774305
 30
0.0
 10
-34.81475694444444
 20
4.190097384982638
 30
0.0
  0
ENDBLK
  5
3AD
330
38F
100
AcDbEntity
  8
0
100
AcDbBlockEnd
  0
BLOCK
  5
3F1
330
3E6
100
AcDbEntity
  8
0
 62
     3
100
AcDbBlockBegin
  2
*D14
 70
     1
 10
0.0
 20
0.0
 30
0.0
  3
*D14
  1

  0
LINE
  5
43A
330
3E6
100
AcDbEntity
  8
ADPDIM
 62
     0
370
    -2
100
AcDbLine
 10
27.77299089145431
 20
-14.51768988977001
 30
0.0
 11
27.77299089145431
 21
-13.53239451496313
 31
0.0
  0
LINE
  5
43B
330
3E6
100
AcDbEntity
  8
ADPDIM
 62
     0
370
    -2
100
AcDbLine
 10
23.39799089145431
 20
-14.51768988977001
 30
0.0
 11
23.39799089145431
 21
-13.53239451496313
 31
0.0
  0
LINE
  5
43C
330
3E6
100
AcDbEntity
  8
ADPDIM
 62
     0
370
    -2
100
AcDbLine
 10
27.77299089145431
 20
-13.71239451496313
 30
0.0
 11
26.00215755812098
 21
-13.71239451496313
 31
0.0
  0
LINE
  5
43D
330
3E6
100
AcDbEntity
  8
ADPDIM
 62
     0
370
    -2
100
AcDbLine
 10
23.39799089145431
 20
-13.71239451496313
 30
0.0
 11
25.16882422478764
 21
-13.71239451496313
 31
0.0
  0
LINE
  5
43E
330
3E6
100
AcDbEntity
  8
ADPDIM
 62
     0
370
    -2
100
AcDbLine
 10
23.27299089145431
 20
-13.83739451496313
 30
0.0
 11
23.5229908914543
 21
-13.58739451496313
 31
0.0
  0
LINE
  5
43F
330
3E6
100
AcDbEntity
  8
ADPDIM
 62
     0
370
    -2
100
AcDbLine
 10
27.64799089145431
 20
-13.83739451496313
 30
0.0
 11
27.89799089145431
 21
-13.58739451496313
 31
0.0
  0
MTEXT
  5
440
330
3E6
100
AcDbEntity
  8
ADPDIM
 62
     0
100
AcDbMText
 10
25.58549089145431
 20
-13.71239451496313
 30
0.0
 40
0.125
 41
0.0
 71
     5
 72
     1
  1
\A1;4 3/8
 73
     1
 44
1.0
1001
ACAD
1000
MTEXTBEGIN
1070
    73
1070
     1
1070
    44
1040
1.0
1070
    74
1070
     0
1000
MTEXTEND
  0
POINT
  5
441
330
3E6
100
AcDbEntity
  8
DEFPOINTS
 62
     0
100
AcDbPoint
 10
27.77299089145431
 20
-14.58018988977001
 30
0.0
  0
POINT
  5
442
330
3E6
100
AcDbEntity
  8
DEFPOINTS
 62
     0
100
AcDbPoint
 10
23.39799089145431
 20
-14.58018988977001
 30
0.0
  0
POINT
  5
443
330
3E6
100
AcDbEntity
  8
DEFPOINTS
 62
     0
100
AcDbPoint
 10
23.39799089145431
 20
-13.71239451496313
 30
0.0
  0
ENDBLK
  5
3F2
330
3E6
100
AcDbEntity
  8
0
 62
     3
100
AcDbBlockEnd
  0
BLOCK
  5
3FF
330
3F4
100
AcDbEntity
  8
0
 62
     3
100
AcDbBlockBegin
  2
*D15
 70
     1
 10
0.0
 20
0.0
 30
0.0
  3
*D15
  1

  0
LINE
  5
430
330
3F4
100
AcDbEntity
  8
ADPDIM
 62
     0
370
    -2
100
AcDbLine
 10
22.89243001915683
 20
-18.00816799451154
 30
0.0
 11
22.89243001915683
 21
-17.2650181032679
 31
0.0
  0
LINE
  5
431
330
3F4
100
AcDbEntity
  8
ADPDIM
 62
     0
370
    -2
100
AcDbLine
 10
20.14243001915683
 20
-18.00816799451154
 30
0.0
 11
20.14243001915683
 21
-17.2650181032679
 31
0.0
  0
LINE
  5
432
330
3F4
100
AcDbEntity
  8
ADPDIM
 62
     0
370
    -2
100
AcDbLine
 10
22.89243001915683
 20
-17.4450181032679
 30
0.0
 11
21.93409668582349
 21
-17.4450181032679
 31
0.0
  0
LINE
  5
433
330
3F4
100
AcDbEntity
  8
ADPDIM
 62
     0
370
    -2
100
AcDbLine
 10
20.14243001915683
 20
-17.4450181032679
 30
0.0
 11
21.10076335249016
 21
-17.4450181032679
 31
0.0
  0
LINE
  5
434
330
3F4
100
AcDbEntity
  8
ADPDIM
 62
     0
370
    -2
100
AcDbLine
 10
20.01743001915682
 20
-17.5700181032679
 30
0.0
 11
20.26743001915683
 21
-17.3200181032679
 31
0.0
  0
LINE
  5
435
330
3F4
100
AcDbEntity
  8
ADPDIM
 62
     0
370
    -2
100
AcDbLine
 10
22.76743001915683
 20
-17.5700181032679
 30
0.0
 11
23.01743001915683
 21
-17.3200181032679
 31
0.0
  0
MTEXT
  5
436
330
3F4
100
AcDbEntity
  8
ADPDIM
 62
     0
100
AcDbMText
 10
21.51743001915683
 20
-17.4450181032679
 30
0.0
 40
0.125
 41
0.0
 71
     5
 72
     1
  1
\A1;2 3/4
 73
     1
 44
1.0
1001
ACAD
1000
MTEXTBEGIN
1070
    73
1070
     1
1070
    44
1040
1.0
1070
    74
1070
     0
1000
MTEXTEND
  0
POINT
  5
437
330
3F4
100
AcDbEntity
  8
DEFPOINTS
 62
     0
100
AcDbPoint
 10
22.89243001915683
 20
-18.07066799451154
 30
0.0
  0
POINT
  5
438
330
3F4
100
AcDbEntity
  8
DEFPOINTS
 62
     0
100
AcDbPoint
 10
20.14243001915683
 20
-18.07066799451154
 30
0.0
  0
POINT
  5
439
330
3F4
100
AcDbEntity
  8
DEFPOINTS
 62
     0
100
AcDbPoint
 10
20.14243001915683
 20
-17.4450181032679
 30
0.0
  0
ENDBLK
  5
400
330
3F4
100
AcDbEntity
  8
0
 62
     3
100
AcDbBlockEnd
  0
BLOCK
  5
40D
330
402
100
AcDbEntity
  8
0
 62
     3
100
AcDbBlockBegin
  2
*D16
 70
     1
 10
0.0
 20
0.0
 30
0.0
  3
*D16
  1

  0
LINE
  5
44D
330
402
100
AcDbEntity
  8
ADPDIM
 62
     0
370
    -2
100
AcDbLine
 10
21.69365480223195
 20
-18.27600286100505
 30
0.0
 11
21.69365480223195
 21
-18.79262433869476
 31
0.0
  0
LINE
  5
44E
330
402
100
AcDbEntity
  8
ADPDIM
 62
     0
370
    -2
100
AcDbLine
 10
21.31865480223195
 20
-18.27600286100505
 30
0.0
 11
21.31865480223195
 21
-18.79262433869476
 31
0.0
  0
LINE
  5
44F
330
402
100
AcDbEntity
  8
ADPDIM
 62
     0
370
    -2
100
AcDbLine
 10
21.69365480223195
 20
-18.61262433869476
 30
0.0
 11
21.31865480223195
 21
-18.61262433869476
 31
0.0
  0
MTEXT
  5
450
330
402
100
AcDbEntity
  8
ADPDIM
 62
     0
100
AcDbMText
 10
20.90580110064755
 20
-18.62323494712077
 30
0.0
 40
0.125
 41
0.0
 71
     5
 72
     1
  1
\A1;3/8
 73
     1
 44
1.0
1001
ACAD
1000
MTEXTBEGIN
1070
    73
1070
     1
1070
    44
1040
1.0
1070
    74
1070
     0
1000
MTEXTEND
  0
LINE
  5
451
330
402
100
AcDbEntity
  8
ADPDIM
 62
     0
370
    -2
100
AcDbLine
 10
21.19365480223195
 20
-18.73762433869476
 30
0.0
 11
21.44365480223195
 21
-18.48762433869476
 31
0.0
  0
LINE
  5
452
330
402
100
AcDbEntity
  8
ADPDIM
 62
     0
370
    -2
100
AcDbLine
 10
21.56865480223195
 20
-18.73762433869476
 30
0.0
 11
21.81865480223195
 21
-18.48762433869476
 31
0.0
  0
POINT
  5
453
330
402
100
AcDbEntity
  8
DEFPOINTS
 62
     0
100
AcDbPoint
 10
21.69365480223195
 20
-18.21350286100505
 30
0.0
  0
POINT
  5
454
330
402
100
AcDbEntity
  8
DEFPOINTS
 62
     0
100
AcDbPoint
 10
21.31865480223195
 20
-18.21350286100505
 30
0.0
  0
POINT
  5
455
330
402
100
AcDbEntity
  8
DEFPOINTS
 62
     0
100
AcDbPoint
 10
21.31865480223195
 20
-18.61262433869476
 30
0.0
  0
ENDBLK
  5
40E
330
402
100
AcDbEntity
  8
0
 62
     3
100
AcDbBlockEnd
  0
BLOCK
  5
41B
330
410
100
AcDbEntity
  8
0
 62
     3
100
AcDbBlockBegin
  2
*D17
 70
     1
 10
0.0
 20
0.0
 30
0.0
  3
*D17
  1

  0
LINE
  5
426
330
410
100
AcDbEntity
  8
ADPDIM
 62
     0
370
    -2
100
AcDbLine
 10
22.54665461849674
 20
-18.83693035694793
 30
0.0
 11
22.54665461849674
 21
-19.33197768286988
 31
0.0
  0
LINE
  5
427
330
410
100
AcDbEntity
  8
ADPDIM
 62
     0
370
    -2
100
AcDbLine
 10
20.48415461849674
 20
-18.83693035694793
 30
0.0
 11
20.48415461849674
 21
-19.33197768286988
 31
0.0
  0
LINE
  5
428
330
410
100
AcDbEntity
  8
ADPDIM
 62
     0
370
    -2
100
AcDbLine
 10
22.54665461849674
 20
-19.15197768286988
 30
0.0
 11
21.95290461849674
 21
-19.15197768286988
 31
0.0
  0
LINE
  5
429
330
410
100
AcDbEntity
  8
ADPDIM
 62
     0
370
    -2
100
AcDbLine
 10
20.48415461849674
 20
-19.15197768286988
 30
0.0
 11
21.07790461849674
 21
-19.15197768286988
 31
0.0
  0
LINE
  5
42A
330
410
100
AcDbEntity
  8
ADPDIM
 62
     0
370
    -2
100
AcDbLine
 10
20.35915461849674
 20
-19.27697768286988
 30
0.0
 11
20.60915461849674
 21
-19.02697768286988
 31
0.0
  0
LINE
  5
42B
330
410
100
AcDbEntity
  8
ADPDIM
 62
     0
370
    -2
100
AcDbLine
 10
22.42165461849674
 20
-19.27697768286988
 30
0.0
 11
22.67165461849674
 21
-19.02697768286988
 31
0.0
  0
MTEXT
  5
42C
330
410
100
AcDbEntity
  8
ADPDIM
 62
     0
100
AcDbMText
 10
21.51540461849674
 20
-19.15197768286988
 30
0.0
 40
0.125
 41
0.0
 71
     5
 72
     1
  1
\A1;2 1/16
 73
     1
 44
1.0
1001
ACAD
1000
MTEXTBEGIN
1070
    73
1070
     1
1070
    44
1040
1.0
1070
    74
1070
     0
1000
MTEXTEND
  0
POINT
  5
42D
330
410
100
AcDbEntity
  8
DEFPOINTS
 62
     0
100
AcDbPoint
 10
22.54665461849674
 20
-18.77443035694793
 30
0.0
  0
POINT
  5
42E
330
410
100
AcDbEntity
  8
DEFPOINTS
 62
     0
100
AcDbPoint
 10
20.48415461849674
 20
-18.77443035694793
 30
0.0
  0
POINT
  5
42F
330
410
100
AcDbEntity
  8
DEFPOINTS
 62
     0
100
AcDbPoint
 10
20.48415461849674
 20
-19.15197768286988
 30
0.0
  0
ENDBLK
  5
41C
330
410
100
AcDbEntity
  8
0
 62
     3
100
AcDbBlockEnd
  0
ENDSEC
  0
SECTION
  2
ENTITIES
  0
TEXT
  5
18A
330
1E
100
AcDbEntity
  8
ADPDIM
100
AcDbText
 10
15.41421126132866
 20
-21.92199800320423
 30
0.0
 40
0.1875
  1
J U L I U S  B L U M  &  C O . ,  I N C .      ( 8 0 0 )  5 2 6 - 6 2 9 3        W W W . J U L I U S B L U M . C O M        P A R T  N o .  6 9 8 7 - N
 41
1.25
  7
ARIAL_WIDE
 72
     1
 11
25.46651664161516
 21
-21.73449800320423
 31
0.0
100
AcDbText
 73
     3
  0
SPLINE
  5
3D3
330
1E
100
AcDbEntity
  8
0
 62
     7
100
AcDbSpline
210
0.0
220
0.0
230
1.0
 70
     8
 71
     3
 72
     8
 73
     4
 74
     0
 42
0.0000000001
 43
0.0000000001
 40
0.0
 40
0.0
 40
0.0
 40
0.0
 40
1.0
 40
1.0
 40
1.0
 40
1.0
 10
27.79431433527505
 20
-14.84362145696462
 30
0.0
 10
27.79431433527505
 20
-14.70541730926703
 30
0.0
 10
27.68227379820853
 20
-14.5933631948208
 30
0.0
 10
27.54405607313126
 20
-14.5933631948208
 30
0.0
  0
SPLINE
  5
3D4
330
1E
100
AcDbEntity
  8
0
 62
     7
100
AcDbSpline
210
0.0
220
0.0
230
1.0
 70
     8
 71
     3
 72
     8
 73
     4
 74
     0
 42
0.0000000001
 43
0.0000000001
 40
0.0
 40
0.0
 40
0.0
 40
0.0
 40
1.0
 40
1.0
 40
1.0
 40
1.0
 10
27.54405607313126
 20
-17.34620407840256
 30
0.0
 10
27.68227379820853
 20
-17.34620407840256
 30
0.0
 10
27.79431433527505
 20
-17.23416354133602
 30
0.0
 10
27.79431433527505
 20
-17.09594581625875
 30
0.0
  0
SPLINE
  5
3D5
330
1E
100
AcDbEntity
  8
0
 62
     7
100
AcDbSpline
210
0.0
220
0.0
230
1.0
 70
     8
 71
     3
 72
    11
 73
     7
 74
     0
 42
0.0000000001
 43
0.0000000001
 40
0.0
 40
0.0
 40
0.0
 40
0.0
 40
1.0
 40
1.0
 40
1.0
 40
2.0
 40
2.0
 40
2.0
 40
2.0
 10
27.70699820659416
 20
-14.6536874927106
 30
0.0
 10
26.98013318576792
 20
-15.19141961468353
 30
0.0
 10
26.82681741449369
 20
-16.21656608955906
 30
0.0
 10
27.36453595908691
 20
-16.94343111038521
 30
0.0
 10
27.46108470594589
 20
-17.07393688380786
 30
0.0
 10
27.57650601055115
 20
-17.18934461103347
 30
0.0
 10
27.70699820659416
 20
-17.28589335789241
 30
0.0
  0
LINE
  5
3D6
330
1E
100
AcDbEntity
  8
0
 62
     7
100
AcDbLine
 10
27.79431433527505
 20
-14.84362145696462
 30
0.0
 11
27.79431433527505
 21
-17.09594581625879
 31
0.0
  0
SPLINE
  5
3D7
330
1E
100
AcDbEntity
  8
0
 62
     7
100
AcDbSpline
210
0.0
220
0.0
230
1.0
 70
     8
 71
     3
 72
    11
 73
     7
 74
     0
 42
0.0000000001
 43
0.0000000001
 40
0.0
 40
0.0
 40
0.0
 40
0.0
 40
1.0
 40
1.0
 40
1.0
 40
2.0
 40
2.0
 40
2.0
 40
2.0
 10
27.76467491544757
 20
-18.02797862133274
 30
0.0
 10
27.83378377798622
 20
-18.02797862133274
 30
0.0
 10
27.75508928539803
 20
-18.6443101942361
 30
0.0
 10
27.60447541267876
 20
-18.77920146129335
 30
0.0
 10
27.60447541267876
 20
-18.77920146129335
 30
0.0
 10
23.4147947477586
 20
-18.77920146129335
 30
0.0
 10
23.4147947477586
 20
-18.77920146129335
 30
0.0
  0
LINE
  5
3D8
330
1E
100
AcDbEntity
  8
0
 62
     7
100
AcDbLine
 10
27.04353954884365
 20
-17.81399911767679
 30
0.0
 11
27.76467491544759
 21
-18.02797862133272
 31
0.0
  0
LINE
  5
3D9
330
1E
100
AcDbEntity
  8
0
 62
     7
100
AcDbLine
 10
23.41479474775862
 20
-17.35015509588759
 30
0.0
 11
23.41479474775862
 21
-14.59731421230583
 31
0.0
  0
LINE
  5
3DA
330
1E
100
AcDbEntity
  8
0
 62
     7
100
AcDbLine
 10
23.41479474775862
 20
-18.77920146129335
 30
0.0
 11
23.41479474775862
 21
-17.81399911767679
 31
0.0
  0
LINE
  5
3DB
330
1E
100
AcDbEntity
  8
0
 62
     7
100
AcDbLine
 10
27.54405607313126
 20
-17.34620407840258
 30
0.0
 11
23.41479474775862
 21
-17.34620407840258
 31
0.0
  0
LINE
  5
3DC
330
1E
100
AcDbEntity
  8
0
 62
     7
100
AcDbLine
 10
23.41479474775862
 20
-14.59336319482082
 30
0.0
 11
27.54405607313126
 21
-14.59336319482082
 31
0.0
  0
LINE
  5
3DD
330
1E
100
AcDbEntity
  8
0
 62
     7
100
AcDbLine
 10
23.41479474775862
 20
-18.02797862133272
 30
0.0
 11
27.76467491544759
 21
-18.02797862133272
 31
0.0
  0
LINE
  5
3DE
330
1E
100
AcDbEntity
  8
0
 62
     7
100
AcDbLine
 10
23.41479474775862
 20
-17.81399911767679
 30
0.0
 11
27.04353954884365
 21
-17.81399911767679
 31
0.0
  0
LINE
  5
3DF
330
1E
100
AcDbEntity
  8
0
 62
     7
100
AcDbLine
 10
23.41479474775862
 20
-18.65523998487337
 30
0.0
 11
27.65955884201457
 21
-18.65523998487337
 31
0.0
  0
LINE
  5
3E1
330
1E
100
AcDbEntity
  8
0
  6
AI9-LType1
 62
     5
100
AcDbLine
 10
23.41569085481707
 20
-18.42050066769651
 30
0.0
 11
27.75563238058496
 21
-18.42050066769651
 31
0.0
  0
LINE
  5
3E2
330
1E
100
AcDbEntity
  8
0
  6
AI9-LType1
 62
     5
100
AcDbLine
 10
23.41479474775862
 20
-16.99282561763778
 30
0.0
 11
27.79431433527505
 21
-16.99282561763778
 31
0.0
  0
LINE
  5
3E3
330
1E
100
AcDbEntity
  8
0
  6
AI9-LType1
 62
     5
100
AcDbLine
 10
23.41479474775862
 20
-14.93746830526855
 30
0.0
 11
27.79431433527505
 21
-14.93746830526855
 31
0.0
  0
INSERT
  5
3E4
330
1E
100
AcDbEntity
  8
0
  6
AI9-LType1
 62
     7
100
AcDbBlockReference
  2
AI9-BLK9
 10
21.51217616802755
 20
-18.27732041034855
 30
0.0
 41
0.0394107499439134
 42
0.0394107499439134
 43
0.0394107499439049
  0
DIMENSION
  5
3E5
330
1E
100
AcDbEntity
  8
ADPDIM
 62
     3
100
AcDbDimension
  2
*D14
 10
23.39799089145431
 20
-13.71239451496313
 30
0.0
 11
25.58549089145431
 21
-13.71239451496313
 31
0.0
 70
    32
 71
     5
 42
4.375
  3
Standard
100
AcDbAlignedDimension
 13
27.77299089145431
 23
-14.58018988977001
 33
0.0
 14
23.39799089145431
 24
-14.58018988977001
 34
0.0
100
AcDbRotatedDimension
1001
ACAD
1000
DSTYLE
1002
{
1070
   276
1070
     2
1070
    41
1040
0.125
1070
    73
1070
     0
1070
    74
1070
     0
1070
    78
1070
     3
1070
   140
1040
0.125
1070
   141
1040
0.1875
1070
   142
1040
0.125
1070
   147
1040
0.125
1070
   171
1070
     1
1070
   273
1070
     5
1070
   274
1070
     1
1070
   277
1070
     5
1070
   279
1070
     2
1070
   284
1070
     3
1070
   285
1070
     3
1070
   286
1070
     3
1002
}
  0
DIMENSION
  5
3F3
330
1E
100
AcDbEntity
  8
ADPDIM
 62
     3
100
AcDbDimension
  2
*D15
 10
20.14243001915683
 20
-17.4450181032679
 30
0.0
 11
21.51743001915683
 21
-17.4450181032679
 31
0.0
 70
    32
 71
     5
 42
2.75
  3
Standard
100
AcDbAlignedDimension
 13
22.89243001915683
 23
-18.07066799451154
 33
0.0
 14
20.14243001915683
 24
-18.07066799451154
 34
0.0
100
AcDbRotatedDimension
1001
ACAD
1000
DSTYLE
1002
{
1070
   276
1070
     2
1070
    41
1040
0.125
1070
    73
1070
     0
1070
    74
1070
     0
1070
    78
1070
     3
1070
   140
1040
0.125
1070
   141
1040
0.1875
1070
   142
1040
0.125
1070
   147
1040
0.125
1070
   171
1070
     1
1070
   273
1070
     5
1070
   274
1070
     1
1070
   277
1070
     5
1070
   279
1070
     2
1070
   284
1070
     3
1070
   285
1070
     3
1070
   286
1070
     3
1002
}
  0
DIMENSION
  5
401
330
1E
100
AcDbEntity
  8
ADPDIM
 62
     3
100
AcDbDimension
  2
*D16
 10
21.31865480223195
 20
-18.61262433869476
 30
0.0
 11
20.90580110064755
 21
-18.62323494712077
 31
0.0
 70
   160
 71
     5
 42
0.375
  3
Standard
100
AcDbAlignedDimension
 13
21.69365480223195
 23
-18.21350286100505
 33
0.0
 14
21.31865480223195
 24
-18.21350286100505
 34
0.0
100
AcDbRotatedDimension
1001
ACAD
1000
DSTYLE
1002
{
1070
   276
1070
     2
1070
    41
1040
0.125
1070
    73
1070
     0
1070
    74
1070
     0
1070
    78
1070
     3
1070
   140
1040
0.125
1070
   141
1040
0.1875
1070
   142
1040
0.125
1070
   147
1040
0.125
1070
   171
1070
     1
1070
   273
1070
     5
1070
   274
1070
     1
1070
   277
1070
     5
1070
   279
1070
     2
1070
   284
1070
     3
1070
   285
1070
     3
1070
   286
1070
     3
1002
}
  0
DIMENSION
  5
40F
330
1E
100
AcDbEntity
  8
ADPDIM
 62
     3
100
AcDbDimension
  2
*D17
 10
20.48415461849674
 20
-19.15197768286988
 30
0.0
 11
21.51540461849674
 21
-19.15197768286988
 31
0.0
 70
    32
 71
     5
 42
2.0625
  3
Standard
100
AcDbAlignedDimension
 13
22.54665461849674
 23
-18.77443035694793
 33
0.0
 14
20.48415461849674
 24
-18.77443035694793
 34
0.0
100
AcDbRotatedDimension
1001
ACAD
1000
DSTYLE
1002
{
1070
   276
1070
     2
1070
    41
1040
0.125
1070
    73
1070
     0
1070
    74
1070
     0
1070
    78
1070
     3
1070
   140
1040
0.125
1070
   141
1040
0.1875
1070
   142
1040
0.125
1070
   147
1040
0.125
1070
   171
1070
     1
1070
   273
1070
     5
1070
   274
1070
     1
1070
   277
1070
     5
1070
   279
1070
     2
1070
   284
1070
     3
1070
   285
1070
     3
1070
   286
1070
     3
1002
}
  0
ENDSEC
  0
SECTION
  2
OBJECTS
  0
DICTIONARY
  5
C
330
0
100
AcDbDictionary
281
     1
  3
ACAD_COLOR
350
32E
  3
ACAD_GROUP
350
D
  3
ACAD_LAYOUT
350
19
  3
ACAD_MATERIAL
350
319
  3
ACAD_MLINESTYLE
350
16
  3
ACAD_PLOTSETTINGS
350
18
  3
ACAD_PLOTSTYLENAME
350
E
  3
ACAD_TABLESTYLE
350
32F
  3
ACAD_VISUALSTYLE
350
31D
  3
AcDbVariableDictionary
350
1FB
  3
DWGPROPS
350
475
  0
DICTIONARY
  5
1C6
330
1E
100
AcDbDictionary
280
     1
281
     1
  3
ACAD_LAYOUTSELFREF
360
315
  0
DICTIONARY
  5
1C8
330
1A
100
AcDbDictionary
280
     1
281
     1
  3
ACAD_LAYOUTSELFREF
360
314
  0
DICTIONARY
  5
32E
102
{ACAD_REACTORS
330
C
102
}
330
C
100
AcDbDictionary
281
     1
  0
DICTIONARY
  5
D
102
{ACAD_REACTORS
330
C
102
}
330
C
100
AcDbDictionary
281
     1
  0
DICTIONARY
  5
19
102
{ACAD_REACTORS
330
C
102
}
330
C
100
AcDbDictionary
281
     1
  3
Layout1
350
1D
  3
Model
350
21
  0
DICTIONARY
  5
319
102
{ACAD_REACTORS
330
C
102
}
330
C
100
AcDbDictionary
281
     1
  3
ByBlock
350
31B
  3
ByLayer
350
31A
  3
Global
350
31C
  0
DICTIONARY
  5
16
102
{ACAD_REACTORS
330
C
102
}
330
C
100
AcDbDictionary
281
     1
  3
Standard
350
17
  0
DICTIONARY
  5
18
102
{ACAD_REACTORS
330
C
102
}
330
C
100
AcDbDictionary
281
     1
  0
ACDBDICTIONARYWDFLT
  5
E
102
{ACAD_REACTORS
330
C
102
}
330
C
100
AcDbDictionary
281
     1
  3
Normal
350
F
100
AcDbDictionaryWithDefault
340
F
  0
DICTIONARY
  5
32F
102
{ACAD_REACTORS
330
C
102
}
330
C
100
AcDbDictionary
281
     1
  3
Standard
350
330
  0
DICTIONARY
  5
31D
102
{ACAD_REACTORS
330
C
102
}
330
C
100
AcDbDictionary
281
     1
  3
2dWireframe
350
323
  3
3D Hidden
350
325
  3
3dWireframe
350
324
  3
Basic
350
322
  3
Brighten
350
329
  3
ColorChange
350
32D
  3
Conceptual
350
326
  3
Dim
350
328
  3
Facepattern
350
32C
  3
Flat
350
31E
  3
FlatWithEdges
350
31F
  3
Gouraud
350
320
  3
GouraudWithEdges
350
321
  3
Linepattern
350
32B
  3
Realistic
350
327
  3
Thicken
350
32A
  0
DICTIONARY
  5
1FB
102
{ACAD_REACTORS
330
C
102
}
330
C
100
AcDbDictionary
281
     1
  3
CTABLESTYLE
350
472
  3
DIMASSOC
350
1FD
  3
HIDETEXT
350
1FC
  3
INDEXCTL
350
474
  3
SORTENTS
350
473
  0
XRECORD
  5
475
102
{ACAD_REACTORS
330
C
102
}
330
C
100
AcDbXrecord
280
     1
  1
DWGPROPS COOKIE
  2

  3

  4

  6

  7

  8
Yu Hu
  9

300
=
301
=
302
=
303
=
304
=
305
=
306
=
307
=
308
=
309
=
 40
0.0098458101851852
 41
2450399.686484375
 42
2453961.64162213
  1

 90
        0
  0
XRECORD
  5
315
102
{ACAD_REACTORS
330
1C6
102
}
330
1C6
100
AcDbXrecord
280
     1
340
1E
  0
XRECORD
  5
314
102
{ACAD_REACTORS
330
1C8
102
}
330
1C8
100
AcDbXrecord
280
     1
340
1A
  0
LAYOUT
  5
1D
102
{ACAD_XDICTIONARY
360
476
102
}
102
{ACAD_REACTORS
330
19
102
}
330
19
100
AcDbPlotSettings
  1

  2
Fax
  4

  6

 40
0.0
 41
0.0
 42
0.0
 43
0.0
 44
0.0
 45
0.0
 46
0.0
 47
0.0
 48
0.0
 49
0.0
140
0.0
141
0.0
142
1.0
143
1.0
 70
   688
 72
     0
 73
     0
 74
     5
  7
Default R14 pen assignments.ctb
 75
    16
147
1.0
148
0.0
149
0.0
100
AcDbLayout
  1
Layout1
 70
     1
 71
     1
 10
0.0
 20
0.0
 11
12.0
 21
9.0
 12
0.0004882914945483
 22
0.7501408034022604
 32
0.0
 14
1.000000000000000E+20
 24
1.000000000000000E+20
 34
1.000000000000000E+20
 15
-1.000000000000000E+20
 25
-1.000000000000000E+20
 35
-1.000000000000000E+20
146
0.0
 13
0.0
 23
0.0
 33
0.0
 16
1.0
 26
0.0
 36
0.0
 17
0.0
 27
1.0
 37
0.0
 76
     0
330
1A
  0
LAYOUT
  5
21
102
{ACAD_XDICTIONARY
360
478
102
}
102
{ACAD_REACTORS
330
19
102
}
330
19
100
AcDbPlotSettings
  1

  2
Fax
  4

  6

 40
0.0
 41
0.0
 42
0.0
 43
0.0
 44
0.0
 45
0.0
 46
0.0
 47
0.0
 48
0.0
 49
0.0
140
0.0
141
0.0
142
1.0
143
1.0
 70
  1712
 72
     0
 73
     0
 74
     0
  7
Default R14 pen assignments.ctb
 75
     0
147
1.0
148
0.0
149
0.0
100
AcDbLayout
  1
Model
 70
     1
 71
     0
 10
0.0
 20
0.0
 11
12.0
 21
9.0
 12
0.0
 22
0.0
 32
0.0
 14
0.0
 24
0.0
 34
0.0
 15
0.0
 25
0.0
 35
0.0
146
0.0
 13
0.0
 23
0.0
 33
0.0
 16
1.0
 26
0.0
 36
0.0
 17
0.0
 27
1.0
 37
0.0
 76
     0
330
1E
331
2E2
  0
MATERIAL
  5
31B
102
{ACAD_XDICTIONARY
360
47C
102
}
102
{ACAD_REACTORS
330
319
102
}
330
319
100
AcDbMaterial
  1
ByBlock
  0
MATERIAL
  5
31A
102
{ACAD_XDICTIONARY
360
47A
102
}
102
{ACAD_REACTORS
330
319
102
}
330
319
100
AcDbMaterial
  1
ByLayer
  0
MATERIAL
  5
31C
102
{ACAD_XDICTIONARY
360
47E
102
}
102
{ACAD_REACTORS
330
319
102
}
330
319
100
AcDbMaterial
  1
Global
  0
MLINESTYLE
  5
17
102
{ACAD_REACTORS
330
16
102
}
330
16
100
AcDbMlineStyle
  2
STANDARD
 70
     0
  3

 62
   256
 51
90.0
 52
90.0
 71
     2
 49
0.5
 62
   256
  6
BYLAYER
 49
-0.5
 62
   256
  6
BYLAYER
  0
ACDBPLACEHOLDER
  5
F
102
{ACAD_REACTORS
330
E
102
}
330
E
  0
TABLESTYLE
  5
330
102
{ACAD_XDICTIONARY
360
480
102
}
102
{ACAD_REACTORS
330
32F
102
}
330
32F
100
AcDbTableStyle
  3
Standard
 70
     0
 71
     0
 40
0.06
 41
0.06
280
     0
281
     0
  7
STANDARD
140
0.18
170
     2
 62
     0
 63
     7
283
     0
274
    -2
284
     1
 64
     0
275
    -2
285
     1
 65
     0
276
    -2
286
     1
 66
     0
277
    -2
287
     1
 67
     0
278
    -2
288
     1
 68
     0
279
    -2
289
     1
 69
     0
  7
STANDARD
140
0.25
170
     5
 62
     0
 63
     7
283
     0
274
    -2
284
     1
 64
     0
275
    -2
285
     1
 65
     0
276
    -2
286
     1
 66
     0
277
    -2
287
     1
 67
     0
278
    -2
288
     1
 68
     0
279
    -2
289
     1
 69
     0
  7
STANDARD
140
0.18
170
     5
 62
     0
 63
     7
283
     0
274
    -2
284
     1
 64
     0
275
    -2
285
     1
 65
     0
276
    -2
286
     1
 66
     0
277
    -2
287
     1
 67
     0
278
    -2
288
     1
 68
     0
279
    -2
289
     1
 69
     0
  0
VISUALSTYLE
  5
323
102
{ACAD_REACTORS
330
31D
102
}
330
31D
100
AcDbVisualStyle
  2
2dWireframe
 70
     4
 71
     0
 72
     2
 73
     0
 90
        0
 40
-0.6
 41
-30.0
 62
     5
 63
     7
 74
     1
 91
        4
 64
     7
 65
   257
 75
     1
175
     1
 42
1.0
 92
        0
 66
   257
 43
1.0
 76
     1
 77
     6
 78
     2
 67
     7
 79
     5
170
     0
171
     0
290
     0
174
     0
 93
        1
 44
0.0
173
     0
291
     0
 45
0.0
1001
ACAD
1000
AcDbSavedByObjectVersion
1070
     0
  0
VISUALSTYLE
  5
325
102
{ACAD_REACTORS
330
31D
102
}
330
31D
100
AcDbVisualStyle
  2
3D Hidden
 70
     6
 71
     1
 72
     2
 73
     2
 90
        0
 40
-0.6
 41
-30.0
 62
     5
 63
     7
 74
     2
 91
        2
 64
     7
 65
   257
 75
     2
175
     1
 42
40.0
 92
        0
 66
   257
 43
1.0
 76
     1
 77
     6
 78
     2
 67
     7
 79
     3
170
     0
171
     0
290
     0
174
     0
 93
        1
 44
0.0
173
     0
291
     0
 45
0.0
1001
ACAD
1000
AcDbSavedByObjectVersion
1070
     0
  0
VISUALSTYLE
  5
324
102
{ACAD_REACTORS
330
31D
102
}
330
31D
100
AcDbVisualStyle
  2
3dWireframe
 70
     5
 71
     0
 72
     2
 73
     0
 90
        0
 40
-0.6
 41
-30.0
 62
     5
 63
     7
 74
     1
 91
        4
 64
     7
 65
   257
 75
     1
175
     1
 42
1.0
 92
        0
 66
   257
 43
1.0
 76
     1
 77
     6
 78
     2
 67
     7
 79
     5
170
     0
171
     0
290
     0
174
     0
 93
        1
 44
0.0
173
     0
291
     0
 45
0.0
1001
ACAD
1000
AcDbSavedByObjectVersion
1070
     0
  0
VISUALSTYLE
  5
322
102
{ACAD_REACTORS
330
31D
102
}
330
31D
100
AcDbVisualStyle
  2
Basic
 70
     7
 71
     1
 72
     0
 73
     1
 90
        0
 40
-0.6
 41
-30.0
 62
     5
 63
     7
 74
     0
 91
        4
 64
     7
 65
   257
 75
     1
175
     1
 42
1.0
 92
        8
 66
     7
 43
1.0
 76
     1
 77
     6
 78
     2
 67
     7
 79
     5
170
     0
171
     0
290
     0
174
     0
 93
        1
 44
0.0
173
     0
291
     1
 45
0.0
1001
ACAD
1000
AcDbSavedByObjectVersion
1070
     0
  0
VISUALSTYLE
  5
329
102
{ACAD_REACTORS
330
31D
102
}
330
31D
100
AcDbVisualStyle
  2
Brighten
 70
    12
 71
     2
 72
     2
 73
     0
 90
        0
 40
-0.6
 41
-30.0
 62
     5
 63
     7
 74
     1
 91
        4
 64
     7
 65
   257
 75
     1
175
     1
 42
1.0
 92
        8
 66
     7
 43
1.0
 76
     1
 77
     6
 78
     2
 67
     7
 79
     5
170
     0
171
     0
290
     0
174
     0
 93
        1
 44
50.0
173
     0
291
     1
 45
0.0
1001
ACAD
1000
AcDbSavedByObjectVersion
1070
     0
  0
VISUALSTYLE
  5
32D
102
{ACAD_REACTORS
330
31D
102
}
330
31D
100
AcDbVisualStyle
  2
ColorChange
 70
    16
 71
     2
 72
     2
 73
     3
 90
        0
 40
-0.6
 41
-30.0
 62
     5
 63
     8
 74
     1
 91
        4
 64
     7
 65
   257
 75
     1
175
     1
 42
1.0
 92
        8
 66
     8
 43
1.0
 76
     1
 77
     6
 78
     2
 67
     7
 79
     5
170
     0
171
     0
290
     0
174
     0
 93
        1
 44
0.0
173
     0
291
     1
 45
0.0
1001
ACAD
1000
AcDbSavedByObjectVersion
1070
     0
  0
VISUALSTYLE
  5
326
102
{ACAD_REACTORS
330
31D
102
}
330
31D
100
AcDbVisualStyle
  2
Conceptual
 70
     9
 71
     3
 72
     2
 73
     0
 90
        0
 40
-0.6
 41
-30.0
 62
     5
 63
     7
 74
     2
 91
        2
 64
     7
 65
   257
 75
     1
175
     1
 42
40.0
 92
        8
 66
     7
 43
1.0
 76
     1
 77
     6
 78
     2
 67
     7
 79
     3
170
     0
171
     0
290
     0
174
     0
 93
        1
 44
0.0
173
     0
291
     0
 45
0.0
1001
ACAD
1000
AcDbSavedByObjectVersion
1070
     0
  0
VISUALSTYLE
  5
328
102
{ACAD_REACTORS
330
31D
102
}
330
31D
100
AcDbVisualStyle
  2
Dim
 70
    11
 71
     2
 72
     2
 73
     0
 90
        0
 40
-0.6
 41
-30.0
 62
     5
 63
     7
 74
     1
 91
        4
 64
     7
 65
   257
 75
     1
175
     1
 42
1.0
 92
        8
 66
     7
 43
1.0
 76
     1
 77
     6
 78
     2
 67
     7
 79
     5
170
     0
171
     0
290
     0
174
     0
 93
        1
 44
-50.0
173
     0
291
     1
 45
0.0
1001
ACAD
1000
AcDbSavedByObjectVersion
1070
     0
  0
VISUALSTYLE
  5
32C
102
{ACAD_REACTORS
330
31D
102
}
330
31D
100
AcDbVisualStyle
  2
Facepattern
 70
    15
 71
     2
 72
     2
 73
     0
 90
        0
 40
-0.6
 41
-30.0
 62
     5
 63
     7
 74
     1
 91
        4
 64
     7
 65
   257
 75
     1
175
     1
 42
1.0
 92
        8
 66
     7
 43
1.0
 76
     1
 77
     6
 78
     2
 67
     7
 79
     5
170
     0
171
     0
290
     0
174
     0
 93
        1
 44
0.0
173
     0
291
     1
 45
0.0
1001
ACAD
1000
AcDbSavedByObjectVersion
1070
     0
  0
VISUALSTYLE
  5
31E
102
{ACAD_REACTORS
330
31D
102
}
330
31D
100
AcDbVisualStyle
  2
Flat
 70
     0
 71
     2
 72
     1
 73
     1
 90
        2
 40
-0.6
 41
30.0
 62
     5
 63
     7
 74
     0
 91
        4
 64
     7
 65
   257
 75
     1
175
     1
 42
1.0
 92
        8
 66
     7
 43
1.0
 76
     1
 77
     6
 78
     2
 67
     7
 79
     5
170
     0
171
     0
290
     0
174
     0
 93
       13
 44
0.0
173
     0
291
     1
 45
0.0
1001
ACAD
1000
AcDbSavedByObjectVersion
1070
     0
  0
VISUALSTYLE
  5
31F
102
{ACAD_REACTORS
330
31D
102
}
330
31D
100
AcDbVisualStyle
  2
FlatWithEdges
 70
     1
 71
     2
 72
     1
 73
     1
 90
        2
 40
-0.6
 41
30.0
 62
     5
 63
     7
 74
     1
 91
        4
 64
     7
 65
   257
 75
     1
175
     1
 42
1.0
 92
        0
 66
   257
 43
1.0
 76
     1
 77
     6
 78
     2
 67
     7
 79
     5
170
     0
171
     0
290
     0
174
     0
 93
       13
 44
0.0
173
     0
291
     1
 45
0.0
1001
ACAD
1000
AcDbSavedByObjectVersion
1070
     0
  0
VISUALSTYLE
  5
320
102
{ACAD_REACTORS
330
31D
102
}
330
31D
100
AcDbVisualStyle
  2
Gouraud
 70
     2
 71
     2
 72
     2
 73
     1
 90
        2
 40
-0.6
 41
30.0
 62
     5
 63
     7
 74
     0
 91
        4
 64
     7
 65
   257
 75
     1
175
     1
 42
1.0
 92
        0
 66
     7
 43
1.0
 76
     1
 77
     6
 78
     2
 67
     7
 79
     5
170
     0
171
     0
290
     0
174
     0
 93
       13
 44
0.0
173
     0
291
     1
 45
0.0
1001
ACAD
1000
AcDbSavedByObjectVersion
1070
     0
  0
VISUALSTYLE
  5
321
102
{ACAD_REACTORS
330
31D
102
}
330
31D
100
AcDbVisualStyle
  2
GouraudWithEdges
 70
     3
 71
     2
 72
     2
 73
     1
 90
        2
 40
-0.6
 41
30.0
 62
     5
 63
     7
 74
     1
 91
        4
 64
     7
 65
   257
 75
     1
175
     1
 42
1.0
 92
        0
 66
   257
 43
1.0
 76
     1
 77
     6
 78
     2
 67
     7
 79
     5
170
     0
171
     0
290
     0
174
     0
 93
       13
 44
0.0
173
     0
291
     1
 45
0.0
1001
ACAD
1000
AcDbSavedByObjectVersion
1070
     0
  0
VISUALSTYLE
  5
32B
102
{ACAD_REACTORS
330
31D
102
}
330
31D
100
AcDbVisualStyle
  2
Linepattern
 70
    14
 71
     2
 72
     2
 73
     0
 90
        0
 40
-0.6
 41
-30.0
 62
     5
 63
     7
 74
     1
 91
        4
 64
     7
 65
   257
 75
     7
175
     7
 42
1.0
 92
        8
 66
     7
 43
1.0
 76
     1
 77
     6
 78
     2
 67
     7
 79
     5
170
     0
171
     0
290
     0
174
     0
 93
        1
 44
0.0
173
     0
291
     1
 45
0.0
1001
ACAD
1000
AcDbSavedByObjectVersion
1070
     0
  0
VISUALSTYLE
  5
327
102
{ACAD_REACTORS
330
31D
102
}
330
31D
100
AcDbVisualStyle
  2
Realistic
 70
     8
 71
     2
 72
     2
 73
     0
 90
        0
 40
-0.6
 41
-30.0
 62
     5
 63
     7
 74
     1
 91
        0
 64
     7
 65
   257
 75
     1
175
     1
 42
1.0
 92
        8
 66
     8
 43
1.0
 76
     1
 77
     6
 78
     2
 67
     7
 79
     5
170
     0
171
     0
290
     0
174
     0
 93
       13
 44
0.0
173
     0
291
     0
 45
0.0
1001
ACAD
1000
AcDbSavedByObjectVersion
1070
     0
  0
VISUALSTYLE
  5
32A
102
{ACAD_REACTORS
330
31D
102
}
330
31D
100
AcDbVisualStyle
  2
Thicken
 70
    13
 71
     2
 72
     2
 73
     0
 90
        0
 40
-0.6
 41
-30.0
 62
     5
 63
     7
 74
     1
 91
        4
 64
     7
 65
   257
 75
     1
175
     1
 42
1.0
 92
       12
 66
     7
 43
1.0
 76
     1
 77
     6
 78
     2
 67
     7
 79
     5
170
     0
171
     0
290
     0
174
     0
 93
        1
 44
0.0
173
     0
291
     1
 45
0.0
1001
ACAD
1000
AcDbSavedByObjectVersion
1070
     0
  0
DICTIONARYVAR
  5
472
102
{ACAD_REACTORS
330
1FB
102
}
330
1FB
100
DictionaryVariables
280
     0
  1
STANDARD
  0
DICTIONARYVAR
  5
1FD
102
{ACAD_REACTORS
330
1FB
102
}
330
1FB
100
DictionaryVariables
280
     0
  1
2
  0
DICTIONARYVAR
  5
1FC
102
{ACAD_REACTORS
330
1FB
102
}
330
1FB
100
DictionaryVariables
280
     0
  1
1
  0
DICTIONARYVAR
  5
474
102
{ACAD_REACTORS
330
1FB
102
}
330
1FB
100
DictionaryVariables
280
     0
  1
0
  0
DICTIONARYVAR
  5
473
102
{ACAD_REACTORS
330
1FB
102
}
330
1FB
100
DictionaryVariables
280
     0
  1
127
  0
DICTIONARY
  5
476
330
1D
100
AcDbDictionary
280
     1
281
     1
  3
ACAD_XREC_ROUNDTRIP
360
477
  0
DICTIONARY
  5
478
330
21
100
AcDbDictionary
280
     1
281
     1
  3
ACAD_XREC_ROUNDTRIP
360
479
  0
DICTIONARY
  5
47C
330
31B
100
AcDbDictionary
280
     1
281
     1
  3
ACAD_XREC_ROUNDTRIP
360
47D
  0
DICTIONARY
  5
47A
330
31A
100
AcDbDictionary
280
     1
281
     1
  3
ACAD_XREC_ROUNDTRIP
360
47B
  0
DICTIONARY
  5
47E
330
31C
100
AcDbDictionary
280
     1
281
     1
  3
ACAD_XREC_ROUNDTRIP
360
47F
  0
DICTIONARY
  5
480
330
330
100
AcDbDictionary
280
     1
281
     1
  3
ACAD_XREC_ROUNDTRIP
360
481
  0
XRECORD
  5
477
102
{ACAD_REACTORS
330
476
102
}
330
476
100
AcDbXrecord
280
     1
102
SHADEPLOT
 70
     0
102
SHADEPLOTRESLEVEL
 70
     2
102
SHADEPLOTCUSTOMDPI
 70
   300
  0
XRECORD
  5
479
102
{ACAD_REACTORS
330
478
102
}
330
478
100
AcDbXrecord
280
     1
102
SHADEPLOT
 70
     0
102
SHADEPLOTRESLEVEL
 70
     2
102
SHADEPLOTCUSTOMDPI
 70
   300
  0
XRECORD
  5
47D
102
{ACAD_REACTORS
330
47C
102
}
330
47C
100
AcDbXrecord
280
     1
102
MATERIAL
148
0.0
149
0.0
149
0.0
 93
        0
 94
       63
282
     0
 72
     1
 77
     1
171
     1
175
     1
179
     1
273
     0
  0
XRECORD
  5
47B
102
{ACAD_REACTORS
330
47A
102
}
330
47A
100
AcDbXrecord
280
     1
102
MATERIAL
148
0.0
149
0.0
149
0.0
 93
        0
 94
       63
282
     0
 72
     1
 77
     1
171
     1
175
     1
179
     1
273
     0
  0
XRECORD
  5
47F
102
{ACAD_REACTORS
330
47E
102
}
330
47E
100
AcDbXrecord
280
     1
102
MATERIAL
148
0.0
149
0.0
149
0.0
 93
        0
 94
       63
282
     0
 72
     1
 77
     1
171
     1
175
     1
179
     1
273
     0
  0
XRECORD
  5
481
102
{ACAD_REACTORS
330
480
102
}
330
480
100
AcDbXrecord
280
     1
102
ACAD_ROUNDTRIP_PRE2007_TABLESTYLE
 90
      512
 91
        0
  1

 92
      512
 93
        0
  2

 94
      512
 95
        0
  3

  0
ENDSEC
  0
EOF
