  0
SECTION
  2
HEADER
  9
$ACADVER
  1
AC1015
  9
$ACADMAINTVER
 70
    20
  9
$DWGCODEPAGE
  3
ANSI_1252
  9
$INSBASE
 10
24.16606704897553
 20
-18.87843350556789
 30
0.0
  9
$EXTMIN
 10
15.41421126132866
 20
-21.97750618874311
 30
0.0
  9
$EXTMAX
 10
35.51882202190165
 20
-12.00403345359705
 30
0.0
  9
$LIMMIN
 10
0.0
 20
0.0
  9
$LIMMAX
 10
36.0
 20
36.0
  9
$ORTHOMODE
 70
     1
  9
$REGENMODE
 70
     1
  9
$FILLMODE
 70
     1
  9
$QTEXTMODE
 70
     0
  9
$MIRRTEXT
 70
     1
  9
$LTSCALE
 40
1.0
  9
$ATTMODE
 70
     1
  9
$TEXTSIZE
 40
0.2
  9
$TRACEWID
 40
0.05
  9
$TEXTSTYLE
  7
STANDARD
  9
$CLAYER
  8
0
  9
$CELTYPE
  6
ByLayer
  9
$CECOLOR
 62
   256
  9
$CELTSCALE
 40
1.0
  9
$DISPSILH
 70
     0
  9
$DIMSCALE
 40
1.0
  9
$DIMASZ
 40
0.125
  9
$DIMEXO
 40
0.0625
  9
$DIMDLI
 40
0.38
  9
$DIMRND
 40
0.0
  9
$DIMDLE
 40
0.0
  9
$DIMEXE
 40
0.18
  9
$DIMTP
 40
0.0
  9
$DIMTM
 40
0.0
  9
$DIMTXT
 40
0.125
  9
$DIMCEN
 40
0.1875
  9
$DIMTSZ
 40
0.125
  9
$DIMTOL
 70
     0
  9
$DIMLIM
 70
     0
  9
$DIMTIH
 70
     0
  9
$DIMTOH
 70
     0
  9
$DIMSE1
 70
     0
  9
$DIMSE2
 70
     0
  9
$DIMTAD
 70
     0
  9
$DIMZIN
 70
     3
  9
$DIMBLK
  1

  9
$DIMASO
 70
     1
  9
$DIMSHO
 70
     1
  9
$DIMPOST
  1

  9
$DIMAPOST
  1

  9
$DIMALT
 70
     0
  9
$DIMALTD
 70
     1
  9
$DIMALTF
 40
25.4
  9
$DIMLFAC
 40
1.0
  9
$DIMTOFL
 70
     0
  9
$DIMTVP
 40
0.0
  9
$DIMTIX
 70
     0
  9
$DIMSOXD
 70
     0
  9
$DIMSAH
 70
     0
  9
$DIMBLK1
  1

  9
$DIMBLK2
  1

  9
$DIMSTYLE
  2
Standard
  9
$DIMCLRD
 70
     0
  9
$DIMCLRE
 70
     0
  9
$DIMCLRT
 70
     0
  9
$DIMTFAC
 40
1.0
  9
$DIMGAP
 40
0.125
  9
$DIMJUST
 70
     0
  9
$DIMSD1
 70
     0
  9
$DIMSD2
 70
     0
  9
$DIMTOLJ
 70
     1
  9
$DIMTZIN
 70
     3
  9
$DIMALTZ
 70
     3
  9
$DIMALTTZ
 70
     3
  9
$DIMUPT
 70
     0
  9
$DIMDEC
 70
     4
  9
$DIMTDEC
 70
     4
  9
$DIMALTU
 70
     5
  9
$DIMALTTD
 70
     1
  9
$DIMTXSTY
  7
STANDARD
  9
$DIMAUNIT
 70
     0
  9
$DIMADEC
 70
     0
  9
$DIMALTRND
 40
0.0
  9
$DIMAZIN
 70
     0
  9
$DIMDSEP
 70
    46
  9
$DIMATFIT
 70
     3
  9
$DIMFRAC
 70
     0
  9
$DIMLDRBLK
  1

  9
$DIMLUNIT
 70
     5
  9
$DIMLWD
 70
    -2
  9
$DIMLWE
 70
    -2
  9
$DIMTMOVE
 70
     2
  9
$LUNITS
 70
     5
  9
$LUPREC
 70
     4
  9
$SKETCHINC
 40
0.1
  9
$FILLETRAD
 40
0.187
  9
$AUNITS
 70
     0
  9
$AUPREC
 70
     0
  9
$MENU
  1
acad
  9
$ELEVATION
 40
0.0
  9
$PELEVATION
 40
0.0
  9
$THICKNESS
 40
0.0
  9
$LIMCHECK
 70
     0
  9
$CHAMFERA
 40
0.0
  9
$CHAMFERB
 40
0.0
  9
$CHAMFERC
 40
0.0
  9
$CHAMFERD
 40
0.0
  9
$SKPOLY
 70
     0
  9
$TDCREATE
 40
2450399.686484375
  9
$TDUCREATE
 40
2450399.853151042
  9
$TDUPDATE
 40
2453961.634181331
  9
$TDUUPDATE
 40
2453961.800847998
  9
$TDINDWG
 40
0.0065106829
  9
$TDUSRTIMER
 40
0.0065106829
  9
$USRTIMER
 70
     1
  9
$ANGBASE
 50
0.0
  9
$ANGDIR
 70
     0
  9
$PDMODE
 70
     0
  9
$PDSIZE
 40
0.0
  9
$PLINEWID
 40
0.0
  9
$SPLFRAME
 70
     0
  9
$SPLINETYPE
 70
     6
  9
$SPLINESEGS
 70
     8
  9
$HANDSEED
  5
388
  9
$SURFTAB1
 70
     6
  9
$SURFTAB2
 70
     6
  9
$SURFTYPE
 70
     6
  9
$SURFU
 70
     6
  9
$SURFV
 70
     6
  9
$UCSBASE
  2

  9
$UCSNAME
  2

  9
$UCSORG
 10
0.0
 20
0.0
 30
0.0
  9
$UCSXDIR
 10
1.0
 20
0.0
 30
0.0
  9
$UCSYDIR
 10
0.0
 20
1.0
 30
0.0
  9
$UCSORTHOREF
  2

  9
$UCSORTHOVIEW
 70
     0
  9
$UCSORGTOP
 10
0.0
 20
0.0
 30
0.0
  9
$UCSORGBOTTOM
 10
0.0
 20
0.0
 30
0.0
  9
$UCSORGLEFT
 10
0.0
 20
0.0
 30
0.0
  9
$UCSORGRIGHT
 10
0.0
 20
0.0
 30
0.0
  9
$UCSORGFRONT
 10
0.0
 20
0.0
 30
0.0
  9
$UCSORGBACK
 10
0.0
 20
0.0
 30
0.0
  9
$PUCSBASE
  2

  9
$PUCSNAME
  2

  9
$PUCSORG
 10
0.0
 20
0.0
 30
0.0
  9
$PUCSXDIR
 10
1.0
 20
0.0
 30
0.0
  9
$PUCSYDIR
 10
0.0
 20
1.0
 30
0.0
  9
$PUCSORTHOREF
  2

  9
$PUCSORTHOVIEW
 70
     0
  9
$PUCSORGTOP
 10
0.0
 20
0.0
 30
0.0
  9
$PUCSORGBOTTOM
 10
0.0
 20
0.0
 30
0.0
  9
$PUCSORGLEFT
 10
0.0
 20
0.0
 30
0.0
  9
$PUCSORGRIGHT
 10
0.0
 20
0.0
 30
0.0
  9
$PUCSORGFRONT
 10
0.0
 20
0.0
 30
0.0
  9
$PUCSORGBACK
 10
0.0
 20
0.0
 30
0.0
  9
$USERI1
 70
     0
  9
$USERI2
 70
     0
  9
$USERI3
 70
     0
  9
$USERI4
 70
     0
  9
$USERI5
 70
     0
  9
$USERR1
 40
0.0
  9
$USERR2
 40
0.0
  9
$USERR3
 40
0.0
  9
$USERR4
 40
0.0
  9
$USERR5
 40
0.0
  9
$WORLDVIEW
 70
     1
  9
$SHADEDGE
 70
     3
  9
$SHADEDIF
 70
    70
  9
$TILEMODE
 70
     1
  9
$MAXACTVP
 70
    15
  9
$PINSBASE
 10
0.0004882914945483
 20
0.7501408034022604
 30
0.0
  9
$PLIMCHECK
 70
     0
  9
$PEXTMIN
 10
1.000000000000000E+20
 20
1.000000000000000E+20
 30
1.000000000000000E+20
  9
$PEXTMAX
 10
-1.000000000000000E+20
 20
-1.000000000000000E+20
 30
-1.000000000000000E+20
  9
$PLIMMIN
 10
0.0
 20
0.0
  9
$PLIMMAX
 10
12.0
 20
9.0
  9
$UNITMODE
 70
     0
  9
$VISRETAIN
 70
     0
  9
$PLINEGEN
 70
     0
  9
$PSLTSCALE
 70
     1
  9
$TREEDEPTH
 70
  3020
  9
$CMLSTYLE
  2
Standard
  9
$CMLJUST
 70
     0
  9
$CMLSCALE
 40
1.0
  9
$PROXYGRAPHICS
 70
     1
  9
$MEASUREMENT
 70
     0
  9
$CELWEIGHT
370
    -1
  9
$ENDCAPS
280
     0
  9
$JOINSTYLE
280
     0
  9
$LWDISPLAY
290
     0
  9
$INSUNITS
 70
     0
  9
$HYPERLINKBASE
  1

  9
$STYLESHEET
  1

  9
$XEDIT
290
     1
  9
$CEPSNTYPE
380
     0
  9
$PSTYLEMODE
290
     1
  9
$FINGERPRINTGUID
  2
{4304CB71-A033-4AC4-B16F-3AE12D7D753C}
  9
$VERSIONGUID
  2
{A18D0543-9763-41AF-8087-FDD9A7FFA8AB}
  9
$EXTNAMES
290
     1
  9
$PSVPSCALE
 40
0.0
  9
$OLESTARTUP
290
     0
  0
ENDSEC
  0
SECTION
  2
CLASSES
  0
CLASS
  1
ACDBDICTIONARYWDFLT
  2
AcDbDictionaryWithDefault
  3
ObjectDBX Classes
 90
        0
280
     0
281
     0
  0
CLASS
  1
ACDBPLACEHOLDER
  2
AcDbPlaceHolder
  3
ObjectDBX Classes
 90
        0
280
     0
281
     0
  0
CLASS
  1
LAYOUT
  2
AcDbLayout
  3
ObjectDBX Classes
 90
        0
280
     0
281
     0
  0
CLASS
  1
DICTIONARYVAR
  2
AcDbDictionaryVar
  3
ObjectDBX Classes
 90
        0
280
     0
281
     0
  0
CLASS
  1
MATERIAL
  2
AcDbMaterial
  3
ObjectDBX Classes
 90
     1024
280
     0
281
     0
  0
CLASS
  1
VISUALSTYLE
  2
AcDbVisualStyle
  3
ObjectDBX Classes
 90
     4095
280
     0
281
     0
  0
CLASS
  1
TABLESTYLE
  2
AcDbTableStyle
  3
ObjectDBX Classes
 90
     4095
280
     0
281
     0
  0
ENDSEC
  0
SECTION
  2
TABLES
  0
TABLE
  2
VPORT
  5
8
330
0
100
AcDbSymbolTable
 70
     1
  0
VPORT
  5
2E2
330
8
100
AcDbSymbolTableRecord
100
AcDbViewportTableRecord
  2
*Active
 70
     0
 10
0.0
 20
0.0
 11
1.0
 21
1.0
 12
23.14557522812626
 22
-20.38970609180317
 13
0.0
 23
0.0
 14
0.5740882589684922
 24
0.5740882589684922
 15
0.5
 25
0.5
 16
0.0
 26
0.0
 36
1.0
 17
0.0
 27
0.0
 37
0.0
 40
2.4732405342019
 41
1.774011299435028
 42
50.0
 43
0.0
 44
0.0
 50
0.0
 51
0.0
 71
     0
 72
   100
 73
     1
 74
     0
 75
     0
 76
     0
 77
     0
 78
     0
281
     0
 65
     1
110
0.0
120
0.0
130
0.0
111
1.0
121
0.0
131
0.0
112
0.0
122
1.0
132
0.0
 79
     0
146
0.0
  0
ENDTAB
  0
TABLE
  2
LTYPE
  5
5
330
0
100
AcDbSymbolTable
 70
     2
  0
LTYPE
  5
13
330
5
100
AcDbSymbolTableRecord
100
AcDbLinetypeTableRecord
  2
ByBlock
 70
     0
  3

 72
    65
 73
     0
 40
0.0
  0
LTYPE
  5
14
330
5
100
AcDbSymbolTableRecord
100
AcDbLinetypeTableRecord
  2
ByLayer
 70
     0
  3

 72
    65
 73
     0
 40
0.0
  0
LTYPE
  5
15
330
5
100
AcDbSymbolTableRecord
100
AcDbLinetypeTableRecord
  2
CONTINUOUS
 70
     0
  3
Solid line
 72
    65
 73
     0
 40
0.0
  0
LTYPE
  5
106
330
5
100
AcDbSymbolTableRecord
100
AcDbLinetypeTableRecord
  2
CENTER2
 70
     0
  3
___ _ ___ _ ___ _ ___ _ ___ _ ___ _ ___ _ ___ _
 72
    65
 73
     4
 40
1.125
 49
0.75
 74
     0
 49
-0.125
 74
     0
 49
0.125
 74
     0
 49
-0.125
 74
     0
  0
ENDTAB
  0
TABLE
  2
LAYER
  5
2
330
0
100
AcDbSymbolTable
 70
     5
  0
LAYER
  5
10
330
2
100
AcDbSymbolTableRecord
100
AcDbLayerTableRecord
  2
0
 70
     0
 62
     7
  6
CONTINUOUS
370
    -3
390
F
  0
LAYER
  5
10A
330
2
100
AcDbSymbolTableRecord
100
AcDbLayerTableRecord
  2
ADP1DETAIL
 70
     0
 62
     7
  6
CONTINUOUS
370
    -3
390
F
  0
LAYER
  5
10B
330
2
100
AcDbSymbolTableRecord
100
AcDbLayerTableRecord
  2
ADP3DETAIL
 70
     0
 62
     1
  6
CONTINUOUS
370
    -3
390
F
  0
LAYER
  5
10C
330
2
100
AcDbSymbolTableRecord
100
AcDbLayerTableRecord
  2
DEFPOINTS
 70
     0
 62
     7
  6
CONTINUOUS
290
     0
370
    -3
390
F
  0
LAYER
  5
10F
330
2
100
AcDbSymbolTableRecord
100
AcDbLayerTableRecord
  2
ADPDIM
 70
     0
 62
     3
  6
CONTINUOUS
370
    -3
390
F
  0
ENDTAB
  0
TABLE
  2
STYLE
  5
3
330
0
100
AcDbSymbolTable
 70
     2
  0
STYLE
  5
11
330
3
100
AcDbSymbolTableRecord
100
AcDbTextStyleTableRecord
  2
STANDARD
 70
     0
 40
0.0
 41
1.0
 50
0.0
 71
     0
 42
0.2
  3
txt
  4

  0
STYLE
  5
189
330
3
100
AcDbSymbolTableRecord
100
AcDbTextStyleTableRecord
  2
ARIAL_WIDE
 70
     0
 40
0.0
 41
1.25
 50
0.0
 71
     0
 42
0.2
  3
ARIAL.TTF
  4

1001
ACAD
1000
Arial
1071
       34
  0
ENDTAB
  0
TABLE
  2
VIEW
  5
6
330
0
100
AcDbSymbolTable
 70
     0
  0
ENDTAB
  0
TABLE
  2
UCS
  5
7
330
0
100
AcDbSymbolTable
 70
     0
  0
ENDTAB
  0
TABLE
  2
APPID
  5
9
330
0
100
AcDbSymbolTable
 70
     1
  0
APPID
  5
12
330
9
100
AcDbSymbolTableRecord
100
AcDbRegAppTableRecord
  2
ACAD
 70
     0
  0
ENDTAB
  0
TABLE
  2
DIMSTYLE
  5
A
330
0
100
AcDbSymbolTable
 70
     1
100
AcDbDimStyleTable
 71
     1
340
187
  0
DIMSTYLE
105
187
102
{ACAD_REACTORS
330
334
102
}
330
A
100
AcDbSymbolTableRecord
100
AcDbDimStyleTableRecord
  2
Standard
 70
     0
340
11
  0
ENDTAB
  0
TABLE
  2
BLOCK_RECORD
  5
1
330
0
100
AcDbSymbolTable
 70
     6
  0
BLOCK_RECORD
  5
1E
102
{ACAD_XDICTIONARY
360
1C6
102
}
330
1
100
AcDbSymbolTableRecord
100
AcDbBlockTableRecord
  2
*Model_Space
340
21
  0
BLOCK_RECORD
  5
1A
102
{ACAD_XDICTIONARY
360
1C8
102
}
330
1
100
AcDbSymbolTableRecord
100
AcDbBlockTableRecord
  2
*Paper_Space
340
1D
  0
BLOCK_RECORD
  5
CE
330
1
100
AcDbSymbolTableRecord
100
AcDbBlockTableRecord
  2
6987
340
0
102
{BLKREFS
331
17C
102
}
  0
BLOCK_RECORD
  5
D3
330
1
100
AcDbSymbolTableRecord
100
AcDbBlockTableRecord
  2
*D1
340
0
  0
BLOCK_RECORD
  5
D4
330
1
100
AcDbSymbolTableRecord
100
AcDbBlockTableRecord
  2
*D2
340
0
  0
BLOCK_RECORD
  5
100
330
1
100
AcDbSymbolTableRecord
100
AcDbBlockTableRecord
  2
*D3
340
0
  0
BLOCK_RECORD
  5
101
330
1
100
AcDbSymbolTableRecord
100
AcDbBlockTableRecord
  2
*D4
340
0
  0
BLOCK_RECORD
  5
335
330
1
100
AcDbSymbolTableRecord
100
AcDbBlockTableRecord
  2
*D5
340
0
  0
ENDTAB
  0
ENDSEC
  0
SECTION
  2
BLOCKS
  0
BLOCK
  5
112
330
1E
100
AcDbEntity
  8
0
100
AcDbBlockBegin
  2
*Model_Space
 70
     0
 10
0.0
 20
0.0
 30
0.0
  3
*Model_Space
  1

  0
ENDBLK
  5
113
330
1E
100
AcDbEntity
  8
0
100
AcDbBlockEnd
  0
BLOCK
  5
110
330
1A
100
AcDbEntity
 67
     1
  8
0
100
AcDbBlockBegin
  2
*Paper_Space
 70
     0
 10
0.0
 20
0.0
 30
0.0
  3
*Paper_Space
  1

  0
ENDBLK
  5
111
330
1A
100
AcDbEntity
 67
     1
  8
0
100
AcDbBlockEnd
  0
BLOCK
  5
115
330
CE
100
AcDbEntity
  8
0
100
AcDbBlockBegin
  2
6987
 70
     0
 10
0.0
 20
0.0
 30
0.0
  3
6987
  1

  0
ARC
  5
116
330
CE
100
AcDbEntity
  8
0
100
AcDbCircle
 10
-1.131893654246105
 20
-0.8790120104664005
 30
0.0
 40
0.125
100
AcDbArc
 50
189.6460801435057
 51
270.1088439369462
  0
ARC
  5
117
330
CE
100
AcDbEntity
  8
0
100
AcDbCircle
 10
-1.155752598069785
 20
-0.2922418317597799
 30
0.0
 40
0.1885808804015701
100
AcDbArc
 50
99.32795369616471
 51
192.0821753561814
  0
LINE
  5
118
330
CE
100
AcDbEntity
  8
0
100
AcDbLine
 10
-1.256042156653214
 20
-0.8999589602346969
 30
0.0
 11
-1.340156110525545
 21
-0.3317145191145769
 31
0.0
  0
ARC
  5
119
330
CE
100
AcDbEntity
  8
0
100
AcDbCircle
 10
0.0313079364730289
 20
-6.997090601202753
 30
0.0
 40
6.875
100
AcDbArc
 50
80.36824482163282
 51
88.57230511936888
  0
ARC
  5
11A
330
CE
100
AcDbEntity
  8
0
100
AcDbCircle
 10
0.0313079364730271
 20
-6.997090601202772
 30
0.0
 40
7.000000000000018
100
AcDbArc
 50
79.98092927473104
 51
89.99999999999998
  0
LINE
  5
11B
330
CE
100
AcDbEntity
  8
0
100
AcDbLine
 10
-1.14843702828638
 20
-0.6588659393299068
 30
0.0
 11
-1.148079887707926
 21
-0.8468656001024932
 31
0.0
  0
LINE
  5
11C
330
CE
100
AcDbEntity
  8
0
100
AcDbLine
 10
-0.9919927837338189
 20
-0.8925691664072807
 30
0.0
 11
-0.9918123137606649
 21
-0.9875689949891715
 31
0.0
  0
ARC
  5
11D
330
CE
100
AcDbEntity
  8
0
100
AcDbCircle
 10
-1.006812286694647
 20
-0.9875974902480919
 30
0.0
 40
0.0149999999999998
100
AcDbArc
 50
270.1088439369476
 51
0.1088439369510338
  0
LINE
  5
11E
330
CE
100
AcDbEntity
  8
0
100
AcDbLine
 10
-1.006783791435728
 20
-1.002597463182073
 30
0.0
 11
-1.131658429875127
 21
-1.00283468595377
 31
0.0
  0
ARC
  5
11F
330
CE
100
AcDbEntity
  8
0
100
AcDbCircle
 10
-1.006992756667802
 20
-0.8925976616661994
 30
0.0
 40
0.0150000000000007
100
AcDbArc
 50
0.1088439369442422
 51
90.10884393694423
  0
LINE
  5
120
330
CE
100
AcDbEntity
  8
0
100
AcDbLine
 10
-1.117021053442596
 20
-0.8778066539642903
 30
0.0
 11
-1.007021251926721
 21
-0.8775976887322158
 31
0.0
  0
ARC
  5
121
330
CE
100
AcDbEntity
  8
0
100
AcDbCircle
 10
-1.117079943644363
 20
-0.8468067099007257
 30
0.0
 40
0.0309999999999992
100
AcDbArc
 50
180.1088439369483
 51
270.1088439369467
  0
ARC
  5
122
330
CE
100
AcDbEntity
  8
0
100
AcDbCircle
 10
0.0446057239686519
 20
-6.997077970394767
 30
0.0
 40
6.875
100
AcDbArc
 50
91.53653881757731
 51
99.74059911531339
  0
ARC
  5
123
330
CE
100
AcDbEntity
  8
0
100
AcDbCircle
 10
0.0446057239686537
 20
-6.997077970394784
 30
0.0
 40
7.000000000000018
100
AcDbArc
 50
90.10884393694622
 51
100.1279146622151
  0
LINE
  5
124
330
CE
100
AcDbEntity
  8
0
100
AcDbLine
 10
-1.148406895980102
 20
-0.4718828430460924
 30
0.0
 11
-1.149208098173454
 21
-0.2529728934331583
 31
0.0
  0
LINE
  5
125
330
CE
100
AcDbEntity
  8
0
100
AcDbLine
 10
-0.8824963984588505
 20
-0.6273606793415088
 30
0.0
 11
-1.117495974424582
 21
-0.6278071050645764
 31
0.0
  0
LINE
  5
126
330
CE
100
AcDbEntity
  8
0
100
AcDbLine
 10
-1.117348061714771
 20
-0.5028238969078913
 30
0.0
 11
-0.8827348964763874
 21
-0.5023619464398266
 31
0.0
  0
ARC
  5
127
330
CE
100
AcDbEntity
  8
0
100
AcDbCircle
 10
-1.117437084222816
 20
-0.6588070491281411
 30
0.0
 40
0.031
100
AcDbArc
 50
90.10884393694679
 51
180.1088439369451
  0
ARC
  5
128
330
CE
100
AcDbEntity
  8
0
100
AcDbCircle
 10
-1.117406951916538
 20
-0.4718239528443267
 30
0.0
 40
0.031
100
AcDbArc
 50
180.1088439369462
 51
270.1088439369462
  0
ARC
  5
129
330
CE
100
AcDbEntity
  8
0
100
AcDbCircle
 10
-0.88252489371777
 20
-0.6123607064075252
 30
0.0
 40
0.0150000000000007
100
AcDbArc
 50
270.1088439369476
 51
0.1088439369442422
  0
LINE
  5
12A
330
CE
100
AcDbEntity
  8
0
100
AcDbLine
 10
-0.867705388782145
 20
-0.5173334221041444
 30
0.0
 11
-0.8675249207837865
 21
-0.6123322111486065
 31
0.0
  0
ARC
  5
12B
330
CE
100
AcDbEntity
  8
0
100
AcDbCircle
 10
-0.8827053617161286
 20
-0.5173619173630631
 30
0.0
 40
0.0150000000000001
100
AcDbArc
 50
0.1088439369442422
 51
90.11281454701245
  0
ARC
  5
12C
330
CE
100
AcDbEntity
  8
0
100
AcDbCircle
 10
-1.117722552166852
 20
-0.2529130807395212
 30
0.0
 40
0.0309999999999999
100
AcDbArc
 50
91.54609868839097
 51
180.1088439369462
  0
LINE
  5
12D
330
CE
100
AcDbEntity
  8
0
100
AcDbLine
 10
0.1872275964257479
 20
-0.1391898232779436
 30
0.0
 11
0.1866613253438993
 21
-0.4188407296483927
 31
0.0
  0
LINE
  5
12E
330
CE
100
AcDbEntity
  8
0
100
AcDbLine
 10
-0.124341498529728
 20
-0.1394857649460093
 30
0.0
 11
-0.1232439801373921
 21
-0.4191350909779708
 31
0.0
  0
LINE
  5
12F
330
CE
100
AcDbEntity
  8
0
100
AcDbLine
 10
0.1716613560961022
 20
-0.4338103558908966
 30
0.0
 11
0.0538820046605402
 21
-0.4338103558908966
 31
0.0
  0
LINE
  5
130
330
CE
100
AcDbEntity
  8
0
100
AcDbLine
 10
0.0316647719131655
 20
-0.3727690105947161
 30
0.0
 11
0.0538820046605402
 21
-0.4338103558908966
 31
0.0
  0
LINE
  5
131
330
CE
100
AcDbEntity
  8
0
100
AcDbLine
 10
0.0316647719131655
 20
-0.3727690105947161
 30
0.0
 11
0.0095635385171899
 21
-0.4338524514677982
 31
0.0
  0
LINE
  5
132
330
CE
100
AcDbEntity
  8
0
100
AcDbLine
 10
-0.1082156003971759
 20
-0.434076195008764
 30
0.0
 11
0.0095635385171899
 21
-0.4338524514677982
 31
0.0
  0
ARC
  5
133
330
CE
100
AcDbEntity
  8
0
100
AcDbCircle
 10
-0.1082440956560955
 20
-0.4190762220747804
 30
0.0
 40
0.0150000000000002
100
AcDbArc
 50
180.2248632237343
 51
270.1088439369476
  0
ARC
  5
134
330
CE
100
AcDbEntity
  8
0
100
AcDbCircle
 10
0.1716613560961022
 20
-0.418810355890896
 30
0.0
 40
0.0150000000000001
100
AcDbArc
 50
270.0
 51
359.8839807132135
  0
ARC
  5
135
330
CE
100
AcDbEntity
  8
0
100
AcDbCircle
 10
-0.1393413830110246
 20
-0.1395446338491979
 30
0.0
 40
0.015
100
AcDbArc
 50
0.2248632237275238
 51
91.53653881757763
  0
ARC
  5
136
330
CE
100
AcDbEntity
  8
0
100
AcDbCircle
 10
0.202227565673545
 20
-0.1392201970354385
 30
0.0
 40
0.015
100
AcDbArc
 50
88.57230511936759
 51
179.8839807132202
  0
LINE
  5
137
330
CE
100
AcDbEntity
  8
0
100
AcDbLine
 10
1.212307936473029
 20
-0.6566236026731023
 30
0.0
 11
1.212307936473029
 21
-0.8446236026731028
 31
0.0
  0
LINE
  5
138
330
CE
100
AcDbEntity
  8
0
100
AcDbLine
 10
1.320370871213999
 20
-0.897511772816447
 30
0.0
 11
1.403405188479075
 21
-0.3291085671109588
 31
0.0
  0
ARC
  5
139
330
CE
100
AcDbEntity
  8
0
100
AcDbCircle
 10
1.196182800236774
 20
-0.8768007037595531
 30
0.0
 40
0.125
100
AcDbArc
 50
270.0
 51
350.4627637934405
  0
LINE
  5
13A
330
CE
100
AcDbEntity
  8
0
100
AcDbLine
 10
1.056307936473029
 20
-0.8906236026731022
 30
0.0
 11
1.056307936473029
 21
-0.9856236026731028
 31
0.0
  0
LINE
  5
13B
330
CE
100
AcDbEntity
  8
0
100
AcDbLine
 10
1.071307936473029
 20
-1.000623602673103
 30
0.0
 11
1.196182800236774
 21
-1.000623602673103
 31
0.0
  0
ARC
  5
13C
330
CE
100
AcDbEntity
  8
0
100
AcDbCircle
 10
1.071307936473029
 20
-0.9856236026731028
 30
0.0
 40
0.0150000000000006
100
AcDbArc
 50
180.0
 51
270.0
  0
LINE
  5
13D
330
CE
100
AcDbEntity
  8
0
100
AcDbLine
 10
1.181307936473029
 20
-0.8756236026731034
 30
0.0
 11
1.071307936473029
 21
-0.8756236026731034
 31
0.0
  0
ARC
  5
13E
330
CE
100
AcDbEntity
  8
0
100
AcDbCircle
 10
1.071307936473028
 20
-0.8906236026731022
 30
0.0
 40
0.0149999999999988
100
AcDbArc
 50
89.99999999999323
 51
180.0
  0
ARC
  5
13F
330
CE
100
AcDbEntity
  8
0
100
AcDbCircle
 10
1.181307936473029
 20
-0.8446236026731028
 30
0.0
 40
0.0310000000000006
100
AcDbArc
 50
270.0
 51
0.0
  0
ARC
  5
140
330
CE
100
AcDbEntity
  8
0
100
AcDbCircle
 10
1.218927023131463
 20
-0.2899862593695914
 30
0.0
 40
0.1885808804015701
100
AcDbArc
 50
348.0266685807648
 51
80.78089024078149
  0
LINE
  5
141
330
CE
100
AcDbEntity
  8
0
100
AcDbLine
 10
1.211922595438313
 20
-0.4696409010236593
 30
0.0
 11
1.212307936473029
 21
-0.2507298243811586
 31
0.0
  0
LINE
  5
142
330
CE
100
AcDbEntity
  8
0
100
AcDbLine
 10
0.9463079364730297
 20
-0.6256236026731035
 30
0.0
 11
1.181307936473029
 21
-0.6256236026731035
 31
0.0
  0
LINE
  5
143
330
CE
100
AcDbEntity
  8
0
100
AcDbLine
 10
1.180922595438314
 20
-0.5006409010236581
 30
0.0
 11
0.9463089759763132
 21
-0.5006246422484271
 31
0.0
  0
ARC
  5
144
330
CE
100
AcDbEntity
  8
0
100
AcDbCircle
 10
0.9463079364730297
 20
-0.6106236026731029
 30
0.0
 40
0.0150000000000006
100
AcDbArc
 50
180.0
 51
270.0
  0
LINE
  5
145
330
CE
100
AcDbEntity
  8
0
100
AcDbLine
 10
0.9313079364730292
 20
-0.5156246422124085
 30
0.0
 11
0.9313079364730292
 21
-0.6106236026731029
 31
0.0
  0
ARC
  5
146
330
CE
100
AcDbEntity
  8
0
100
AcDbCircle
 10
0.9463079364730297
 20
-0.5156246422124085
 30
0.0
 40
0.0150000000000003
100
AcDbArc
 50
89.9960293899347
 51
180.0
  0
ARC
  5
147
330
CE
100
AcDbEntity
  8
0
100
AcDbCircle
 10
1.181307936473031
 20
-0.6566236026731041
 30
0.0
 40
0.0310000000000006
100
AcDbArc
 50
0.0000000000032832
 51
90.00000000000328
  0
ARC
  5
148
330
CE
100
AcDbEntity
  8
0
100
AcDbCircle
 10
1.180922595438314
 20
-0.4696409010236593
 30
0.0
 40
0.031
100
AcDbArc
 50
270.0
 51
0.0
  0
ARC
  5
149
330
CE
100
AcDbEntity
  8
0
100
AcDbCircle
 10
1.180822333653768
 20
-0.2507298243811586
 30
0.0
 40
0.0309999999999999
100
AcDbArc
 50
0.0
 51
88.56274524855521
  0
ENDBLK
  5
14A
330
CE
100
AcDbEntity
  8
0
100
AcDbBlockEnd
  0
BLOCK
  5
14B
330
D3
100
AcDbEntity
  8
0
100
AcDbBlockBegin
  2
*D1
 70
     1
 10
0.0
 20
0.0
 30
0.0
  3
*D1
  1

  0
LINE
  5
14C
330
D3
100
AcDbEntity
  8
0
  6
ByBlock
 62
     0
100
AcDbLine
 10
24.35356704897553
 20
-18.87843350556789
 30
0.0
 11
25.1721439125969
 21
-18.87843350556789
 31
0.0
  0
LINE
  5
14D
330
D3
100
AcDbEntity
  8
0
  6
ByBlock
 62
     0
100
AcDbLine
 10
25.71696137213111
 20
-16.36638772118338
 30
0.0
 11
24.8121439125969
 21
-16.36638772118338
 31
0.0
  0
LINE
  5
14E
330
D3
100
AcDbEntity
  8
0
  6
ByBlock
 62
     0
100
AcDbLine
 10
24.9921439125969
 20
-18.87843350556789
 30
0.0
 11
24.9921439125969
 21
-18.01824394670897
 31
0.0
  0
LINE
  5
14F
330
D3
100
AcDbEntity
  8
0
  6
ByBlock
 62
     0
100
AcDbLine
 10
24.9921439125969
 20
-16.36638772118338
 30
0.0
 11
24.9921439125969
 21
-17.22657728004231
 31
0.0
  0
LINE
  5
150
330
D3
100
AcDbEntity
  8
0
  6
ByBlock
 62
     0
100
AcDbLine
 10
25.1171439125969
 20
-19.00343350556789
 30
0.0
 11
24.8671439125969
 21
-18.75343350556789
 31
0.0
  0
LINE
  5
151
330
D3
100
AcDbEntity
  8
0
  6
ByBlock
 62
     0
100
AcDbLine
 10
25.1171439125969
 20
-16.49138772118338
 30
0.0
 11
24.8671439125969
 21
-16.24138772118338
 31
0.0
  0
TEXT
  5
152
330
D3
100
AcDbEntity
  8
0
  6
ByBlock
 62
     0
100
AcDbText
 10
25.0546439125969
 20
-17.89324394670897
 30
0.0
 40
0.125
  1
2 1/2
 50
90.0
 72
     1
 11
24.9921439125969
 21
-17.62241061337564
 31
0.0
100
AcDbText
 73
     2
  0
POINT
  5
154
330
D3
100
AcDbEntity
  8
DEFPOINTS
  6
ByBlock
 62
     0
100
AcDbPoint
 10
24.29106704897553
 20
-18.87843350556789
 30
0.0
  0
POINT
  5
155
330
D3
100
AcDbEntity
  8
DEFPOINTS
  6
ByBlock
 62
     0
100
AcDbPoint
 10
25.77946137213111
 20
-16.36638772118338
 30
0.0
  0
POINT
  5
156
330
D3
100
AcDbEntity
  8
DEFPOINTS
  6
ByBlock
 62
     0
100
AcDbPoint
 10
24.9921439125969
 20
-16.36638772118338
 30
0.0
  0
ENDBLK
  5
157
330
D3
100
AcDbEntity
  8
0
100
AcDbBlockEnd
  0
BLOCK
  5
158
330
D4
100
AcDbEntity
  8
0
100
AcDbBlockBegin
  2
*D2
 70
     1
 10
0.0
 20
0.0
 30
0.0
  3
*D2
  1

  0
LINE
  5
159
330
D4
100
AcDbEntity
  8
0
  6
ByBlock
 62
     0
100
AcDbLine
 10
23.76691671523693
 20
-14.16365499824595
 30
0.0
 11
25.77946137213111
 21
-16.36638772118339
 31
0.0
  0
LINE
  5
15A
330
D4
100
AcDbEntity
  8
0
  6
ByBlock
 62
     0
100
AcDbLine
 10
23.59031967802729
 20
-14.15568715984543
 30
0.0
 11
23.94351375244657
 21
-14.17162283664647
 31
0.0
  0
TEXT
  5
15B
330
D4
100
AcDbEntity
  8
0
  6
ByBlock
 62
     0
100
AcDbText
 10
25.81763475263313
 20
-16.50082745869075
 30
0.0
 40
0.125
  1
R3
 50
312.4166378140905
 72
     1
 11
25.93403813770614
 21
-16.5355721904927
 31
0.0
100
AcDbText
 73
     2
  0
POINT
  5
15C
330
D4
100
AcDbEntity
  8
DEFPOINTS
  6
ByBlock
 62
     0
100
AcDbPoint
 10
23.76691671523693
 20
-14.16365499824595
 30
0.0
  0
POINT
  5
15D
330
D4
100
AcDbEntity
  8
DEFPOINTS
  6
ByBlock
 62
     0
100
AcDbPoint
 10
25.79046710094636
 20
-16.37843350556789
 30
0.0
  0
ENDBLK
  5
15E
330
D4
100
AcDbEntity
  8
0
100
AcDbBlockEnd
  0
BLOCK
  5
15F
330
100
100
AcDbEntity
  8
0
100
AcDbBlockBegin
  2
*D3
 70
     1
 10
0.0
 20
0.0
 30
0.0
  3
*D3
  1

  0
LINE
  5
160
330
100
100
AcDbEntity
  8
0
  6
ByBlock
 62
     0
100
AcDbLine
 10
21.41900305394778
 20
-20.20635332796547
 30
0.0
 11
21.41900305394778
 21
-19.49238188753698
 31
0.0
  0
LINE
  5
161
330
100
100
AcDbEntity
  8
0
  6
ByBlock
 62
     0
100
AcDbLine
 10
24.16256435295241
 20
-20.20374737596185
 30
0.0
 11
24.16256435295241
 21
-19.49238188753698
 31
0.0
  0
LINE
  5
162
330
100
100
AcDbEntity
  8
0
  6
ByBlock
 62
     0
100
AcDbLine
 10
21.41900305394778
 20
-19.67238188753698
 30
0.0
 11
22.37411703678343
 21
-19.67238188753698
 31
0.0
  0
LINE
  5
163
330
100
100
AcDbEntity
  8
0
  6
ByBlock
 62
     0
100
AcDbLine
 10
24.16256435295241
 20
-19.67238188753698
 30
0.0
 11
23.20745037011676
 21
-19.67238188753698
 31
0.0
  0
LINE
  5
164
330
100
100
AcDbEntity
  8
0
  6
ByBlock
 62
     0
100
AcDbLine
 10
21.29400305394778
 20
-19.79738188753698
 30
0.0
 11
21.54400305394778
 21
-19.54738188753698
 31
0.0
  0
LINE
  5
165
330
100
100
AcDbEntity
  8
0
  6
ByBlock
 62
     0
100
AcDbLine
 10
24.03756435295241
 20
-19.79738188753698
 30
0.0
 11
24.28756435295241
 21
-19.54738188753698
 31
0.0
  0
TEXT
  5
166
330
100
100
AcDbEntity
  8
0
  6
ByBlock
 62
     0
100
AcDbText
 10
22.49911703678343
 20
-19.73488188753698
 30
0.0
 40
0.125
  1
2 3/4
 72
     1
 11
22.79078370345009
 21
-19.67238188753698
 31
0.0
100
AcDbText
 73
     2
  0
POINT
  5
167
330
100
100
AcDbEntity
  8
DEFPOINTS
  6
ByBlock
 62
     0
100
AcDbPoint
 10
21.41900305394778
 20
-20.26885332796547
 30
0.0
  0
POINT
  5
168
330
100
100
AcDbEntity
  8
DEFPOINTS
  6
ByBlock
 62
     0
100
AcDbPoint
 10
24.16256435295241
 20
-20.26624737596184
 30
0.0
  0
POINT
  5
169
330
100
100
AcDbEntity
  8
DEFPOINTS
  6
ByBlock
 62
     0
100
AcDbPoint
 10
24.16256435295241
 20
-19.67238188753698
 30
0.0
  0
ENDBLK
  5
16A
330
100
100
AcDbEntity
  8
0
100
AcDbBlockEnd
  0
BLOCK
  5
16B
330
101
100
AcDbEntity
  8
0
100
AcDbBlockBegin
  2
*D4
 70
     1
 10
0.0
 20
0.0
 30
0.0
  3
*D4
  1

  0
LINE
  5
16C
330
101
100
AcDbEntity
  8
0
  6
ByBlock
 62
     0
100
AcDbLine
 10
21.76297360954873
 20
-20.9978227324874
 30
0.0
 11
21.76297360954873
 21
-21.32749104947271
 31
0.0
  0
LINE
  5
16D
330
101
100
AcDbEntity
  8
0
  6
ByBlock
 62
     0
100
AcDbLine
 10
23.81546710094636
 20
-20.98526241152399
 30
0.0
 11
23.81546710094636
 21
-21.32749104947271
 31
0.0
  0
LINE
  5
16E
330
101
100
AcDbEntity
  8
0
  6
ByBlock
 62
     0
100
AcDbLine
 10
21.76297360954873
 20
-21.14749104947271
 30
0.0
 11
22.35172035524755
 21
-21.14749104947271
 31
0.0
  0
LINE
  5
16F
330
101
100
AcDbEntity
  8
0
  6
ByBlock
 62
     0
100
AcDbLine
 10
23.81546710094636
 20
-21.14749104947271
 30
0.0
 11
23.22672035524754
 21
-21.14749104947271
 31
0.0
  0
LINE
  5
170
330
101
100
AcDbEntity
  8
0
  6
ByBlock
 62
     0
100
AcDbLine
 10
21.63797360954873
 20
-21.27249104947271
 30
0.0
 11
21.88797360954873
 21
-21.02249104947271
 31
0.0
  0
LINE
  5
171
330
101
100
AcDbEntity
  8
0
  6
ByBlock
 62
     0
100
AcDbLine
 10
23.69046710094636
 20
-21.27249104947271
 30
0.0
 11
23.94046710094636
 21
-21.02249104947271
 31
0.0
  0
TEXT
  5
172
330
101
100
AcDbEntity
  8
0
  6
ByBlock
 62
     0
100
AcDbText
 10
22.47672035524754
 20
-21.20999104947271
 30
0.0
 40
0.125
  1
2 1/16
 72
     1
 11
22.78922035524754
 21
-21.14749104947271
 31
0.0
100
AcDbText
 73
     2
  0
POINT
  5
173
330
101
100
AcDbEntity
  8
DEFPOINTS
  6
ByBlock
 62
     0
100
AcDbPoint
 10
21.76297360954873
 20
-20.9353227324874
 30
0.0
  0
POINT
  5
174
330
101
100
AcDbEntity
  8
DEFPOINTS
  6
ByBlock
 62
     0
100
AcDbPoint
 10
23.81546710094636
 20
-20.92276241152399
 30
0.0
  0
POINT
  5
175
330
101
100
AcDbEntity
  8
DEFPOINTS
  6
ByBlock
 62
     0
100
AcDbPoint
 10
23.81546710094636
 20
-21.14749104947271
 30
0.0
  0
ENDBLK
  5
176
330
101
100
AcDbEntity
  8
0
100
AcDbBlockEnd
  0
BLOCK
  5
33F
330
335
100
AcDbEntity
  8
0
 62
     3
100
AcDbBlockBegin
  2
*D5
 70
     1
 10
0.0
 20
0.0
 30
0.0
  3
*D5
  1

  0
LINE
  5
353
330
335
100
AcDbEntity
  8
ADPDIM
 62
     0
370
    -2
100
AcDbLine
 10
22.63842391707829
 20
-20.43593475414317
 30
0.0
 11
22.63842391707829
 21
-20.78588217784657
 31
0.0
  0
LINE
  5
354
330
335
100
AcDbEntity
  8
ADPDIM
 62
     0
370
    -2
100
AcDbLine
 10
22.95092391707829
 20
-20.43593475414317
 30
0.0
 11
22.95092391707829
 21
-20.78588217784657
 31
0.0
  0
LINE
  5
355
330
335
100
AcDbEntity
  8
ADPDIM
 62
     0
370
    -2
100
AcDbLine
 10
22.63842391707829
 20
-20.60588217784657
 30
0.0
 11
22.95092391707829
 21
-20.60588217784657
 31
0.0
  0
MTEXT
  5
356
330
335
100
AcDbEntity
  8
ADPDIM
 62
     0
100
AcDbMText
 10
22.31273041701183
 20
-20.65702059906081
 30
0.0
 40
0.125
 41
0.0
 71
     5
 72
     1
  1
\A1;5/16
 73
     1
 44
1.0
1001
ACAD
1000
MTEXTBEGIN
1070
    73
1070
     1
1070
    44
1040
1.0
1070
    74
1070
     0
1000
MTEXTEND
  0
LINE
  5
357
330
335
100
AcDbEntity
  8
ADPDIM
 62
     0
370
    -2
100
AcDbLine
 10
22.82592391707829
 20
-20.73088217784658
 30
0.0
 11
23.07592391707829
 21
-20.48088217784657
 31
0.0
  0
LINE
  5
358
330
335
100
AcDbEntity
  8
ADPDIM
 62
     0
370
    -2
100
AcDbLine
 10
22.51342391707829
 20
-20.73088217784658
 30
0.0
 11
22.76342391707829
 21
-20.48088217784657
 31
0.0
  0
POINT
  5
359
330
335
100
AcDbEntity
  8
DEFPOINTS
 62
     0
100
AcDbPoint
 10
22.63842391707829
 20
-20.37343475414317
 30
0.0
  0
POINT
  5
35A
330
335
100
AcDbEntity
  8
DEFPOINTS
 62
     0
100
AcDbPoint
 10
22.95092391707829
 20
-20.37343475414317
 30
0.0
  0
POINT
  5
35B
330
335
100
AcDbEntity
  8
DEFPOINTS
 62
     0
100
AcDbPoint
 10
22.95092391707829
 20
-20.60588217784657
 30
0.0
  0
ENDBLK
  5
340
330
335
100
AcDbEntity
  8
0
 62
     3
100
AcDbBlockEnd
  0
ENDSEC
  0
SECTION
  2
ENTITIES
  0
ARC
  5
177
330
1E
100
AcDbEntity
  8
ADP3DETAIL
  6
CENTER2
100
AcDbCircle
 10
25.79046710094636
 20
-16.37843350556789
 30
0.0
 40
3.0
100
AcDbArc
 50
90.0
 51
180.0
  0
DIMENSION
  5
178
330
1E
100
AcDbEntity
  8
ADPDIM
100
AcDbDimension
  2
*D1
 10
24.9921439125969
 20
-16.36638772118338
 30
0.0
 11
24.9921439125969
 21
-17.62241061337564
 31
0.0
 71
     5
 42
-1.0
100
AcDbAlignedDimension
 13
24.29106704897553
 23
-18.87843350556789
 33
0.0
 14
25.77946137213111
 24
-16.36638772118338
 34
0.0
 50
90.0
100
AcDbRotatedDimension
  0
DIMENSION
  5
179
330
1E
100
AcDbEntity
  8
ADPDIM
100
AcDbDimension
  2
*D2
 10
25.79046710094636
 20
-16.37843350556789
 30
0.0
 11
25.93403813770614
 21
-16.5355721904927
 31
0.0
 70
     4
 71
     5
 42
-1.0
100
AcDbRadialDimension
 15
23.76691671523693
 25
-14.16365499824595
 35
0.0
 40
-2.983683536284084
  0
ARC
  5
17A
330
1E
100
AcDbEntity
  8
ADP1DETAIL
100
AcDbCircle
 10
25.79046710094636
 20
-16.37843350556789
 30
0.0
 40
4.374400051970833
100
AcDbArc
 50
90.0
 51
180.0
  0
ARC
  5
17B
330
1E
100
AcDbEntity
  8
ADP1DETAIL
100
AcDbCircle
 10
25.79046710094636
 20
-16.37843350556789
 30
0.0
 40
1.622369303251617
100
AcDbArc
 50
90.0
 51
180.0
  0
INSERT
  5
17C
330
1E
100
AcDbEntity
  8
ADP1DETAIL
100
AcDbBlockReference
  2
6987
 10
22.75915916447333
 20
-19.93713880885089
 30
0.0
  0
DIMENSION
  5
17D
330
1E
100
AcDbEntity
  8
ADPDIM
100
AcDbDimension
  2
*D3
 10
24.16256435295241
 20
-19.67238188753698
 30
0.0
 11
22.79078370345009
 21
-19.67238188753698
 31
0.0
 71
     5
 42
-1.0
100
AcDbAlignedDimension
 13
21.41900305394778
 23
-20.26885332796547
 33
0.0
 14
24.16256435295241
 24
-20.26624737596184
 34
0.0
100
AcDbRotatedDimension
  0
DIMENSION
  5
17E
330
1E
100
AcDbEntity
  8
ADPDIM
100
AcDbDimension
  2
*D4
 10
23.81546710094636
 20
-21.14749104947271
 30
0.0
 11
22.78922035524754
 21
-21.14749104947271
 31
0.0
 71
     5
 42
-1.0
100
AcDbAlignedDimension
 13
21.76297360954873
 23
-20.9353227324874
 33
0.0
 14
23.81546710094636
 24
-20.92276241152399
 34
0.0
100
AcDbRotatedDimension
  0
LINE
  5
17F
330
1E
100
AcDbEntity
  8
ADP1DETAIL
100
AcDbLine
 10
24.16606704897553
 20
-18.87843350556789
 30
0.0
 11
21.41606704897553
 21
-18.87843350556789
 31
0.0
  0
LINE
  5
180
330
1E
100
AcDbEntity
  8
ADP1DETAIL
100
AcDbLine
 10
21.41606704897553
 20
-18.87843350556789
 30
0.0
 11
21.41606704897553
 21
-16.37843350556789
 31
0.0
  0
LINE
  5
181
330
1E
100
AcDbEntity
  8
ADP3DETAIL
  6
CENTER2
100
AcDbLine
 10
22.79046710094636
 20
-16.37843350556789
 30
0.0
 11
22.79046710094636
 21
-19.25323190128106
 31
0.0
  0
LINE
  5
182
330
1E
100
AcDbEntity
  8
ADP1DETAIL
100
AcDbLine
 10
24.16606704897553
 20
-16.37843350556789
 30
0.0
 11
24.16606704897553
 21
-18.87843350556789
 31
0.0
  0
LINE
  5
183
330
1E
100
AcDbEntity
  8
ADP3DETAIL
  6
CENTER2
100
AcDbLine
 10
29.54756546496032
 20
-13.37843350556789
 30
0.0
 11
25.79046710094636
 21
-13.37843350556789
 31
0.0
  0
LINE
  5
184
330
1E
100
AcDbEntity
  8
ADP1DETAIL
100
AcDbLine
 10
28.29046710094636
 20
-14.75403345359706
 30
0.0
 11
25.79046710094636
 21
-14.75403345359706
 31
0.0
  0
LINE
  5
185
330
1E
100
AcDbEntity
  8
ADP1DETAIL
100
AcDbLine
 10
25.79046710094636
 20
-12.00403345359706
 30
0.0
 11
28.29046710094636
 21
-12.00403345359706
 31
0.0
  0
LINE
  5
186
330
1E
100
AcDbEntity
  8
ADP1DETAIL
100
AcDbLine
 10
28.29046710094636
 20
-12.00403345359706
 30
0.0
 11
28.29046710094636
 21
-14.75403345359706
 31
0.0
  0
TEXT
  5
18A
330
1E
100
AcDbEntity
  8
ADPDIM
100
AcDbText
 10
15.41421126132866
 20
-21.92199800320423
 30
0.0
 40
0.1875
  1
J U L I U S  B L U M  &  C O . ,  I N C .      ( 8 0 0 )  5 2 6 - 6 2 9 3        W W W . J U L I U S B L U M . C O M        P A R T  N o .  6 9 8 7 - C
 41
1.25
  7
ARIAL_WIDE
 72
     1
 11
25.46651664161516
 21
-21.73449800320423
 31
0.0
100
AcDbText
 73
     3
  0
DIMENSION
  5
334
330
1E
100
AcDbEntity
  8
ADPDIM
 62
     3
100
AcDbDimension
  2
*D5
 10
22.95092391707829
 20
-20.60588217784657
 30
0.0
 11
22.31273041701183
 21
-20.65702059906081
 31
0.0
 70
   160
 71
     5
 42
0.3125
  3
Standard
100
AcDbAlignedDimension
 13
22.63842391707829
 23
-20.37343475414317
 33
0.0
 14
22.95092391707829
 24
-20.37343475414317
 34
0.0
100
AcDbRotatedDimension
1001
ACAD
1000
DSTYLE
1002
{
1070
   276
1070
     2
1070
    41
1040
0.125
1070
    73
1070
     0
1070
    74
1070
     0
1070
    78
1070
     3
1070
   140
1040
0.125
1070
   141
1040
0.1875
1070
   142
1040
0.125
1070
   147
1040
0.125
1070
   171
1070
     1
1070
   273
1070
     5
1070
   274
1070
     1
1070
   277
1070
     5
1070
   279
1070
     2
1070
   284
1070
     3
1070
   285
1070
     3
1070
   286
1070
     3
1002
}
  0
ENDSEC
  0
SECTION
  2
OBJECTS
  0
DICTIONARY
  5
C
330
0
100
AcDbDictionary
281
     1
  3
ACAD_COLOR
350
32E
  3
ACAD_GROUP
350
D
  3
ACAD_LAYOUT
350
19
  3
ACAD_MATERIAL
350
319
  3
ACAD_MLINESTYLE
350
16
  3
ACAD_PLOTSETTINGS
350
18
  3
ACAD_PLOTSTYLENAME
350
E
  3
ACAD_TABLESTYLE
350
32F
  3
ACAD_VISUALSTYLE
350
31D
  3
AcDbVariableDictionary
350
1FB
  3
DWGPROPS
350
37B
  0
DICTIONARY
  5
1C6
330
1E
100
AcDbDictionary
280
     1
281
     1
  3
ACAD_LAYOUTSELFREF
360
315
  0
DICTIONARY
  5
1C8
330
1A
100
AcDbDictionary
280
     1
281
     1
  3
ACAD_LAYOUTSELFREF
360
314
  0
DICTIONARY
  5
32E
102
{ACAD_REACTORS
330
C
102
}
330
C
100
AcDbDictionary
281
     1
  0
DICTIONARY
  5
D
102
{ACAD_REACTORS
330
C
102
}
330
C
100
AcDbDictionary
281
     1
  0
DICTIONARY
  5
19
102
{ACAD_REACTORS
330
C
102
}
330
C
100
AcDbDictionary
281
     1
  3
Layout1
350
1D
  3
Model
350
21
  0
DICTIONARY
  5
319
102
{ACAD_REACTORS
330
C
102
}
330
C
100
AcDbDictionary
281
     1
  3
ByBlock
350
31B
  3
ByLayer
350
31A
  3
Global
350
31C
  0
DICTIONARY
  5
16
102
{ACAD_REACTORS
330
C
102
}
330
C
100
AcDbDictionary
281
     1
  3
Standard
350
17
  0
DICTIONARY
  5
18
102
{ACAD_REACTORS
330
C
102
}
330
C
100
AcDbDictionary
281
     1
  0
ACDBDICTIONARYWDFLT
  5
E
102
{ACAD_REACTORS
330
C
102
}
330
C
100
AcDbDictionary
281
     1
  3
Normal
350
F
100
AcDbDictionaryWithDefault
340
F
  0
DICTIONARY
  5
32F
102
{ACAD_REACTORS
330
C
102
}
330
C
100
AcDbDictionary
281
     1
  3
Standard
350
330
  0
DICTIONARY
  5
31D
102
{ACAD_REACTORS
330
C
102
}
330
C
100
AcDbDictionary
281
     1
  3
2dWireframe
350
323
  3
3D Hidden
350
325
  3
3dWireframe
350
324
  3
Basic
350
322
  3
Brighten
350
329
  3
ColorChange
350
32D
  3
Conceptual
350
326
  3
Dim
350
328
  3
Facepattern
350
32C
  3
Flat
350
31E
  3
FlatWithEdges
350
31F
  3
Gouraud
350
320
  3
GouraudWithEdges
350
321
  3
Linepattern
350
32B
  3
Realistic
350
327
  3
Thicken
350
32A
  0
DICTIONARY
  5
1FB
102
{ACAD_REACTORS
330
C
102
}
330
C
100
AcDbDictionary
281
     1
  3
CTABLESTYLE
350
378
  3
DIMASSOC
350
1FD
  3
HIDETEXT
350
1FC
  3
INDEXCTL
350
37A
  3
SORTENTS
350
379
  0
XRECORD
  5
37B
102
{ACAD_REACTORS
330
C
102
}
330
C
100
AcDbXrecord
280
     1
  1
DWGPROPS COOKIE
  2

  3

  4

  6

  7

  8
Yu Hu
  9

300
=
301
=
302
=
303
=
304
=
305
=
306
=
307
=
308
=
309
=
 40
0.0065106828703704
 41
2450399.686484375
 42
2453961.634181331
  1

 90
        0
  0
XRECORD
  5
315
102
{ACAD_REACTORS
330
1C6
102
}
330
1C6
100
AcDbXrecord
280
     1
340
1E
  0
XRECORD
  5
314
102
{ACAD_REACTORS
330
1C8
102
}
330
1C8
100
AcDbXrecord
280
     1
340
1A
  0
LAYOUT
  5
1D
102
{ACAD_XDICTIONARY
360
37C
102
}
102
{ACAD_REACTORS
330
19
102
}
330
19
100
AcDbPlotSettings
  1

  2
Fax
  4

  6

 40
0.0
 41
0.0
 42
0.0
 43
0.0
 44
0.0
 45
0.0
 46
0.0
 47
0.0
 48
0.0
 49
0.0
140
0.0
141
0.0
142
1.0
143
1.0
 70
   688
 72
     0
 73
     0
 74
     5
  7
Default R14 pen assignments.ctb
 75
    16
147
1.0
148
0.0
149
0.0
100
AcDbLayout
  1
Layout1
 70
     1
 71
     1
 10
0.0
 20
0.0
 11
12.0
 21
9.0
 12
0.0004882914945483
 22
0.7501408034022604
 32
0.0
 14
1.000000000000000E+20
 24
1.000000000000000E+20
 34
1.000000000000000E+20
 15
-1.000000000000000E+20
 25
-1.000000000000000E+20
 35
-1.000000000000000E+20
146
0.0
 13
0.0
 23
0.0
 33
0.0
 16
1.0
 26
0.0
 36
0.0
 17
0.0
 27
1.0
 37
0.0
 76
     0
330
1A
  0
LAYOUT
  5
21
102
{ACAD_XDICTIONARY
360
37E
102
}
102
{ACAD_REACTORS
330
19
102
}
330
19
100
AcDbPlotSettings
  1

  2
Fax
  4

  6

 40
0.0
 41
0.0
 42
0.0
 43
0.0
 44
0.0
 45
0.0
 46
0.0
 47
0.0
 48
0.0
 49
0.0
140
0.0
141
0.0
142
1.0
143
1.0
 70
  1712
 72
     0
 73
     0
 74
     0
  7
Default R14 pen assignments.ctb
 75
     0
147
1.0
148
0.0
149
0.0
100
AcDbLayout
  1
Model
 70
     1
 71
     0
 10
0.0
 20
0.0
 11
12.0
 21
9.0
 12
0.0
 22
0.0
 32
0.0
 14
0.0
 24
0.0
 34
0.0
 15
0.0
 25
0.0
 35
0.0
146
0.0
 13
0.0
 23
0.0
 33
0.0
 16
1.0
 26
0.0
 36
0.0
 17
0.0
 27
1.0
 37
0.0
 76
     0
330
1E
331
2E2
  0
MATERIAL
  5
31B
102
{ACAD_XDICTIONARY
360
382
102
}
102
{ACAD_REACTORS
330
319
102
}
330
319
100
AcDbMaterial
  1
ByBlock
  0
MATERIAL
  5
31A
102
{ACAD_XDICTIONARY
360
380
102
}
102
{ACAD_REACTORS
330
319
102
}
330
319
100
AcDbMaterial
  1
ByLayer
  0
MATERIAL
  5
31C
102
{ACAD_XDICTIONARY
360
384
102
}
102
{ACAD_REACTORS
330
319
102
}
330
319
100
AcDbMaterial
  1
Global
  0
MLINESTYLE
  5
17
102
{ACAD_REACTORS
330
16
102
}
330
16
100
AcDbMlineStyle
  2
STANDARD
 70
     0
  3

 62
   256
 51
90.0
 52
90.0
 71
     2
 49
0.5
 62
   256
  6
BYLAYER
 49
-0.5
 62
   256
  6
BYLAYER
  0
ACDBPLACEHOLDER
  5
F
102
{ACAD_REACTORS
330
E
102
}
330
E
  0
TABLESTYLE
  5
330
102
{ACAD_XDICTIONARY
360
386
102
}
102
{ACAD_REACTORS
330
32F
102
}
330
32F
100
AcDbTableStyle
  3
Standard
 70
     0
 71
     0
 40
0.06
 41
0.06
280
     0
281
     0
  7
STANDARD
140
0.18
170
     2
 62
     0
 63
     7
283
     0
274
    -2
284
     1
 64
     0
275
    -2
285
     1
 65
     0
276
    -2
286
     1
 66
     0
277
    -2
287
     1
 67
     0
278
    -2
288
     1
 68
     0
279
    -2
289
     1
 69
     0
  7
STANDARD
140
0.25
170
     5
 62
     0
 63
     7
283
     0
274
    -2
284
     1
 64
     0
275
    -2
285
     1
 65
     0
276
    -2
286
     1
 66
     0
277
    -2
287
     1
 67
     0
278
    -2
288
     1
 68
     0
279
    -2
289
     1
 69
     0
  7
STANDARD
140
0.18
170
     5
 62
     0
 63
     7
283
     0
274
    -2
284
     1
 64
     0
275
    -2
285
     1
 65
     0
276
    -2
286
     1
 66
     0
277
    -2
287
     1
 67
     0
278
    -2
288
     1
 68
     0
279
    -2
289
     1
 69
     0
  0
VISUALSTYLE
  5
323
102
{ACAD_REACTORS
330
31D
102
}
330
31D
100
AcDbVisualStyle
  2
2dWireframe
 70
     4
 71
     0
 72
     2
 73
     0
 90
        0
 40
-0.6
 41
-30.0
 62
     5
 63
     7
 74
     1
 91
        4
 64
     7
 65
   257
 75
     1
175
     1
 42
1.0
 92
        0
 66
   257
 43
1.0
 76
     1
 77
     6
 78
     2
 67
     7
 79
     5
170
     0
171
     0
290
     0
174
     0
 93
        1
 44
0.0
173
     0
291
     0
 45
0.0
1001
ACAD
1000
AcDbSavedByObjectVersion
1070
     0
  0
VISUALSTYLE
  5
325
102
{ACAD_REACTORS
330
31D
102
}
330
31D
100
AcDbVisualStyle
  2
3D Hidden
 70
     6
 71
     1
 72
     2
 73
     2
 90
        0
 40
-0.6
 41
-30.0
 62
     5
 63
     7
 74
     2
 91
        2
 64
     7
 65
   257
 75
     2
175
     1
 42
40.0
 92
        0
 66
   257
 43
1.0
 76
     1
 77
     6
 78
     2
 67
     7
 79
     3
170
     0
171
     0
290
     0
174
     0
 93
        1
 44
0.0
173
     0
291
     0
 45
0.0
1001
ACAD
1000
AcDbSavedByObjectVersion
1070
     0
  0
VISUALSTYLE
  5
324
102
{ACAD_REACTORS
330
31D
102
}
330
31D
100
AcDbVisualStyle
  2
3dWireframe
 70
     5
 71
     0
 72
     2
 73
     0
 90
        0
 40
-0.6
 41
-30.0
 62
     5
 63
     7
 74
     1
 91
        4
 64
     7
 65
   257
 75
     1
175
     1
 42
1.0
 92
        0
 66
   257
 43
1.0
 76
     1
 77
     6
 78
     2
 67
     7
 79
     5
170
     0
171
     0
290
     0
174
     0
 93
        1
 44
0.0
173
     0
291
     0
 45
0.0
1001
ACAD
1000
AcDbSavedByObjectVersion
1070
     0
  0
VISUALSTYLE
  5
322
102
{ACAD_REACTORS
330
31D
102
}
330
31D
100
AcDbVisualStyle
  2
Basic
 70
     7
 71
     1
 72
     0
 73
     1
 90
        0
 40
-0.6
 41
-30.0
 62
     5
 63
     7
 74
     0
 91
        4
 64
     7
 65
   257
 75
     1
175
     1
 42
1.0
 92
        8
 66
     7
 43
1.0
 76
     1
 77
     6
 78
     2
 67
     7
 79
     5
170
     0
171
     0
290
     0
174
     0
 93
        1
 44
0.0
173
     0
291
     1
 45
0.0
1001
ACAD
1000
AcDbSavedByObjectVersion
1070
     0
  0
VISUALSTYLE
  5
329
102
{ACAD_REACTORS
330
31D
102
}
330
31D
100
AcDbVisualStyle
  2
Brighten
 70
    12
 71
     2
 72
     2
 73
     0
 90
        0
 40
-0.6
 41
-30.0
 62
     5
 63
     7
 74
     1
 91
        4
 64
     7
 65
   257
 75
     1
175
     1
 42
1.0
 92
        8
 66
     7
 43
1.0
 76
     1
 77
     6
 78
     2
 67
     7
 79
     5
170
     0
171
     0
290
     0
174
     0
 93
        1
 44
50.0
173
     0
291
     1
 45
0.0
1001
ACAD
1000
AcDbSavedByObjectVersion
1070
     0
  0
VISUALSTYLE
  5
32D
102
{ACAD_REACTORS
330
31D
102
}
330
31D
100
AcDbVisualStyle
  2
ColorChange
 70
    16
 71
     2
 72
     2
 73
     3
 90
        0
 40
-0.6
 41
-30.0
 62
     5
 63
     8
 74
     1
 91
        4
 64
     7
 65
   257
 75
     1
175
     1
 42
1.0
 92
        8
 66
     8
 43
1.0
 76
     1
 77
     6
 78
     2
 67
     7
 79
     5
170
     0
171
     0
290
     0
174
     0
 93
        1
 44
0.0
173
     0
291
     1
 45
0.0
1001
ACAD
1000
AcDbSavedByObjectVersion
1070
     0
  0
VISUALSTYLE
  5
326
102
{ACAD_REACTORS
330
31D
102
}
330
31D
100
AcDbVisualStyle
  2
Conceptual
 70
     9
 71
     3
 72
     2
 73
     0
 90
        0
 40
-0.6
 41
-30.0
 62
     5
 63
     7
 74
     2
 91
        2
 64
     7
 65
   257
 75
     1
175
     1
 42
40.0
 92
        8
 66
     7
 43
1.0
 76
     1
 77
     6
 78
     2
 67
     7
 79
     3
170
     0
171
     0
290
     0
174
     0
 93
        1
 44
0.0
173
     0
291
     0
 45
0.0
1001
ACAD
1000
AcDbSavedByObjectVersion
1070
     0
  0
VISUALSTYLE
  5
328
102
{ACAD_REACTORS
330
31D
102
}
330
31D
100
AcDbVisualStyle
  2
Dim
 70
    11
 71
     2
 72
     2
 73
     0
 90
        0
 40
-0.6
 41
-30.0
 62
     5
 63
     7
 74
     1
 91
        4
 64
     7
 65
   257
 75
     1
175
     1
 42
1.0
 92
        8
 66
     7
 43
1.0
 76
     1
 77
     6
 78
     2
 67
     7
 79
     5
170
     0
171
     0
290
     0
174
     0
 93
        1
 44
-50.0
173
     0
291
     1
 45
0.0
1001
ACAD
1000
AcDbSavedByObjectVersion
1070
     0
  0
VISUALSTYLE
  5
32C
102
{ACAD_REACTORS
330
31D
102
}
330
31D
100
AcDbVisualStyle
  2
Facepattern
 70
    15
 71
     2
 72
     2
 73
     0
 90
        0
 40
-0.6
 41
-30.0
 62
     5
 63
     7
 74
     1
 91
        4
 64
     7
 65
   257
 75
     1
175
     1
 42
1.0
 92
        8
 66
     7
 43
1.0
 76
     1
 77
     6
 78
     2
 67
     7
 79
     5
170
     0
171
     0
290
     0
174
     0
 93
        1
 44
0.0
173
     0
291
     1
 45
0.0
1001
ACAD
1000
AcDbSavedByObjectVersion
1070
     0
  0
VISUALSTYLE
  5
31E
102
{ACAD_REACTORS
330
31D
102
}
330
31D
100
AcDbVisualStyle
  2
Flat
 70
     0
 71
     2
 72
     1
 73
     1
 90
        2
 40
-0.6
 41
30.0
 62
     5
 63
     7
 74
     0
 91
        4
 64
     7
 65
   257
 75
     1
175
     1
 42
1.0
 92
        8
 66
     7
 43
1.0
 76
     1
 77
     6
 78
     2
 67
     7
 79
     5
170
     0
171
     0
290
     0
174
     0
 93
       13
 44
0.0
173
     0
291
     1
 45
0.0
1001
ACAD
1000
AcDbSavedByObjectVersion
1070
     0
  0
VISUALSTYLE
  5
31F
102
{ACAD_REACTORS
330
31D
102
}
330
31D
100
AcDbVisualStyle
  2
FlatWithEdges
 70
     1
 71
     2
 72
     1
 73
     1
 90
        2
 40
-0.6
 41
30.0
 62
     5
 63
     7
 74
     1
 91
        4
 64
     7
 65
   257
 75
     1
175
     1
 42
1.0
 92
        0
 66
   257
 43
1.0
 76
     1
 77
     6
 78
     2
 67
     7
 79
     5
170
     0
171
     0
290
     0
174
     0
 93
       13
 44
0.0
173
     0
291
     1
 45
0.0
1001
ACAD
1000
AcDbSavedByObjectVersion
1070
     0
  0
VISUALSTYLE
  5
320
102
{ACAD_REACTORS
330
31D
102
}
330
31D
100
AcDbVisualStyle
  2
Gouraud
 70
     2
 71
     2
 72
     2
 73
     1
 90
        2
 40
-0.6
 41
30.0
 62
     5
 63
     7
 74
     0
 91
        4
 64
     7
 65
   257
 75
     1
175
     1
 42
1.0
 92
        0
 66
     7
 43
1.0
 76
     1
 77
     6
 78
     2
 67
     7
 79
     5
170
     0
171
     0
290
     0
174
     0
 93
       13
 44
0.0
173
     0
291
     1
 45
0.0
1001
ACAD
1000
AcDbSavedByObjectVersion
1070
     0
  0
VISUALSTYLE
  5
321
102
{ACAD_REACTORS
330
31D
102
}
330
31D
100
AcDbVisualStyle
  2
GouraudWithEdges
 70
     3
 71
     2
 72
     2
 73
     1
 90
        2
 40
-0.6
 41
30.0
 62
     5
 63
     7
 74
     1
 91
        4
 64
     7
 65
   257
 75
     1
175
     1
 42
1.0
 92
        0
 66
   257
 43
1.0
 76
     1
 77
     6
 78
     2
 67
     7
 79
     5
170
     0
171
     0
290
     0
174
     0
 93
       13
 44
0.0
173
     0
291
     1
 45
0.0
1001
ACAD
1000
AcDbSavedByObjectVersion
1070
     0
  0
VISUALSTYLE
  5
32B
102
{ACAD_REACTORS
330
31D
102
}
330
31D
100
AcDbVisualStyle
  2
Linepattern
 70
    14
 71
     2
 72
     2
 73
     0
 90
        0
 40
-0.6
 41
-30.0
 62
     5
 63
     7
 74
     1
 91
        4
 64
     7
 65
   257
 75
     7
175
     7
 42
1.0
 92
        8
 66
     7
 43
1.0
 76
     1
 77
     6
 78
     2
 67
     7
 79
     5
170
     0
171
     0
290
     0
174
     0
 93
        1
 44
0.0
173
     0
291
     1
 45
0.0
1001
ACAD
1000
AcDbSavedByObjectVersion
1070
     0
  0
VISUALSTYLE
  5
327
102
{ACAD_REACTORS
330
31D
102
}
330
31D
100
AcDbVisualStyle
  2
Realistic
 70
     8
 71
     2
 72
     2
 73
     0
 90
        0
 40
-0.6
 41
-30.0
 62
     5
 63
     7
 74
     1
 91
        0
 64
     7
 65
   257
 75
     1
175
     1
 42
1.0
 92
        8
 66
     8
 43
1.0
 76
     1
 77
     6
 78
     2
 67
     7
 79
     5
170
     0
171
     0
290
     0
174
     0
 93
       13
 44
0.0
173
     0
291
     0
 45
0.0
1001
ACAD
1000
AcDbSavedByObjectVersion
1070
     0
  0
VISUALSTYLE
  5
32A
102
{ACAD_REACTORS
330
31D
102
}
330
31D
100
AcDbVisualStyle
  2
Thicken
 70
    13
 71
     2
 72
     2
 73
     0
 90
        0
 40
-0.6
 41
-30.0
 62
     5
 63
     7
 74
     1
 91
        4
 64
     7
 65
   257
 75
     1
175
     1
 42
1.0
 92
       12
 66
     7
 43
1.0
 76
     1
 77
     6
 78
     2
 67
     7
 79
     5
170
     0
171
     0
290
     0
174
     0
 93
        1
 44
0.0
173
     0
291
     1
 45
0.0
1001
ACAD
1000
AcDbSavedByObjectVersion
1070
     0
  0
DICTIONARYVAR
  5
378
102
{ACAD_REACTORS
330
1FB
102
}
330
1FB
100
DictionaryVariables
280
     0
  1
STANDARD
  0
DICTIONARYVAR
  5
1FD
102
{ACAD_REACTORS
330
1FB
102
}
330
1FB
100
DictionaryVariables
280
     0
  1
2
  0
DICTIONARYVAR
  5
1FC
102
{ACAD_REACTORS
330
1FB
102
}
330
1FB
100
DictionaryVariables
280
     0
  1
1
  0
DICTIONARYVAR
  5
37A
102
{ACAD_REACTORS
330
1FB
102
}
330
1FB
100
DictionaryVariables
280
     0
  1
0
  0
DICTIONARYVAR
  5
379
102
{ACAD_REACTORS
330
1FB
102
}
330
1FB
100
DictionaryVariables
280
     0
  1
127
  0
DICTIONARY
  5
37C
330
1D
100
AcDbDictionary
280
     1
281
     1
  3
ACAD_XREC_ROUNDTRIP
360
37D
  0
DICTIONARY
  5
37E
330
21
100
AcDbDictionary
280
     1
281
     1
  3
ACAD_XREC_ROUNDTRIP
360
37F
  0
DICTIONARY
  5
382
330
31B
100
AcDbDictionary
280
     1
281
     1
  3
ACAD_XREC_ROUNDTRIP
360
383
  0
DICTIONARY
  5
380
330
31A
100
AcDbDictionary
280
     1
281
     1
  3
ACAD_XREC_ROUNDTRIP
360
381
  0
DICTIONARY
  5
384
330
31C
100
AcDbDictionary
280
     1
281
     1
  3
ACAD_XREC_ROUNDTRIP
360
385
  0
DICTIONARY
  5
386
330
330
100
AcDbDictionary
280
     1
281
     1
  3
ACAD_XREC_ROUNDTRIP
360
387
  0
XRECORD
  5
37D
102
{ACAD_REACTORS
330
37C
102
}
330
37C
100
AcDbXrecord
280
     1
102
SHADEPLOT
 70
     0
102
SHADEPLOTRESLEVEL
 70
     2
102
SHADEPLOTCUSTOMDPI
 70
   300
  0
XRECORD
  5
37F
102
{ACAD_REACTORS
330
37E
102
}
330
37E
100
AcDbXrecord
280
     1
102
SHADEPLOT
 70
     0
102
SHADEPLOTRESLEVEL
 70
     2
102
SHADEPLOTCUSTOMDPI
 70
   300
  0
XRECORD
  5
383
102
{ACAD_REACTORS
330
382
102
}
330
382
100
AcDbXrecord
280
     1
102
MATERIAL
148
0.0
149
0.0
149
0.0
 93
        0
 94
       63
282
     0
 72
     1
 77
     1
171
     1
175
     1
179
     1
273
     0
  0
XRECORD
  5
381
102
{ACAD_REACTORS
330
380
102
}
330
380
100
AcDbXrecord
280
     1
102
MATERIAL
148
0.0
149
0.0
149
0.0
 93
        0
 94
       63
282
     0
 72
     1
 77
     1
171
     1
175
     1
179
     1
273
     0
  0
XRECORD
  5
385
102
{ACAD_REACTORS
330
384
102
}
330
384
100
AcDbXrecord
280
     1
102
MATERIAL
148
0.0
149
0.0
149
0.0
 93
        0
 94
       63
282
     0
 72
     1
 77
     1
171
     1
175
     1
179
     1
273
     0
  0
XRECORD
  5
387
102
{ACAD_REACTORS
330
386
102
}
330
386
100
AcDbXrecord
280
     1
102
ACAD_ROUNDTRIP_PRE2007_TABLESTYLE
 90
      512
 91
        0
  1

 92
      512
 93
        0
  2

 94
      512
 95
        0
  3

  0
ENDSEC
  0
EOF
