  0
SECTION
  2
HEADER
  9
$ACADVER
  1
AC1015
  9
$ACADMAINTVER
 70
    20
  9
$DWGCODEPAGE
  3
ANSI_1252
  9
$INSBASE
 10
23.99451954555942
 20
-20.93264131191777
 30
0.0
  9
$EXTMIN
 10
16.26509491182988
 20
-21.84079376030949
 30
0.0
  9
$EXTMAX
 10
29.31655296094311
 20
-19.49238188753698
 30
0.0
  9
$LIMMIN
 10
0.0
 20
0.0
  9
$LIMMAX
 10
36.0
 20
36.0
  9
$ORTHOMODE
 70
     1
  9
$REGENMODE
 70
     1
  9
$FILLMODE
 70
     1
  9
$QTEXTMODE
 70
     0
  9
$MIRRTEXT
 70
     1
  9
$LTSCALE
 40
1.0
  9
$ATTMODE
 70
     1
  9
$TEXTSIZE
 40
0.2
  9
$TRACEWID
 40
0.05
  9
$TEXTSTYLE
  7
STANDARD
  9
$CLAYER
  8
0
  9
$CELTYPE
  6
ByLayer
  9
$CECOLOR
 62
   256
  9
$CELTSCALE
 40
1.0
  9
$DISPSILH
 70
     0
  9
$DIMSCALE
 40
1.0
  9
$DIMASZ
 40
0.125
  9
$DIMEXO
 40
0.0625
  9
$DIMDLI
 40
0.38
  9
$DIMRND
 40
0.0
  9
$DIMDLE
 40
0.0
  9
$DIMEXE
 40
0.18
  9
$DIMTP
 40
0.0
  9
$DIMTM
 40
0.0
  9
$DIMTXT
 40
0.125
  9
$DIMCEN
 40
0.1875
  9
$DIMTSZ
 40
0.125
  9
$DIMTOL
 70
     0
  9
$DIMLIM
 70
     0
  9
$DIMTIH
 70
     0
  9
$DIMTOH
 70
     0
  9
$DIMSE1
 70
     0
  9
$DIMSE2
 70
     0
  9
$DIMTAD
 70
     0
  9
$DIMZIN
 70
     3
  9
$DIMBLK
  1

  9
$DIMASO
 70
     1
  9
$DIMSHO
 70
     1
  9
$DIMPOST
  1

  9
$DIMAPOST
  1

  9
$DIMALT
 70
     0
  9
$DIMALTD
 70
     1
  9
$DIMALTF
 40
25.4
  9
$DIMLFAC
 40
1.0
  9
$DIMTOFL
 70
     0
  9
$DIMTVP
 40
0.0
  9
$DIMTIX
 70
     0
  9
$DIMSOXD
 70
     0
  9
$DIMSAH
 70
     0
  9
$DIMBLK1
  1

  9
$DIMBLK2
  1

  9
$DIMSTYLE
  2
Standard
  9
$DIMCLRD
 70
     0
  9
$DIMCLRE
 70
     0
  9
$DIMCLRT
 70
     0
  9
$DIMTFAC
 40
1.0
  9
$DIMGAP
 40
0.125
  9
$DIMJUST
 70
     0
  9
$DIMSD1
 70
     0
  9
$DIMSD2
 70
     0
  9
$DIMTOLJ
 70
     1
  9
$DIMTZIN
 70
     3
  9
$DIMALTZ
 70
     3
  9
$DIMALTTZ
 70
     3
  9
$DIMUPT
 70
     0
  9
$DIMDEC
 70
     4
  9
$DIMTDEC
 70
     4
  9
$DIMALTU
 70
     5
  9
$DIMALTTD
 70
     1
  9
$DIMTXSTY
  7
STANDARD
  9
$DIMAUNIT
 70
     0
  9
$DIMADEC
 70
     0
  9
$DIMALTRND
 40
0.0
  9
$DIMAZIN
 70
     0
  9
$DIMDSEP
 70
    46
  9
$DIMATFIT
 70
     3
  9
$DIMFRAC
 70
     0
  9
$DIMLDRBLK
  1

  9
$DIMLUNIT
 70
     5
  9
$DIMLWD
 70
    -2
  9
$DIMLWE
 70
    -2
  9
$DIMTMOVE
 70
     2
  9
$LUNITS
 70
     5
  9
$LUPREC
 70
     4
  9
$SKETCHINC
 40
0.1
  9
$FILLETRAD
 40
0.187
  9
$AUNITS
 70
     0
  9
$AUPREC
 70
     0
  9
$MENU
  1
acad
  9
$ELEVATION
 40
0.0
  9
$PELEVATION
 40
0.0
  9
$THICKNESS
 40
0.0
  9
$LIMCHECK
 70
     0
  9
$CHAMFERA
 40
0.0
  9
$CHAMFERB
 40
0.0
  9
$CHAMFERC
 40
0.0
  9
$CHAMFERD
 40
0.0
  9
$SKPOLY
 70
     0
  9
$TDCREATE
 40
2450399.686182674
  9
$TDUCREATE
 40
2450399.852849340
  9
$TDUPDATE
 40
2453961.632528496
  9
$TDUUPDATE
 40
2453961.799195162
  9
$TDINDWG
 40
0.0065009259
  9
$TDUSRTIMER
 40
0.0065009259
  9
$USRTIMER
 70
     1
  9
$ANGBASE
 50
0.0
  9
$ANGDIR
 70
     0
  9
$PDMODE
 70
     0
  9
$PDSIZE
 40
0.0
  9
$PLINEWID
 40
0.0
  9
$SPLFRAME
 70
     0
  9
$SPLINETYPE
 70
     6
  9
$SPLINESEGS
 70
     8
  9
$HANDSEED
  5
348
  9
$SURFTAB1
 70
     6
  9
$SURFTAB2
 70
     6
  9
$SURFTYPE
 70
     6
  9
$SURFU
 70
     6
  9
$SURFV
 70
     6
  9
$UCSBASE
  2

  9
$UCSNAME
  2

  9
$UCSORG
 10
0.0
 20
0.0
 30
0.0
  9
$UCSXDIR
 10
1.0
 20
0.0
 30
0.0
  9
$UCSYDIR
 10
0.0
 20
1.0
 30
0.0
  9
$UCSORTHOREF
  2

  9
$UCSORTHOVIEW
 70
     0
  9
$UCSORGTOP
 10
0.0
 20
0.0
 30
0.0
  9
$UCSORGBOTTOM
 10
0.0
 20
0.0
 30
0.0
  9
$UCSORGLEFT
 10
0.0
 20
0.0
 30
0.0
  9
$UCSORGRIGHT
 10
0.0
 20
0.0
 30
0.0
  9
$UCSORGFRONT
 10
0.0
 20
0.0
 30
0.0
  9
$UCSORGBACK
 10
0.0
 20
0.0
 30
0.0
  9
$PUCSBASE
  2

  9
$PUCSNAME
  2

  9
$PUCSORG
 10
0.0
 20
0.0
 30
0.0
  9
$PUCSXDIR
 10
1.0
 20
0.0
 30
0.0
  9
$PUCSYDIR
 10
0.0
 20
1.0
 30
0.0
  9
$PUCSORTHOREF
  2

  9
$PUCSORTHOVIEW
 70
     0
  9
$PUCSORGTOP
 10
0.0
 20
0.0
 30
0.0
  9
$PUCSORGBOTTOM
 10
0.0
 20
0.0
 30
0.0
  9
$PUCSORGLEFT
 10
0.0
 20
0.0
 30
0.0
  9
$PUCSORGRIGHT
 10
0.0
 20
0.0
 30
0.0
  9
$PUCSORGFRONT
 10
0.0
 20
0.0
 30
0.0
  9
$PUCSORGBACK
 10
0.0
 20
0.0
 30
0.0
  9
$USERI1
 70
     0
  9
$USERI2
 70
     0
  9
$USERI3
 70
     0
  9
$USERI4
 70
     0
  9
$USERI5
 70
     0
  9
$USERR1
 40
0.0
  9
$USERR2
 40
0.0
  9
$USERR3
 40
0.0
  9
$USERR4
 40
0.0
  9
$USERR5
 40
0.0
  9
$WORLDVIEW
 70
     1
  9
$SHADEDGE
 70
     3
  9
$SHADEDIF
 70
    70
  9
$TILEMODE
 70
     1
  9
$MAXACTVP
 70
    15
  9
$PINSBASE
 10
0.0004882914945483
 20
0.7501408034022604
 30
0.0
  9
$PLIMCHECK
 70
     0
  9
$PEXTMIN
 10
1.000000000000000E+20
 20
1.000000000000000E+20
 30
1.000000000000000E+20
  9
$PEXTMAX
 10
-1.000000000000000E+20
 20
-1.000000000000000E+20
 30
-1.000000000000000E+20
  9
$PLIMMIN
 10
0.0
 20
0.0
  9
$PLIMMAX
 10
12.0
 20
9.0
  9
$UNITMODE
 70
     0
  9
$VISRETAIN
 70
     0
  9
$PLINEGEN
 70
     0
  9
$PSLTSCALE
 70
     1
  9
$TREEDEPTH
 70
  3020
  9
$CMLSTYLE
  2
Standard
  9
$CMLJUST
 70
     0
  9
$CMLSCALE
 40
1.0
  9
$PROXYGRAPHICS
 70
     1
  9
$MEASUREMENT
 70
     0
  9
$CELWEIGHT
370
    -1
  9
$ENDCAPS
280
     0
  9
$JOINSTYLE
280
     0
  9
$LWDISPLAY
290
     0
  9
$INSUNITS
 70
     0
  9
$HYPERLINKBASE
  1

  9
$STYLESHEET
  1

  9
$XEDIT
290
     1
  9
$CEPSNTYPE
380
     0
  9
$PSTYLEMODE
290
     1
  9
$FINGERPRINTGUID
  2
{919D9615-AFAF-4D03-9D9A-A3B469C8851F}
  9
$VERSIONGUID
  2
{41556F9A-BDE8-4644-9FE2-CAB69DF7E773}
  9
$EXTNAMES
290
     1
  9
$PSVPSCALE
 40
0.0
  9
$OLESTARTUP
290
     0
  0
ENDSEC
  0
SECTION
  2
CLASSES
  0
CLASS
  1
ACDBDICTIONARYWDFLT
  2
AcDbDictionaryWithDefault
  3
ObjectDBX Classes
 90
        0
280
     0
281
     0
  0
CLASS
  1
ACDBPLACEHOLDER
  2
AcDbPlaceHolder
  3
ObjectDBX Classes
 90
        0
280
     0
281
     0
  0
CLASS
  1
LAYOUT
  2
AcDbLayout
  3
ObjectDBX Classes
 90
        0
280
     0
281
     0
  0
CLASS
  1
DICTIONARYVAR
  2
AcDbDictionaryVar
  3
ObjectDBX Classes
 90
        0
280
     0
281
     0
  0
CLASS
  1
MATERIAL
  2
AcDbMaterial
  3
ObjectDBX Classes
 90
     1024
280
     0
281
     0
  0
CLASS
  1
VISUALSTYLE
  2
AcDbVisualStyle
  3
ObjectDBX Classes
 90
     4095
280
     0
281
     0
  0
CLASS
  1
TABLESTYLE
  2
AcDbTableStyle
  3
ObjectDBX Classes
 90
     4095
280
     0
281
     0
  0
ENDSEC
  0
SECTION
  2
TABLES
  0
TABLE
  2
VPORT
  5
8
330
0
100
AcDbSymbolTable
 70
     1
  0
VPORT
  5
292
330
8
100
AcDbSymbolTableRecord
100
AcDbViewportTableRecord
  2
*Active
 70
     0
 10
0.0
 20
0.0
 11
1.0
 21
1.0
 12
22.74811440920143
 22
-20.47241128903804
 13
0.0
 23
0.0
 14
0.5740882589684922
 24
0.5740882589684922
 15
0.5
 25
0.5
 16
0.0
 26
0.0
 36
1.0
 17
0.0
 27
0.0
 37
0.0
 40
2.848966364465276
 41
1.774011299435028
 42
50.0
 43
0.0
 44
0.0
 50
0.0
 51
0.0
 71
     0
 72
   100
 73
     1
 74
     0
 75
     0
 76
     0
 77
     0
 78
     0
281
     0
 65
     1
110
0.0
120
0.0
130
0.0
111
1.0
121
0.0
131
0.0
112
0.0
122
1.0
132
0.0
 79
     0
146
0.0
  0
ENDTAB
  0
TABLE
  2
LTYPE
  5
5
330
0
100
AcDbSymbolTable
 70
     1
  0
LTYPE
  5
13
330
5
100
AcDbSymbolTableRecord
100
AcDbLinetypeTableRecord
  2
ByBlock
 70
     0
  3

 72
    65
 73
     0
 40
0.0
  0
LTYPE
  5
14
330
5
100
AcDbSymbolTableRecord
100
AcDbLinetypeTableRecord
  2
ByLayer
 70
     0
  3

 72
    65
 73
     0
 40
0.0
  0
LTYPE
  5
15
330
5
100
AcDbSymbolTableRecord
100
AcDbLinetypeTableRecord
  2
CONTINUOUS
 70
     0
  3
Solid line
 72
    65
 73
     0
 40
0.0
  0
ENDTAB
  0
TABLE
  2
LAYER
  5
2
330
0
100
AcDbSymbolTable
 70
     4
  0
LAYER
  5
10
330
2
100
AcDbSymbolTableRecord
100
AcDbLayerTableRecord
  2
0
 70
     0
 62
     7
  6
CONTINUOUS
370
    -3
390
F
  0
LAYER
  5
DA
330
2
100
AcDbSymbolTableRecord
100
AcDbLayerTableRecord
  2
ADP1DETAIL
 70
     0
 62
     7
  6
CONTINUOUS
370
    -3
390
F
  0
LAYER
  5
DC
330
2
100
AcDbSymbolTableRecord
100
AcDbLayerTableRecord
  2
DEFPOINTS
 70
     0
 62
     7
  6
CONTINUOUS
290
     0
370
    -3
390
F
  0
LAYER
  5
DF
330
2
100
AcDbSymbolTableRecord
100
AcDbLayerTableRecord
  2
ADPDIM
 70
     0
 62
     3
  6
CONTINUOUS
370
    -3
390
F
  0
ENDTAB
  0
TABLE
  2
STYLE
  5
3
330
0
100
AcDbSymbolTable
 70
     2
  0
STYLE
  5
11
330
3
100
AcDbSymbolTableRecord
100
AcDbTextStyleTableRecord
  2
STANDARD
 70
     0
 40
0.0
 41
1.0
 50
0.0
 71
     0
 42
0.2
  3
txt
  4

  0
STYLE
  5
139
330
3
100
AcDbSymbolTableRecord
100
AcDbTextStyleTableRecord
  2
ARIAL_WIDE
 70
     0
 40
0.0
 41
1.25
 50
0.0
 71
     0
 42
0.2
  3
ARIAL.TTF
  4

1001
ACAD
1000
Arial
1071
       34
  0
ENDTAB
  0
TABLE
  2
VIEW
  5
6
330
0
100
AcDbSymbolTable
 70
     0
  0
ENDTAB
  0
TABLE
  2
UCS
  5
7
330
0
100
AcDbSymbolTable
 70
     0
  0
ENDTAB
  0
TABLE
  2
APPID
  5
9
330
0
100
AcDbSymbolTable
 70
     1
  0
APPID
  5
12
330
9
100
AcDbSymbolTableRecord
100
AcDbRegAppTableRecord
  2
ACAD
 70
     0
  0
ENDTAB
  0
TABLE
  2
DIMSTYLE
  5
A
330
0
100
AcDbSymbolTable
 70
     1
100
AcDbDimStyleTable
 71
     1
340
137
  0
DIMSTYLE
105
137
102
{ACAD_REACTORS
330
2E4
102
}
330
A
100
AcDbSymbolTableRecord
100
AcDbDimStyleTableRecord
  2
Standard
 70
     0
340
11
  0
ENDTAB
  0
TABLE
  2
BLOCK_RECORD
  5
1
330
0
100
AcDbSymbolTable
 70
     4
  0
BLOCK_RECORD
  5
1E
102
{ACAD_XDICTIONARY
360
176
102
}
330
1
100
AcDbSymbolTableRecord
100
AcDbBlockTableRecord
  2
*Model_Space
340
21
  0
BLOCK_RECORD
  5
1A
102
{ACAD_XDICTIONARY
360
178
102
}
330
1
100
AcDbSymbolTableRecord
100
AcDbBlockTableRecord
  2
*Paper_Space
340
1D
  0
BLOCK_RECORD
  5
CE
330
1
100
AcDbSymbolTableRecord
100
AcDbBlockTableRecord
  2
6987
340
0
102
{BLKREFS
331
135
102
}
  0
BLOCK_RECORD
  5
D5
330
1
100
AcDbSymbolTableRecord
100
AcDbBlockTableRecord
  2
*D1
340
0
  0
BLOCK_RECORD
  5
D6
330
1
100
AcDbSymbolTableRecord
100
AcDbBlockTableRecord
  2
*D2
340
0
  0
BLOCK_RECORD
  5
2E5
330
1
100
AcDbSymbolTableRecord
100
AcDbBlockTableRecord
  2
*D3
340
0
  0
ENDTAB
  0
ENDSEC
  0
SECTION
  2
BLOCKS
  0
BLOCK
  5
E2
330
1E
100
AcDbEntity
  8
0
100
AcDbBlockBegin
  2
*Model_Space
 70
     0
 10
0.0
 20
0.0
 30
0.0
  3
*Model_Space
  1

  0
ENDBLK
  5
E3
330
1E
100
AcDbEntity
  8
0
100
AcDbBlockEnd
  0
BLOCK
  5
E0
330
1A
100
AcDbEntity
 67
     1
  8
0
100
AcDbBlockBegin
  2
*Paper_Space
 70
     0
 10
0.0
 20
0.0
 30
0.0
  3
*Paper_Space
  1

  0
ENDBLK
  5
E1
330
1A
100
AcDbEntity
 67
     1
  8
0
100
AcDbBlockEnd
  0
BLOCK
  5
E5
330
CE
100
AcDbEntity
  8
0
100
AcDbBlockBegin
  2
6987
 70
     0
 10
0.0
 20
0.0
 30
0.0
  3
6987
  1

  0
ARC
  5
E6
330
CE
100
AcDbEntity
  8
0
100
AcDbCircle
 10
-1.131893654246105
 20
-0.8790120104664005
 30
0.0
 40
0.125
100
AcDbArc
 50
189.6460801435057
 51
270.1088439369462
  0
ARC
  5
E7
330
CE
100
AcDbEntity
  8
0
100
AcDbCircle
 10
-1.155752598069785
 20
-0.2922418317597799
 30
0.0
 40
0.1885808804015701
100
AcDbArc
 50
99.32795369616471
 51
192.0821753561814
  0
LINE
  5
E8
330
CE
100
AcDbEntity
  8
0
100
AcDbLine
 10
-1.256042156653214
 20
-0.8999589602346969
 30
0.0
 11
-1.340156110525545
 21
-0.3317145191145769
 31
0.0
  0
ARC
  5
E9
330
CE
100
AcDbEntity
  8
0
100
AcDbCircle
 10
0.0313079364730289
 20
-6.997090601202753
 30
0.0
 40
6.875
100
AcDbArc
 50
80.36824482163282
 51
88.57230511936888
  0
ARC
  5
EA
330
CE
100
AcDbEntity
  8
0
100
AcDbCircle
 10
0.0313079364730271
 20
-6.997090601202772
 30
0.0
 40
7.000000000000018
100
AcDbArc
 50
79.98092927473104
 51
89.99999999999998
  0
LINE
  5
EB
330
CE
100
AcDbEntity
  8
0
100
AcDbLine
 10
-1.14843702828638
 20
-0.6588659393299068
 30
0.0
 11
-1.148079887707926
 21
-0.8468656001024932
 31
0.0
  0
LINE
  5
EC
330
CE
100
AcDbEntity
  8
0
100
AcDbLine
 10
-0.9919927837338189
 20
-0.8925691664072807
 30
0.0
 11
-0.9918123137606649
 21
-0.9875689949891715
 31
0.0
  0
ARC
  5
ED
330
CE
100
AcDbEntity
  8
0
100
AcDbCircle
 10
-1.006812286694647
 20
-0.9875974902480919
 30
0.0
 40
0.0149999999999998
100
AcDbArc
 50
270.1088439369476
 51
0.1088439369510338
  0
LINE
  5
EE
330
CE
100
AcDbEntity
  8
0
100
AcDbLine
 10
-1.006783791435728
 20
-1.002597463182073
 30
0.0
 11
-1.131658429875127
 21
-1.00283468595377
 31
0.0
  0
ARC
  5
EF
330
CE
100
AcDbEntity
  8
0
100
AcDbCircle
 10
-1.006992756667802
 20
-0.8925976616661994
 30
0.0
 40
0.0150000000000007
100
AcDbArc
 50
0.1088439369442422
 51
90.10884393694423
  0
LINE
  5
F0
330
CE
100
AcDbEntity
  8
0
100
AcDbLine
 10
-1.117021053442596
 20
-0.8778066539642903
 30
0.0
 11
-1.007021251926721
 21
-0.8775976887322158
 31
0.0
  0
ARC
  5
F1
330
CE
100
AcDbEntity
  8
0
100
AcDbCircle
 10
-1.117079943644363
 20
-0.8468067099007257
 30
0.0
 40
0.0309999999999992
100
AcDbArc
 50
180.1088439369483
 51
270.1088439369467
  0
ARC
  5
F2
330
CE
100
AcDbEntity
  8
0
100
AcDbCircle
 10
0.0446057239686519
 20
-6.997077970394767
 30
0.0
 40
6.875
100
AcDbArc
 50
91.53653881757731
 51
99.74059911531339
  0
ARC
  5
F3
330
CE
100
AcDbEntity
  8
0
100
AcDbCircle
 10
0.0446057239686537
 20
-6.997077970394784
 30
0.0
 40
7.000000000000018
100
AcDbArc
 50
90.10884393694622
 51
100.1279146622151
  0
LINE
  5
F4
330
CE
100
AcDbEntity
  8
0
100
AcDbLine
 10
-1.148406895980102
 20
-0.4718828430460924
 30
0.0
 11
-1.149208098173454
 21
-0.2529728934331583
 31
0.0
  0
LINE
  5
F5
330
CE
100
AcDbEntity
  8
0
100
AcDbLine
 10
-0.8824963984588505
 20
-0.6273606793415088
 30
0.0
 11
-1.117495974424582
 21
-0.6278071050645764
 31
0.0
  0
LINE
  5
F6
330
CE
100
AcDbEntity
  8
0
100
AcDbLine
 10
-1.117348061714771
 20
-0.5028238969078913
 30
0.0
 11
-0.8827348964763874
 21
-0.5023619464398266
 31
0.0
  0
ARC
  5
F7
330
CE
100
AcDbEntity
  8
0
100
AcDbCircle
 10
-1.117437084222816
 20
-0.6588070491281411
 30
0.0
 40
0.031
100
AcDbArc
 50
90.10884393694679
 51
180.1088439369451
  0
ARC
  5
F8
330
CE
100
AcDbEntity
  8
0
100
AcDbCircle
 10
-1.117406951916538
 20
-0.4718239528443267
 30
0.0
 40
0.031
100
AcDbArc
 50
180.1088439369462
 51
270.1088439369462
  0
ARC
  5
F9
330
CE
100
AcDbEntity
  8
0
100
AcDbCircle
 10
-0.88252489371777
 20
-0.6123607064075252
 30
0.0
 40
0.0150000000000007
100
AcDbArc
 50
270.1088439369476
 51
0.1088439369442422
  0
LINE
  5
FA
330
CE
100
AcDbEntity
  8
0
100
AcDbLine
 10
-0.867705388782145
 20
-0.5173334221041444
 30
0.0
 11
-0.8675249207837865
 21
-0.6123322111486065
 31
0.0
  0
ARC
  5
FB
330
CE
100
AcDbEntity
  8
0
100
AcDbCircle
 10
-0.8827053617161286
 20
-0.5173619173630631
 30
0.0
 40
0.0150000000000001
100
AcDbArc
 50
0.1088439369442422
 51
90.11281454701245
  0
ARC
  5
FC
330
CE
100
AcDbEntity
  8
0
100
AcDbCircle
 10
-1.117722552166852
 20
-0.2529130807395212
 30
0.0
 40
0.0309999999999999
100
AcDbArc
 50
91.54609868839097
 51
180.1088439369462
  0
LINE
  5
FD
330
CE
100
AcDbEntity
  8
0
100
AcDbLine
 10
0.1872275964257479
 20
-0.1391898232779436
 30
0.0
 11
0.1866613253438993
 21
-0.4188407296483927
 31
0.0
  0
LINE
  5
FE
330
CE
100
AcDbEntity
  8
0
100
AcDbLine
 10
-0.124341498529728
 20
-0.1394857649460093
 30
0.0
 11
-0.1232439801373921
 21
-0.4191350909779708
 31
0.0
  0
LINE
  5
FF
330
CE
100
AcDbEntity
  8
0
100
AcDbLine
 10
0.1716613560961022
 20
-0.4338103558908966
 30
0.0
 11
0.0538820046605402
 21
-0.4338103558908966
 31
0.0
  0
LINE
  5
100
330
CE
100
AcDbEntity
  8
0
100
AcDbLine
 10
0.0316647719131655
 20
-0.3727690105947161
 30
0.0
 11
0.0538820046605402
 21
-0.4338103558908966
 31
0.0
  0
LINE
  5
101
330
CE
100
AcDbEntity
  8
0
100
AcDbLine
 10
0.0316647719131655
 20
-0.3727690105947161
 30
0.0
 11
0.0095635385171899
 21
-0.4338524514677982
 31
0.0
  0
LINE
  5
102
330
CE
100
AcDbEntity
  8
0
100
AcDbLine
 10
-0.1082156003971759
 20
-0.434076195008764
 30
0.0
 11
0.0095635385171899
 21
-0.4338524514677982
 31
0.0
  0
ARC
  5
103
330
CE
100
AcDbEntity
  8
0
100
AcDbCircle
 10
-0.1082440956560955
 20
-0.4190762220747804
 30
0.0
 40
0.0150000000000002
100
AcDbArc
 50
180.2248632237343
 51
270.1088439369476
  0
ARC
  5
104
330
CE
100
AcDbEntity
  8
0
100
AcDbCircle
 10
0.1716613560961022
 20
-0.418810355890896
 30
0.0
 40
0.0150000000000001
100
AcDbArc
 50
270.0
 51
359.8839807132135
  0
ARC
  5
105
330
CE
100
AcDbEntity
  8
0
100
AcDbCircle
 10
-0.1393413830110246
 20
-0.1395446338491979
 30
0.0
 40
0.015
100
AcDbArc
 50
0.2248632237275238
 51
91.53653881757763
  0
ARC
  5
106
330
CE
100
AcDbEntity
  8
0
100
AcDbCircle
 10
0.202227565673545
 20
-0.1392201970354385
 30
0.0
 40
0.015
100
AcDbArc
 50
88.57230511936759
 51
179.8839807132202
  0
LINE
  5
107
330
CE
100
AcDbEntity
  8
0
100
AcDbLine
 10
1.212307936473029
 20
-0.6566236026731023
 30
0.0
 11
1.212307936473029
 21
-0.8446236026731028
 31
0.0
  0
LINE
  5
108
330
CE
100
AcDbEntity
  8
0
100
AcDbLine
 10
1.320370871213999
 20
-0.897511772816447
 30
0.0
 11
1.403405188479075
 21
-0.3291085671109588
 31
0.0
  0
ARC
  5
109
330
CE
100
AcDbEntity
  8
0
100
AcDbCircle
 10
1.196182800236774
 20
-0.8768007037595531
 30
0.0
 40
0.125
100
AcDbArc
 50
270.0
 51
350.4627637934405
  0
LINE
  5
10A
330
CE
100
AcDbEntity
  8
0
100
AcDbLine
 10
1.056307936473029
 20
-0.8906236026731022
 30
0.0
 11
1.056307936473029
 21
-0.9856236026731028
 31
0.0
  0
LINE
  5
10B
330
CE
100
AcDbEntity
  8
0
100
AcDbLine
 10
1.071307936473029
 20
-1.000623602673103
 30
0.0
 11
1.196182800236774
 21
-1.000623602673103
 31
0.0
  0
ARC
  5
10C
330
CE
100
AcDbEntity
  8
0
100
AcDbCircle
 10
1.071307936473029
 20
-0.9856236026731028
 30
0.0
 40
0.0150000000000006
100
AcDbArc
 50
180.0
 51
270.0
  0
LINE
  5
10D
330
CE
100
AcDbEntity
  8
0
100
AcDbLine
 10
1.181307936473029
 20
-0.8756236026731034
 30
0.0
 11
1.071307936473029
 21
-0.8756236026731034
 31
0.0
  0
ARC
  5
10E
330
CE
100
AcDbEntity
  8
0
100
AcDbCircle
 10
1.071307936473028
 20
-0.8906236026731022
 30
0.0
 40
0.0149999999999988
100
AcDbArc
 50
89.99999999999323
 51
180.0
  0
ARC
  5
10F
330
CE
100
AcDbEntity
  8
0
100
AcDbCircle
 10
1.181307936473029
 20
-0.8446236026731028
 30
0.0
 40
0.0310000000000006
100
AcDbArc
 50
270.0
 51
0.0
  0
ARC
  5
110
330
CE
100
AcDbEntity
  8
0
100
AcDbCircle
 10
1.218927023131463
 20
-0.2899862593695914
 30
0.0
 40
0.1885808804015701
100
AcDbArc
 50
348.0266685807648
 51
80.78089024078149
  0
LINE
  5
111
330
CE
100
AcDbEntity
  8
0
100
AcDbLine
 10
1.211922595438313
 20
-0.4696409010236593
 30
0.0
 11
1.212307936473029
 21
-0.2507298243811586
 31
0.0
  0
LINE
  5
112
330
CE
100
AcDbEntity
  8
0
100
AcDbLine
 10
0.9463079364730297
 20
-0.6256236026731035
 30
0.0
 11
1.181307936473029
 21
-0.6256236026731035
 31
0.0
  0
LINE
  5
113
330
CE
100
AcDbEntity
  8
0
100
AcDbLine
 10
1.180922595438314
 20
-0.5006409010236581
 30
0.0
 11
0.9463089759763132
 21
-0.5006246422484271
 31
0.0
  0
ARC
  5
114
330
CE
100
AcDbEntity
  8
0
100
AcDbCircle
 10
0.9463079364730297
 20
-0.6106236026731029
 30
0.0
 40
0.0150000000000006
100
AcDbArc
 50
180.0
 51
270.0
  0
LINE
  5
115
330
CE
100
AcDbEntity
  8
0
100
AcDbLine
 10
0.9313079364730292
 20
-0.5156246422124085
 30
0.0
 11
0.9313079364730292
 21
-0.6106236026731029
 31
0.0
  0
ARC
  5
116
330
CE
100
AcDbEntity
  8
0
100
AcDbCircle
 10
0.9463079364730297
 20
-0.5156246422124085
 30
0.0
 40
0.0150000000000003
100
AcDbArc
 50
89.9960293899347
 51
180.0
  0
ARC
  5
117
330
CE
100
AcDbEntity
  8
0
100
AcDbCircle
 10
1.181307936473031
 20
-0.6566236026731041
 30
0.0
 40
0.0310000000000006
100
AcDbArc
 50
0.0000000000032832
 51
90.00000000000328
  0
ARC
  5
118
330
CE
100
AcDbEntity
  8
0
100
AcDbCircle
 10
1.180922595438314
 20
-0.4696409010236593
 30
0.0
 40
0.031
100
AcDbArc
 50
270.0
 51
0.0
  0
ARC
  5
119
330
CE
100
AcDbEntity
  8
0
100
AcDbCircle
 10
1.180822333653768
 20
-0.2507298243811586
 30
0.0
 40
0.0309999999999999
100
AcDbArc
 50
0.0
 51
88.56274524855521
  0
ENDBLK
  5
11A
330
CE
100
AcDbEntity
  8
0
100
AcDbBlockEnd
  0
BLOCK
  5
11B
330
D5
100
AcDbEntity
  8
0
100
AcDbBlockBegin
  2
*D1
 70
     1
 10
0.0
 20
0.0
 30
0.0
  3
*D1
  1

  0
LINE
  5
11C
330
D5
100
AcDbEntity
  8
0
  6
ByBlock
 62
     0
100
AcDbLine
 10
21.76297360954873
 20
-20.9978227324874
 30
0.0
 11
21.76297360954873
 21
-21.32749104947271
 31
0.0
  0
LINE
  5
11D
330
D5
100
AcDbEntity
  8
0
  6
ByBlock
 62
     0
100
AcDbLine
 10
23.81546710094636
 20
-20.98526241152399
 30
0.0
 11
23.81546710094636
 21
-21.32749104947271
 31
0.0
  0
LINE
  5
11E
330
D5
100
AcDbEntity
  8
0
  6
ByBlock
 62
     0
100
AcDbLine
 10
21.76297360954873
 20
-21.14749104947271
 30
0.0
 11
22.35172035524755
 21
-21.14749104947271
 31
0.0
  0
LINE
  5
11F
330
D5
100
AcDbEntity
  8
0
  6
ByBlock
 62
     0
100
AcDbLine
 10
23.81546710094636
 20
-21.14749104947271
 30
0.0
 11
23.22672035524754
 21
-21.14749104947271
 31
0.0
  0
LINE
  5
120
330
D5
100
AcDbEntity
  8
0
  6
ByBlock
 62
     0
100
AcDbLine
 10
21.63797360954873
 20
-21.27249104947271
 30
0.0
 11
21.88797360954873
 21
-21.02249104947271
 31
0.0
  0
LINE
  5
121
330
D5
100
AcDbEntity
  8
0
  6
ByBlock
 62
     0
100
AcDbLine
 10
23.69046710094636
 20
-21.27249104947271
 30
0.0
 11
23.94046710094636
 21
-21.02249104947271
 31
0.0
  0
TEXT
  5
122
330
D5
100
AcDbEntity
  8
0
  6
ByBlock
 62
     0
100
AcDbText
 10
22.47672035524754
 20
-21.20999104947271
 30
0.0
 40
0.125
  1
2 1/16
 72
     1
 11
22.78922035524754
 21
-21.14749104947271
 31
0.0
100
AcDbText
 73
     2
  0
POINT
  5
124
330
D5
100
AcDbEntity
  8
DEFPOINTS
  6
ByBlock
 62
     0
100
AcDbPoint
 10
21.76297360954873
 20
-20.9353227324874
 30
0.0
  0
POINT
  5
125
330
D5
100
AcDbEntity
  8
DEFPOINTS
  6
ByBlock
 62
     0
100
AcDbPoint
 10
23.81546710094636
 20
-20.92276241152399
 30
0.0
  0
POINT
  5
126
330
D5
100
AcDbEntity
  8
DEFPOINTS
  6
ByBlock
 62
     0
100
AcDbPoint
 10
23.81546710094636
 20
-21.14749104947271
 30
0.0
  0
ENDBLK
  5
127
330
D5
100
AcDbEntity
  8
0
100
AcDbBlockEnd
  0
BLOCK
  5
128
330
D6
100
AcDbEntity
  8
0
100
AcDbBlockBegin
  2
*D2
 70
     1
 10
0.0
 20
0.0
 30
0.0
  3
*D2
  1

  0
LINE
  5
129
330
D6
100
AcDbEntity
  8
0
  6
ByBlock
 62
     0
100
AcDbLine
 10
21.41900305394778
 20
-20.20635332796547
 30
0.0
 11
21.41900305394778
 21
-19.49238188753698
 31
0.0
  0
LINE
  5
12A
330
D6
100
AcDbEntity
  8
0
  6
ByBlock
 62
     0
100
AcDbLine
 10
24.16256435295241
 20
-20.20374737596185
 30
0.0
 11
24.16256435295241
 21
-19.49238188753698
 31
0.0
  0
LINE
  5
12B
330
D6
100
AcDbEntity
  8
0
  6
ByBlock
 62
     0
100
AcDbLine
 10
21.41900305394778
 20
-19.67238188753698
 30
0.0
 11
22.37411703678343
 21
-19.67238188753698
 31
0.0
  0
LINE
  5
12C
330
D6
100
AcDbEntity
  8
0
  6
ByBlock
 62
     0
100
AcDbLine
 10
24.16256435295241
 20
-19.67238188753698
 30
0.0
 11
23.20745037011676
 21
-19.67238188753698
 31
0.0
  0
LINE
  5
12D
330
D6
100
AcDbEntity
  8
0
  6
ByBlock
 62
     0
100
AcDbLine
 10
21.29400305394778
 20
-19.79738188753698
 30
0.0
 11
21.54400305394778
 21
-19.54738188753698
 31
0.0
  0
LINE
  5
12E
330
D6
100
AcDbEntity
  8
0
  6
ByBlock
 62
     0
100
AcDbLine
 10
24.03756435295241
 20
-19.79738188753698
 30
0.0
 11
24.28756435295241
 21
-19.54738188753698
 31
0.0
  0
TEXT
  5
12F
330
D6
100
AcDbEntity
  8
0
  6
ByBlock
 62
     0
100
AcDbText
 10
22.49911703678343
 20
-19.73488188753698
 30
0.0
 40
0.125
  1
2 3/4
 72
     1
 11
22.79078370345009
 21
-19.67238188753698
 31
0.0
100
AcDbText
 73
     2
  0
POINT
  5
130
330
D6
100
AcDbEntity
  8
DEFPOINTS
  6
ByBlock
 62
     0
100
AcDbPoint
 10
21.41900305394778
 20
-20.26885332796547
 30
0.0
  0
POINT
  5
131
330
D6
100
AcDbEntity
  8
DEFPOINTS
  6
ByBlock
 62
     0
100
AcDbPoint
 10
24.16256435295241
 20
-20.26624737596184
 30
0.0
  0
POINT
  5
132
330
D6
100
AcDbEntity
  8
DEFPOINTS
  6
ByBlock
 62
     0
100
AcDbPoint
 10
24.16256435295241
 20
-19.67238188753698
 30
0.0
  0
ENDBLK
  5
133
330
D6
100
AcDbEntity
  8
0
100
AcDbBlockEnd
  0
BLOCK
  5
2EF
330
2E5
100
AcDbEntity
  8
0
 62
     3
100
AcDbBlockBegin
  2
*D3
 70
     1
 10
0.0
 20
0.0
 30
0.0
  3
*D3
  1

  0
LINE
  5
315
330
2E5
100
AcDbEntity
  8
ADPDIM
 62
     0
370
    -2
100
AcDbLine
 10
22.63567261594011
 20
-20.43584009467001
 30
0.0
 11
22.63567261594011
 21
-20.81038967900447
 31
0.0
  0
LINE
  5
316
330
2E5
100
AcDbEntity
  8
ADPDIM
 62
     0
370
    -2
100
AcDbLine
 10
22.94817261594011
 20
-20.43584009467001
 30
0.0
 11
22.94817261594011
 21
-20.81038967900447
 31
0.0
  0
LINE
  5
317
330
2E5
100
AcDbEntity
  8
ADPDIM
 62
     0
370
    -2
100
AcDbLine
 10
22.63567261594011
 20
-20.63038967900447
 30
0.0
 11
22.94817261594011
 21
-20.63038967900447
 31
0.0
  0
MTEXT
  5
318
330
2E5
100
AcDbEntity
  8
ADPDIM
 62
     0
100
AcDbMText
 10
23.32103219428902
 20
-20.64110007997488
 30
0.0
 40
0.125
 41
0.0
 71
     5
 72
     1
  1
\A1;5/16
 73
     1
 44
1.0
1001
ACAD
1000
MTEXTBEGIN
1070
    73
1070
     1
1070
    44
1040
1.0
1070
    74
1070
     0
1000
MTEXTEND
  0
LINE
  5
319
330
2E5
100
AcDbEntity
  8
ADPDIM
 62
     0
370
    -2
100
AcDbLine
 10
22.82317261594011
 20
-20.75538967900447
 30
0.0
 11
23.07317261594011
 21
-20.50538967900447
 31
0.0
  0
LINE
  5
31A
330
2E5
100
AcDbEntity
  8
ADPDIM
 62
     0
370
    -2
100
AcDbLine
 10
22.51067261594011
 20
-20.75538967900447
 30
0.0
 11
22.76067261594011
 21
-20.50538967900447
 31
0.0
  0
POINT
  5
31B
330
2E5
100
AcDbEntity
  8
DEFPOINTS
 62
     0
100
AcDbPoint
 10
22.63567261594011
 20
-20.37334009467001
 30
0.0
  0
POINT
  5
31C
330
2E5
100
AcDbEntity
  8
DEFPOINTS
 62
     0
100
AcDbPoint
 10
22.94817261594011
 20
-20.37334009467001
 30
0.0
  0
POINT
  5
31D
330
2E5
100
AcDbEntity
  8
DEFPOINTS
 62
     0
100
AcDbPoint
 10
22.94817261594011
 20
-20.63038967900447
 30
0.0
  0
ENDBLK
  5
2F0
330
2E5
100
AcDbEntity
  8
0
 62
     3
100
AcDbBlockEnd
  0
ENDSEC
  0
SECTION
  2
ENTITIES
  0
DIMENSION
  5
134
330
1E
100
AcDbEntity
  8
ADPDIM
100
AcDbDimension
  2
*D2
 10
24.16256435295241
 20
-19.67238188753698
 30
0.0
 11
22.79078370345009
 21
-19.67238188753698
 31
0.0
 71
     5
 42
-1.0
100
AcDbAlignedDimension
 13
21.41900305394778
 23
-20.26885332796547
 33
0.0
 14
24.16256435295241
 24
-20.26624737596184
 34
0.0
100
AcDbRotatedDimension
  0
INSERT
  5
135
330
1E
100
AcDbEntity
  8
ADP1DETAIL
100
AcDbBlockReference
  2
6987
 10
22.75915916447333
 20
-19.93713880885089
 30
0.0
  0
DIMENSION
  5
136
330
1E
100
AcDbEntity
  8
ADPDIM
100
AcDbDimension
  2
*D1
 10
23.81546710094636
 20
-21.14749104947271
 30
0.0
 11
22.78922035524754
 21
-21.14749104947271
 31
0.0
 71
     5
 42
-1.0
100
AcDbAlignedDimension
 13
21.76297360954873
 23
-20.9353227324874
 33
0.0
 14
23.81546710094636
 24
-20.92276241152399
 34
0.0
100
AcDbRotatedDimension
  0
TEXT
  5
13A
330
1E
100
AcDbEntity
  8
ADPDIM
100
AcDbText
 10
16.26509491182988
 20
-21.80378830328357
 30
0.0
 40
0.125
  1
J U L I U S  B L U M  &  C O . ,  I N C .      ( 8 0 0 )  5 2 6 - 6 2 9 3        W W W . J U L I U S B L U M . C O M        P A R T  N o .  6 9 8 7
 41
1.25
  7
ARIAL_WIDE
 72
     1
 11
22.79082393638649
 21
-21.67878830328357
 31
0.0
100
AcDbText
 73
     3
  0
DIMENSION
  5
2E4
330
1E
100
AcDbEntity
  8
ADPDIM
 62
     3
100
AcDbDimension
  2
*D3
 10
22.94817261594011
 20
-20.63038967900447
 30
0.0
 11
23.32103219428902
 21
-20.64110007997488
 31
0.0
 70
   160
 71
     5
 42
0.3125
  3
Standard
100
AcDbAlignedDimension
 13
22.63567261594011
 23
-20.37334009467001
 33
0.0
 14
22.94817261594011
 24
-20.37334009467001
 34
0.0
100
AcDbRotatedDimension
1001
ACAD
1000
DSTYLE
1002
{
1070
   276
1070
     2
1070
    41
1040
0.125
1070
    73
1070
     0
1070
    74
1070
     0
1070
    78
1070
     3
1070
   140
1040
0.125
1070
   141
1040
0.1875
1070
   142
1040
0.125
1070
   147
1040
0.125
1070
   171
1070
     1
1070
   273
1070
     5
1070
   274
1070
     1
1070
   277
1070
     5
1070
   279
1070
     2
1070
   284
1070
     3
1070
   285
1070
     3
1070
   286
1070
     3
1002
}
  0
ENDSEC
  0
SECTION
  2
OBJECTS
  0
DICTIONARY
  5
C
330
0
100
AcDbDictionary
281
     1
  3
ACAD_COLOR
350
2DE
  3
ACAD_GROUP
350
D
  3
ACAD_LAYOUT
350
19
  3
ACAD_MATERIAL
350
2C9
  3
ACAD_MLINESTYLE
350
16
  3
ACAD_PLOTSETTINGS
350
18
  3
ACAD_PLOTSTYLENAME
350
E
  3
ACAD_TABLESTYLE
350
2DF
  3
ACAD_VISUALSTYLE
350
2CD
  3
AcDbVariableDictionary
350
1AB
  3
DWGPROPS
350
33B
  0
DICTIONARY
  5
176
330
1E
100
AcDbDictionary
280
     1
281
     1
  3
ACAD_LAYOUTSELFREF
360
2C5
  0
DICTIONARY
  5
178
330
1A
100
AcDbDictionary
280
     1
281
     1
  3
ACAD_LAYOUTSELFREF
360
2C4
  0
DICTIONARY
  5
2DE
102
{ACAD_REACTORS
330
C
102
}
330
C
100
AcDbDictionary
281
     1
  0
DICTIONARY
  5
D
102
{ACAD_REACTORS
330
C
102
}
330
C
100
AcDbDictionary
281
     1
  0
DICTIONARY
  5
19
102
{ACAD_REACTORS
330
C
102
}
330
C
100
AcDbDictionary
281
     1
  3
Layout1
350
1D
  3
Model
350
21
  0
DICTIONARY
  5
2C9
102
{ACAD_REACTORS
330
C
102
}
330
C
100
AcDbDictionary
281
     1
  3
ByBlock
350
2CB
  3
ByLayer
350
2CA
  3
Global
350
2CC
  0
DICTIONARY
  5
16
102
{ACAD_REACTORS
330
C
102
}
330
C
100
AcDbDictionary
281
     1
  3
Standard
350
17
  0
DICTIONARY
  5
18
102
{ACAD_REACTORS
330
C
102
}
330
C
100
AcDbDictionary
281
     1
  0
ACDBDICTIONARYWDFLT
  5
E
102
{ACAD_REACTORS
330
C
102
}
330
C
100
AcDbDictionary
281
     1
  3
Normal
350
F
100
AcDbDictionaryWithDefault
340
F
  0
DICTIONARY
  5
2DF
102
{ACAD_REACTORS
330
C
102
}
330
C
100
AcDbDictionary
281
     1
  3
Standard
350
2E0
  0
DICTIONARY
  5
2CD
102
{ACAD_REACTORS
330
C
102
}
330
C
100
AcDbDictionary
281
     1
  3
2dWireframe
350
2D3
  3
3D Hidden
350
2D5
  3
3dWireframe
350
2D4
  3
Basic
350
2D2
  3
Brighten
350
2D9
  3
ColorChange
350
2DD
  3
Conceptual
350
2D6
  3
Dim
350
2D8
  3
Facepattern
350
2DC
  3
Flat
350
2CE
  3
FlatWithEdges
350
2CF
  3
Gouraud
350
2D0
  3
GouraudWithEdges
350
2D1
  3
Linepattern
350
2DB
  3
Realistic
350
2D7
  3
Thicken
350
2DA
  0
DICTIONARY
  5
1AB
102
{ACAD_REACTORS
330
C
102
}
330
C
100
AcDbDictionary
281
     1
  3
CTABLESTYLE
350
338
  3
DIMASSOC
350
1AD
  3
HIDETEXT
350
1AC
  3
INDEXCTL
350
33A
  3
SORTENTS
350
339
  0
XRECORD
  5
33B
102
{ACAD_REACTORS
330
C
102
}
330
C
100
AcDbXrecord
280
     1
  1
DWGPROPS COOKIE
  2

  3

  4

  6

  7

  8
Yu Hu
  9

300
=
301
=
302
=
303
=
304
=
305
=
306
=
307
=
308
=
309
=
 40
0.0065009259259259
 41
2450399.686182674
 42
2453961.632528496
  1

 90
        0
  0
XRECORD
  5
2C5
102
{ACAD_REACTORS
330
176
102
}
330
176
100
AcDbXrecord
280
     1
340
1E
  0
XRECORD
  5
2C4
102
{ACAD_REACTORS
330
178
102
}
330
178
100
AcDbXrecord
280
     1
340
1A
  0
LAYOUT
  5
1D
102
{ACAD_XDICTIONARY
360
33C
102
}
102
{ACAD_REACTORS
330
19
102
}
330
19
100
AcDbPlotSettings
  1

  2
Fax
  4

  6

 40
0.0
 41
0.0
 42
0.0
 43
0.0
 44
0.0
 45
0.0
 46
0.0
 47
0.0
 48
0.0
 49
0.0
140
0.0
141
0.0
142
1.0
143
1.0
 70
   688
 72
     0
 73
     0
 74
     5
  7
Default R14 pen assignments.ctb
 75
    16
147
1.0
148
0.0
149
0.0
100
AcDbLayout
  1
Layout1
 70
     1
 71
     1
 10
0.0
 20
0.0
 11
12.0
 21
9.0
 12
0.0004882914945483
 22
0.7501408034022604
 32
0.0
 14
1.000000000000000E+20
 24
1.000000000000000E+20
 34
1.000000000000000E+20
 15
-1.000000000000000E+20
 25
-1.000000000000000E+20
 35
-1.000000000000000E+20
146
0.0
 13
0.0
 23
0.0
 33
0.0
 16
1.0
 26
0.0
 36
0.0
 17
0.0
 27
1.0
 37
0.0
 76
     0
330
1A
  0
LAYOUT
  5
21
102
{ACAD_XDICTIONARY
360
33E
102
}
102
{ACAD_REACTORS
330
19
102
}
330
19
100
AcDbPlotSettings
  1

  2
Fax
  4

  6

 40
0.0
 41
0.0
 42
0.0
 43
0.0
 44
0.0
 45
0.0
 46
0.0
 47
0.0
 48
0.0
 49
0.0
140
0.0
141
0.0
142
1.0
143
1.0
 70
  1712
 72
     0
 73
     0
 74
     0
  7
Default R14 pen assignments.ctb
 75
     0
147
1.0
148
0.0
149
0.0
100
AcDbLayout
  1
Model
 70
     1
 71
     0
 10
0.0
 20
0.0
 11
12.0
 21
9.0
 12
0.0
 22
0.0
 32
0.0
 14
0.0
 24
0.0
 34
0.0
 15
0.0
 25
0.0
 35
0.0
146
0.0
 13
0.0
 23
0.0
 33
0.0
 16
1.0
 26
0.0
 36
0.0
 17
0.0
 27
1.0
 37
0.0
 76
     0
330
1E
331
292
  0
MATERIAL
  5
2CB
102
{ACAD_XDICTIONARY
360
342
102
}
102
{ACAD_REACTORS
330
2C9
102
}
330
2C9
100
AcDbMaterial
  1
ByBlock
  0
MATERIAL
  5
2CA
102
{ACAD_XDICTIONARY
360
340
102
}
102
{ACAD_REACTORS
330
2C9
102
}
330
2C9
100
AcDbMaterial
  1
ByLayer
  0
MATERIAL
  5
2CC
102
{ACAD_XDICTIONARY
360
344
102
}
102
{ACAD_REACTORS
330
2C9
102
}
330
2C9
100
AcDbMaterial
  1
Global
  0
MLINESTYLE
  5
17
102
{ACAD_REACTORS
330
16
102
}
330
16
100
AcDbMlineStyle
  2
STANDARD
 70
     0
  3

 62
   256
 51
90.0
 52
90.0
 71
     2
 49
0.5
 62
   256
  6
BYLAYER
 49
-0.5
 62
   256
  6
BYLAYER
  0
ACDBPLACEHOLDER
  5
F
102
{ACAD_REACTORS
330
E
102
}
330
E
  0
TABLESTYLE
  5
2E0
102
{ACAD_XDICTIONARY
360
346
102
}
102
{ACAD_REACTORS
330
2DF
102
}
330
2DF
100
AcDbTableStyle
  3
Standard
 70
     0
 71
     0
 40
0.06
 41
0.06
280
     0
281
     0
  7
STANDARD
140
0.18
170
     2
 62
     0
 63
     7
283
     0
274
    -2
284
     1
 64
     0
275
    -2
285
     1
 65
     0
276
    -2
286
     1
 66
     0
277
    -2
287
     1
 67
     0
278
    -2
288
     1
 68
     0
279
    -2
289
     1
 69
     0
  7
STANDARD
140
0.25
170
     5
 62
     0
 63
     7
283
     0
274
    -2
284
     1
 64
     0
275
    -2
285
     1
 65
     0
276
    -2
286
     1
 66
     0
277
    -2
287
     1
 67
     0
278
    -2
288
     1
 68
     0
279
    -2
289
     1
 69
     0
  7
STANDARD
140
0.18
170
     5
 62
     0
 63
     7
283
     0
274
    -2
284
     1
 64
     0
275
    -2
285
     1
 65
     0
276
    -2
286
     1
 66
     0
277
    -2
287
     1
 67
     0
278
    -2
288
     1
 68
     0
279
    -2
289
     1
 69
     0
  0
VISUALSTYLE
  5
2D3
102
{ACAD_REACTORS
330
2CD
102
}
330
2CD
100
AcDbVisualStyle
  2
2dWireframe
 70
     4
 71
     0
 72
     2
 73
     0
 90
        0
 40
-0.6
 41
-30.0
 62
     5
 63
     7
 74
     1
 91
        4
 64
     7
 65
   257
 75
     1
175
     1
 42
1.0
 92
        0
 66
   257
 43
1.0
 76
     1
 77
     6
 78
     2
 67
     7
 79
     5
170
     0
171
     0
290
     0
174
     0
 93
        1
 44
0.0
173
     0
291
     0
 45
0.0
1001
ACAD
1000
AcDbSavedByObjectVersion
1070
     0
  0
VISUALSTYLE
  5
2D5
102
{ACAD_REACTORS
330
2CD
102
}
330
2CD
100
AcDbVisualStyle
  2
3D Hidden
 70
     6
 71
     1
 72
     2
 73
     2
 90
        0
 40
-0.6
 41
-30.0
 62
     5
 63
     7
 74
     2
 91
        2
 64
     7
 65
   257
 75
     2
175
     1
 42
40.0
 92
        0
 66
   257
 43
1.0
 76
     1
 77
     6
 78
     2
 67
     7
 79
     3
170
     0
171
     0
290
     0
174
     0
 93
        1
 44
0.0
173
     0
291
     0
 45
0.0
1001
ACAD
1000
AcDbSavedByObjectVersion
1070
     0
  0
VISUALSTYLE
  5
2D4
102
{ACAD_REACTORS
330
2CD
102
}
330
2CD
100
AcDbVisualStyle
  2
3dWireframe
 70
     5
 71
     0
 72
     2
 73
     0
 90
        0
 40
-0.6
 41
-30.0
 62
     5
 63
     7
 74
     1
 91
        4
 64
     7
 65
   257
 75
     1
175
     1
 42
1.0
 92
        0
 66
   257
 43
1.0
 76
     1
 77
     6
 78
     2
 67
     7
 79
     5
170
     0
171
     0
290
     0
174
     0
 93
        1
 44
0.0
173
     0
291
     0
 45
0.0
1001
ACAD
1000
AcDbSavedByObjectVersion
1070
     0
  0
VISUALSTYLE
  5
2D2
102
{ACAD_REACTORS
330
2CD
102
}
330
2CD
100
AcDbVisualStyle
  2
Basic
 70
     7
 71
     1
 72
     0
 73
     1
 90
        0
 40
-0.6
 41
-30.0
 62
     5
 63
     7
 74
     0
 91
        4
 64
     7
 65
   257
 75
     1
175
     1
 42
1.0
 92
        8
 66
     7
 43
1.0
 76
     1
 77
     6
 78
     2
 67
     7
 79
     5
170
     0
171
     0
290
     0
174
     0
 93
        1
 44
0.0
173
     0
291
     1
 45
0.0
1001
ACAD
1000
AcDbSavedByObjectVersion
1070
     0
  0
VISUALSTYLE
  5
2D9
102
{ACAD_REACTORS
330
2CD
102
}
330
2CD
100
AcDbVisualStyle
  2
Brighten
 70
    12
 71
     2
 72
     2
 73
     0
 90
        0
 40
-0.6
 41
-30.0
 62
     5
 63
     7
 74
     1
 91
        4
 64
     7
 65
   257
 75
     1
175
     1
 42
1.0
 92
        8
 66
     7
 43
1.0
 76
     1
 77
     6
 78
     2
 67
     7
 79
     5
170
     0
171
     0
290
     0
174
     0
 93
        1
 44
50.0
173
     0
291
     1
 45
0.0
1001
ACAD
1000
AcDbSavedByObjectVersion
1070
     0
  0
VISUALSTYLE
  5
2DD
102
{ACAD_REACTORS
330
2CD
102
}
330
2CD
100
AcDbVisualStyle
  2
ColorChange
 70
    16
 71
     2
 72
     2
 73
     3
 90
        0
 40
-0.6
 41
-30.0
 62
     5
 63
     8
 74
     1
 91
        4
 64
     7
 65
   257
 75
     1
175
     1
 42
1.0
 92
        8
 66
     8
 43
1.0
 76
     1
 77
     6
 78
     2
 67
     7
 79
     5
170
     0
171
     0
290
     0
174
     0
 93
        1
 44
0.0
173
     0
291
     1
 45
0.0
1001
ACAD
1000
AcDbSavedByObjectVersion
1070
     0
  0
VISUALSTYLE
  5
2D6
102
{ACAD_REACTORS
330
2CD
102
}
330
2CD
100
AcDbVisualStyle
  2
Conceptual
 70
     9
 71
     3
 72
     2
 73
     0
 90
        0
 40
-0.6
 41
-30.0
 62
     5
 63
     7
 74
     2
 91
        2
 64
     7
 65
   257
 75
     1
175
     1
 42
40.0
 92
        8
 66
     7
 43
1.0
 76
     1
 77
     6
 78
     2
 67
     7
 79
     3
170
     0
171
     0
290
     0
174
     0
 93
        1
 44
0.0
173
     0
291
     0
 45
0.0
1001
ACAD
1000
AcDbSavedByObjectVersion
1070
     0
  0
VISUALSTYLE
  5
2D8
102
{ACAD_REACTORS
330
2CD
102
}
330
2CD
100
AcDbVisualStyle
  2
Dim
 70
    11
 71
     2
 72
     2
 73
     0
 90
        0
 40
-0.6
 41
-30.0
 62
     5
 63
     7
 74
     1
 91
        4
 64
     7
 65
   257
 75
     1
175
     1
 42
1.0
 92
        8
 66
     7
 43
1.0
 76
     1
 77
     6
 78
     2
 67
     7
 79
     5
170
     0
171
     0
290
     0
174
     0
 93
        1
 44
-50.0
173
     0
291
     1
 45
0.0
1001
ACAD
1000
AcDbSavedByObjectVersion
1070
     0
  0
VISUALSTYLE
  5
2DC
102
{ACAD_REACTORS
330
2CD
102
}
330
2CD
100
AcDbVisualStyle
  2
Facepattern
 70
    15
 71
     2
 72
     2
 73
     0
 90
        0
 40
-0.6
 41
-30.0
 62
     5
 63
     7
 74
     1
 91
        4
 64
     7
 65
   257
 75
     1
175
     1
 42
1.0
 92
        8
 66
     7
 43
1.0
 76
     1
 77
     6
 78
     2
 67
     7
 79
     5
170
     0
171
     0
290
     0
174
     0
 93
        1
 44
0.0
173
     0
291
     1
 45
0.0
1001
ACAD
1000
AcDbSavedByObjectVersion
1070
     0
  0
VISUALSTYLE
  5
2CE
102
{ACAD_REACTORS
330
2CD
102
}
330
2CD
100
AcDbVisualStyle
  2
Flat
 70
     0
 71
     2
 72
     1
 73
     1
 90
        2
 40
-0.6
 41
30.0
 62
     5
 63
     7
 74
     0
 91
        4
 64
     7
 65
   257
 75
     1
175
     1
 42
1.0
 92
        8
 66
     7
 43
1.0
 76
     1
 77
     6
 78
     2
 67
     7
 79
     5
170
     0
171
     0
290
     0
174
     0
 93
       13
 44
0.0
173
     0
291
     1
 45
0.0
1001
ACAD
1000
AcDbSavedByObjectVersion
1070
     0
  0
VISUALSTYLE
  5
2CF
102
{ACAD_REACTORS
330
2CD
102
}
330
2CD
100
AcDbVisualStyle
  2
FlatWithEdges
 70
     1
 71
     2
 72
     1
 73
     1
 90
        2
 40
-0.6
 41
30.0
 62
     5
 63
     7
 74
     1
 91
        4
 64
     7
 65
   257
 75
     1
175
     1
 42
1.0
 92
        0
 66
   257
 43
1.0
 76
     1
 77
     6
 78
     2
 67
     7
 79
     5
170
     0
171
     0
290
     0
174
     0
 93
       13
 44
0.0
173
     0
291
     1
 45
0.0
1001
ACAD
1000
AcDbSavedByObjectVersion
1070
     0
  0
VISUALSTYLE
  5
2D0
102
{ACAD_REACTORS
330
2CD
102
}
330
2CD
100
AcDbVisualStyle
  2
Gouraud
 70
     2
 71
     2
 72
     2
 73
     1
 90
        2
 40
-0.6
 41
30.0
 62
     5
 63
     7
 74
     0
 91
        4
 64
     7
 65
   257
 75
     1
175
     1
 42
1.0
 92
        0
 66
     7
 43
1.0
 76
     1
 77
     6
 78
     2
 67
     7
 79
     5
170
     0
171
     0
290
     0
174
     0
 93
       13
 44
0.0
173
     0
291
     1
 45
0.0
1001
ACAD
1000
AcDbSavedByObjectVersion
1070
     0
  0
VISUALSTYLE
  5
2D1
102
{ACAD_REACTORS
330
2CD
102
}
330
2CD
100
AcDbVisualStyle
  2
GouraudWithEdges
 70
     3
 71
     2
 72
     2
 73
     1
 90
        2
 40
-0.6
 41
30.0
 62
     5
 63
     7
 74
     1
 91
        4
 64
     7
 65
   257
 75
     1
175
     1
 42
1.0
 92
        0
 66
   257
 43
1.0
 76
     1
 77
     6
 78
     2
 67
     7
 79
     5
170
     0
171
     0
290
     0
174
     0
 93
       13
 44
0.0
173
     0
291
     1
 45
0.0
1001
ACAD
1000
AcDbSavedByObjectVersion
1070
     0
  0
VISUALSTYLE
  5
2DB
102
{ACAD_REACTORS
330
2CD
102
}
330
2CD
100
AcDbVisualStyle
  2
Linepattern
 70
    14
 71
     2
 72
     2
 73
     0
 90
        0
 40
-0.6
 41
-30.0
 62
     5
 63
     7
 74
     1
 91
        4
 64
     7
 65
   257
 75
     7
175
     7
 42
1.0
 92
        8
 66
     7
 43
1.0
 76
     1
 77
     6
 78
     2
 67
     7
 79
     5
170
     0
171
     0
290
     0
174
     0
 93
        1
 44
0.0
173
     0
291
     1
 45
0.0
1001
ACAD
1000
AcDbSavedByObjectVersion
1070
     0
  0
VISUALSTYLE
  5
2D7
102
{ACAD_REACTORS
330
2CD
102
}
330
2CD
100
AcDbVisualStyle
  2
Realistic
 70
     8
 71
     2
 72
     2
 73
     0
 90
        0
 40
-0.6
 41
-30.0
 62
     5
 63
     7
 74
     1
 91
        0
 64
     7
 65
   257
 75
     1
175
     1
 42
1.0
 92
        8
 66
     8
 43
1.0
 76
     1
 77
     6
 78
     2
 67
     7
 79
     5
170
     0
171
     0
290
     0
174
     0
 93
       13
 44
0.0
173
     0
291
     0
 45
0.0
1001
ACAD
1000
AcDbSavedByObjectVersion
1070
     0
  0
VISUALSTYLE
  5
2DA
102
{ACAD_REACTORS
330
2CD
102
}
330
2CD
100
AcDbVisualStyle
  2
Thicken
 70
    13
 71
     2
 72
     2
 73
     0
 90
        0
 40
-0.6
 41
-30.0
 62
     5
 63
     7
 74
     1
 91
        4
 64
     7
 65
   257
 75
     1
175
     1
 42
1.0
 92
       12
 66
     7
 43
1.0
 76
     1
 77
     6
 78
     2
 67
     7
 79
     5
170
     0
171
     0
290
     0
174
     0
 93
        1
 44
0.0
173
     0
291
     1
 45
0.0
1001
ACAD
1000
AcDbSavedByObjectVersion
1070
     0
  0
DICTIONARYVAR
  5
338
102
{ACAD_REACTORS
330
1AB
102
}
330
1AB
100
DictionaryVariables
280
     0
  1
STANDARD
  0
DICTIONARYVAR
  5
1AD
102
{ACAD_REACTORS
330
1AB
102
}
330
1AB
100
DictionaryVariables
280
     0
  1
2
  0
DICTIONARYVAR
  5
1AC
102
{ACAD_REACTORS
330
1AB
102
}
330
1AB
100
DictionaryVariables
280
     0
  1
1
  0
DICTIONARYVAR
  5
33A
102
{ACAD_REACTORS
330
1AB
102
}
330
1AB
100
DictionaryVariables
280
     0
  1
0
  0
DICTIONARYVAR
  5
339
102
{ACAD_REACTORS
330
1AB
102
}
330
1AB
100
DictionaryVariables
280
     0
  1
127
  0
DICTIONARY
  5
33C
330
1D
100
AcDbDictionary
280
     1
281
     1
  3
ACAD_XREC_ROUNDTRIP
360
33D
  0
DICTIONARY
  5
33E
330
21
100
AcDbDictionary
280
     1
281
     1
  3
ACAD_XREC_ROUNDTRIP
360
33F
  0
DICTIONARY
  5
342
330
2CB
100
AcDbDictionary
280
     1
281
     1
  3
ACAD_XREC_ROUNDTRIP
360
343
  0
DICTIONARY
  5
340
330
2CA
100
AcDbDictionary
280
     1
281
     1
  3
ACAD_XREC_ROUNDTRIP
360
341
  0
DICTIONARY
  5
344
330
2CC
100
AcDbDictionary
280
     1
281
     1
  3
ACAD_XREC_ROUNDTRIP
360
345
  0
DICTIONARY
  5
346
330
2E0
100
AcDbDictionary
280
     1
281
     1
  3
ACAD_XREC_ROUNDTRIP
360
347
  0
XRECORD
  5
33D
102
{ACAD_REACTORS
330
33C
102
}
330
33C
100
AcDbXrecord
280
     1
102
SHADEPLOT
 70
     0
102
SHADEPLOTRESLEVEL
 70
     2
102
SHADEPLOTCUSTOMDPI
 70
   300
  0
XRECORD
  5
33F
102
{ACAD_REACTORS
330
33E
102
}
330
33E
100
AcDbXrecord
280
     1
102
SHADEPLOT
 70
     0
102
SHADEPLOTRESLEVEL
 70
     2
102
SHADEPLOTCUSTOMDPI
 70
   300
  0
XRECORD
  5
343
102
{ACAD_REACTORS
330
342
102
}
330
342
100
AcDbXrecord
280
     1
102
MATERIAL
148
0.0
149
0.0
149
0.0
 93
        0
 94
       63
282
     0
 72
     1
 77
     1
171
     1
175
     1
179
     1
273
     0
  0
XRECORD
  5
341
102
{ACAD_REACTORS
330
340
102
}
330
340
100
AcDbXrecord
280
     1
102
MATERIAL
148
0.0
149
0.0
149
0.0
 93
        0
 94
       63
282
     0
 72
     1
 77
     1
171
     1
175
     1
179
     1
273
     0
  0
XRECORD
  5
345
102
{ACAD_REACTORS
330
344
102
}
330
344
100
AcDbXrecord
280
     1
102
MATERIAL
148
0.0
149
0.0
149
0.0
 93
        0
 94
       63
282
     0
 72
     1
 77
     1
171
     1
175
     1
179
     1
273
     0
  0
XRECORD
  5
347
102
{ACAD_REACTORS
330
346
102
}
330
346
100
AcDbXrecord
280
     1
102
ACAD_ROUNDTRIP_PRE2007_TABLESTYLE
 90
      512
 91
        0
  1

 92
      512
 93
        0
  2

 94
      512
 95
        0
  3

  0
ENDSEC
  0
EOF
