  0
SECTION
  2
HEADER
  9
$ACADVER
  1
AC1014
  9
$ACADMAINTVER
 70
     9
  9
$DWGCODEPAGE
  3
ANSI_1252
  9
$INSBASE
 10
43.68417525325603
 20
-11.163532149679
 30
0.0
  9
$EXTMIN
 10
34.80427099302855
 20
-14.11041980196028
 30
0.0
  9
$EXTMAX
 10
54.90888175360154
 20
-4.438658415526091
 30
0.0
  9
$LIMMIN
 10
0.0
 20
0.0
  9
$LIMMAX
 10
36.0
 20
36.0
  9
$ORTHOMODE
 70
     1
  9
$REGENMODE
 70
     1
  9
$FILLMODE
 70
     1
  9
$QTEXTMODE
 70
     0
  9
$MIRRTEXT
 70
     1
  9
$DRAGMODE
 70
     0
  9
$LTSCALE
 40
1.0
  9
$OSMODE
 70
    37
  9
$ATTMODE
 70
     1
  9
$TEXTSIZE
 40
0.2
  9
$TRACEWID
 40
0.05
  9
$TEXTSTYLE
  7
STANDARD
  9
$CLAYER
  8
0
  9
$CELTYPE
  6
BYLAYER
  9
$CECOLOR
 62
   256
  9
$CELTSCALE
 40
1.0
  9
$DELOBJ
 70
     1
  9
$DISPSILH
 70
     0
  9
$DIMSCALE
 40
1.0
  9
$DIMASZ
 40
0.125
  9
$DIMEXO
 40
0.0625
  9
$DIMDLI
 40
0.38
  9
$DIMRND
 40
0.0
  9
$DIMDLE
 40
0.0
  9
$DIMEXE
 40
0.18
  9
$DIMTP
 40
0.0
  9
$DIMTM
 40
0.0
  9
$DIMTXT
 40
0.125
  9
$DIMCEN
 40
0.1875
  9
$DIMTSZ
 40
0.125
  9
$DIMTOL
 70
     0
  9
$DIMLIM
 70
     0
  9
$DIMTIH
 70
     0
  9
$DIMTOH
 70
     0
  9
$DIMSE1
 70
     0
  9
$DIMSE2
 70
     0
  9
$DIMTAD
 70
     0
  9
$DIMZIN
 70
     3
  9
$DIMBLK
  1

  9
$DIMASO
 70
     1
  9
$DIMSHO
 70
     1
  9
$DIMPOST
  1

  9
$DIMAPOST
  1

  9
$DIMALT
 70
     0
  9
$DIMALTD
 70
     1
  9
$DIMALTF
 40
25.4
  9
$DIMLFAC
 40
1.0
  9
$DIMTOFL
 70
     0
  9
$DIMTVP
 40
0.0
  9
$DIMTIX
 70
     0
  9
$DIMSOXD
 70
     0
  9
$DIMSAH
 70
     0
  9
$DIMBLK1
  1

  9
$DIMBLK2
  1

  9
$DIMSTYLE
  2
STANDARD
  9
$DIMCLRD
 70
     0
  9
$DIMCLRE
 70
     0
  9
$DIMCLRT
 70
     0
  9
$DIMTFAC
 40
1.0
  9
$DIMGAP
 40
0.125
  9
$DIMJUST
 70
     0
  9
$DIMSD1
 70
     0
  9
$DIMSD2
 70
     0
  9
$DIMTOLJ
 70
     1
  9
$DIMTZIN
 70
     3
  9
$DIMALTZ
 70
     3
  9
$DIMALTTZ
 70
     3
  9
$DIMFIT
 70
     5
  9
$DIMUPT
 70
     0
  9
$DIMUNIT
 70
     5
  9
$DIMDEC
 70
     4
  9
$DIMTDEC
 70
     4
  9
$DIMALTU
 70
     5
  9
$DIMALTTD
 70
     1
  9
$DIMTXSTY
  7
STANDARD
  9
$DIMAUNIT
 70
     0
  9
$LUNITS
 70
     5
  9
$LUPREC
 70
     4
  9
$SKETCHINC
 40
0.1
  9
$FILLETRAD
 40
0.187
  9
$AUNITS
 70
     0
  9
$AUPREC
 70
     0
  9
$MENU
  1
acad
  9
$ELEVATION
 40
0.0
  9
$PELEVATION
 40
0.0
  9
$THICKNESS
 40
0.0
  9
$LIMCHECK
 70
     0
  9
$BLIPMODE
 70
     0
  9
$CHAMFERA
 40
0.0
  9
$CHAMFERB
 40
0.0
  9
$CHAMFERC
 40
0.0
  9
$CHAMFERD
 40
0.0
  9
$SKPOLY
 70
     0
  9
$TDCREATE
 40
2450399.686011574
  9
$TDUPDATE
 40
2452297.098323020
  9
$TDINDWG
 40
0.0075562384
  9
$TDUSRTIMER
 40
0.0075562384
  9
$USRTIMER
 70
     1
  9
$ANGBASE
 50
0.0
  9
$ANGDIR
 70
     0
  9
$PDMODE
 70
     0
  9
$PDSIZE
 40
0.0
  9
$PLINEWID
 40
0.0
  9
$COORDS
 70
     2
  9
$SPLFRAME
 70
     0
  9
$SPLINETYPE
 70
     6
  9
$SPLINESEGS
 70
     8
  9
$ATTDIA
 70
     0
  9
$ATTREQ
 70
     1
  9
$HANDLING
 70
 22529
  9
$HANDSEED
  5
31E
  9
$SURFTAB1
 70
     6
  9
$SURFTAB2
 70
     6
  9
$SURFTYPE
 70
     6
  9
$SURFU
 70
     6
  9
$SURFV
 70
     6
  9
$UCSNAME
  2

  9
$UCSORG
 10
0.0
 20
0.0
 30
0.0
  9
$UCSXDIR
 10
1.0
 20
0.0
 30
0.0
  9
$UCSYDIR
 10
0.0
 20
1.0
 30
0.0
  9
$PUCSNAME
  2

  9
$PUCSORG
 10
0.0
 20
0.0
 30
0.0
  9
$PUCSXDIR
 10
1.0
 20
0.0
 30
0.0
  9
$PUCSYDIR
 10
0.0
 20
1.0
 30
0.0
  9
$USERI1
 70
     0
  9
$USERI2
 70
     0
  9
$USERI3
 70
     0
  9
$USERI4
 70
     0
  9
$USERI5
 70
     0
  9
$USERR1
 40
0.0
  9
$USERR2
 40
0.0
  9
$USERR3
 40
0.0
  9
$USERR4
 40
0.0
  9
$USERR5
 40
0.0
  9
$WORLDVIEW
 70
     1
  9
$SHADEDGE
 70
     3
  9
$SHADEDIF
 70
    70
  9
$TILEMODE
 70
     1
  9
$MAXACTVP
 70
    15
  9
$PINSBASE
 10
0.0004882914945483
 20
0.7501408034022604
 30
0.0
  9
$PLIMCHECK
 70
     0
  9
$PEXTMIN
 10
1.000000000000000E+20
 20
1.000000000000000E+20
 30
1.000000000000000E+20
  9
$PEXTMAX
 10
-1.000000000000000E+20
 20
-1.000000000000000E+20
 30
-1.000000000000000E+20
  9
$PLIMMIN
 10
0.0
 20
0.0
  9
$PLIMMAX
 10
12.0
 20
9.0
  9
$UNITMODE
 70
     0
  9
$VISRETAIN
 70
     0
  9
$PLINEGEN
 70
     0
  9
$PSLTSCALE
 70
     1
  9
$TREEDEPTH
 70
  3020
  9
$PICKSTYLE
 70
     1
  9
$CMLSTYLE
  2
STANDARD
  9
$CMLJUST
 70
     0
  9
$CMLSCALE
 40
1.0
  9
$PROXYGRAPHICS
 70
     1
  9
$MEASUREMENT
 70
     0
  0
ENDSEC
  0
SECTION
  2
CLASSES
  0
CLASS
  1
ACDBDICTIONARYWDFLT
  2
AcDbDictionaryWithDefault
  3
AutoCAD 2000
 90
        0
280
     0
281
     0
  0
CLASS
  1
ACDBPLACEHOLDER
  2
AcDbPlaceHolder
  3
AutoCAD 2000
 90
        0
280
     0
281
     0
  0
CLASS
  1
LAYOUT
  2
AcDbLayout
  3
AutoCAD 2000
 90
        0
280
     0
281
     0
  0
CLASS
  1
DICTIONARYVAR
  2
AcDbDictionaryVar
  3
AutoCAD 2000
 90
        0
280
     0
281
     0
  0
CLASS
  1
LONG_TRANSACTION
  2
AcDbLongTransaction
  3
AutoCAD 2000
 90
        0
280
     0
281
     0
  0
CLASS
  1
LWPOLYLINE
  2
AcDbPolyline
  3
AutoCAD 2000
 90
        0
280
     0
281
     1
  0
CLASS
  1
HATCH
  2
AcDbHatch
  3
AutoCAD 2000
 90
        0
280
     0
281
     1
  0
CLASS
  1
XRECORD
  2
AcDbXrecord
  3
AutoCAD 2000
 90
        0
280
     0
281
     0
  0
CLASS
  1
LONG_TRANSACTION
  2
AcDbLongTransaction
  3
AutoCAD 2000
 90
        0
280
     0
281
     0
  0
CLASS
  1
LWPOLYLINE
  2
AcDbPolyline
  3
AutoCAD 2000
 90
        0
280
     0
281
     1
  0
CLASS
  1
HATCH
  2
AcDbHatch
  3
AutoCAD 2000
 90
        0
280
     0
281
     1
  0
CLASS
  1
XRECORD
  2
AcDbXrecord
  3
AutoCAD 2000
 90
        0
280
     0
281
     0
  0
CLASS
  1
LONG_TRANSACTION
  2
AcDbLongTransaction
  3
AutoCAD 2000
 90
        0
280
     0
281
     0
  0
CLASS
  1
LWPOLYLINE
  2
AcDbPolyline
  3
AutoCAD 2000
 90
        0
280
     0
281
     1
  0
CLASS
  1
HATCH
  2
AcDbHatch
  3
AutoCAD 2000
 90
        0
280
     0
281
     1
  0
CLASS
  1
XRECORD
  2
AcDbXrecord
  3
AutoCAD 2000
 90
        0
280
     0
281
     0
  0
CLASS
  1
LONG_TRANSACTION
  2
AcDbLongTransaction
  3
AutoCAD 2000
 90
        0
280
     0
281
     0
  0
CLASS
  1
LWPOLYLINE
  2
AcDbPolyline
  3
AutoCAD 2000
 90
        0
280
     0
281
     1
  0
CLASS
  1
HATCH
  2
AcDbHatch
  3
AutoCAD 2000
 90
        0
280
     0
281
     1
  0
CLASS
  1
XRECORD
  2
AcDbXrecord
  3
AutoCAD 2000
 90
        0
280
     0
281
     0
  0
CLASS
  1
LONG_TRANSACTION
  2
AcDbLongTransaction
  3
AutoCAD 2000
 90
        0
280
     0
281
     0
  0
CLASS
  1
LWPOLYLINE
  2
AcDbPolyline
  3
AutoCAD 2000
 90
        0
280
     0
281
     1
  0
CLASS
  1
HATCH
  2
AcDbHatch
  3
AutoCAD 2000
 90
        0
280
     0
281
     1
  0
CLASS
  1
XRECORD
  2
AcDbXrecord
  3
AutoCAD 2000
 90
        0
280
     0
281
     0
  0
ENDSEC
  0
SECTION
  2
TABLES
  0
TABLE
  2
VPORT
  5
8
330
0
100
AcDbSymbolTable
 70
     2
  0
VPORT
  5
2FA
330
8
100
AcDbSymbolTableRecord
100
AcDbViewportTableRecord
  2
*ACTIVE
 70
     0
 10
0.0
 20
0.0
 11
1.0
 21
1.0
 12
44.87447329874332
 22
-9.274430438646414
 13
0.0
 23
0.0
 14
0.5740882589684922
 24
0.5740882589684922
 15
0.5
 25
0.5
 16
0.0
 26
0.0
 36
1.0
 17
0.0
 27
0.0
 37
0.0
 40
12.88628853563453
 41
1.570528967254408
 42
50.0
 43
0.0
 44
0.0
 50
0.0
 51
0.0
 71
     0
 72
   100
 73
     1
 74
     0
 75
     0
 76
     0
 77
     0
 78
     0
  0
ENDTAB
  0
TABLE
  2
LTYPE
  5
5
330
0
100
AcDbSymbolTable
 70
     2
  0
LTYPE
  5
13
330
5
100
AcDbSymbolTableRecord
100
AcDbLinetypeTableRecord
  2
BYBLOCK
 70
     0
  3

 72
    65
 73
     0
 40
0.0
  0
LTYPE
  5
14
330
5
100
AcDbSymbolTableRecord
100
AcDbLinetypeTableRecord
  2
BYLAYER
 70
     0
  3

 72
    65
 73
     0
 40
0.0
  0
LTYPE
  5
15
330
5
100
AcDbSymbolTableRecord
100
AcDbLinetypeTableRecord
  2
CONTINUOUS
 70
     0
  3
Solid line
 72
    65
 73
     0
 40
0.0
  0
LTYPE
  5
104
330
5
100
AcDbSymbolTableRecord
100
AcDbLinetypeTableRecord
  2
CENTER2
 70
     0
  3
___ _ ___ _ ___ _ ___ _ ___ _ ___ _ ___ _ ___ _
 72
    65
 73
     4
 40
1.125
 49
0.75
 74
     0
 49
-0.125
 74
     0
 49
0.125
 74
     0
 49
-0.125
 74
     0
  0
ENDTAB
  0
TABLE
  2
LAYER
  5
2
330
0
100
AcDbSymbolTable
 70
     5
  0
LAYER
  5
10
330
2
100
AcDbSymbolTableRecord
100
AcDbLayerTableRecord
  2
0
 70
     0
 62
     7
  6
CONTINUOUS
  0
LAYER
  5
108
330
2
100
AcDbSymbolTableRecord
100
AcDbLayerTableRecord
  2
ADP1DETAIL
 70
     0
 62
     7
  6
CONTINUOUS
  0
LAYER
  5
109
330
2
100
AcDbSymbolTableRecord
100
AcDbLayerTableRecord
  2
ADP3DETAIL
 70
     0
 62
     1
  6
CONTINUOUS
  0
LAYER
  5
10A
330
2
100
AcDbSymbolTableRecord
100
AcDbLayerTableRecord
  2
DEFPOINTS
 70
     0
 62
     7
  6
CONTINUOUS
  0
LAYER
  5
10D
330
2
100
AcDbSymbolTableRecord
100
AcDbLayerTableRecord
  2
ADPDIM
 70
     0
 62
     3
  6
CONTINUOUS
  0
ENDTAB
  0
TABLE
  2
STYLE
  5
3
330
0
100
AcDbSymbolTable
 70
     2
  0
STYLE
  5
11
330
3
100
AcDbSymbolTableRecord
100
AcDbTextStyleTableRecord
  2
STANDARD
 70
     0
 40
0.0
 41
1.0
 50
0.0
 71
     0
 42
0.2
  3
txt
  4

  0
STYLE
  5
167
330
3
100
AcDbSymbolTableRecord
100
AcDbTextStyleTableRecord
  2
ARIAL_WIDE
 70
     0
 40
0.0
 41
1.25
 50
0.0
 71
     0
 42
0.2
  3
ARIAL.TTF
  4

1001
ACAD
1000
Arial
1071
       34
  0
ENDTAB
  0
TABLE
  2
VIEW
  5
6
330
0
100
AcDbSymbolTable
 70
     0
  0
ENDTAB
  0
TABLE
  2
UCS
  5
7
330
0
100
AcDbSymbolTable
 70
     0
  0
ENDTAB
  0
TABLE
  2
APPID
  5
9
330
0
100
AcDbSymbolTable
 70
     1
  0
APPID
  5
12
330
9
100
AcDbSymbolTableRecord
100
AcDbRegAppTableRecord
  2
ACAD
 70
     0
  0
ENDTAB
  0
TABLE
  2
DIMSTYLE
  5
A
330
0
100
AcDbSymbolTable
 70
     1
  0
DIMSTYLE
105
165
330
A
100
AcDbSymbolTableRecord
100
AcDbDimStyleTableRecord
  2
STANDARD
 70
     0
  3

  4

  5

  6

  7

 40
1.0
 41
0.18
 42
0.0625
 43
0.38
 44
0.18
 45
0.0
 46
0.0
 47
0.0
 48
0.0
140
0.18
141
0.09
142
0.0
143
25.4
144
1.0
145
0.0
146
1.0
147
0.09
 71
     0
 72
     0
 73
     1
 74
     1
 75
     0
 76
     0
 77
     0
 78
     0
170
     0
171
     2
172
     0
173
     0
174
     0
175
     0
176
     0
177
     0
178
     0
270
     2
271
     4
272
     4
273
     2
274
     2
340
11
275
     0
280
     0
281
     0
282
     0
283
     1
284
     0
285
     0
286
     0
287
     3
288
     0
  0
ENDTAB
  0
TABLE
  2
BLOCK_RECORD
  5
1
330
0
100
AcDbSymbolTable
 70
     5
  0
BLOCK_RECORD
  5
1E
102
{ACAD_XDICTIONARY
360
1A4
102
}
330
1
100
AcDbSymbolTableRecord
100
AcDbBlockTableRecord
  2
*MODEL_SPACE
  0
BLOCK_RECORD
  5
1A
102
{ACAD_XDICTIONARY
360
1A6
102
}
330
1
100
AcDbSymbolTableRecord
100
AcDbBlockTableRecord
  2
*PAPER_SPACE
  0
BLOCK_RECORD
  5
C8
330
1
100
AcDbSymbolTableRecord
100
AcDbBlockTableRecord
  2
6985
  0
BLOCK_RECORD
  5
D7
330
1
100
AcDbSymbolTableRecord
100
AcDbBlockTableRecord
  2
*D1
  0
BLOCK_RECORD
  5
D8
330
1
100
AcDbSymbolTableRecord
100
AcDbBlockTableRecord
  2
*D2
  0
BLOCK_RECORD
  5
FE
330
1
100
AcDbSymbolTableRecord
100
AcDbBlockTableRecord
  2
*D3
  0
BLOCK_RECORD
  5
FF
330
1
100
AcDbSymbolTableRecord
100
AcDbBlockTableRecord
  2
*D4
  0
ENDTAB
  0
ENDSEC
  0
SECTION
  2
BLOCKS
  0
BLOCK
  5
110
330
1E
100
AcDbEntity
  8
0
100
AcDbBlockBegin
  2
*MODEL_SPACE
 70
     0
 10
0.0
 20
0.0
 30
0.0
  3
*MODEL_SPACE
  1

  0
ENDBLK
  5
111
330
1E
100
AcDbEntity
  8
0
100
AcDbBlockEnd
  0
BLOCK
  5
10E
330
1A
100
AcDbEntity
 67
     1
  8
0
100
AcDbBlockBegin
  2
*PAPER_SPACE
 70
     0
 10
0.0
 20
0.0
 30
0.0
  3
*PAPER_SPACE
  1

  0
ENDBLK
  5
10F
330
1A
100
AcDbEntity
 67
     1
  8
0
100
AcDbBlockEnd
  0
BLOCK
  5
113
330
C8
100
AcDbEntity
  8
0
100
AcDbBlockBegin
  2
6985
 70
     0
 10
0.0
 20
0.0
 30
0.0
  3
6985
  1

  0
ARC
  5
114
330
C8
100
AcDbEntity
  8
0
100
AcDbCircle
 10
1.03523296887258
 20
-1.623006156071138
 30
0.0
 40
2.561999999999999
100
AcDbArc
 50
90.0
 51
111.8050309081507
  0
LINE
  5
115
330
C8
100
AcDbEntity
  8
0
100
AcDbLine
 10
0.2797329688725796
 20
0.5019938439288599
 30
0.0
 11
1.03523296887258
 21
0.5019938439288599
 31
0.0
  0
LINE
  5
116
330
C8
100
AcDbEntity
  8
0
100
AcDbLine
 10
0.046160728948415
 20
0.6843450835967407
 30
0.0
 11
0.1429598524972633
 21
0.2597709733065994
 31
0.0
  0
LINE
  5
117
330
C8
100
AcDbEntity
  8
0
100
AcDbLine
 10
0.2697329688725816
 20
0.2619938439288614
 30
0.0
 11
0.2697329688725816
 21
0.4919938439288618
 31
0.0
  0
ARC
  5
118
330
C8
100
AcDbEntity
  8
0
100
AcDbCircle
 10
0.25973296887258
 20
0.2619938439288614
 30
0.0
 40
0.01
100
AcDbArc
 50
270.0
 51
0.0
  0
LINE
  5
119
330
C8
100
AcDbEntity
  8
0
100
AcDbLine
 10
0.1527096651209341
 20
0.2519938439288598
 30
0.0
 11
0.25973296887258
 21
0.2519938439288598
 31
0.0
  0
ARC
  5
11A
330
C8
100
AcDbEntity
  8
0
100
AcDbCircle
 10
0.1527096651209341
 20
0.2619938439288614
 30
0.0
 40
0.01
100
AcDbArc
 50
192.84339876773
 51
270.0
  0
ARC
  5
11B
330
C8
100
AcDbEntity
  8
0
100
AcDbCircle
 10
0.1066095672151732
 20
0.6981268814547637
 30
0.0
 40
0.062
100
AcDbArc
 50
111.8050309081505
 51
192.8433987677301
  0
ARC
  5
11C
330
C8
100
AcDbEntity
  8
0
100
AcDbCircle
 10
0.2797329688725796
 20
0.4919938439288618
 30
0.0
 40
0.01
100
AcDbArc
 50
90.0
 51
180.0
  0
LINE
  5
11D
330
C8
100
AcDbEntity
  8
0
100
AcDbLine
 10
2.022517663017648
 20
0.6843450835967407
 30
0.0
 11
1.925718539468796
 21
0.2597709733065994
 31
0.0
  0
ARC
  5
11E
330
C8
100
AcDbEntity
  8
0
100
AcDbCircle
 10
1.033445423093482
 20
-1.623006156071138
 30
0.0
 40
2.561999999999999
100
AcDbArc
 50
68.19496909184923
 51
90.0
  0
LINE
  5
11F
330
C8
100
AcDbEntity
  8
0
100
AcDbLine
 10
1.798945423093481
 20
0.2619938439288614
 30
0.0
 11
1.798945423093481
 21
0.4919938439288618
 31
0.0
  0
LINE
  5
120
330
C8
100
AcDbEntity
  8
0
100
AcDbLine
 10
1.915968726845125
 20
0.2519938439288598
 30
0.0
 11
1.808945423093479
 21
0.2519938439288598
 31
0.0
  0
ARC
  5
121
330
C8
100
AcDbEntity
  8
0
100
AcDbCircle
 10
1.808945423093479
 20
0.2619938439288614
 30
0.0
 40
0.01
100
AcDbArc
 50
180.0
 51
270.0
  0
ARC
  5
122
330
C8
100
AcDbEntity
  8
0
100
AcDbCircle
 10
1.915968726845125
 20
0.2619938439288614
 30
0.0
 40
0.01
100
AcDbArc
 50
270.0
 51
347.1566012322699
  0
LINE
  5
123
330
C8
100
AcDbEntity
  8
0
100
AcDbLine
 10
1.78894542309348
 20
0.5019938439288599
 30
0.0
 11
1.033445423093482
 21
0.5019938439288599
 31
0.0
  0
LINE
  5
124
330
C8
100
AcDbEntity
  8
0
100
AcDbLine
 10
1.03523296887258
 20
0.9389938439288609
 30
0.0
 11
1.034339195983029
 21
0.9389938439288609
 31
0.0
  0
LINE
  5
125
330
C8
100
AcDbEntity
  8
0
100
AcDbLine
 10
1.033445423093482
 20
0.9389938439288609
 30
0.0
 11
1.034339195983029
 21
0.9389938439288609
 31
0.0
  0
ARC
  5
126
330
C8
100
AcDbEntity
  8
0
100
AcDbCircle
 10
1.78894542309348
 20
0.4919938439288618
 30
0.0
 40
0.01
100
AcDbArc
 50
0.000000000000007
 51
90.0
  0
ARC
  5
127
330
C8
100
AcDbEntity
  8
0
100
AcDbCircle
 10
1.96206882475089
 20
0.6981268814547637
 30
0.0
 40
0.062
100
AcDbArc
 50
347.1566012322698
 51
68.19496909184945
  0
ENDBLK
  5
128
330
C8
100
AcDbEntity
  8
0
100
AcDbBlockEnd
  0
BLOCK
  5
129
330
D7
100
AcDbEntity
  8
0
100
AcDbBlockBegin
  2
*D1
 70
     1
 10
0.0
 20
0.0
 30
0.0
  3
*D1
  1

  0
LINE
  5
12A
330
D7
100
AcDbEntity
  8
0
  6
BYBLOCK
 62
     0
100
AcDbLine
 10
45.11424324702484
 20
-8.657349880754336
 30
0.0
 11
44.54686823401586
 21
-8.657349880754336
 31
0.0
  0
LINE
  5
12B
330
D7
100
AcDbEntity
  8
0
  6
BYBLOCK
 62
     0
100
AcDbLine
 10
43.74667525325603
 20
-11.163532149679
 30
0.0
 11
44.90686823401587
 21
-11.163532149679
 31
0.0
  0
LINE
  5
12C
330
D7
100
AcDbEntity
  8
0
  6
BYBLOCK
 62
     0
100
AcDbLine
 10
44.72686823401587
 20
-8.657349880754336
 30
0.0
 11
44.72686823401587
 21
-9.514607681883338
 31
0.0
  0
LINE
  5
12D
330
D7
100
AcDbEntity
  8
0
  6
BYBLOCK
 62
     0
100
AcDbLine
 10
44.72686823401587
 20
-11.163532149679
 30
0.0
 11
44.72686823401587
 21
-10.30627434855
 31
0.0
  0
LINE
  5
12E
330
D7
100
AcDbEntity
  8
0
  6
BYBLOCK
 62
     0
100
AcDbLine
 10
44.85186823401586
 20
-8.782349880754336
 30
0.0
 11
44.60186823401587
 21
-8.532349880754336
 31
0.0
  0
LINE
  5
12F
330
D7
100
AcDbEntity
  8
0
  6
BYBLOCK
 62
     0
100
AcDbLine
 10
44.85186823401586
 20
-11.288532149679
 30
0.0
 11
44.60186823401587
 21
-11.03853214967901
 31
0.0
  0
TEXT
  5
130
330
D7
100
AcDbEntity
  8
0
  6
BYBLOCK
 62
     0
100
AcDbText
 10
44.78936823401586
 20
-10.18127434855
 30
0.0
 40
0.125
  1
2 1/2
 50
90.0
 72
     1
 11
44.72686823401587
 21
-9.910441015216672
 31
0.0
100
AcDbText
 73
     2
  0
POINT
  5
132
330
D7
100
AcDbEntity
  8
DEFPOINTS
  6
BYBLOCK
 62
     0
100
AcDbPoint
 10
45.17674324702484
 20
-8.657349880754336
 30
0.0
  0
POINT
  5
133
330
D7
100
AcDbEntity
  8
DEFPOINTS
  6
BYBLOCK
 62
     0
100
AcDbPoint
 10
43.68417525325603
 20
-11.163532149679
 30
0.0
  0
POINT
  5
134
330
D7
100
AcDbEntity
  8
DEFPOINTS
  6
BYBLOCK
 62
     0
100
AcDbPoint
 10
44.72686823401587
 20
-11.163532149679
 30
0.0
  0
ENDBLK
  5
135
330
D7
100
AcDbEntity
  8
0
100
AcDbBlockEnd
  0
BLOCK
  5
136
330
D8
100
AcDbEntity
  8
0
100
AcDbBlockBegin
  2
*D2
 70
     1
 10
0.0
 20
0.0
 30
0.0
  3
*D2
  1

  0
LINE
  5
137
330
D8
100
AcDbEntity
  8
0
  6
BYBLOCK
 62
     0
100
AcDbLine
 10
43.26221492993473
 20
-7.064761210620297
 30
0.0
 11
45.17674324702485
 21
-8.657349880754338
 31
0.0
  0
LINE
  5
138
330
D8
100
AcDbEntity
  8
0
  6
BYBLOCK
 62
     0
100
AcDbLine
 10
43.08617836681573
 20
-7.080920679833427
 30
0.0
 11
43.43825149305373
 21
-7.048601741407169
 31
0.0
  0
TEXT
  5
139
330
D8
100
AcDbEntity
  8
0
  6
BYBLOCK
 62
     0
100
AcDbText
 10
45.23287198971444
 20
-8.785337435790308
 30
0.0
 40
0.125
  1
R2 1/2
 50
320.2448299299768
 72
     1
 11
45.52910263963375
 21
-8.950457886248438
 31
0.0
100
AcDbText
 73
     2
  0
POINT
  5
13A
330
D8
100
AcDbEntity
  8
DEFPOINTS
  6
BYBLOCK
 62
     0
100
AcDbPoint
 10
43.26221492993473
 20
-7.064761210620297
 30
0.0
  0
POINT
  5
13B
330
D8
100
AcDbEntity
  8
DEFPOINTS
  6
BYBLOCK
 62
     0
100
AcDbPoint
 10
45.18417525325603
 20
-8.66353214967901
 30
0.0
  0
ENDBLK
  5
13C
330
D8
100
AcDbEntity
  8
0
100
AcDbBlockEnd
  0
BLOCK
  5
13D
330
FE
100
AcDbEntity
  8
0
100
AcDbBlockBegin
  2
*D3
 70
     1
 10
0.0
 20
0.0
 30
0.0
  3
*D3
  1

  0
LINE
  5
13E
330
FE
100
AcDbEntity
  8
0
  6
BYBLOCK
 62
     0
100
AcDbLine
 10
41.69510301333185
 20
-12.44668445955962
 30
0.0
 11
41.69510301333185
 21
-11.88928226579266
 31
0.0
  0
LINE
  5
13F
330
FE
100
AcDbEntity
  8
0
  6
BYBLOCK
 62
     0
100
AcDbLine
 10
43.69510301333185
 20
-12.44668445955962
 30
0.0
 11
43.69510301333185
 21
-11.88928226579266
 31
0.0
  0
LINE
  5
140
330
FE
100
AcDbEntity
  8
0
  6
BYBLOCK
 62
     0
100
AcDbLine
 10
41.69510301333185
 20
-12.06928226579266
 30
0.0
 11
42.52843634666519
 21
-12.06928226579266
 31
0.0
  0
LINE
  5
141
330
FE
100
AcDbEntity
  8
0
  6
BYBLOCK
 62
     0
100
AcDbLine
 10
43.69510301333185
 20
-12.06928226579266
 30
0.0
 11
42.86176967999852
 21
-12.06928226579266
 31
0.0
  0
LINE
  5
142
330
FE
100
AcDbEntity
  8
0
  6
BYBLOCK
 62
     0
100
AcDbLine
 10
41.57010301333186
 20
-12.19428226579267
 30
0.0
 11
41.82010301333185
 21
-11.94428226579266
 31
0.0
  0
LINE
  5
143
330
FE
100
AcDbEntity
  8
0
  6
BYBLOCK
 62
     0
100
AcDbLine
 10
43.57010301333185
 20
-12.19428226579267
 30
0.0
 11
43.82010301333186
 21
-11.94428226579266
 31
0.0
  0
TEXT
  5
144
330
FE
100
AcDbEntity
  8
0
  6
BYBLOCK
 62
     0
100
AcDbText
 10
42.65343634666519
 20
-12.13178226579266
 30
0.0
 40
0.125
  1
2
 72
     1
 11
42.69510301333186
 21
-12.06928226579266
 31
0.0
100
AcDbText
 73
     2
  0
POINT
  5
145
330
FE
100
AcDbEntity
  8
DEFPOINTS
  6
BYBLOCK
 62
     0
100
AcDbPoint
 10
41.69510301333185
 20
-12.50918445955962
 30
0.0
  0
POINT
  5
146
330
FE
100
AcDbEntity
  8
DEFPOINTS
  6
BYBLOCK
 62
     0
100
AcDbPoint
 10
43.69510301333185
 20
-12.50918445955962
 30
0.0
  0
POINT
  5
147
330
FE
100
AcDbEntity
  8
DEFPOINTS
  6
BYBLOCK
 62
     0
100
AcDbPoint
 10
43.69510301333185
 20
-12.06928226579266
 30
0.0
  0
ENDBLK
  5
148
330
FE
100
AcDbEntity
  8
0
100
AcDbBlockEnd
  0
BLOCK
  5
149
330
FF
100
AcDbEntity
  8
0
100
AcDbBlockBegin
  2
*D4
 70
     1
 10
0.0
 20
0.0
 30
0.0
  3
*D4
  1

  0
LINE
  5
14A
330
FF
100
AcDbEntity
  8
0
  6
BYBLOCK
 62
     0
100
AcDbLine
 10
41.91574632106789
 20
-13.00110676703936
 30
0.0
 11
41.91574632106789
 21
-13.35561408728231
 31
0.0
  0
LINE
  5
14B
330
FF
100
AcDbEntity
  8
0
  6
BYBLOCK
 62
     0
100
AcDbLine
 10
43.44788770747692
 20
-12.99403569922749
 30
0.0
 11
43.44788770747692
 21
-13.35561408728231
 31
0.0
  0
LINE
  5
14C
330
FF
100
AcDbEntity
  8
0
  6
BYBLOCK
 62
     0
100
AcDbLine
 10
41.91574632106789
 20
-13.17561408728232
 30
0.0
 11
42.24431701427241
 21
-13.17561408728232
 31
0.0
  0
LINE
  5
14D
330
FF
100
AcDbEntity
  8
0
  6
BYBLOCK
 62
     0
100
AcDbLine
 10
43.44788770747692
 20
-13.17561408728232
 30
0.0
 11
43.11931701427241
 21
-13.17561408728232
 31
0.0
  0
LINE
  5
14E
330
FF
100
AcDbEntity
  8
0
  6
BYBLOCK
 62
     0
100
AcDbLine
 10
41.79074632106789
 20
-13.30061408728232
 30
0.0
 11
42.04074632106789
 21
-13.05061408728231
 31
0.0
  0
LINE
  5
14F
330
FF
100
AcDbEntity
  8
0
  6
BYBLOCK
 62
     0
100
AcDbLine
 10
43.32288770747692
 20
-13.30061408728232
 30
0.0
 11
43.57288770747692
 21
-13.05061408728231
 31
0.0
  0
TEXT
  5
150
330
FF
100
AcDbEntity
  8
0
  6
BYBLOCK
 62
     0
100
AcDbText
 10
42.3693170142724
 20
-13.23811408728231
 30
0.0
 40
0.125
  1
1 9/16
 72
     1
 11
42.6818170142724
 21
-13.17561408728232
 31
0.0
100
AcDbText
 73
     2
  0
POINT
  5
151
330
FF
100
AcDbEntity
  8
DEFPOINTS
  6
BYBLOCK
 62
     0
100
AcDbPoint
 10
41.91574632106789
 20
-12.93860676703936
 30
0.0
  0
POINT
  5
152
330
FF
100
AcDbEntity
  8
DEFPOINTS
  6
BYBLOCK
 62
     0
100
AcDbPoint
 10
43.44788770747692
 20
-12.9315356992275
 30
0.0
  0
POINT
  5
153
330
FF
100
AcDbEntity
  8
DEFPOINTS
  6
BYBLOCK
 62
     0
100
AcDbPoint
 10
43.44788770747692
 20
-13.17561408728232
 30
0.0
  0
ENDBLK
  5
154
330
FF
100
AcDbEntity
  8
0
100
AcDbBlockEnd
  0
ENDSEC
  0
SECTION
  2
ENTITIES
  0
ARC
  5
155
330
1E
100
AcDbEntity
  8
ADP1DETAIL
100
AcDbCircle
 10
45.18417525325602
 20
-8.663532149679006
 30
0.0
 40
3.5
100
AcDbArc
 50
90.0
 51
180.0
  0
LINE
  5
156
330
1E
100
AcDbEntity
  8
ADP3DETAIL
  6
CENTER2
100
AcDbLine
 10
42.68417525325602
 20
-8.66353214967901
 30
0.0
 11
42.68417525325602
 21
-11.53268317336557
 31
0.0
  0
DIMENSION
  5
157
330
1E
100
AcDbEntity
  8
ADPDIM
100
AcDbDimension
  2
*D1
 10
44.72686823401587
 20
-11.163532149679
 30
0.0
 11
44.72686823401587
 21
-9.910441015216672
 31
0.0
100
AcDbAlignedDimension
 13
45.17674324702484
 23
-8.657349880754336
 33
0.0
 14
43.68417525325603
 24
-11.163532149679
 34
0.0
 50
90.0
100
AcDbRotatedDimension
  0
LINE
  5
158
330
1E
100
AcDbEntity
  8
ADP1DETAIL
100
AcDbLine
 10
43.68417525325603
 20
-8.66353214967901
 30
0.0
 11
43.68417525325603
 21
-11.163532149679
 31
0.0
  0
LINE
  5
159
330
1E
100
AcDbEntity
  8
ADP1DETAIL
100
AcDbLine
 10
41.68417525325603
 20
-11.163532149679
 30
0.0
 11
41.68417525325603
 21
-8.663532149679006
 31
0.0
  0
INSERT
  5
15A
330
1E
100
AcDbEntity
  8
ADP1DETAIL
100
AcDbBlockReference
  2
6985
 10
41.64894228438345
 20
-13.19352954315636
 30
0.0
  0
DIMENSION
  5
15B
330
1E
100
AcDbEntity
  8
ADPDIM
100
AcDbDimension
  2
*D4
 10
43.44788770747692
 20
-13.17561408728232
 30
0.0
 11
42.6818170142724
 21
-13.17561408728232
 31
0.0
100
AcDbAlignedDimension
 13
41.91574632106789
 23
-12.93860676703936
 33
0.0
 14
43.44788770747692
 24
-12.9315356992275
 34
0.0
100
AcDbRotatedDimension
  0
DIMENSION
  5
15C
330
1E
100
AcDbEntity
  8
ADPDIM
100
AcDbDimension
  2
*D3
 10
43.69510301333185
 20
-12.06928226579266
 30
0.0
 11
42.69510301333186
 21
-12.06928226579266
 31
0.0
100
AcDbAlignedDimension
 13
41.69510301333185
 23
-12.50918445955962
 33
0.0
 14
43.69510301333185
 24
-12.50918445955962
 34
0.0
100
AcDbRotatedDimension
  0
LINE
  5
15D
330
1E
100
AcDbEntity
  8
ADP1DETAIL
100
AcDbLine
 10
43.68417525325603
 20
-11.163532149679
 30
0.0
 11
41.68417525325603
 21
-11.163532149679
 31
0.0
  0
LINE
  5
15E
330
1E
100
AcDbEntity
  8
ADP3DETAIL
  6
CENTER2
100
AcDbLine
 10
45.18417525325602
 20
-6.163532149679006
 30
0.0
 11
48.03063586379133
 21
-6.163532149679006
 31
0.0
  0
DIMENSION
  5
15F
330
1E
100
AcDbEntity
  8
ADPDIM
100
AcDbDimension
  2
*D2
 10
45.18417525325603
 20
-8.66353214967901
 30
0.0
 11
45.52910263963375
 21
-8.950457886248438
 31
0.0
 70
     4
100
AcDbRadialDimension
 15
43.26221492993473
 25
-7.064761210620297
 35
0.0
 40
-2.490332778802711
  0
LINE
  5
160
330
1E
100
AcDbEntity
  8
ADP1DETAIL
100
AcDbLine
 10
45.18417525325602
 20
-5.163532149679014
 30
0.0
 11
47.68417525325602
 21
-5.163532149679014
 31
0.0
  0
LINE
  5
161
330
1E
100
AcDbEntity
  8
ADP1DETAIL
100
AcDbLine
 10
47.68417525325602
 20
-7.163532149679006
 30
0.0
 11
45.18417525325602
 21
-7.163532149679006
 31
0.0
  0
ARC
  5
162
330
1E
100
AcDbEntity
  8
ADP3DETAIL
  6
CENTER2
100
AcDbCircle
 10
45.18417525325602
 20
-8.663532149679006
 30
0.0
 40
2.5
100
AcDbArc
 50
90.0
 51
180.0
  0
ARC
  5
163
330
1E
100
AcDbEntity
  8
ADP1DETAIL
100
AcDbCircle
 10
45.18417525325602
 20
-8.663532149679006
 30
0.0
 40
1.5
100
AcDbArc
 50
90.0
 51
179.9999999999999
  0
LINE
  5
164
330
1E
100
AcDbEntity
  8
ADP1DETAIL
100
AcDbLine
 10
47.68417525325602
 20
-5.163532149679014
 30
0.0
 11
47.68417525325602
 21
-7.163532149679006
 31
0.0
  0
TEXT
  5
168
330
1E
100
AcDbEntity
  8
ADPDIM
100
AcDbText
 10
34.80427099302855
 20
-14.05491161642139
 30
0.0
 40
0.1875
  1
J U L I U S  B L U M  &  C O . ,  I N C .      ( 8 0 0 )  5 2 6 - 6 2 9 3        W W W . J U L I U S B L U M . C O M        P A R T  N o .  6 9 8 5 - C
 41
1.25
  7
ARIAL_WIDE
 72
     1
 11
44.85657637331505
 21
-13.86741161642139
 31
0.0
100
AcDbText
 73
     3
  0
ENDSEC
  0
SECTION
  2
OBJECTS
  0
DICTIONARY
  5
C
330
0
100
AcDbDictionary
  3
ACAD_GROUP
350
D
  3
ACAD_LAYOUT
350
19
  3
ACAD_MLINESTYLE
350
16
  3
ACAD_PLOTSETTINGS
350
18
  3
ACAD_PLOTSTYLENAME
350
E
  3
ACDBHEADERROUNDTRIPXREC
350
2FB
  3
ACDBVARIABLEDICTIONARY
350
1D9
  0
DICTIONARY
  5
1A4
330
1E
100
AcDbDictionary
280
     1
  3
ACAD_LAYOUTSELFREF
360
31D
  0
DICTIONARY
  5
1A6
330
1A
100
AcDbDictionary
280
     1
  3
ACAD_LAYOUTSELFREF
360
31C
  0
DICTIONARY
  5
D
102
{ACAD_REACTORS
330
C
102
}
330
C
100
AcDbDictionary
  0
DICTIONARY
  5
19
102
{ACAD_REACTORS
330
C
102
}
330
C
100
AcDbDictionary
  0
DICTIONARY
  5
16
102
{ACAD_REACTORS
330
C
102
}
330
C
100
AcDbDictionary
  3
STANDARD
350
17
  0
DICTIONARY
  5
18
102
{ACAD_REACTORS
330
C
102
}
330
C
100
AcDbDictionary
  0
ACDBDICTIONARYWDFLT
  5
E
102
{ACAD_REACTORS
330
C
102
}
330
C
100
AcDbDictionary
281
     1
  3
Normal
350
F
100
AcDbDictionaryWithDefault
340
F
  0
DICTIONARY
  5
2FB
102
{ACAD_REACTORS
330
C
102
}
330
C
100
AcDbDictionary
  3
CEPSNTYPE
350
305
  3
DIMSTYLEDATA
350
309
  3
FINGERPRINTGUID
350
306
  3
HYPERLINKBASE
350
2FE
  3
INSUNITS
350
304
  3
LAYOUTDICT
350
300
  3
LWETCUNION
350
303
  3
PLOTSETDICT
350
301
  3
PLOTSTYLNAMDICT
350
302
  3
PSVPSCALE
350
308
  3
PUCSBASE
350
30C
  3
PUCSORGBACK
350
312
  3
PUCSORGBOTTOM
350
30E
  3
PUCSORGFRONT
350
311
  3
PUCSORGLEFT
350
30F
  3
PUCSORGRIGHT
350
310
  3
PUCSORGTOP
350
30D
  3
PUCSORTHOREF
350
30A
  3
PUCSORTHOVIEW
350
30B
  3
STYLESHEET
350
2FF
  3
TSTACKALIGN
350
2FC
  3
TSTACKSIZE
350
2FD
  3
UCSBASE
350
315
  3
UCSORGBACK
350
31B
  3
UCSORGBOTTOM
350
317
  3
UCSORGFRONT
350
31A
  3
UCSORGLEFT
350
318
  3
UCSORGRIGHT
350
319
  3
UCSORGTOP
350
316
  3
UCSORTHOREF
350
313
  3
UCSORTHOVIEW
350
314
  3
VERSIONGUID
350
307
  0
DICTIONARY
  5
1D9
102
{ACAD_REACTORS
330
C
102
}
330
C
100
AcDbDictionary
  3
DIMASSOC
350
1DB
  3
HIDETEXT
350
1DA
  0
XRECORD
  5
31D
102
{ACAD_REACTORS
330
1A4
102
}
330
1A4
100
AcDbXrecord
340
1E
  0
XRECORD
  5
31C
102
{ACAD_REACTORS
330
1A6
102
}
330
1A6
100
AcDbXrecord
340
1A
  0
MLINESTYLE
  5
17
102
{ACAD_REACTORS
330
16
102
}
330
16
100
AcDbMlineStyle
  2
STANDARD
 70
     0
  3

 62
   256
 51
90.0
 52
90.0
 71
     2
 49
0.5
 62
   256
  6
BYLAYER
 49
-0.5
 62
   256
  6
BYLAYER
  0
ACDBPLACEHOLDER
  5
F
102
{ACAD_REACTORS
330
E
102
}
330
E
100
AcDbPlaceHolder
280
     0
  0
XRECORD
  5
305
102
{ACAD_REACTORS
330
2FB
102
}
330
2FB
100
AcDbXrecord
 90
        0
  0
XRECORD
  5
309
102
{ACAD_REACTORS
330
2FB
102
}
330
2FB
100
AcDbXrecord
1000
DSTYLE
1002
{
1070
   277
 70
     5
1070
   279
 70
     2
1002
}
  0
XRECORD
  5
306
102
{ACAD_REACTORS
330
2FB
102
}
330
2FB
100
AcDbXrecord
  1
{85053102-597F-4222-9021-2777A8BE9BB2}
  0
XRECORD
  5
2FE
102
{ACAD_REACTORS
330
2FB
102
}
330
2FB
100
AcDbXrecord
  1

  0
XRECORD
  5
304
102
{ACAD_REACTORS
330
2FB
102
}
330
2FB
100
AcDbXrecord
 90
        0
  0
XRECORD
  5
300
102
{ACAD_REACTORS
330
2FB
102
}
330
2FB
100
AcDbXrecord
340
19
  0
XRECORD
  5
303
102
{ACAD_REACTORS
330
2FB
102
}
330
2FB
100
AcDbXrecord
 90
    14877
  0
XRECORD
  5
301
102
{ACAD_REACTORS
330
2FB
102
}
330
2FB
100
AcDbXrecord
340
18
  0
XRECORD
  5
302
102
{ACAD_REACTORS
330
2FB
102
}
330
2FB
100
AcDbXrecord
340
E
  0
XRECORD
  5
308
102
{ACAD_REACTORS
330
2FB
102
}
330
2FB
100
AcDbXrecord
 40
0.0
  0
XRECORD
  5
30C
102
{ACAD_REACTORS
330
2FB
102
}
330
2FB
100
AcDbXrecord
340
0
  0
XRECORD
  5
312
102
{ACAD_REACTORS
330
2FB
102
}
330
2FB
100
AcDbXrecord
 10
0.0
 20
0.0
 30
0.0
  0
XRECORD
  5
30E
102
{ACAD_REACTORS
330
2FB
102
}
330
2FB
100
AcDbXrecord
 10
0.0
 20
0.0
 30
0.0
  0
XRECORD
  5
311
102
{ACAD_REACTORS
330
2FB
102
}
330
2FB
100
AcDbXrecord
 10
0.0
 20
0.0
 30
0.0
  0
XRECORD
  5
30F
102
{ACAD_REACTORS
330
2FB
102
}
330
2FB
100
AcDbXrecord
 10
0.0
 20
0.0
 30
0.0
  0
XRECORD
  5
310
102
{ACAD_REACTORS
330
2FB
102
}
330
2FB
100
AcDbXrecord
 10
0.0
 20
0.0
 30
0.0
  0
XRECORD
  5
30D
102
{ACAD_REACTORS
330
2FB
102
}
330
2FB
100
AcDbXrecord
 10
0.0
 20
0.0
 30
0.0
  0
XRECORD
  5
30A
102
{ACAD_REACTORS
330
2FB
102
}
330
2FB
100
AcDbXrecord
340
0
  0
XRECORD
  5
30B
102
{ACAD_REACTORS
330
2FB
102
}
330
2FB
100
AcDbXrecord
 70
     0
  0
XRECORD
  5
2FF
102
{ACAD_REACTORS
330
2FB
102
}
330
2FB
100
AcDbXrecord
  1

  0
XRECORD
  5
2FC
102
{ACAD_REACTORS
330
2FB
102
}
330
2FB
100
AcDbXrecord
 90
        1
  0
XRECORD
  5
2FD
102
{ACAD_REACTORS
330
2FB
102
}
330
2FB
100
AcDbXrecord
 90
       70
  0
XRECORD
  5
315
102
{ACAD_REACTORS
330
2FB
102
}
330
2FB
100
AcDbXrecord
340
0
  0
XRECORD
  5
31B
102
{ACAD_REACTORS
330
2FB
102
}
330
2FB
100
AcDbXrecord
 10
0.0
 20
0.0
 30
0.0
  0
XRECORD
  5
317
102
{ACAD_REACTORS
330
2FB
102
}
330
2FB
100
AcDbXrecord
 10
0.0
 20
0.0
 30
0.0
  0
XRECORD
  5
31A
102
{ACAD_REACTORS
330
2FB
102
}
330
2FB
100
AcDbXrecord
 10
0.0
 20
0.0
 30
0.0
  0
XRECORD
  5
318
102
{ACAD_REACTORS
330
2FB
102
}
330
2FB
100
AcDbXrecord
 10
0.0
 20
0.0
 30
0.0
  0
XRECORD
  5
319
102
{ACAD_REACTORS
330
2FB
102
}
330
2FB
100
AcDbXrecord
 10
0.0
 20
0.0
 30
0.0
  0
XRECORD
  5
316
102
{ACAD_REACTORS
330
2FB
102
}
330
2FB
100
AcDbXrecord
 10
0.0
 20
0.0
 30
0.0
  0
XRECORD
  5
313
102
{ACAD_REACTORS
330
2FB
102
}
330
2FB
100
AcDbXrecord
340
0
  0
XRECORD
  5
314
102
{ACAD_REACTORS
330
2FB
102
}
330
2FB
100
AcDbXrecord
 70
     0
  0
XRECORD
  5
307
102
{ACAD_REACTORS
330
2FB
102
}
330
2FB
100
AcDbXrecord
  1
{D86DA829-FB92-45DE-AA52-B4EB1F9DC3C1}
  0
DICTIONARYVAR
  5
1DB
102
{ACAD_REACTORS
330
1D9
102
}
330
1D9
100
DictionaryVariables
280
     0
  1
2
  0
DICTIONARYVAR
  5
1DA
102
{ACAD_REACTORS
330
1D9
102
}
330
1D9
100
DictionaryVariables
280
     0
  1
1
  0
ENDSEC
  0
EOF
